#TITLE:Stratoliner;
#ARTIST:C-Show;
#ORIGIN:WACCA;
#BANNER:Stratoliner.png;
#BACKGROUND:Stratoliner-bg.png;
#CDTITLE:./CDTitles/WACCA.png;
#MUSIC:Stratoliner.ogg;
#SAMPLESTART:23.314;
#SAMPLELENGTH:15;
#BPMS:0=175,196=87.5,228=175;
#STAGE:28;

//--------------- dance-single - Fred-104 ----------------
#NOTES:
     dance-single:
     Fred-104:
     Beginner:
     3:
     :
0000
0000
0000
0000
,
0000
0000
0000
0000
,
0000
0000
0000
0000
,
0000
0000
0000
0000
,
0000
0000
0000
0000
,
1001
0000
0000
0000
,
2000
0000
3000
0000
,
1001
0000
0000
0000
,
0110
0000
0000
0000
,
1001
0000
0000
0000
,
0000
0000
0000
0000
,
0000
0000
0000
0000
,
0000
0000
0000
0000
,
2000
0000
3000
0000
,
0002
0000
0003
0000
,
2000
3000
0002
0003
,
1000
0000
0000
0000
,
0001
0000
0000
0000
,
1000
0000
0010
0000
,
1000
0000
0000
0000
,
0001
0000
1000
0000
,
0001
0000
0000
0000
,
0100
0000
0001
0000
,
0010
0000
0000
0000
,
0001
0000
1000
0000
,
0001
0000
0000
0000
,
1000
0000
0010
0000
,
1000
0000
0000
0000
,
0100
0000
1000
0000
,
0001
0000
0000
0000
,
0100
0000
0001
0000
,
0100
0000
0000
0000
,
0001
0000
0000
0000
,
2000
0000
0000
0000
,
3000
0000
0000
0000
,
0002
0000
0000
0000
,
0003
0000
0000
0000
,
1000
0000
1000
0000
,
0001
0000
0001
0000
,
1000
0000
1000
0000
,
0001
0000
0001
0000
,
1001
0000
0000
0000
,
0000
0000
0000
0000
,
0110
0000
0000
0000
,
0000
0000
0000
0000
,
1001
0000
0000
0000
,
0001
0000
0000
0000
,
2002
0000
0000
0000
,
0000
0000
3003
0000
,
1000
0000
1000
1000
,
0010
0000
0100
0100
,
0010
0000
0100
0100
,
0001
0000
1000
0001
,
1000
0000
0001
0100
,
0001
0000
1000
0010
,
1000
0000
0100
1000
,
0100
1000
0001
1000
,
1001
0000
0000
0000
,
0000
0000
0000
0000
,
0110
0000
0000
0000
,
0000
0000
0000
0000
,
1001
0000
0000
0000
,
0110
0000
0000
0000
,
2000
0000
0000
3000
,
0002
0000
0000
0003
,
1001
0000
0000
0000
,
1000
0000
0000
0000
,
0001
0000
1000
0000
,
0001
0000
1000
0000
,
0001
0000
0100
0000
,
0001
0000
0100
0000
,
0010
0000
0100
0000
,
0110
0000
0000
0000
,
0010
0000
1000
0000
,
0010
0000
1000
0000
,
0001
0000
1000
0000
,
0100
0000
1000
0000
,
0001
0000
1000
0000
,
0100
0000
1000
0000
,
0001
0000
0000
0000
,
1000
0000
0001
0000
,
2002
0000
0000
0000
,
3003
0000
0000
0000
;

//--------------- dance-single - Fred-104 ----------------
#NOTES:
     dance-single:
     Fred-104:
     Easy:
     7:
     :
0000
0000
0000
0000
,
0000
0000
0000
0000
,
0000
0000
0000
0000
,
0000
0000
0000
0000
,
0000
0000
0000
0000
,
1001
0000
0000
1000
0000
0000
1000
0000
,
0001
0000
0100
0010
,
0110
0000
0000
0100
0000
0000
0010
0000
,
1001
0000
1000
0000
0001
0100
0001
0000
,
1001
0000
0000
0000
,
0000
0000
0000
0000
,
0000
0000
0000
0000
,
0000
0000
0000
0000
,
0001
0000
0000
0000
,
1000
0000
0000
0000
,
0001
0000
1000
0000
,
2002
0000
0000
3003
,
1000
0000
0000
0100
0000
0000
1000
0000
,
0010
1000
0100
0010
,
0001
0000
0000
1000
0000
0000
0001
0000
,
0100
0010
0100
0001
,
1000
0000
0000
0100
0000
0000
0010
0000
,
0100
1000
0010
1000
,
0001
0000
0000
1000
0000
0000
0010
0000
,
1000
0000
0100
0000
0010
0100
0010
0000
,
0001
0000
0000
0001
0000
0000
0100
0000
,
0001
0010
0100
1000
,
1000
0000
0000
0010
0000
0000
1000
0000
,
0002
0203
0320
0230
,
0301
0000
0000
0100
0000
0000
0010
0000
,
0100
0010
1000
1000
,
0100
0000
0000
1000
0000
0000
0010
0000
,
0100
0001
1000
0001
,
1001
0000
0001
0000
,
0100
0000
0010
1000
,
0010
0000
1000
0000
,
0100
0000
0010
0001
,
0010
0001
1000
0001
,
1000
0100
1000
0010
,
1000
0001
0100
0010
,
1000
0001
1000
2000
,
3001
0001
0100
0100
,
0010
0010
1000
1000
,
0100
0100
0010
0010
,
0001
0001
1000
1000
,
0001
0100
0010
1000
,
0001
0100
0010
1000
,
0002
0203
0320
2030
,
3002
2003
3100
1100
,
1001
0101
0100
0110
,
0010
0000
1001
0000
0100
0000
1001
0001
,
0100
0110
1000
0110
,
0001
0001
1000
1000
0010
0010
0100
0001
,
1000
1100
0001
0101
,
1000
1010
0001
0011
,
1000
1001
0100
0110
,
0010
0010
0001
0001
1000
1000
0001
1000
,
1001
0000
0000
0000
,
0000
0000
0000
0000
,
0110
0000
0000
0000
,
0000
0000
0000
0000
,
1001
0000
0000
0000
,
0110
0000
0010
0000
,
1000
1000
0001
0001
,
2002
0000
0000
3003
,
2000
0000
0000
3020
0000
0000
0130
0000
,
0101
0000
0000
0001
0000
0000
0010
0000
,
0001
0000
0000
0100
0000
0000
0010
0000
,
0100
0010
1000
0100
,
1000
0000
0000
0010
0000
0000
1000
0000
,
0100
0000
0000
0010
0000
0000
0001
0000
,
0100
0000
0000
0010
0000
0000
0100
0000
,
0001
0010
0001
1000
,
0001
0000
0000
0010
0000
0000
0100
0000
,
1000
0000
0010
0000
1000
0100
1000
0000
,
0010
0000
0000
0100
0000
0000
0010
0000
,
1000
0000
0100
0000
0010
0001
0010
0000
,
0001
0000
0000
0100
0000
0000
0010
0000
,
0100
0000
0001
0000
1000
0010
1000
0000
,
0001
0100
0010
1000
,
0001
1000
0100
0010
,
2002
0000
0000
0000
,
3003
0000
0000
0000
;

//--------------- dance-single - Fred-104 ----------------
#NOTES:
     dance-single:
     Fred-104:
     Medium:
     12:
     :
0000
0000
0000
0000
,
0000
0000
0000
0000
,
0000
0000
0000
0000
,
0000
0000
0000
0000
,
0000
0000
0000
0000
,
1002
0000
0000
1003
0000
0000
0002
0000
0000
0000
0203
0000
0320
0000
0000
0000
,
1030
0100
1000
0000
0010
0100
0001
0000
,
0012
0000
0000
0103
0000
0000
0020
0000
0000
0000
0230
0000
0302
0000
0000
0000
,
1003
0100
0010
0001
1000
0010
0100
0000
,
1001
0000
0000
0000
,
0000
0000
0000
0000
,
0000
0000
0000
0000
,
0000
0000
0000
0000
,
0001
0001
0100
0100
,
0010
0010
1000
1000
,
0001
0100
0010
1000
,
0001
1000
0001
1001
,
1100
0000
0000
0100
0000
0000
0020
0000
0000
0000
0130
0000
1000
0000
0000
0000
,
1100
0000
0000
1000
0000
0000
1010
0000
0000
1000
0000
0000
1001
0000
0000
0000
,
0101
0000
0000
0001
0000
0000
0020
0000
0000
0000
0031
0000
1000
0000
0000
0000
,
0001
0100
0010
0100
0001
1000
0001
0000
,
1001
0000
0000
1000
0000
0000
0020
0000
0000
0000
0130
0000
0010
0000
0000
0000
,
1010
0000
0000
1000
0000
0000
1100
0000
0000
0100
0000
0000
0110
0000
0000
0000
,
0011
0000
0000
0001
0000
0000
2000
0000
0000
0000
3100
0000
1000
0000
0000
0000
,
0001
0100
1000
0100
0000
0001
1000
0000
,
0002
0000
0000
0203
0000
0000
0320
0000
1030
0000
0100
0000
1000
0000
0000
0000
,
1100
0000
0000
1100
0000
0000
1001
0000
0000
0101
0000
0000
0001
0000
1000
0000
,
0002
0000
0000
0023
0000
0000
0230
0000
0310
0000
0001
0000
1000
0000
0000
0000
,
1100
0110
1100
1001
,
2000
0000
0000
3020
0000
0000
2030
0000
3100
0000
0010
0000
0001
0000
0000
0000
,
0101
0000
0000
0101
0000
0000
1001
0000
0000
1010
0000
0000
1000
0000
0010
0000
,
0200
0000
0000
0302
0000
0000
2003
0000
3100
0000
0010
0000
0001
0000
0000
0000
,
1000
0010
0001
0010
0000
0100
0001
1000
,
1001
0000
0001
0000
0001
0000
0100
0010
,
0100
0000
0001
0000
1000
0010
1000
0010
,
0100
0000
0100
0000
0001
0000
0001
0010
,
0001
0000
0100
0000
0100
0010
1000
0010
,
1000
0000
0100
0000
0010
0000
0001
1000
,
0001
0000
0100
0000
0001
0010
0001
1000
,
0010
0000
0100
0000
0001
0000
1000
0100
,
0010
0000
0001
1000
0001
0000
2000
0000
,
3001
0000
1000
0000
0100
1000
0010
1000
,
0100
0000
0010
0000
0001
1000
0010
0100
,
0001
0000
1000
0000
0100
1000
0001
1000
,
0100
0000
0010
0000
0001
1000
0001
0100
,
0001
0001
0100
0100
,
0010
0010
1000
1000
,
0002
0000
2003
3200
2300
3020
0230
0302
,
2003
3002
2003
0000
3001
0000
1001
0000
,
0001
0010
0011
0001
1000
0100
0110
0010
,
0001
0000
1000
0000
1001
0000
0001
0000
0100
0000
0010
0000
1010
0000
1000
0001
,
1000
0100
0110
0001
1000
0001
0101
0010
,
1000
0000
1100
0000
0110
0000
1100
0000
1000
0010
1000
0000
0001
1000
0002
0000
,
0103
0101
1001
1000
1100
0010
0101
0010
,
1000
0000
1010
0000
1100
0000
0001
0000
0101
0000
1000
0000
0001
0100
0001
0000
,
0011
0000
1001
0000
1010
0000
1000
0001
1000
0000
1100
0000
1000
0010
0100
0001
,
1000
0000
1100
0000
0101
0000
1100
0000
1000
0100
0010
0000
0012
0000
1003
0001
,
1001
0000
0000
0000
,
0000
0000
0000
0000
,
0110
0000
0000
0000
,
0000
0000
0000
0000
,
1001
0001
0100
0010
,
1010
1000
0100
0010
,
0001
0100
0001
0000
1000
0010
1000
0000
,
2002
0000
0000
3003
,
2010
0000
0000
0010
0000
0000
3010
0000
0100
0000
0001
0000
1000
0000
0000
0000
,
1100
0000
0000
1100
0000
0000
0110
0000
0000
0011
0000
0000
0101
0000
0000
0000
,
0002
0000
0000
0023
0000
0000
0032
0000
1003
0000
0010
0000
0200
0000
0000
0000
,
0301
0010
1000
0000
0001
0100
1000
0000
,
0002
0000
0000
2003
0000
0000
3200
0000
0310
0000
0001
0000
1000
0000
0000
0000
,
1100
0000
0000
1100
0000
0000
1010
0000
0000
1010
0000
0000
1001
0000
0000
0000
,
0002
0000
0000
2003
0000
0000
3002
0000
0103
0000
0010
0000
1000
0000
0000
0000
,
0001
1000
0100
0010
0000
0001
1000
0001
,
0100
0000
0000
0110
0000
0000
0010
0000
1000
0000
0100
0000
1000
0000
0000
0000
,
0002
0000
0000
0023
0000
0000
0230
0000
0000
2300
0000
0000
3001
0000
0100
0000
,
0001
0000
0000
0011
0000
0000
0010
0000
0001
0000
1000
0000
0100
0000
0000
0000
,
1100
1001
0101
1001
,
1000
0000
0000
1100
0000
0000
0100
0000
1000
0000
0001
0000
0100
0000
0000
0000
,
0002
0000
0000
0023
0000
0000
0230
0000
0000
0320
0000
0000
0031
0000
1000
0000
,
0100
1000
0010
0000
1000
0010
0100
0000
,
0001
1000
0001
0100
0010
1000
0001
0000
,
2002
0000
0000
0000
,
3003
0000
0000
0000
;

//--------------- dance-single - Fred-104 ----------------
#NOTES:
     dance-single:
     Fred-104:
     Hard:
     15:
     :
0000
0000
0000
0000
,
0000
0000
0000
0000
,
0000
0000
0000
0000
,
0000
0000
0000
0000
,
0000
0000
0000
0000
,
1200
0000
0000
2300
0000
0000
3002
0000
0000
0000
0203
0000
0320
0000
0000
0000
,
0130
0000
0001
0000
0010
0000
0001
1000
0001
1000
0001
0000
1000
0000
0000
0000
,
2010
0000
0000
3020
0000
0000
0230
0000
0000
0000
0302
0000
0013
0000
0000
0000
,
1001
0000
0001
0000
0100
0000
0001
0010
0001
0000
1000
0000
0010
0000
1000
0000
,
1001
0000
0000
0000
,
0000
0000
0000
0000
,
0000
0000
0000
0000
,
0000
0000
0000
0000
,
1000
0001
0010
0001
1000
0010
0100
0001
,
0010
0001
1000
0001
0010
0100
0010
0001
,
1000
1000
0010
0100
0001
0001
0010
0100
,
1000
0000
0100
0000
0100
0000
0100
0000
1000
0001
1000
0001
1000
0000
0000
0000
,
1001
0000
0000
0010
0001
0000
0200
0000
0000
0000
0310
0000
1000
0000
0000
0000
,
1010
0000
0000
1001
0000
0000
1100
0000
0000
1001
0000
0000
0001
0000
0100
0000
,
0010
0000
0000
1000
0100
0000
0020
0000
0000
0000
0130
0000
1000
0000
0000
0000
,
0001
0000
0100
0010
0100
0000
0001
0000
1000
0001
1000
0000
0100
0000
1000
0000
,
0001
0000
0000
0100
0010
0000
0002
0000
0000
0000
0013
0000
0100
0000
0000
0000
,
0101
0000
0000
1001
0000
0000
1010
0000
0000
1100
0000
0000
1000
0000
0010
0000
,
1000
0000
0000
0100
0010
0000
2000
0000
0000
0000
3010
0000
0100
0000
0000
0000
,
1000
0000
0010
1000
0010
0000
0100
0000
0001
0000
0100
0010
0100
0000
0001
0000
,
1000
0000
0100
1000
0000
0100
0010
0000
0001
0000
1000
0000
0001
0000
0000
0000
,
1100
0000
0000
0110
0000
0000
0011
0000
0000
1001
0000
0000
1000
0000
0001
0000
,
1000
0000
0001
0100
0000
0001
0010
0000
0100
0000
0010
0000
0001
0000
0000
0000
,
0100
0000
0001
0010
0001
0000
0100
0000
0010
1000
0010
1000
0100
0000
1000
0000
,
0001
0000
1000
0010
0000
1000
0010
0000
0100
0000
0001
0000
0100
0000
0000
0000
,
0101
0000
0000
0110
0000
0000
1010
0000
0000
1100
0000
0000
0001
0000
1000
0000
,
0001
0000
0100
0010
0000
0100
0001
0000
1000
0000
0010
0000
1000
0000
0000
0000
,
0001
0000
1000
0000
0010
0000
0001
0000
0010
0100
0001
0100
0001
0000
1000
0000
,
1001
0000
0001
0000
0001
0000
0001
0001
,
1000
0000
1000
0000
1000
0100
0010
0001
,
0100
0000
0100
0000
0100
0000
0100
0100
,
0010
0000
0010
0000
0010
1000
0001
0100
,
0101
0000
0000
0000
0100
0000
0001
0010
0001
0000
1000
0000
0010
0000
0100
0000
,
0001
0000
0000
0000
0001
0000
0000
0000
1000
0010
0100
0000
0001
0010
0001
0000
,
0100
0000
0000
0000
0001
0000
1000
0100
1000
0000
0010
0000
0100
0000
0001
0000
,
0100
0000
0000
0000
0100
0000
0010
1000
0001
1000
0100
0000
0110
0000
0000
0000
,
0001
0000
0000
0100
0010
0000
0100
0000
0001
0000
0010
0000
0100
0010
0001
0000
,
1000
0000
0000
0010
0100
0000
0010
0000
1000
0000
0010
0000
0100
0010
1000
0000
,
0001
0000
0000
0010
0100
0000
1000
0000
0001
0000
1000
0000
0100
0010
0001
0000
,
1000
0000
0000
0001
0100
0000
0010
0000
1000
0010
1000
0000
0001
0100
0001
0000
,
1000
0000
0010
0000
1000
0000
0100
0000
0010
0000
0100
0000
1000
0000
0001
0100
,
0001
0000
0010
0000
0100
0000
1000
0000
0001
1000
0001
1000
0010
0100
0010
0100
,
0002
0000
2003
3200
0302
2003
3020
0032
,
2003
3002
0203
0000
0310
0000
0110
0000
,
1001
0000
0001
0100
0110
0010
1000
0000
0001
0001
0100
0100
0110
0010
0100
0001
,
1000
0000
1010
0000
1001
0001
0100
0010
0100
0100
0010
0010
1010
2000
3002
2003
,
3001
0000
0000
0001
0000
0000
0100
0000
0110
0000
0010
0000
1000
0000
0000
0000
0001
0000
1000
0001
1000
0000
0000
0000
0002
0000
0203
0000
2300
0000
3100
0000
,
0101
0000
0011
0000
1010
0000
0011
0001
1000
0010
0100
0001
0101
0000
2002
3003
,
1100
0000
0100
0010
0011
0001
1000
0000
0001
0100
0010
0100
0101
0001
1000
0001
,
1000
0000
1010
0000
1100
0100
1000
0001
0101
0100
0010
0100
0110
0020
2030
3001
,
1001
0000
0000
0000
0110
0000
0000
0000
1001
0000
0000
0000
1100
0000
0100
0000
0010
0000
0000
0000
0011
0000
0000
0000
0001
0000
1000
0010
1000
0000
0001
1000
,
0001
0000
0000
0000
0110
0000
0000
0000
1000
0010
1000
0000
0100
0000
1000
0001
1000
0000
0100
0000
0010
0000
0100
0000
1000
0000
0001
0000
0200
0000
0302
0003
,
1001
0000
0000
0000
,
0000
0000
0000
0000
,
0110
0000
0000
0000
,
0000
0000
0000
0000
,
1000
0000
0100
0000
0010
0000
0001
0000
0100
0000
0010
0000
0100
0000
0001
0010
,
0001
0000
0100
0000
0001
0000
1000
0000
0001
0000
0100
0000
0010
0000
1000
0010
,
1000
0000
0001
0010
0001
0000
1000
0100
1000
0000
0001
0100
0001
0000
1000
0001
,
2000
0000
0000
0001
0000
3000
1001
0000
,
2000
0000
0000
3200
0000
0000
2300
0000
0000
0000
3002
0000
0013
0000
0000
0000
,
0011
0000
0000
1001
0000
0000
1010
0000
0000
0101
0000
0000
1001
0000
0000
0000
,
1000
0000
0100
1000
0000
0010
0100
0000
0001
0100
0001
0000
0010
0000
0100
0000
,
0010
0000
0001
1000
0001
0000
0100
0000
0001
0010
0001
0000
1000
0000
0100
0000
,
1000
0000
0100
0010
0000
0001
0100
0000
0001
0010
0001
0000
1000
0000
0001
0000
,
1001
0000
0000
1100
0000
0000
0110
0000
0000
0011
0000
0000
0101
0000
0001
0000
,
0100
0000
0010
1000
0000
0010
0100
0000
0001
1000
0001
0000
0010
0000
0100
0000
,
1000
0000
0010
0000
0100
0000
0001
0000
1000
0000
0100
0010
0100
0010
0100
0000
,
1000
0000
0001
0010
0000
0001
0100
0000
0001
1000
0001
1000
0002
0000
0000
0000
,
1003
0100
0000
0010
0001
0000
1000
0010
0000
0100
0001
0000
1000
0000
0010
0000
,
0100
0000
0001
0010
0000
0001
0100
0000
0010
1000
0010
1000
0010
0000
1000
0000
,
1100
0101
1010
0011
,
1000
0000
0100
0010
0000
0001
1000
0000
0001
0100
0010
0100
0002
0000
0000
0000
,
1003
0001
0000
0010
0100
0000
1000
0001
0000
0010
0100
0000
1000
0000
0010
0000
,
0100
0000
0010
0000
1000
0000
0100
0000
0010
0000
0001
0000
0010
0000
0100
1000
,
0001
0000
0100
0000
0010
0000
0100
0000
0001
1000
0001
1000
0001
0000
1000
0000
,
2002
0000
0000
0000
,
3003
0000
0000
0000
;

//--------------- dance-single - Fred-104 ----------------
#NOTES:
     dance-single:
     Fred-104:
     Challenge:
     17:
     :
0000
0000
0000
0000
,
0000
0000
0000
0000
,
0000
0000
0000
0000
,
0000
0000
0000
0000
,
0000
0000
0000
0000
,
2200
3300
0000
0202
0303
0000
2020
0000
3030
0000
0110
0000
1001
0000
0000
0000
,
0001
0000
0100
0000
1000
0000
0001
0010
0001
0010
1000
0000
0001
0000
0100
0000
,
0202
0303
0000
0220
0330
0000
2020
0000
3030
0000
0110
0000
1001
0000
0000
0000
,
2100
0000
3100
0000
0001
0000
1000
0010
0001
0000
1000
0100
0001
1000
0010
0000
,
0011
0000
0000
0000
,
0000
0000
0000
0000
,
0000
0000
0000
0000
,
0000
0000
0000
0000
,
0001
0100
0001
0000
0010
0100
0010
0000
0001
0100
0001
0000
0100
0010
0100
0000
,
0001
0010
0001
0000
0010
0100
0010
0000
0001
0010
0001
0000
0100
0010
0100
0000
,
0001
0100
0001
0100
0010
0100
0001
0000
1000
0100
1000
0100
0010
0100
1000
0000
,
0001
0100
0010
1000
0001
0100
0010
1000
0001
1000
0001
1000
0001
0000
0000
0000
,
1000
0000
0001
0100
0001
0000
0010
0000
0100
1000
0001
0000
0101
0000
0000
0000
,
1000
0100
0000
0001
1000
0000
0010
0001
0000
0100
1000
0000
0001
0000
0010
0000
,
1000
0000
0001
0010
0001
0000
1000
0000
0100
0010
0100
0000
1100
0000
0000
0000
,
1000
0000
0100
0010
0001
0000
1000
0000
0100
0010
0001
1000
0100
0000
0010
0000
,
0001
0000
0100
0001
0010
0000
0100
0000
1000
0001
0100
0000
0110
0000
0000
0000
,
0001
0010
0000
1000
0001
0000
0100
1000
0000
0010
0001
0000
1000
0000
0100
0000
,
0001
0000
0010
0100
1000
0000
0001
0000
0100
0010
1000
0000
1010
0000
0000
0000
,
1001
0000
0001
0100
0010
0000
1000
0001
0010
0100
1000
0100
1000
0000
0010
0000
,
0100
0000
0001
0010
0000
0001
1000
0000
0001
0100
0010
0000
1010
0000
0000
0000
,
1000
0100
0000
0010
1000
0000
0010
0001
0000
1000
0010
0000
0100
0000
1000
0100
,
0001
0000
1000
0001
0000
0010
0100
0000
1000
0001
0010
0001
0100
0000
0010
1000
,
1001
0000
0000
0000
0110
0000
0000
0000
0001
1000
0001
1000
0001
0000
0100
0000
,
0001
0000
1000
0010
0000
0001
0010
0000
0100
0001
1000
0001
0010
0000
0000
0000
,
0001
0100
0000
1000
0001
0000
0010
1000
0000
0100
0001
0000
1000
0000
0010
0000
,
0001
0000
1000
0001
0000
1000
0100
0000
0001
0100
0001
0100
1000
0000
0000
0000
,
0001
0000
0010
0000
1000
0000
0001
0000
0100
1000
0100
1000
0001
0000
1000
0000
,
1001
0000
1001
0000
1001
0000
1000
0100
,
0110
0000
0110
0000
0010
0001
1000
0001
,
0101
0000
0101
0000
0101
0000
0001
0010
,
0110
0000
0110
0000
0100
1000
0001
0100
,
0001
0000
0010
0000
1000
0000
0010
0001
1000
0001
0100
0000
0010
0000
0100
0000
,
0001
0000
1000
0000
0100
0000
0010
1000
0010
0001
1000
0000
0001
0100
0010
1000
,
0001
0000
0100
0000
0010
0000
0001
0010
0001
0010
1000
0000
0001
1000
0100
1000
,
0001
0000
0010
0000
1000
0000
0001
0100
0001
0100
1000
0000
1001
0000
0000
0000
,
1100
0000
0000
0100
0010
0000
0001
0000
1000
0001
0100
0000
0001
0010
0100
1000
,
0001
0000
0000
0010
0100
0000
0010
0000
0001
1000
0010
1000
0100
1000
0010
0100
,
0001
0000
0000
0010
0100
0000
0001
0000
0100
0010
0001
0000
1000
0100
0010
0000
,
0100
0000
0000
1000
0010
0000
0100
0000
0001
0010
0100
1000
0100
0010
0001
0000
,
1001
0000
1000
0000
0010
0000
0010
0000
0100
0000
0100
0000
0001
0000
0001
0010
,
0100
0000
0100
0000
1000
0000
1000
0000
0001
0010
0100
1000
0010
0100
0001
0010
,
0200
0000
2300
3020
0032
2003
3200
0302
,
2003
0000
3020
0000
0032
0000
0000
0000
0103
0000
1000
0001
1000
0000
0100
0000
,
1100
0000
0100
0010
0011
0001
1000
0000
0001
0010
1000
0010
0011
0001
1000
0100
,
0110
0000
0101
0000
1001
0001
0100
0100
0010
0010
1000
1000
1100
0200
0320
0032
,
1003
0000
0010
0100
0000
0010
1000
0000
1001
0000
0001
0000
0100
0000
0000
0000
0001
0000
0100
1000
0100
0000
0010
0000
2010
0000
3100
0000
0010
0000
0001
0000
,
1001
0000
1010
0000
0011
0000
1010
1000
0001
0100
1000
0001
0010
1000
2002
3003
,
1010
0000
1100
0100
0110
0010
0001
0000
1000
0010
0001
0010
0110
0100
0001
1000
,
1001
0000
0000
0000
0110
0000
0000
0000
2100
0000
3010
0000
0100
0000
0001
0000
0120
0000
0031
0000
0010
0000
0100
0000
2001
0000
3010
0100
0010
0000
1000
0000
,
1010
0000
0000
0000
0000
0000
0011
0000
0000
0000
0000
0000
0101
0000
0000
0000
0000
0000
1100
0000
0000
1000
0000
0000
0001
0000
0000
0000
0000
0000
1001
0000
0000
0000
0000
0000
0001
0000
0000
1000
0100
1000
0001
0000
0000
0100
0010
1000
,
0001
0000
0000
0000
0000
0000
0000
0000
0000
0000
0000
0000
0000
0000
0000
0000
0000
0000
0000
0000
0000
0000
0000
0000
0101
0000
0000
0000
0000
0000
0000
0000
0000
0000
0000
0000
0001
0000
0000
0000
0000
0000
0010
0000
0000
0000
0000
0000
0001
0000
0000
0000
0000
0000
0100
0000
0000
0000
0000
0000
0001
0000
0000
0000
0000
0000
0010
0000
0000
0000
0000
0000
0100
0000
0000
0000
0000
0000
0010
0000
0000
0000
0000
0000
0001
0000
0000
0000
0000
0000
0000
0000
0000
0000
0000
0000
1000
0000
0000
0000
0000
0000
0010
0000
0000
0000
0000
0000
1000
0000
0000
0000
0000
0000
0000
0000
0000
0000
0000
0000
0001
0000
0000
0000
0000
0000
0100
0000
0000
0000
0000
0000
0001
0000
0000
0000
0000
0000
0000
0000
0000
0000
0000
0000
1000
0000
0000
0000
0000
0000
0100
0000
0000
0000
0000
0000
0010
0000
0000
0000
0000
0000
0000
0000
0000
0000
0000
0000
0002
0000
0000
0000
0000
0000
0000
0000
0000
0000
0000
0000
2003
0000
0000
0000
0000
0000
0000
0000
0000
0000
0000
3000
,
1001
0000
0000
0000
,
0000
0000
0000
0000
,
0110
0000
0000
0000
,
0000
0000
0000
0000
,
0001
0000
0100
0000
1000
0000
0100
0000
0001
0000
0010
0000
1000
0000
0010
0001
,
0100
0000
0010
0000
1000
0000
0100
0000
0010
0000
0001
0000
1000
0000
0001
0100
,
0001
0010
0001
0010
0100
1000
0100
1000
0001
0100
0001
0100
0010
1000
0010
1000
,
0001
0010
0100
1000
0001
0000
0100
0010
1000
0001
0010
0001
0100
0000
0000
0000
,
0220
0330
0000
2020
3030
0000
0202
0000
0303
0000
0011
0000
1001
0000
0000
0000
,
2200
3300
0000
0202
0303
0000
0022
0033
0000
2020
3030
0000
2002
0000
3003
0000
,
0001
0000
0010
0100
0000
1000
0010
0000
0100
0001
1000
0010
0200
0000
0000
0000
,
0301
0000
0010
1000
0010
0000
0001
0000
0100
1000
0100
0001
1000
0000
0001
0000
,
1000
0000
0100
0010
0000
0001
0010
0000
0100
0010
0100
1000
0002
0000
0000
0000
,
1003
0010
0000
0001
1000
0000
0100
0001
0000
0010
1000
0000
0001
0100
1000
0000
,
0001
0000
0010
0100
0000
1000
0010
0000
0100
0010
0100
0001
1000
0100
1000
0100
,
1000
0000
0001
0000
0010
0000
0100
0000
1000
0000
0100
0010
0001
1000
0010
0000
,
0110
0000
0100
0001
0010
0000
0001
1000
0010
0000
1000
0001
0010
0000
0100
0000
,
1000
0100
0000
0001
0100
0000
1000
0010
0000
0001
0010
0000
1000
0001
1000
0000
,
1010
0000
0010
0100
0010
0000
1000
0010
0100
0000
0001
0010
0100
0000
0010
0000
,
0011
0010
1010
0000
1100
0100
0101
0000
,
1001
0000
0001
0010
0100
0000
0010
0100
1000
0000
0100
1000
0001
0000
0100
0000
,
0001
0010
0000
1000
0010
0000
0001
0100
0000
1000
0100
0000
0001
0010
0100
0000
,
1000
0000
0010
0000
1000
0000
0100
0000
1000
0000
0010
0000
0100
0000
0001
0010
,
0100
0000
1000
0000
0010
0000
0100
0000
0001
1000
0100
0010
0001
0100
0010
1000
,
2002
0000
0000
0000
,
3003
0000
0000
0000
;

//--------------- dance-double - Fred-104 ----------------
#NOTES:
     dance-double:
     Fred-104:
     Easy:
     7:
     :
00000000
00000000
00000000
00000000
,
00000000
00000000
00000000
00000000
,
00000000
00000000
00000000
00000000
,
00000000
00000000
00000000
00000000
,
00000000
00000000
00000000
00000000
,
00011000
00000000
00000000
00001000
00000000
00000000
00010000
00000000
,
00001000
00000000
00100000
00010000
,
00110000
00000000
00000000
00010000
00000000
00000000
01000000
00000000
,
01100000
00000000
10000000
00000000
01000000
00100000
01000000
00000000
,
10010000
00000000
00000000
00000000
,
00000000
00000000
00000000
00000000
,
00000000
00000000
00000000
00000000
,
00000000
00000000
00000000
00000000
,
00010000
00000000
00000000
00000000
,
00001000
00000000
00000000
00000000
,
00000100
00000000
00000001
00000000
,
00002002
00000000
00000000
00003003
,
00000001
00000000
00000000
00000100
00000000
00000000
00000001
00000000
,
00000100
00000010
00000100
00010000
,
00001000
00000000
00000000
00010000
00000000
00000000
00001000
00000000
,
00100000
00010000
10000000
00010000
,
01000000
00000000
00000000
00100000
00000000
00000000
10000000
00000000
,
00100000
10000000
01000000
00100000
,
00001000
00000000
00000000
00010000
00000000
00000000
00001000
00000000
,
00010000
00000000
00000100
00000000
00010000
00001000
00010000
00000000
,
00001000
00000000
00000000
00010000
00000000
00000000
00000010
00000000
,
00001000
00000100
00010000
00000010
,
00001000
00000000
00000000
00000100
00000000
00000000
00001000
00000000
,
00000002
00000203
00000320
00000230
,
00000301
00000000
00000000
00000100
00000000
00000000
00000010
00000000
,
00001000
00000010
00001000
00010000
,
00001000
00000000
00000000
00010000
00000000
00000000
01000000
00000000
,
00010000
01000000
10000000
00010000
,
10010000
00000000
10000000
00000000
,
01000000
00000000
00100000
00010000
,
00100000
00000000
00001000
00000000
,
00010000
00000000
00001000
00010000
,
00001000
00010000
00000100
00010000
,
00001000
00010000
00000010
00001000
,
00000010
00001000
00000001
00001000
,
00000100
00000010
00000001
00002000
,
00003001
00000001
00000100
00000100
,
00000010
00000010
00001000
00001000
,
00010000
00010000
01000000
01000000
,
00100000
00100000
10000000
10000000
,
00010000
10000000
01000000
00100000
,
01000000
10000000
00100000
01000000
,
00020000
00230000
00302000
00023000
,
00032000
00003020
00000130
00000110
,
00001001
00000110
00000001
00000110
,
00001000
00000000
00011000
00000000
01000000
00000000
01100000
00100000
,
10000000
01100000
00010000
01100000
,
10000000
10000000
01000000
01000000
00010000
00010000
00001000
00010000
,
00001000
00011000
00000100
00001001
,
00010000
00011000
01000000
10010000
,
00100000
01100000
00001000
00011000
,
00010000
00010000
00000100
00000100
00001000
00001000
00000001
00001000
,
00001001
00000000
00000000
00000000
,
00000000
00000000
00000000
00000000
,
00000110
00000000
00000000
00000000
,
00000000
00000000
00000000
00000000
,
00011000
00000000
00000000
00000000
,
01100000
00000000
00100000
00000000
,
10000000
10000000
00010000
00010000
,
20020000
00000000
00000000
30030000
,
02000000
00000000
00000000
03200000
00000000
00000000
01300000
00000000
,
01100000
00000000
00000000
00001000
00000000
00000000
00010000
00000000
,
00001000
00000000
00000000
00010000
00000000
00000000
00000100
00000000
,
00001000
00000010
00001000
00000100
,
00001000
00000000
00000000
00000001
00000000
00000000
00000100
00000000
,
00000010
00000000
00000000
00000100
00000000
00000000
00000001
00000000
,
00000100
00000000
00000000
00001000
00000000
00000000
00010000
00000000
,
00001000
00010000
00100000
10000000
,
00010000
00000000
00000000
10000000
00000000
00000000
00010000
00000000
,
01000000
00000000
00100000
00000000
10000000
00010000
10000000
00000000
,
01000000
00000000
00000000
00100000
00000000
00000000
00001000
00000000
,
00010000
00000000
00000100
00000000
00001000
00000100
00001000
00000000
,
00000001
00000000
00000000
00000100
00000000
00000000
00000010
00000000
,
00000100
00000000
00000001
00000000
00001000
00000010
00001000
00000000
,
00000001
00000100
00000001
00000100
,
00001000
00010000
00001000
00010000
,
00022000
00000000
00000000
00000000
,
00033000
00000000
00000000
00000000
;

//--------------- dance-double - Fred-104 ----------------
#NOTES:
     dance-double:
     Fred-104:
     Medium:
     12:
     :
00000000
00000000
00000000
00000000
,
00000000
00000000
00000000
00000000
,
00000000
00000000
00000000
00000000
,
00000000
00000000
00000000
00000000
,
00000000
00000000
00000000
00000000
,
20010000
00000000
00000000
31000000
00000000
00000000
20000000
00000000
00000000
00000000
30020000
00000000
00230000
00000000
00000000
00000000
,
00310000
01000000
00010000
00000000
00001000
00010000
00000010
00000000
,
00002100
00000000
00000000
00003100
00000000
00000000
00000020
00000000
00000000
00000000
00000032
00000000
00002003
00000000
00000000
00000000
,
00003001
00000010
00000100
00010000
00001000
00000100
00000001
00000000
,
00001001
00000000
00000000
00000000
,
00000000
00000000
00000000
00000000
,
00000000
00000000
00000000
00000000
,
00000000
00000000
00000000
00000000
,
00001000
00001000
00010000
00010000
,
01000000
01000000
10000000
10000000
,
00010000
10000000
00100000
01000000
,
00010000
00100000
00001000
00011000
,
00010010
00000000
00000000
00010000
00000000
00000000
00002000
00000000
00000000
00000000
00013000
00000000
00000100
00000000
00000000
00000000
,
00001100
00000000
00000000
00000100
00000000
00000000
00000110
00000000
00000000
00000100
00000000
00000000
00001100
00000000
00000000
00000000
,
00001001
00000000
00000000
00000001
00000000
00000000
00000200
00000000
00000000
00000000
00000310
00000000
00001000
00000000
00000000
00000000
,
00000001
00000010
00001000
00000000
00010000
00100000
10000000
00000000
,
10010000
00000000
00000000
10000000
00000000
00000000
00020000
00000000
00000000
00000000
01030000
00000000
00100000
00000000
00000000
00000000
,
10100000
00000000
00000000
10000000
00000000
00000000
11000000
00000000
00000000
10000000
00000000
00000000
10010000
00000000
00000000
00000000
,
01010000
00000000
00000000
01000000
00000000
00000000
00200000
00000000
00000000
00000000
01300000
00000000
00001000
00000000
00000000
00000000
,
00100000
00001000
00010000
00001000
00000000
00000010
00001000
00000000
,
00000200
00000000
00000000
00000320
00000000
00000000
00000032
00000000
00000103
00000000
00000010
00000000
00000100
00000000
00000000
00000000
,
00000101
00000000
00000000
00001001
00000000
00000000
00001010
00000000
00000000
00001001
00000000
00000000
00000001
00000000
00000100
00000000
,
00020000
00000000
00000000
00230000
00000000
00000000
02300000
00000000
03100000
00000000
00010000
00000000
10000000
00000000
00000000
00000000
,
11000000
00110000
10100000
01010000
,
20000000
00000000
00000000
32000000
00000000
00000000
03200000
00000000
00301000
00000000
00010000
00000000
00001000
00000000
00000000
00000000
,
00011000
00000000
00000000
00010100
00000000
00000000
00010100
00000000
00000000
00001100
00000000
00000000
00000010
00000000
00000100
00000000
,
00000002
00000000
00000000
00000203
00000000
00000000
00000320
00000000
00001030
00000000
00000100
00000000
00000010
00000000
00000000
00000000
,
00000001
00000100
00000010
00000100
00000000
00000010
00001000
00010000
,
00011000
00000000
00001000
00000000
00001000
00000000
00100000
00010000
,
00100000
00000000
00001000
00000000
01000000
00100000
01000000
00100000
,
01000000
00000000
00010000
00000000
00100000
00000000
01000000
00100000
,
01000000
00000000
10000000
00000000
00100000
10000000
00100000
10000000
,
01000000
00000000
10000000
00000000
00010000
00000000
01000000
00100000
,
01000000
00000000
00001000
00000000
00010000
00001000
00000100
00001000
,
00010000
00000000
00000010
00000000
00001000
00000000
00000001
00001000
,
00000010
00000000
00010000
00001000
00010000
00000000
00002000
00000000
,
00103000
00000000
00010000
00000000
10000000
00100000
10000000
00100000
,
01000000
00000000
00010000
00000000
10000000
00010000
00100000
01000000
,
00100000
00000000
00001000
00000000
00010000
00000010
00001000
00000100
,
00010000
00000000
00000100
00000000
00001000
00000100
00000010
00000001
,
00000100
00000100
00001000
00001000
,
00010000
00010000
00100000
00100000
,
20000000
00000000
30020000
02030000
03200000
02300000
03020000
20030000
,
32000000
03200000
00302000
00000000
00013000
00000000
00011000
00000000
,
00001000
00100000
00101000
00001000
00010000
00001000
00001010
00000010
,
00000100
00000000
00000001
00000000
00001001
00000000
00001000
00000000
00000100
00000000
00010000
00000000
00011000
00000000
00001000
00010000
,
00001000
00100000
00110000
00010000
10000000
00100000
01100000
01000000
,
00010000
00000000
10100000
00000000
01010000
00000000
10100000
00000000
00010000
10000000
00010000
00000000
10000000
01000000
20000000
00000000
,
30100000
01100000
00011000
00001000
00000110
00000100
00001001
00000001
,
00000100
00000000
00000110
00000000
00001010
00000000
00010000
00000000
00011000
00000000
00001000
00000000
00100000
00010000
01000000
00000000
,
01100000
00000000
10100000
00000000
10010000
00000000
00010000
01000000
00100000
00000000
11000000
00000000
10000000
01000000
00010000
00001000
,
00010000
00000000
00011000
00000000
00001010
00000000
00001001
00000000
00000001
00000100
00001000
00000000
00012000
00000000
00013000
01000000
,
11000000
00000000
00000000
00000000
,
00000000
00000000
00000000
00000000
,
01100000
00000000
00000000
00000000
,
00000000
00000000
00000000
00000000
,
00011000
00010000
00001000
00010000
,
00010100
00000100
00001000
00000001
,
00000100
00000010
00000100
00000000
00010000
00001000
00010000
00000000
,
00022000
00000000
00000000
00033000
,
00010200
00000000
00000000
00010000
00000000
00000000
00010300
00000000
00001000
00000000
00010000
00000000
00001000
00000000
00000000
00000000
,
00011000
00000000
00000000
00101000
00000000
00000000
00011000
00000000
00000000
00101000
00000000
00000000
00011000
00000000
00000000
00000000
,
00200000
00000000
00000000
00320000
00000000
00000000
20030000
00000000
31000000
00000000
00100000
00000000
20000000
00000000
00000000
00000000
,
30100000
00010000
00001000
00000000
00010000
00001000
00010000
00000000
,
00002000
00000000
00000000
00003020
00000000
00000000
00002030
00000000
00013000
00000000
00001000
00000000
00100000
00000000
00000000
00000000
,
00110000
00000000
00000000
00101000
00000000
00000000
00011000
00000000
00000000
00010100
00000000
00000000
00011000
00000000
00000000
00000000
,
00002000
00000000
00000000
00023000
00000000
00000000
00030200
00000000
00001300
00000000
00000001
00000000
00000100
00000000
00000000
00000000
,
00000001
00000010
00000100
00000010
00000000
00000001
00001000
00000001
,
00000100
00000000
00000000
00000110
00000000
00000000
00000010
00000000
00001000
00000000
00010000
00000000
00001000
00000000
00000000
00000000
,
00200000
00000000
00000000
00320000
00000000
00000000
02030000
00000000
00000000
03200000
00000000
00000000
01300000
00000000
00010000
00000000
,
00100000
00000000
00000000
01100000
00000000
00000000
01000000
00000000
10000000
00000000
00010000
00000000
01000000
00000000
00000000
00000000
,
01100000
00011000
00000110
00001001
,
00000001
00000000
00000000
00000101
00000000
00000000
00000100
00000000
00000010
00000000
00001000
00000000
00000100
00000000
00000000
00000000
,
00000002
00000000
00000000
00000023
00000000
00000000
00002030
00000000
00000000
00003002
00000000
00000000
00001003
00000000
00000010
00000000
,
00000100
00000001
00000010
00000000
00000100
00010000
00001000
00000000
,
01000000
00010000
00100000
01000000
00100000
00010000
10000000
00010000
,
20020000
00000000
00000000
00000000
,
30030000
00000000
00000000
00000000
;

//--------------- dance-double - Fred-104 ----------------
#NOTES:
     dance-double:
     Fred-104:
     Hard:
     16:
     :
00000000
00000000
00000000
00000000
,
00000000
00000000
00000000
00000000
,
00000000
00000000
00000000
00000000
,
00000000
00000000
00000000
00000000
,
00000000
00000000
00000000
00000000
,
00000210
00000000
00000000
00000302
00000000
00000000
00002003
00000000
00000000
00000000
00003002
00000000
00000023
00000000
00000000
00000000
,
00000031
00000000
00000010
00000000
00000100
00000000
00001000
00000100
00001000
00000100
00001000
00000000
00000010
00000000
00000000
00000000
,
00012000
00000000
00000000
00023000
00000000
00000000
00030020
00000000
00000000
00000000
00020030
00000000
00031000
00000000
00000000
00000000
,
00011000
00000000
00010000
00000000
00001000
00000000
00000010
00000100
00000010
00000000
00000100
00000000
00001000
00000000
00010000
00000000
,
00011000
00000000
00000000
00000000
,
00000000
00000000
00000000
00000000
,
00000000
00000000
00000000
00000000
,
00000000
00000000
00000000
00000000
,
00010000
01000000
00010000
01000000
00100000
10000000
00100000
10000000
,
01000000
00100000
01000000
00100000
00001000
00010000
00001000
00010000
,
00000100
00000010
00000100
00000010
00000001
00001000
00000100
00010000
,
00001000
00000000
00100000
00000000
00010000
00000000
10000000
00000000
01000000
00100000
01000000
00100000
01000000
00000000
00000000
00000000
,
11000000
00000000
00000000
00100000
01000000
00000000
00200000
00000000
00000000
00000000
10300000
00000000
01000000
00000000
00000000
00000000
,
01100000
00000000
00000000
01010000
00000000
00000000
00110000
00000000
00000000
00101000
00000000
00000000
00001000
00000000
00010000
00000000
,
00000100
00000000
00000000
00010000
00001000
00000000
00020000
00000000
00000000
00000000
00030100
00000000
00001000
00000000
00000000
00000000
,
00000010
00000000
00010000
00001000
00010000
00000000
00100000
00000000
01000000
00010000
01000000
00000000
00001000
00000000
00010000
00000000
,
00001000
00000000
00000000
00000100
00000001
00000000
00000020
00000000
00000000
00000000
00000130
00000000
00000010
00000000
00000000
00000000
,
00000101
00000000
00000000
00000110
00000000
00000000
00001010
00000000
00000000
00001100
00000000
00000000
00010000
00000000
00001000
00000000
,
00010000
00000000
00000000
00000010
00001000
00000000
00000200
00000000
00000000
00000000
00010300
00000000
00001000
00000000
00000000
00000000
,
00010000
00000000
00100000
00010000
00100000
00000000
01000000
00000000
00100000
00000000
00001000
00010000
00001000
00000000
00100000
00000000
,
00010000
00000000
10000000
01000000
00000000
00100000
01000000
00000000
10000000
00000000
00100000
00000000
00010000
00000000
00000000
00000000
,
00110000
00000000
00000000
00011000
00000000
00000000
00001100
00000000
00000000
00000101
00000000
00000000
00000001
00000000
00001000
00000000
,
00000001
00000000
00000010
00000100
00000000
00010000
00001000
00000000
00000100
00000000
00000001
00000000
00001000
00000000
00000000
00000000
,
00000001
00000000
00000010
00000100
00001000
00000000
00000100
00000000
00010000
00001000
00010000
00001000
00100000
00000000
00001000
00000000
,
00010000
00000000
00100000
01000000
00000000
00100000
00001000
00000000
00010000
00000000
00100000
00000000
10000000
00000000
00000000
00000000
,
11000000
00000000
00000000
01100000
00000000
00000000
01010000
00000000
00000000
10100000
00000000
00000000
10000000
00000000
00100000
00000000
,
01000000
00000000
00100000
00001000
00000000
00010000
00001000
00000000
00000010
00000000
00000001
00000000
00001000
00000000
00000000
00000000
,
00000001
00000000
00000100
00000000
00001000
00000000
00000100
00000000
00000010
00001000
00000010
00001000
00000001
00000000
00001000
00000000
,
00001001
00000000
00000001
00000000
00001000
00000000
00010000
00001000
,
00010000
00000000
10000000
00000000
00010000
10000000
00010000
10000000
,
01000000
00000000
00100000
00000000
00001000
00000000
00010000
00000010
,
00010000
00000000
00000100
00000000
00001000
00000100
00000010
00000001
,
00000101
00000000
00000000
00000000
00000001
00000000
00000100
00000010
00000100
00000000
00000001
00000000
00000010
00000000
00001000
00000000
,
00000010
00000000
00000000
00000000
00000001
00000000
00000000
00000000
00000100
00000010
00000100
00000000
00000001
00001000
00000100
00000000
,
00010000
00000000
00000000
00000000
00000010
00000000
00010000
00001000
00010000
00000000
00000100
00000000
00001000
00000000
00000100
00000000
,
00010000
00000000
00000000
00000000
00001000
00000000
00010000
00100000
01000000
00100000
00010000
00000000
00011000
00000000
00000000
00000000
,
00010000
00000000
00000000
00100000
01000000
00000000
10000000
00000000
01000000
00000000
00100000
00000000
00010000
10000000
00010000
00000000
,
01000000
00000000
00000000
00001000
00010000
00000000
00001000
00000000
00000100
00000000
00000001
00000000
00001000
00000010
00000100
00000000
,
00000001
00000000
00000000
00000010
00000100
00000000
00000001
00000000
00000100
00000000
00000010
00000000
00000001
00001000
00000010
00000000
,
00001000
00000000
00000000
00010000
00100000
00000000
00010000
00000000
00001000
00010000
00001000
00000000
00010000
00000100
00001000
00000000
,
00000100
00000000
00000010
00000000
00001000
00000000
00000100
00000000
00000010
00000000
00000001
00000000
00000100
00000000
00001000
00010000
,
00001000
00000000
00010000
00000000
00100000
00000000
10000000
00000000
00010000
10000000
00010000
10000000
01000000
00100000
01000000
00100000
,
02000000
00000000
23000000
32000000
03200000
00302000
00023000
00230000
,
20300000
30020000
02030000
00000000
03100000
00000000
10010000
00000000
,
00011000
00000000
00001000
00000010
00000110
00000100
00000001
00000000
00000100
00000100
00010000
00010000
00011000
01000000
01000000
00100000
,
01000000
00000000
10100000
00000000
00011000
00010000
00000010
00001000
00000100
00000100
00000010
00000010
00000011
00000002
00000203
00000302
,
00000013
00000000
00000000
00001000
00000000
00000000
00000010
00000000
00000011
00000000
00000001
00000000
00001000
00000000
00000000
00000000
00000001
00000000
00000100
00000010
00001000
00000000
00000000
00000000
00000002
00000000
00000203
00000000
00002300
00000000
00013000
00000000
,
00011000
00000000
01010000
00000000
10100000
00000000
00110000
00100000
00010000
00001000
00000010
00000001
00000011
00000000
00002002
00003003
,
00000110
00000000
00000001
00000100
00001100
00000100
00000001
00000000
00000100
00000100
00010000
00010000
00011000
00001000
00100000
01000000
,
00100000
00000000
01100000
00000000
10010000
10000000
01000000
00010000
00011000
00001000
00000010
00000001
00001001
00000002
00000203
00000310
,
00000110
00000000
00000000
00000000
00001100
00000000
00000000
00000000
00011000
00000000
00000000
00000000
00000110
00000000
00000010
00000000
00010000
00000000
00000000
00000000
00011000
00000000
00000000
00000000
00010000
00000000
00001000
00100000
00001000
00000000
01000000
00100000
,
01000000
00000000
00000000
00000000
10010000
00000000
00000000
00000000
10000000
00100000
01000000
00000000
00100000
00000000
10000000
01000000
00010000
00000000
00001000
00000000
00000010
00000000
00000001
00000000
00000100
00000000
00001000
00000000
00020000
00000000
00032000
00003000
,
00011000
00000000
00000000
00000000
,
00000000
00000000
00000000
00000000
,
00001001
00000000
00000000
00000000
,
00000000
00000000
00000000
00000000
,
00010000
00000000
00001000
00000000
00100000
00000000
00001000
00000000
00010000
00000000
00001000
00000000
00100000
00000000
00010000
01000000
,
00010000
00000000
00100000
00000000
01000000
00000000
10000000
00000000
00100000
00000000
01000000
00000000
00010000
00000000
00001000
00010000
,
00001000
00000000
00010000
00000100
00010000
00000000
00000100
00001000
00000100
00000000
00001000
00000010
00001000
00000000
00000001
00001000
,
00000002
00000000
00000000
00001000
00000000
00000003
00001001
00000000
,
00000002
00000000
00000000
00000023
00000000
00000000
00000230
00000000
00000300
00000000
00020000
00000000
00031000
00000000
00000000
00000000
,
00011000
00000000
00000000
00010010
00000000
00000000
00011000
00000000
00000000
01001000
00000000
00000000
00011000
00000000
00000000
00000000
,
00001000
00000000
00010000
00000100
00000000
00001000
00000100
00000000
00000010
00000001
00000010
00000000
00000001
00000000
00000100
00000000
,
00001000
00000000
00010000
00001000
00010000
00000000
00100000
00000000
10000000
00010000
10000000
00000000
01000000
00000000
00100000
00000000
,
01000000
00000000
10000000
01000000
00000000
00100000
10000000
00000000
00100000
00010000
10000000
00000000
00010000
00000000
01000000
00000000
,
01100000
00000000
00000000
00110000
00000000
00000000
00011000
00000000
00000000
00001100
00000000
00000000
00000110
00000000
00000010
00000000
,
00000001
00000000
00001000
00000100
00000000
00000010
00000100
00000000
00001000
00000001
00001000
00000000
00000001
00000000
00000010
00000000
,
00000100
00000000
00001000
00000000
00000100
00000000
00010000
00000000
00001000
00000000
00010000
00001000
00010000
00001000
00010000
00000000
,
00001000
00000000
00100000
00010000
00000000
10000000
00010000
00000000
01000000
00100000
10000000
00100000
02000000
00000000
00000000
00000000
,
03010000
00100000
00000000
01000000
10000000
00000000
00010000
01000000
00000000
00100000
10000000
00000000
01000000
00000000
00100000
00000000
,
00001000
00000000
00010000
00000100
00000000
00001000
00000010
00000000
00001000
00000001
00001000
00000001
00000010
00000000
00000100
00000000
,
00000110
00011000
01100000
10010000
,
00010000
00000000
01000000
10000000
00000000
01000000
00010000
00000000
10000000
01000000
10000000
00100000
02000000
00000000
00000000
00000000
,
03010000
00100000
00000000
01000000
00100000
00000000
00001000
00010000
00000000
00001000
00000100
00000000
00000001
00000000
00001000
00000000
,
00000001
00000000
00000100
00000000
00000010
00000000
00001000
00000000
00000100
00000000
00010000
00000000
00001000
00000000
00010000
00001000
,
00010000
00000000
01000000
00000000
10000000
00000000
00010000
00000000
01000000
00100000
01000000
00100000
01000000
00000000
00010000
00000000
,
00220000
00000000
00000000
00000000
,
00330000
00000000
00000000
00000000
;

//--------------- dance-double - Fred-104 ----------------
#NOTES:
     dance-double:
     Fred-104:
     Challenge:
     17:
     :
00000000
00000000
00000000
00000000
,
00000000
00000000
00000000
00000000
,
00000000
00000000
00000000
00000000
,
00000000
00000000
00000000
00000000
,
00000000
00000000
00000000
00000000
,
00202000
00303000
00000000
00022000
00033000
00000000
00020020
00000000
00030030
00000000
00001010
00000000
00001001
00000000
00000000
00000000
,
00000001
00000000
00000100
00000000
00001000
00000000
00000100
00000001
00000100
00000001
00000010
00000000
00000100
00000000
00001000
00000000
,
00002200
00003300
00000000
00020200
00030300
00000000
00022000
00000000
00033000
00000000
00110000
00000000
10010000
00000000
00000000
00000000
,
01200000
00000000
10300000
00000000
00010000
00000000
00100000
01000000
10000000
00000000
00100000
01000000
00010000
00000000
00100000
00000000
,
10010000
00000000
00000000
00000000
,
00000000
00000000
00000000
00000000
,
00000000
00000000
00000000
00000000
,
00000000
00000000
00000000
00000000
,
00010000
00001000
00010000
00000000
00000010
00001000
00000010
00000000
00010000
00001000
00010000
00000000
00000100
00001000
00000100
00000000
,
00010000
00001000
00010000
00000000
00001000
01000000
00001000
00000000
00010000
00001000
00010000
00000000
00001000
00100000
00001000
00000000
,
00010000
00000100
00001000
00000000
00000001
00000100
00000010
00000000
00001000
00000100
00010000
00000000
00001000
00100000
00010000
00000000
,
10000000
00100000
01000000
00010000
00100000
00001000
00010000
00000100
00001000
00000001
00001000
00000001
00001000
00000000
00000000
00000000
,
00000001
00000000
00000010
00000100
00000010
00000000
00000001
00000000
00000100
00000010
00000100
00000000
00000101
00000000
00000000
00000000
,
00000001
00000010
00000000
00001000
00010000
00000000
00001000
00000100
00000000
00000001
00001000
00000000
00000001
00000000
00000100
00000000
,
00000010
00000000
00001000
00000100
00001000
00000000
00000100
00000000
00010000
00001000
00010000
00000000
00110000
00000000
00000000
00000000
,
01000000
00000000
00010000
10000000
00100000
00000000
01000000
00000000
00010000
10000000
00100000
01000000
00010000
00000000
00001000
00000000
,
00000100
00000000
00000001
00001000
00000001
00000000
00000010
00000000
00000100
00000010
00000001
00000000
00001001
00000000
00000000
00000000
,
00000001
00000010
00000000
00000100
00010000
00000000
00001000
00000100
00000000
00000001
00001000
00000000
00000010
00000000
00000100
00000000
,
00000001
00000000
00000100
00000001
00000100
00000000
00000010
00000000
00010000
00001000
00010000
00000000
00011000
00000000
00000000
00000000
,
00101000
00000000
00001000
00010000
00001000
00000000
00100000
00010000
10000000
00010000
01000000
00010000
01000000
00000000
00100000
00000000
,
10000000
00000000
01000000
00100000
00000000
00010000
00100000
00000000
00001000
00010000
00001000
00000000
00011000
00000000
00000000
00000000
,
00010000
00001000
00000000
00000010
00001000
00000000
00010000
00001000
00000000
00000100
00001000
00000000
00010000
00000000
00001000
00000000
,
00010000
00000000
00000100
00001000
00000000
00000100
00000010
00000000
00000001
00000100
00000001
00001000
00000100
00000000
00010000
00000000
,
00011000
00000000
00000000
00000000
00010010
00000000
00000000
00000000
00001000
00010000
00001000
01000000
00001000
00000000
00010000
00000000
,
00001000
00000000
00100000
00010000
00000000
00100000
01000000
00000000
10000000
00100000
01000000
00000000
01100000
00000000
00000000
00000000
,
00010000
00100000
00000000
01000000
00010000
00000000
01000000
00100000
00000000
00010000
10000000
00000000
00100000
00000000
01000000
00000000
,
00010000
00000000
10000000
01000000
00000000
00010000
00001000
00000000
00010000
00001000
00000100
00000001
00000100
00000000
00000000
00000000
,
00000001
00000000
00001000
00000000
00000010
00000000
00000001
00000000
00000010
00000100
00000001
00000100
00000001
00000000
00000100
00000000
,
00001100
00000000
00011000
00000000
00001100
00000000
00000010
00010000
,
00011000
00000000
00101000
00000000
00001000
00010000
00100000
10000000
,
10100000
00000000
01010000
00000000
11000000
00000000
10000000
01000000
,
01100000
00000000
00011000
00000000
00000100
00000010
00001000
00000001
,
00000010
00000000
00000001
00000000
00000100
00000000
00000001
00000010
00000001
00000100
00000001
00000000
00000010
00000000
00000100
00000000
,
00001000
00000000
00000100
00000000
00010000
00000000
00001000
00010000
00001000
00100000
00010000
00000000
01000000
00001000
00010000
00001000
,
00000100
00000000
00000001
00000000
00001000
00000000
00000001
00000010
00000100
00000010
00000001
00000000
00000100
00000010
00001000
00000010
,
00000100
00000000
00000001
00000000
00000010
00000000
00001000
00010000
00001000
00010000
00100000
00000000
10100000
00000000
00000000
00000000
,
10010000
00000000
00000000
00010000
00100000
00000000
01000000
00000000
10000000
01000000
00010000
00000000
10000000
00100000
00010000
00000000
,
00011000
00000000
00000000
00001000
00010000
00000000
00100000
00000000
00010000
00001000
00010000
00001000
00010000
00000100
00001000
00000100
,
00000010
00000000
00000000
00000001
00000010
00000000
00000100
00000000
00010000
00001000
00000100
00000000
00010000
01000000
00010000
00000000
,
00001000
00000000
00000000
00010000
00000010
00000000
00001000
00000000
00000100
00010000
00001000
00100000
00010000
01000000
00010000
00000000
,
00110000
00000000
00100000
00000000
00010000
00000000
00010000
00000000
10000000
00000000
10000000
00000000
01000000
00000000
01000000
00100000
,
00001000
00000000
00001000
00000000
00010000
00000000
00010000
00000000
00000100
00001000
00000100
00001000
00000010
00000100
00000001
00000100
,
00000002
00000000
00002003
00003020
00000032
00000203
00002300
00023000
,
00230000
00000000
20300000
00000000
32000000
00000000
00000000
00000000
03010000
00000000
00001000
00010000
00001000
00000000
00010000
00000000
,
00011000
00000000
00001000
00000100
00000110
00000010
00000001
00000000
00001000
00000001
00000100
00000010
00001010
00001000
00000100
00010000
,
00011000
00000000
01100000
00000000
10010000
10000000
01000000
00100000
00010000
01000000
00100000
00010000
00011000
00020000
00032000
00023000
,
00031000
00000000
00010000
00000010
00000000
00010000
00001000
00000000
00001010
00000000
00000010
00000000
00000100
00000000
00000000
00000000
00000001
00000000
00000100
00000001
00000100
00000000
00000010
00000000
00002010
00000000
00003100
00000000
00010000
00000000
00001000
00000000
,
00011000
00000000
01001000
00000000
00010010
00000000
00011000
00010000
00000100
00010000
00001000
00100000
00001000
00010000
00022000
00033000
,
01100000
00000000
10010000
10000000
11000000
01000000
01100000
00000000
00100000
00001000
00010000
00001000
00001010
00000010
00000001
00001000
,
00001001
00000000
00000000
00000000
00000110
00000000
00000000
00000000
00000101
00000000
00000100
00000000
00000010
00000000
00001000
00000000
00001100
00000000
00000100
00000000
00010000
00000000
00001000
00000000
00011000
00000000
00010000
00100000
00010000
00000000
00100000
00000000
,
10100000
00000000
00000000
00000000
00000000
00000000
11000000
00000000
00000000
00000000
00000000
00000000
01010000
00000000
00000000
00000000
00000000
00000000
00011000
00000000
00000000
00010000
00000000
00000000
00001000
00000000
00000000
00000000
00000000
00000000
00001010
00000000
00000000
00000000
00000000
00000000
00001001
00000000
00000000
00000001
00000010
00000001
00000100
00000000
00000000
00000010
00001000
00000001
,
00001000
00000000
00000000
00000000
00000000
00000000
00000000
00000000
00000000
00000000
00000000
00000000
00000000
00000000
00000000
00000000
00000000
00000000
00000000
00000000
00000000
00000000
00000000
00000000
00001001
00000000
00000000
00000000
00000000
00000000
00000000
00000000
00000000
00000000
00000000
00000000
00000001
00000000
00000000
00000000
00000000
00000000
00000100
00000000
00000000
00000000
00000000
00000000
00000010
00000000
00000000
00000000
00000000
00000000
00000100
00000000
00000000
00000000
00000000
00000000
00000010
00000000
00000000
00000000
00000000
00000000
00000100
00000000
00000000
00000000
00000000
00000000
00000010
00000000
00000000
00000000
00000000
00000000
00001000
00000000
00000000
00000000
00000000
00000000
00000001
00000000
00000000
00000000
00000000
00000000
00000000
00000000
00000000
00000000
00000000
00000000
00000100
00000000
00000000
00000000
00000000
00000000
00001000
00000000
00000000
00000000
00000000
00000000
00000100
00000000
00000000
00000000
00000000
00000000
00000000
00000000
00000000
00000000
00000000
00000000
00001000
00000000
00000000
00000000
00000000
00000000
00010000
00000000
00000000
00000000
00000000
00000000
00001000
00000000
00000000
00000000
00000000
00000000
00000000
00000000
00000000
00000000
00000000
00000000
00010000
00000000
00000000
00000000
00000000
00000000
00100000
00000000
00000000
00000000
00000000
00000000
00010000
00000000
00000000
00000000
00000000
00000000
00000000
00000000
00000000
00000000
00000000
00000000
00200000
00000000
00000000
00000000
00000000
00000000
00000000
00000000
00000000
00000000
00000000
00000000
20300000
00000000
00000000
00000000
00000000
00000000
00000000
00000000
00000000
00000000
00000000
30000000
,
10010000
00000000
00000000
00000000
,
00000000
00000000
00000000
00000000
,
00011000
00000000
00000000
00000000
,
00000000
00000000
00000000
00000000
,
00000001
00000000
00001000
00000000
00000001
00000000
00000100
00000000
00000001
00000000
00000010
00000000
00000100
00000000
00001000
00000100
,
00001000
00000000
00000100
00000000
00010000
00000000
00001000
00000000
00100000
00000000
00010000
00000000
10000000
00000000
00100000
10000000
,
01000000
10000000
00100000
10000000
01000000
10000000
00100000
01000000
00010000
01000000
00010000
00100000
00001000
00010000
00001000
00100000
,
00001000
00010000
00001000
00010000
00001000
00000000
00010000
00000100
00001000
00000001
00000100
00000010
00001000
00000000
00000000
00000000
,
00002020
00003030
00000000
00000202
00000303
00000000
00002200
00000000
00003300
00000000
00010100
00000000
00011000
00000000
00000000
00000000
,
02002000
03003000
00000000
00020200
00030300
00000000
00202000
00303000
00000000
00020020
00030030
00000000
00022000
00000000
00033000
00000000
,
00001000
00000000
00100000
00010000
00000000
00100000
10000000
00000000
00010000
10000000
00010000
10000000
02000000
00000000
00000000
00000000
,
13000000
00000000
00100000
00010000
00100000
00000000
01000000
00000000
00010000
10000000
01000000
00000000
00100000
00000000
00010000
10000000
,
00010000
00000000
00100000
01000000
00000000
00100000
00001000
00000000
00010000
00000100
00001000
00000100
00000020
00000000
00000000
00000000
,
00000031
00000100
00000000
00001000
00000100
00000000
00000001
00000100
00000000
00001000
00000100
00000000
00000010
00000000
00001000
00000000
,
00000001
00000000
00000010
00000100
00000000
00000010
00000001
00000000
00000100
00000010
00001000
00000100
00010000
00001000
00010000
00001000
,
00010000
00000000
00001000
00000000
00010000
00000000
00000010
00000000
00001000
00000000
00000100
00010000
00001000
00010000
00001000
00000000
,
00011000
00000000
00001000
00100000
00001000
00000000
00010000
00000100
00010000
00000000
00001000
01000000
00001000
00000000
00010000
00000000
,
00000010
00001000
00000000
00010000
00001000
00000000
00000100
00001000
00000000
00010000
01000000
00000000
00010000
00000000
00001000
00000000
,
00011000
00000000
00010000
00000010
00010000
00000000
00001000
01000000
00001000
00000000
00010000
00000100
00010000
00000000
00001000
00000000
,
00011000
00001000
00001010
00000000
00011000
00010000
00110000
00000000
,
00011000
00000000
00010000
00000100
00010000
00000000
00001000
01000000
00001000
00000000
00010000
00000010
00010000
00000000
00001000
00000000
,
00010000
00001000
00000000
00000100
00001000
00000000
00010000
00100000
00000000
00010000
00001000
00000000
00010000
00000000
00001000
00000000
,
00010000
00000000
00100000
00000000
10000000
00000000
00100000
00000000
00010000
00000000
00001000
00000000
00010000
00000000
00001000
00010000
,
00001000
00000000
00000100
00000000
00000001
00000000
00001000
00000001
00000010
00000001
00000100
00000010
00001000
00000100
00000010
00000000
,
00000022
00000000
00000000
00000000
,
00000033
00000000
00000000
00000000
;
