#VERSION:0.83;
#TITLE:Strange Flow;
#ARTIST:Sota Fujimori;
#BANNER:Strange Flow.png;
#BACKGROUND:Strange Flow-bg.png;
#CDTITLE:./CDTitles/RB Reflesia.png;
#MUSIC:Strange Flow.ogg;
#SAMPLESTART:77.14;
#SAMPLELENGTH:15;
#DISPLAYBPM:140;
#BPMS:0=140;
#STOPS:83=0.214,93.5=0.214,93.75=0.214,97.25=0.429,112.5=0.215,136=0.214,159.5=0.214;
#TIMESIGNATURES:0=4=4,80=3=4,83=4=4,91=3=4,97=4=4,133=3=4,136=4=4;
#BGSTAGE:15;

//--------------- dance-single - Fred-104 ----------------
#NOTEDATA:;
#STEPSTYPE:dance-single;
#DESCRIPTION:Fred-104;
#DIFFICULTY:Beginner;
#METER:4;
#DISPLAYBPM:140;
#BPMS:0=140;
#CREDIT:Fred-104;
#NOTES:
0000
0000
0000
0000
,
0000
0000
0000
0000
,
0000
0000
0000
0000
,
1000
0000
0000
0000
,
0001
0000
1000
1000
,
1000
0000
0000
0000
,
0100
0000
0000
0000
,
0001
0000
0010
0000
,
1000
1000
1000
1000
,
1001
0000
0001
1000
,
0010
0000
0100
0000
,
0001
1000
0001
0000
,
1000
0000
0001
0000
,
1000
0100
0010
0000
,
0001
0000
1000
0000
,
0001
1000
0001
0000
,
0100
0010
0100
0000
,
0001
0000
1000
0000
,
0001
0000
1000
0000
,
0100
0000
0010
0000
,
0001
0000
1001
0000
,
0001
0000
1000
0000
,
0001
0000
1000
0000
,
0100
0000
0010
0000
,
0001
1000
1001
0000
,
2000
0000
0000
3000
,
0002
0000
0003
0000
,
1000
0001
0010
0000
,
0001
0001
0001
0002
,
1003
0000
0010
0000
,
1000
0000
0001
0000
,
1000
0000
0100
0000
,
1000
1000
1000
0000
,
0001
0000
0100
0000
,
0001
1000
0020
0030
,
0100
0100
0100
0000
,
0001
1000
0001
0000
,
1000
0000
0100
0000
,
0001
0000
0010
0000
,
1000
0000
0100
0000
,
1000
0001
2002
3003
,
0001
0000
0010
0000
,
1000
0000
0100
0000
,
0001
0001
1000
1000
,
0001
0001
2002
3003
,
1000
0010
0100
0000
,
0010
0000
1000
0000
,
0001
0000
1000
0000
,
0001
0001
0001
0000
,
1000
1000
1000
0000
,
0100
0010
0001
0000
,
1001
0000
0000
0000
,
2002
0000
0000
3003
,
1000
0001
0010
0000
,
0001
1000
0001
0000
,
0100
0100
0010
0000
,
0100
0001
1000
0000
,
0001
0001
1000
1000
,
0010
0100
0001
0000
,
1000
0100
0010
0000
,
2002
0000
0000
3003
,
2002
0000
0000
0000
,
0000
0000
0000
0000
,
0000
0000
0000
0000
,
0000
0000
0000
0000
0000
0000
0000
3003
;

//--------------- dance-single - Fred-104 ----------------
#NOTEDATA:;
#STEPSTYPE:dance-single;
#DESCRIPTION:Fred-104;
#DIFFICULTY:Easy;
#METER:8;
#CREDIT:Fred-104;
#NOTES:
0000
0000
0000
0000
,
0000
0000
0000
0000
,
0000
0000
0000
0000
,
2000
3000
0100
0001
,
0200
0300
1000
1001
,
0002
0000
0023
0230
,
2300
0000
3002
0203
,
0310
0000
0100
0000
0001
1000
0001
0000
,
0010
0100
1000
1001
,
0001
0100
1000
0100
,
0001
1000
0100
0000
,
1000
0100
0001
0100
,
1000
0000
0001
0000
0100
0010
0100
0000
,
0001
0010
1000
0010
,
0001
1000
0010
0000
,
1000
0010
0001
0010
,
1000
0000
0001
0000
0100
0010
0100
0000
,
1001
0000
0001
0000
,
1000
0000
0100
0010
,
0001
0000
1000
0000
,
0001
0000
0100
0000
0010
0000
1000
0001
,
0000
0000
0000
0010
0000
0000
0000
0100
,
0000
0000
0000
1000
0000
0001
0000
0100
,
0000
0000
0000
0110
0000
0001
0000
1000
,
0000
1001
0000
2000
0000
0000
0000
0000
,
0000
0000
0000
3002
0000
0000
0000
0000
,
0000
0000
0000
1003
0000
0100
0000
0001
,
0000
0010
0000
1000
0000
0001
0000
1000
,
0001
1000
0002
0000
0023
0000
2030
0000
,
3020
0000
0031
0000
1000
0000
0100
0010
,
0100
2000
3200
0302
,
0203
0000
1300
0000
0001
0000
0100
0010
,
0100
0002
0023
2030
,
3020
0000
0031
0000
0100
0000
0010
1000
,
0001
2000
0000
3200
0000
0302
0000
0203
,
0000
1300
0000
0001
0000
0100
0010
0100
,
0000
1001
0000
0000
0000
0001
0000
0000
,
0000
0010
0000
0100
0000
1000
0000
0001
,
0000
0100
0000
0000
0000
0010
0000
0000
,
0000
0100
0000
0001
0000
1000
0000
0110
,
0001
0010
1000
0100
,
0001
0010
1000
0100
,
0001
1000
0001
0000
1000
0100
1000
0000
,
0001
0100
0001
0000
1000
0010
1000
0000
,
0001
0000
0010
0000
0100
1000
0100
0000
,
2000
3200
0320
0230
,
2300
0000
3002
0000
,
0103
0010
0100
0001
,
1000
1000
0100
0100
,
0001
0001
0010
0010
,
1000
0000
0001
0000
0000
0110
0000
1001
,
0000
0001
1000
1001
,
1000
0000
0010
0000
0100
0001
1000
0000
,
0002
0203
2300
3020
,
0032
0000
2003
0000
,
3100
0010
0001
1000
,
0001
0000
0001
0000
1000
1000
0001
0001
,
1000
0100
0010
0100
,
1000
0000
0000
0000
0010
0000
0000
0000
0100
0000
0000
0101
0000
0000
1001
0000
,
0000
1000
0100
0110
,
0001
0010
0001
0010
,
1000
0100
1000
0100
,
0001
0010
1000
0100
,
0001
0000
0010
0000
1000
0000
0200
0300
;

//--------------- dance-single - Fred-104 ----------------
#NOTEDATA:;
#STEPSTYPE:dance-single;
#DESCRIPTION:Fred-104;
#DIFFICULTY:Medium;
#METER:11;
#CREDIT:Fred-104;
#NOTES:
0000
0000
0000
0000
,
0000
0000
0000
0000
,
0000
0000
0000
0000
,
0001
0000
0010
0000
0100
1000
0001
0000
,
0100
0010
0100
0000
0001
1000
1001
0000
,
0001
0100
0001
0100
1000
0100
0001
0000
,
1000
0100
1000
0100
0001
0100
1000
0001
,
1000
0100
0010
0001
1000
0010
0100
0000
,
0001
0100
0010
1000
0001
0010
0110
0000
,
1000
0100
1000
0100
1000
0000
0100
0000
0010
0000
0001
0000
1000
0000
0000
0000
,
0001
0000
0100
0000
0010
0000
1000
0000
0000
1000
0001
0000
0010
0000
0100
0000
,
0010
0001
0010
0001
0010
0000
0001
0000
1000
0000
0001
0000
0100
0000
0010
0000
,
1000
0000
0002
0000
0023
0000
0230
0000
0000
0000
0320
0030
0011
0000
0000
0000
,
0001
0100
0001
0100
0001
0000
0100
0000
0010
0000
1000
0000
0001
0000
0010
0000
,
0100
0000
1000
0000
0010
0000
0100
0000
0000
0100
0001
0000
0010
0000
0001
0000
,
1000
0100
1000
0100
1000
0000
0100
0000
0010
0000
0100
0000
1000
0000
0001
0000
,
0100
0000
0020
0000
2030
0000
3020
0000
0000
0000
2030
3000
1001
0000
0000
0000
,
0001
0000
0000
0010
0000
0000
0100
0000
1000
0000
0000
0001
0000
0000
0100
0000
,
0010
0000
0000
1000
0000
0000
0100
0000
1000
0000
0000
0001
0000
0000
0100
0010
,
0100
0000
0000
0001
0000
0000
1000
0000
0100
0000
0000
0010
0000
0000
0001
0000
,
1000
0000
0000
0000
0000
0000
0000
0000
0000
0000
0000
0000
0001
0000
0000
0000
0000
0000
0000
0000
0000
0000
0000
0000
0100
0000
0000
0000
0000
0000
0000
0000
0001
0000
0000
0000
0000
0000
0000
0000
1000
0000
0000
0000
0001
0000
0000
0000
2000
3000
0000
0000
0000
0000
0000
0000
0001
0000
0000
0000
0000
0000
0000
0000
,
0000
0011
0000
0000
0100
0000
1000
0000
0000
1010
0000
0000
0010
0000
0100
0000
,
0000
0101
0000
0000
0001
0000
1000
0000
0000
1100
0000
0000
0100
0010
0100
0000
,
0000
0011
0000
0000
0001
0000
2000
0000
0000
0000
3001
0000
0000
1000
0000
0000
,
0001
0000
0000
0000
0000
0000
0000
0000
0100
0000
0000
0000
0000
0000
0000
0000
0100
0000
0000
0000
0002
0003
0000
0000
2000
0000
0000
0000
0000
0000
0000
0000
0000
0000
0000
0000
0000
0000
0000
0000
0100
0000
0000
0000
0000
0000
0000
0000
0000
0000
0000
0000
0000
0000
0000
0000
0100
0000
0000
0000
0000
0000
0000
0000
,
0000
0100
0000
3002
0000
0100
0000
0100
,
0000
0100
0000
1003
0100
0010
0000
0001
,
0100
0010
0000
1000
0100
0010
0001
0100
,
0010
0000
0000
0000
0000
0000
0000
0000
2000
3000
0000
0000
0000
0000
0000
0000
0001
0000
0000
0000
0000
0000
0000
0000
1000
0000
0000
0000
0000
0000
0000
0000
0100
0000
0000
0000
0000
0000
0000
0000
0010
0000
0000
0000
0000
0000
0000
0000
0001
0000
0000
0000
0000
0000
0000
0000
1000
0000
0000
0000
0000
0000
0000
0000
,
0010
0100
0001
1000
0100
0010
0100
1000
,
0001
0000
0100
0001
0010
0001
1000
0010
,
0100
0010
1000
0001
0010
0100
0010
0001
,
1000
0000
0010
1000
0100
1000
0010
0100
,
0001
1000
0100
0010
0001
0100
0010
1000
,
2002
3003
0000
0000
0000
0000
0000
0000
0001
0000
0000
0000
0000
0000
0000
0000
0100
0000
0000
0000
0000
0000
0000
0000
1000
0000
0000
0000
0000
0000
0000
0000
0100
0000
0000
0000
0000
0000
0000
0000
0001
0000
0000
0000
0000
0000
0000
0000
1000
0000
0000
0000
0000
0000
0000
0000
0100
0000
0000
0000
0000
0000
0000
0000
,
0001
0100
1000
0001
0010
0100
1000
0001
,
0000
1000
0000
0100
0000
0001
0000
0010
,
0000
1000
0000
0100
0000
0001
0000
0010
,
0000
1000
0000
0010
0000
0001
0000
0100
,
0000
0000
0000
0000
0000
0000
0000
0000
1000
0000
0000
0000
0000
0000
0000
0000
0010
0000
0000
0000
0000
0000
0000
0000
0001
0000
0000
0000
0000
0000
0000
0000
0000
0000
0000
0000
0000
0000
0000
0000
0100
0000
0000
0000
0000
0000
0000
0000
1000
0000
0000
0000
0000
0000
0000
0000
2002
3003
0000
0000
0000
0000
0000
0000
,
1000
0100
0010
0000
0001
1000
0010
0000
,
0100
0001
1000
0001
0010
0001
1000
0000
,
0001
0000
0010
0000
0100
0000
1000
0000
0001
0000
0000
0100
0000
0000
0010
0000
,
0100
0001
1000
0100
0010
0100
1001
0000
,
1000
0100
0001
0100
1000
0001
0001
0100
,
0010
1000
0001
0010
0100
0010
0001
0000
,
2000
3200
0302
0023
,
1030
0100
0010
0001
0010
0100
1000
0000
,
0001
0100
0010
1000
0001
0100
0010
1000
,
0001
0010
0100
0010
0001
1000
0010
1000
,
0100
0010
0001
0011
0000
1010
0000
0101
,
0000
0001
0010
0000
0001
0000
0010
0100
0000
1000
0001
1000
0001
0000
0000
0000
,
1000
0100
0001
1000
0010
0001
1000
1000
,
0001
0010
0100
0001
0100
1000
0001
0000
,
2000
3020
0032
0203
,
1300
0100
0010
0001
1000
0010
0100
0001
,
1000
0010
0001
0010
1000
1000
0001
0001
,
0100
0010
1000
0010
0100
0001
1000
0100
,
0010
0000
0001
0000
1000
0000
0010
0000
0110
0000
0000
0101
0000
0000
1001
0000
,
0000
1000
0001
0000
1000
0000
0100
1000
0000
0001
1000
0100
0010
0000
0000
0000
,
0002
0203
2300
3020
,
0032
0203
2300
3020
,
0032
0023
2030
3200
,
0302
0000
0023
0000
2030
0000
3200
0301
;

//--------------- dance-single - Fred-104 ----------------
#NOTEDATA:;
#STEPSTYPE:dance-single;
#DESCRIPTION:Fred-104;
#DIFFICULTY:Hard;
#METER:15;
#CREDIT:Fred-104;
#NOTES:
0000
0000
0000
0000
,
0000
0000
0000
0000
,
0000
0000
0000
0000
,
1000
0100
0010
0001
1000
0000
0001
0100
0010
1000
0001
0010
0100
0000
0000
0000
,
1000
0001
0100
0000
0000
0000
0001
1000
0010
1000
0001
0010
0100
0000
0000
0000
,
2000
3002
0203
2300
3200
0320
2030
3001
,
0020
0230
0302
0203
0320
0032
2003
3002
,
1003
0000
0000
0000
0000
0000
0001
0000
0000
0000
0000
0000
0100
0000
0000
0010
0000
0000
0100
0000
0000
0000
0000
0000
2000
0000
0000
0000
0000
0000
3200
0000
0000
0000
0000
0000
0302
0000
0000
0000
0000
0000
1003
0000
0100
0000
1000
0000
,
0100
0000
1000
0001
1000
0000
0002
0000
0103
0010
1000
0000
1001
0000
0000
0000
,
1000
0001
1000
0001
0100
0000
0010
0000
0001
0000
0010
1000
0001
0000
0010
0100
,
1000
0000
0010
0000
0200
0000
2300
0000
0000
3100
0010
0000
2000
0000
3002
0000
,
0013
0100
0010
0100
1000
0000
0001
0000
0100
0001
0100
0001
1000
0000
0100
0000
,
0010
0000
2000
0000
3020
0000
0032
0000
1003
0000
0002
0003
0101
0000
0000
0000
,
1000
0010
1000
0010
0100
0000
1000
0000
0100
0000
0001
1000
0001
0000
0010
0100
,
1000
0000
0001
0000
0200
0000
2300
0000
0000
3100
0010
0000
2000
0000
3001
0010
,
0100
1000
0100
1000
0001
0000
0100
0000
0010
1000
0001
1000
0100
0000
0010
0000
,
0001
0000
0200
0000
0320
0000
0032
0000
0013
0000
0100
0001
1000
0000
0001
0000
,
0010
0000
0010
0100
1000
0001
1000
0000
0010
0000
0010
0100
0000
0100
0001
1000
,
0010
0000
0000
0000
0000
0000
0100
0000
0000
0001
0000
0000
0000
0000
0000
0100
0000
0000
1000
0000
0000
0000
0000
0000
0100
0000
0000
0010
0000
0000
0100
0000
0000
0010
0000
0000
1000
0000
0000
0000
0000
0000
0001
0000
0010
0000
0001
0000
,
0010
0000
0001
1000
0000
0100
0001
0000
0100
0000
0010
0001
0000
0001
1000
0010
,
1000
0000
0000
0000
0000
0000
0000
0000
0001
0000
0000
0000
0010
0000
0000
0000
0000
0000
0000
0000
1000
0000
0000
0000
0010
0000
0000
0000
0000
0000
0000
0000
0001
0000
0000
0000
0010
0000
0000
0000
0100
0000
0000
0000
1000
0000
0000
0000
0002
0003
0000
0000
0000
0000
0000
0000
1000
0000
0000
0000
0001
0000
0000
0000
,
0100
0001
1000
0100
0010
0000
0011
0000
0000
1010
0000
0001
1000
0000
1100
0000
,
0000
0000
0000
0110
0000
0000
0000
0000
0000
0000
0000
0000
0010
0000
0000
0001
0000
0000
1000
0000
0000
0000
0000
0000
0001
0000
0000
0100
0000
0000
0000
0000
0000
0000
0000
0000
0001
0000
1000
0000
0001
0000
1000
0000
0000
0000
0000
0000
,
0000
0000
0000
0000
1100
0000
0000
0000
0000
0000
0000
0000
0100
0000
0000
0000
0010
0000
0000
0000
0000
0000
0000
0000
0002
0003
0000
0000
2000
3000
0000
0000
0001
0000
0000
0000
1000
0000
0000
0000
0010
0000
0000
0000
0000
0000
0000
0000
0100
0000
0000
0000
0001
0000
0000
0000
1000
0000
0000
0000
0001
0000
0000
0000
,
0010
0000
0000
0000
0100
0000
0000
0000
1000
0000
0000
0000
0001
0000
0000
0000
0100
0000
0000
0000
0002
0003
0000
0000
2000
0000
0000
0000
0000
0000
0000
0000
0000
0000
0000
0000
0000
0000
0000
0000
0100
0000
0000
0000
0000
0000
0000
0000
0000
0000
0000
0000
0000
0000
0000
0000
0010
0000
0000
0000
0000
0000
0000
0000
,
0000
3001
0000
0200
0000
0001
0000
0010
,
0000
0301
0000
1000
0001
0100
0010
1000
,
0001
0000
0010
0000
0100
0000
1000
0100
1000
0000
0001
0100
0001
0000
1000
0100
,
0010
0000
0000
0000
0001
0000
0000
0000
2000
3000
0000
0000
0000
0000
0000
0000
0002
0000
0000
0000
0000
0000
0000
0000
0100
0000
0000
0000
0000
0000
0000
0000
2003
0000
0000
0000
0000
0000
0000
0000
0010
0000
0000
0000
0000
0000
0000
0000
3002
0000
0000
0000
0000
0000
0000
0000
0023
0000
0000
0000
0000
0000
0000
0000
,
0230
0000
1300
0001
0200
0000
0320
0000
2030
0000
3001
0010
0200
0000
1300
0010
,
0100
0001
2000
0000
3200
0000
1000
0000
0320
0000
0001
0000
0230
0000
2300
0000
,
3002
0000
0000
0000
0000
0000
0103
0000
0010
0000
0100
0000
0020
0000
0000
0000
0000
0000
1030
0000
0000
0001
0000
0000
0020
0000
0000
0000
0000
0000
0230
0000
0000
0000
0000
0000
1300
0000
0000
0100
0000
0000
2000
0000
0000
0000
0000
0000
,
3002
0000
0000
0103
0001
0100
0002
0000
0000
0100
0000
0000
2003
0000
0000
0010
0000
0000
3002
0000
0000
2003
0000
0000
,
3200
0000
0310
0001
2000
0000
3002
0000
0203
0000
0310
0100
0002
0000
1003
0001
,
2000
3000
0000
0000
0000
0000
0000
0000
0002
0000
0000
0000
0000
0000
0000
0000
0100
0000
0000
0000
0000
0000
0000
0000
2003
0000
0000
0000
0000
0000
0000
0000
0010
0000
0000
0000
0000
0000
0000
0000
3002
0000
0000
0000
0000
0000
0000
0000
0203
0000
0000
0000
0000
0000
0000
0000
0302
0000
0000
0000
0000
0000
0000
0000
,
1003
0000
0100
0000
1000
0000
0200
0000
0000
0000
0000
0000
0310
0000
0000
0001
0000
0000
2000
0000
0000
0000
0000
0000
3002
0000
0000
0000
0000
0000
0103
0000
0000
0010
0000
0000
1000
0000
0000
0001
0000
0000
0020
0000
0000
0000
0000
0000
,
0130
1000
0100
2000
0000
0000
0000
0000
0000
0010
0000
0000
0000
0000
0000
0001
0000
0000
0000
0000
0000
3100
0000
0000
,
0010
0002
0000
0100
0000
1000
0000
0013
,
0100
2000
0000
0001
0000
0100
0000
3010
,
1000
0000
0000
0000
0000
0000
0000
0000
0001
0000
0000
0000
0000
0000
0000
0000
1000
0000
0000
0000
0000
0000
0000
0000
0010
0000
0000
0000
0000
0000
0000
0000
0001
0000
0000
0000
0000
0000
0000
0000
0010
0000
0000
0000
0000
0000
0000
0000
1000
0000
0000
0000
0000
0000
0000
0000
2002
3003
0000
0000
0000
0000
0000
0000
,
0001
0010
1000
0010
0001
1000
0010
0001
,
0010
0100
1000
0100
0010
1000
0100
0010
,
0001
1000
0010
1000
0001
0000
0010
0100
1000
0001
1000
0010
0000
1000
0001
0000
,
1000
0100
0010
0001
1000
0100
0010
0000
0001
1000
0001
1000
0001
0000
0000
0000
,
1000
0000
0000
0000
0000
0000
0001
0000
0000
0100
0000
0000
0010
0000
0000
0000
0000
0000
1000
0000
0001
0000
1000
0000
0001
0000
0000
0000
0000
0000
0010
0000
0000
0100
0000
0000
1000
0000
0000
0000
0000
0000
0001
0000
0000
0000
0000
0000
,
2000
0000
3200
0000
0302
0000
0203
0000
0310
0001
1000
0000
0002
0000
0203
0000
,
0310
1000
0010
0100
0002
0000
0000
0000
1003
0100
1000
0100
0010
0100
0010
0100
,
1000
0000
0001
0010
0100
1000
0001
0100
0010
0100
0010
1000
0001
0010
0100
1000
,
0001
0100
0010
1000
0001
0100
0010
1000
0001
1000
0100
0010
0001
1000
0100
0010
,
0001
1000
0010
1000
0001
1000
0010
1000
0001
0010
0100
1000
0100
0010
0001
1000
,
0001
0011
1000
1010
0000
0101
0000
1001
,
0000
0001
0010
0100
1000
0001
0010
0100
0000
1000
0100
0010
0001
0000
0000
0000
,
1000
0000
0000
0000
0000
0000
0010
0000
0000
0000
0000
0000
0100
0000
0000
0000
0000
0000
0001
0000
1000
0000
0001
0000
1000
0000
0000
0000
0000
0000
0001
0000
0000
0100
0000
0000
0010
0000
0000
1000
0000
0000
0001
0000
0000
0000
0000
0000
,
0020
0000
0230
0000
2300
0000
3020
0000
0130
1000
0200
0000
0302
0000
0000
0000
,
1003
0100
0010
0001
0020
0000
0000
0000
0031
1000
0010
1000
0001
1000
0100
1000
,
0001
0100
0010
1000
0001
0010
0100
1000
0001
0010
0100
1000
0001
0100
0010
1000
,
0001
0010
0100
1000
0100
0010
0001
1000
0001
0000
0011
0000
1100
0000
0101
0000
,
1000
0100
0010
0001
1000
0010
0100
0001
0100
0010
1000
0001
0010
0100
0010
0001
,
1000
0100
0001
0000
1000
0010
0001
0000
1100
0000
0000
0101
0000
0000
1001
0000
,
0000
0001
0100
0010
1000
0001
0100
0010
0000
1000
0100
0010
0001
0000
0000
0000
,
1000
0100
0010
0000
0010
0001
0100
0000
0100
0010
1000
0000
1000
0001
0010
0000
,
0010
0100
1000
0000
1000
0010
0100
0000
0100
0010
1000
0000
1000
0001
0010
0000
,
0001
0010
0100
0000
1000
0010
0100
0000
0001
0010
0100
0000
1000
0010
0100
0000
,
0001
0100
0010
0000
1000
0100
0010
0000
0001
0100
0010
0000
1000
0100
0010
0000
;

//--------------- dance-double - Fred-104 ----------------
#NOTEDATA:;
#STEPSTYPE:dance-double;
#DESCRIPTION:Fred-104;
#DIFFICULTY:Easy;
#METER:8;
#CREDIT:Fred-104;
#NOTES:
00000000
00000000
00000000
00000000
,
00000000
00000000
00000000
00000000
,
00000000
00000000
00000000
00000000
,
20000000
30000000
00010000
01000000
,
20000000
30000000
01000000
01010000
,
00002000
00000000
00023000
00030020
,
00002030
00000000
00003002
00000203
,
00001300
00000000
00010000
00000000
01000000
00100000
01000000
00000000
,
10000000
01000000
00100000
00110000
,
00001000
00010000
01000000
00010000
,
00001000
00010000
00001000
00000000
,
00010000
00001000
00000100
00001000
,
00010000
00000000
00000100
00000000
00001000
00000100
00001000
00000000
,
00000001
00000010
00001000
00010000
,
00001000
00000010
00000001
00000000
,
00001000
00000100
00000001
00000100
,
00001000
00000000
00000001
00000000
00000100
00001000
00010000
00000000
,
00011000
00000000
00001000
00000000
,
01000000
00000000
00010000
10000000
,
01000000
00000000
00100000
00000000
,
00001000
00000000
00010000
00000000
00001000
00000000
00010000
00000010
,
00000000
00000000
00000000
00001000
00000000
00000000
00000000
00000001
,
00000000
00000000
00000000
00000100
00000000
00001000
00000000
00010000
,
00000000
00000000
00000000
00011000
00000000
00010000
00000000
00000010
,
00000000
00001001
00000000
00000002
00000000
00000000
00000000
00000000
,
00000000
00000000
00000000
00002003
00000000
00000000
00000000
00000000
,
00000000
00000000
00000000
00003001
00000000
00000100
00000000
00001000
,
00000000
00010000
00000000
00100000
00000000
10000000
00000000
01000000
,
00100000
00001000
00020000
00000000
00032000
00000000
00003020
00000000
,
00002030
00000000
00013000
00000000
00001000
00000000
01000000
00100000
,
01000000
00020000
02030000
23000000
,
32000000
00000000
03010000
00000000
10000000
00000000
01000000
00100000
,
00001000
00020000
00230000
20300000
,
30200000
00000000
00310000
00000000
00001000
00000000
00010000
00001000
,
00010000
00002000
00000000
00003200
00000000
00000302
00000000
00000203
,
00000000
00001300
00000000
00010000
00000000
00001000
00010000
00001000
,
00000000
00011000
00000000
00000000
00000000
00001000
00000000
00000000
,
00000000
00010000
00000000
01000000
00000000
10000000
00000000
00100000
,
00000000
00010000
00000000
00000000
00000000
00001000
00000000
00000000
,
00000000
00000100
00000000
00000001
00000000
00000010
00001000
00010000
,
00001000
00010000
00100000
10000000
,
01000000
00010000
00001000
00010000
,
00001000
00010000
00001000
00000000
00010000
00000010
00001000
00000000
,
00000100
00000010
00000001
00000100
00000010
00000000
00000110
00000000
,
00001000
00000000
00000001
00000000
00000100
00000010
00000100
00000000
,
00000002
00000023
00002030
00023000
,
02030000
00000000
23000000
00000000
,
30010000
10000000
01000000
00100000
,
00001000
00001000
00010000
00010000
,
00000010
00000010
00001000
00001000
,
00000001
00000000
00000100
00000000
00000000
00000110
00000000
00001010
,
00000000
00010000
00001000
00011000
,
00001000
00000000
00010000
00000000
00100000
01000000
00100000
00000000
,
20000000
32000000
03020000
02030000
,
23000000
00000000
30020000
00000000
,
01030000
00100000
00010000
00001000
,
00000100
00000000
00000010
00000000
00001000
00001000
00000001
00000001
,
00000010
00000100
00010000
00001000
,
01000000
00000000
00000000
00000000
00010000
00000000
00000000
00000000
10000000
00000000
00000000
11000000
00000000
00000000
01010000
00000000
,
00000000
00100000
00001000
00011000
,
00010000
00001000
00000010
00000001
,
00000100
00001000
00010000
00100000
,
10000000
01000000
00010000
00001000
,
00000010
00000000
00000001
00000000
00001000
00000000
00000002
00000003
;

//--------------- dance-double - Fred-104 ----------------
#NOTEDATA:;
#STEPSTYPE:dance-double;
#DESCRIPTION:Fred-104;
#DIFFICULTY:Medium;
#METER:11;
#CREDIT:Fred-104;
#NOTES:
00000000
00000000
00000000
00000000
,
00000000
00000000
00000000
00000000
,
00000000
00000000
00000000
00000000
,
00000001
00000100
00001000
00000000
00010000
01000000
10000000
00000000
,
00010000
01000000
00100000
00010000
00001000
00000100
00000010
00000000
,
00001000
00000001
00000100
00000001
00001000
00000001
00001000
00000000
,
00000100
00010000
00001000
00010000
00100000
01000000
00010000
00010000
,
10000000
01000000
00100000
00001000
00010000
00001000
00010000
00000000
,
00001000
00010000
00000010
00001000
00000001
00001000
00001001
00000000
,
00001000
00000010
00001000
00000010
00001000
00000000
00000001
00000000
00000010
00000000
00000100
00000000
00001000
00000000
00000000
00000000
,
00000001
00000100
00001000
00010000
00000000
00001000
00010000
00000000
,
01000000
00100000
01000000
00100000
01000000
00000000
00100000
00000000
00010000
00000000
10000000
00000000
01000000
00000000
00000000
00000000
,
00100000
00002000
00023000
00030020
00000000
00001030
00001001
00000000
,
00000001
00000100
00000001
00000100
00000001
00000000
00001000
00000000
00000001
00000000
00000010
00000000
00000100
00000000
00000000
00000000
,
00010000
00001000
00010000
00100000
00000000
01000000
00010000
00000000
,
01000000
00100000
01000000
00100000
01000000
00000000
00010000
00000000
10000000
00000000
01000000
00000000
00100000
00000000
00000000
00000000
,
00002000
00023000
00030020
00002030
00000000
00003001
00001001
00000000
,
00000001
00000000
00000000
00000100
00000000
00000000
00001000
00000000
00010000
00000000
00000000
01000000
00000000
00000000
10000000
00000000
,
10000000
00000000
00000000
00100000
00000000
00000000
00010000
00000000
00001000
00000000
00000000
00000010
00000000
00000000
00000001
00001000
,
00000001
00000000
00000000
00000100
00000000
00000000
00000010
00000000
00001000
00000000
00000000
00000001
00000000
00000000
00000010
00000000
,
00000100
00000000
00000000
00000000
00000000
00000000
00000000
00000000
00000000
00000000
00000000
00000000
00010000
00000000
00000000
00000000
00000000
00000000
00000000
00000000
00000000
00000000
00000000
00000000
00001000
00000000
00000000
00000000
00000000
00000000
00000000
00000000
00010000
00000000
00000000
00000000
00000000
00000000
00000000
00000000
00001000
00000000
00000000
00000000
00010000
00000000
00000000
00000000
00002000
00003000
00000000
00000000
00000000
00000000
00000000
00000000
01000000
00000000
00000000
00000000
00000000
00000000
00000000
00000000
,
00000000
01010000
00000000
00000000
00100000
00000000
10000000
00000000
00000000
11000000
00000000
00000000
00100000
00000000
00001000
00000000
,
00000000
00011000
00000000
00000000
00010000
00000000
00000010
00000000
00000000
00001001
00000000
00000000
00001000
00000000
00000100
00000000
,
00000000
00000110
00000000
00000000
00000010
00000000
00000002
00000000
00000000
00000000
00000103
00000000
00000000
00001000
00000000
00000000
,
00010000
00000000
00000000
00000000
00000000
00000000
00000000
00000000
00001000
00000000
00000000
00000000
00000000
00000000
00000000
00000000
00000000
00000000
00000000
00000000
00022000
00033000
00000000
00000000
02000000
00000000
00000000
00000000
00000000
00000000
00000000
00000000
00000000
00000000
00000000
00000000
00000000
00000000
00000000
00000000
00010000
00000000
00000000
00000000
00000000
00000000
00000000
00000000
00000000
00000000
00000000
00000000
00000000
00000000
00000000
00000000
10000000
00000000
00000000
00000000
00000000
00000000
00000000
00000000
,
00000000
03010000
00000000
20000000
00000000
00100000
00000000
00010000
,
00000000
30100000
00000000
10000000
01000000
00100000
00000000
00001000
,
00010000
00000010
00000000
00001000
00000100
00000010
00000001
00000100
,
00001000
00000000
00000000
00000000
00000000
00000000
00000000
00000000
00020000
00030000
00000000
00000000
00000000
00000000
00000000
00000000
00001000
00000000
00000000
00000000
00000000
00000000
00000000
00000000
00010000
00000000
00000000
00000000
00000000
00000000
00000000
00000000
00000010
00000000
00000000
00000000
00000000
00000000
00000000
00000000
00001000
00000000
00000000
00000000
00000000
00000000
00000000
00000000
00000010
00000000
00000000
00000000
00000000
00000000
00000000
00000000
00010000
00000000
00000000
00000000
00000000
00000000
00000000
00000000
,
00001000
00100000
01000000
10000000
01000000
00100000
00001000
00010000
,
00100000
00000000
10000000
01000000
00100000
00001000
00010000
00001000
,
00000010
00000001
00000010
00000100
00001000
00000001
00000100
00001000
,
00010000
00000000
00001000
00010000
01000000
10000000
01000000
00100000
,
00010000
00100000
00001000
00010000
00001000
00000100
00000001
00000100
,
00000220
00000330
00000000
00000000
00000000
00000000
00000000
00000000
00000010
00000000
00000000
00000000
00000000
00000000
00000000
00000000
00001000
00000000
00000000
00000000
00000000
00000000
00000000
00000000
00000001
00000000
00000000
00000000
00000000
00000000
00000000
00000000
00000100
00000000
00000000
00000000
00000000
00000000
00000000
00000000
00000010
00000000
00000000
00000000
00000000
00000000
00000000
00000000
00000100
00000000
00000000
00000000
00000000
00000000
00000000
00000000
00001000
00000000
00000000
00000000
00000000
00000000
00000000
00000000
,
00010000
00100000
01000000
00010000
10000000
01000000
00100000
00001000
,
00000000
00010000
00000000
01000000
00000000
10000000
00000000
00100000
,
00000000
00010000
00000000
00001000
00000000
00000100
00000000
00000001
,
00000000
00000010
00000000
00001000
00000000
00010000
00000000
01000000
,
00000000
00000000
00000000
00000000
00000000
00000000
00000000
00000000
10000000
00000000
00000000
00000000
00000000
00000000
00000000
00000000
00000000
00000000
00000000
00000000
00000000
00000000
00000000
00000000
00100000
00000000
00000000
00000000
00000000
00000000
00000000
00000000
00000000
00000000
00000000
00000000
00000000
00000000
00000000
00000000
00010000
00000000
00000000
00000000
00000000
00000000
00000000
00000000
00001000
00000000
00000000
00000000
00000000
00000000
00000000
00000000
00022000
00033000
00000000
00000000
00000000
00000000
00000000
00000000
,
00001000
00010000
00100000
00000000
01000000
00010000
10000000
00000000
,
01000000
00100000
00001000
00000000
00010000
00000100
00000010
00000000
,
00000001
00000000
00000100
00000000
00001000
00000000
00000100
00000000
00000001
00000000
00001000
00000100
00000000
00001000
00000100
00000000
,
00000010
00000001
00000100
00001000
00010000
00001000
00011000
00000000
,
00001000
00010000
00100000
00010000
00001000
00010000
00010000
00001000
,
00100000
00001000
00010000
00001000
01000000
00001000
00010000
00000000
,
00002000
00023000
02030000
03200000
,
00301000
00010000
01000000
10000000
01000000
00100000
00010000
00000000
,
00100000
00001000
00010000
00001000
00000010
00000001
00000010
00000100
,
00001000
00000010
00000100
00001000
00010000
00100000
01000000
00000000
,
00010000
10000000
01000000
01100000
00000000
00101000
00000000
00011000
,
00000000
00010000
00001000
00000000
00010000
00000000
00000010
00001000
00000000
00000001
00000100
00000001
00000100
00000000
00000000
00000000
,
00000001
00001000
00000100
00000010
00000001
00000100
00001000
00010000
,
00100000
01000000
00010000
10000000
01000000
00100000
00100000
00000000
,
00002000
00023000
00230000
02300000
,
03001000
00010000
00100000
00000000
01000000
00010000
10000000
00000000
,
01000000
00100000
00001000
00010000
00001000
00001000
00010000
00010000
,
00001000
00010000
00000010
00001000
00000100
00000010
00000001
00000000
,
00001000
00000000
00000001
00000000
00000100
00000000
00000010
00000000
00001010
00000000
00000000
00000101
00000000
00000000
00001100
00000000
,
00000000
00000001
00000010
00000000
00000100
00000000
00010000
00001000
00000000
01000000
00001000
01000000
00001000
00000000
00000000
00000000
,
00020000
00032000
00003020
00000032
,
00000203
00002300
00023000
00230000
,
20300000
32000000
03020000
00032000
,
00003020
00000000
00000032
00000000
00002003
00000000
00003002
00000003
;

//--------------- dance-double - Fred-104 ----------------
#NOTEDATA:;
#STEPSTYPE:dance-double;
#DESCRIPTION:Fred-104;
#DIFFICULTY:Hard;
#METER:15;
#CREDIT:Fred-104;
#NOTES:
00000000
00000000
00000000
00000000
,
00000000
00000000
00000000
00000000
,
00000000
00000000
00000000
00000000
,
00010000
00001000
00010000
00000000
00000000
00000000
00000010
00001000
00000010
00000000
00001000
00000001
00001000
00000000
00000000
00000000
,
00000001
00000010
00000100
00000000
00000000
00000000
00010000
00001000
00010000
00000000
00001000
01000000
00001000
00000000
00000000
00000000
,
00020000
00032000
00003200
00000320
00000230
00002300
00023000
00000000
,
00032000
02003000
03020000
20030000
32000000
03200000
00302000
00023000
,
00031000
00000000
00000000
00000000
00000000
00000000
00000010
00000000
00000000
00000000
00000000
00000000
00000001
00000000
00000000
00001000
00000000
00000000
00000001
00000000
00000000
00000000
00000000
00000000
00000020
00000000
00000000
00000000
00000000
00000000
00000230
00000000
00000000
00000000
00000000
00000000
00020300
00000000
00000000
00000000
00000000
00000000
00031000
00000000
00010000
00000000
00001000
00000000
,
00010000
00000000
00001000
01000000
00001000
00000000
00200000
00000000
00310000
10000000
00100000
00000000
10010000
00000000
00000000
00000000
,
10000000
01000000
10000000
01000000
00100000
00000000
00001000
00000000
00010000
00000000
00001000
01000000
00001000
00000000
00010000
00000000
,
00001000
00000000
00000100
00000000
00000020
00000000
00002030
00000000
00000000
00003010
00000100
00000000
00000002
00000000
00002003
00000000
,
00003100
00000010
00000100
00000010
00000001
00000000
00001000
00000000
00000010
00000000
00000100
00000000
00001000
00000000
00010000
00000000
,
00100000
00000000
20000000
00000000
32000000
00000000
03200000
00000000
01300000
00000000
20000000
30000000
10010000
00000000
00000000
00000000
,
00010000
10000000
00010000
10000000
01000000
00000000
00100000
00000000
00001000
00000000
00010000
00000010
00010000
00000000
00000010
00000000
,
00001000
00000000
00000001
00000000
00000020
00000000
00000230
00000000
00000000
00001300
00000100
00000000
00020000
00000000
00032000
00000000
,
01003000
00001000
01000000
00001000
00010000
00000000
00001000
00000000
00100000
00010000
00100000
00010000
10000000
00000000
00100000
00000000
,
00010000
00000000
00002000
00000000
00003020
00000000
00000230
00000000
00001300
00000000
00000100
00000010
00000100
00000000
00000010
00000000
,
00000001
00000000
00001000
00000001
00001000
00000100
00010000
00000000
00001000
00000000
00000000
01000000
00000000
00000000
00010000
10000000
,
01000000
00000000
00000000
00000000
00000000
00000000
00010000
00000000
00000000
01000000
00000000
00000000
00000000
00000000
00000000
00100000
00000000
00000000
00010000
00000000
00000000
00000000
00000000
00000000
10000000
00000000
00000000
00010000
00000000
00000000
01000000
00000000
00000000
00100000
00000000
00000000
10000000
00000000
00000000
00000000
00000000
00000000
00010000
00000000
00100000
00000000
00010000
00000000
,
00100000
00000000
00001000
00010000
00000000
00000010
00001000
00000000
00000010
00000000
00010000
00001000
00000000
00010000
00000100
00001000
,
00000100
00000000
00000000
00000000
00000000
00000000
00000000
00000000
00000010
00000000
00000000
00000000
00000001
00000000
00000000
00000000
00000000
00000000
00000000
00000000
00001000
00000000
00000000
00000000
00000001
00000000
00000000
00000000
00000000
00000000
00000000
00000000
00001000
00000000
00000000
00000000
00000010
00000000
00000000
00000000
00010000
00000000
00000000
00000000
00001000
00000000
00000000
00000000
00020000
00030000
00000000
00000000
00000000
00000000
00000000
00000000
00001000
00000000
00000000
00000000
01000000
00000000
00000000
00000000
,
00010000
01000000
00001000
00010000
00001000
00000000
01001000
00000000
00000000
01010000
00000000
00010000
10000000
00000000
11000000
00000000
,
00000000
00000000
00000000
01010000
00000000
00000000
00000000
00000000
00000000
00000000
00000000
00000000
10000000
00000000
00000000
01000000
00000000
00000000
00100000
00000000
00000000
00000000
00000000
00000000
00001000
00000000
00000000
00010000
00000000
00000000
00000000
00000000
00000000
00000000
00000000
00000000
00001000
00000000
00010000
00000000
00001000
00000000
00010000
00000000
00000000
00000000
00000000
00000000
,
00000000
00000000
00000000
00000000
00010100
00000000
00000000
00000000
00000000
00000000
00000000
00000000
00010000
00000000
00000000
00000000
00001000
00000000
00000000
00000000
00000000
00000000
00000000
00000000
00020000
00030000
00000000
00000000
00022000
00033000
00000000
00000000
00001000
00000000
00000000
00000000
00100000
00000000
00000000
00000000
00001000
00000000
00000000
00000000
00000000
00000000
00000000
00000000
00010000
00000000
00000000
00000000
00000010
00000000
00000000
00000000
00010000
00000000
00000000
00000000
00000000
00000000
00000000
00000000
,
00001000
00000000
00000000
00000000
01000000
00000000
00000000
00000000
00001000
00000000
00000000
00000000
00000000
00000000
00000000
00000000
00010000
00000000
00000000
00000000
00002000
00003000
00000000
00000000
00020000
00000000
00000000
00000000
00000000
00000000
00000000
00000000
00000000
00000000
00000000
00000000
00000000
00000000
00000000
00000000
00001000
00000000
00000000
00000000
00000000
00000000
00000000
00000000
00000000
00000000
00000000
00000000
00000000
00000000
00000000
00000000
00000010
00000000
00000000
00000000
00000000
00000000
00000000
00000000
,
00000000
00031000
00000000
00020000
00000000
00001000
00000000
00100000
,
00000000
00031000
00000000
00010000
00001000
00000100
00000001
00001000
,
00000100
00000000
00000010
00000000
00000001
00000000
00001000
00000100
00001000
00000000
00000001
00000100
00000001
00000000
00001000
00000100
,
00010000
00000000
00000000
00000000
00001000
00000000
00000000
00000000
00020000
00030000
00000000
00000000
00000000
00000000
00000000
00000000
00002000
00000000
00000000
00000000
00000000
00000000
00000000
00000000
00010000
00000000
00000000
00000000
00000000
00000000
00000000
00000000
00203000
00000000
00000000
00000000
00000000
00000000
00000000
00000000
00001000
00000000
00000000
00000000
00000000
00000000
00000000
00000000
00320000
00000000
00000000
00000000
00000000
00000000
00000000
00000000
00230000
00000000
00000000
00000000
00000000
00000000
00000000
00000000
,
02300000
00000000
13000000
00010000
02000000
00000000
03200000
00000000
20300000
00000000
31000000
00100000
00002000
00000000
00023000
00000000
,
00030100
00001000
00000002
00000000
00002003
00000000
00000010
00000000
00003002
00000000
00000100
00000000
00002003
00000000
00003020
00000000
,
00020030
00000000
00000000
00000000
00000000
00000000
00031000
00000000
00010000
00000000
00001000
00000000
00020000
00000000
00000000
00000000
00000000
00000000
00130000
00000000
00000000
01000000
00000000
00000000
00200000
00000000
00000000
00000000
00000000
00000000
20300000
00000000
00000000
00000000
00000000
00000000
30010000
00000000
00000000
00100000
00000000
00000000
00020000
00000000
00000000
00000000
00000000
00000000
,
20030000
00000000
00000000
31000000
00100000
01000000
00200000
00000000
00000000
00010000
00000000
00000000
02300000
00000000
00000000
10000000
00000000
00000000
03200000
00000000
00000000
00302000
00000000
00000000
,
00023000
00000000
00031000
00000010
00000002
00000000
00000023
00000000
00000230
00000000
00010300
00001000
02000000
00000000
03100000
10000000
,
00020000
00030000
00000000
00000000
00000000
00000000
00000000
00000000
00200000
00000000
00000000
00000000
00000000
00000000
00000000
00000000
00001000
00000000
00000000
00000000
00000000
00000000
00000000
00000000
00320000
00000000
00000000
00000000
00000000
00000000
00000000
00000000
00100000
00000000
00000000
00000000
00000000
00000000
00000000
00000000
20030000
00000000
00000000
00000000
00000000
00000000
00000000
00000000
30200000
00000000
00000000
00000000
00000000
00000000
00000000
00000000
02300000
00000000
00000000
00000000
00000000
00000000
00000000
00000000
,
03010000
00000000
10000000
00000000
00010000
00000000
10000000
00000000
00000000
00000000
00000000
00000000
01000000
00000000
00000000
00100000
00000000
00000000
02000000
00000000
00000000
00000000
00000000
00000000
03200000
00000000
00000000
00000000
00000000
00000000
00301000
00000000
00000000
00010000
00000000
00000000
00000010
00000000
00000000
00010000
00000000
00000000
00002000
00000000
00000000
00000000
00000000
00000000
,
00013000
00001000
00010000
00001000
00000000
00000000
00000000
00000000
00000000
00010000
00000000
00000000
00000000
00000000
00000000
00001000
00000000
00000000
00000000
00000000
00000000
00000100
00000000
00000000
,
00000000
00000001
00000000
00000010
00000000
00001000
00000000
00010000
,
00000000
00001000
00010000
00100000
00000000
01000000
00010000
10000000
,
00000000
00000000
00000000
00000000
00000000
00000000
00000000
00000000
01000000
00000000
00000000
00000000
00000000
00000000
00000000
00000000
00100000
00000000
00000000
00000000
00000000
00000000
00000000
00000000
00001000
00000000
00000000
00000000
00000000
00000000
00000000
00000000
00010000
00000000
00000000
00000000
00000000
00000000
00000000
00000000
00000100
00000000
00000000
00000000
00000000
00000000
00000000
00000000
00000010
00000000
00000000
00000000
00000000
00000000
00000000
00000000
00000022
00000033
00000000
00000000
00000000
00000000
00000000
00000000
,
00000001
00000000
00000100
00000000
00001000
00000000
00010000
00000000
01000000
00000000
10000000
00000000
00010000
00000000
10000000
00010000
,
10000000
00000000
00100000
00000000
00010000
00000000
00001000
00000000
00000010
00000000
00000001
00000000
00001000
00000000
00000001
00001000
,
00000001
00000100
00000001
00000100
00000010
00000000
00001000
00000000
00000001
00000000
00000010
00000100
00000000
00010000
00001000
00000000
,
00100000
00010000
00100000
00010000
10000000
00010000
10000000
00000000
00010000
01000000
00001000
00010000
00001000
00000000
00000000
00000000
,
00010000
00000000
00000000
00000000
00000000
00000000
00001000
00000000
00000000
00000000
00000000
00000000
00000100
00000000
00000000
00000000
00000000
00000000
00000010
00000000
00001000
00000000
00000010
00000000
00001000
00000000
00000000
00000000
00000000
00000000
00000001
00000000
00000000
00000010
00000000
00000000
00000100
00000000
00000000
00000000
00000000
00000000
00001000
00000000
00000000
00000000
00000000
00000000
,
00000020
00000000
00000230
00000000
00002300
00000000
00023000
00000000
00130000
01000000
00010000
00000000
10000000
00010000
20000000
00000000
,
31000000
00100000
01000000
00100000
02000000
00000000
00000000
00000000
03100000
00010000
00100000
00000000
00001000
00010000
00001000
00000000
,
00010000
00000010
00001000
00000010
00010000
00000010
00001000
00000000
00000001
00000010
00000100
00000010
00000001
00000010
00000100
00000000
,
00010000
00001000
00010000
00000000
00001000
00100000
00010000
00000000
10000000
00100000
01000000
00000000
00010000
10000000
01000000
00000000
,
00100000
00010000
00100000
00001000
00010000
00000010
00001000
00000010
00000100
00000001
00001000
00000100
00000010
00000001
00001000
00000001
,
00000100
00000101
00000001
00001001
00000000
00000110
00000000
00001001
,
00000000
00000001
00000010
00000100
00001000
00000001
00000010
00000100
00000000
00010000
00001000
00010000
00001000
00000000
00000000
00000000
,
01000000
00000000
00000000
00000000
00000000
00000000
00001000
00000000
00000000
00000000
00000000
00000000
00010000
00000000
00000000
00000000
00000000
00000000
00000010
00000000
00010000
00000000
00000010
00000000
00010000
00000000
00000000
00000000
00000000
00000000
00001000
00000000
00000000
01000000
00000000
00000000
00010000
00000000
00000000
10000000
00000000
00000000
00100000
00000000
00000000
00000000
00000000
00000000
,
02000000
00000000
03002000
00000000
00023000
00000000
00230000
00000000
01300000
00010000
10000000
00000000
02000000
00000000
03200000
00000000
,
00301000
00010000
00001000
00010000
00002000
00000000
00000000
00000000
00013000
00000100
00001000
00000100
00000010
00000001
00000010
00000000
,
00000001
00001000
00000001
00000100
00000001
00001000
00000100
00000000
00010000
00001000
00010000
00000010
00010000
00001000
00010000
00000000
,
00001000
00100000
00010000
00100000
00001000
00100000
00010000
00100000
00001000
00000000
00011000
00000000
00010000
00000000
00010010
00000000
,
00000010
00001000
00000010
00001000
00000001
00000010
00000001
00000010
00000100
00001000
00000100
00001000
00000001
00000100
00000001
00000100
,
00000001
00001000
00000100
00000000
00001000
00000001
00000100
00000000
00000110
00000000
00000000
00001010
00000000
00000000
00001001
00000000
,
00000000
00000001
00000010
00000100
00010000
00001000
00010000
00001000
00000000
01000000
00100000
10000000
00010000
00000000
00000000
00000000
,
10000000
01000000
10000000
00000000
01000000
00100000
01000000
00000000
00100000
00010000
00100000
00000000
00001000
00010000
00001000
00000000
,
00010000
00000010
00010000
00000000
00000010
00001000
00000010
00000000
00000100
00000010
00000100
00000000
00000001
00000100
00000001
00000000
,
00001000
00000100
00000010
00000000
00000001
00001000
00000010
00000000
00010000
00001000
00100000
00000000
00010000
10000000
00100000
00000000
,
01000000
00010000
10000000
00000000
01000000
00100000
00001000
00000000
00010000
00000100
00000010
00000000
00000001
00001000
00000010
00000000
;
