#TITLE:Storm Buster;
#ARTIST:P*Light;
#BANNER:Storm Buster.png;
#BACKGROUND:Storm Buster-bg.png;
#CDTITLE:./CDTitles/RB VOLZZA.png;
#MUSIC:Storm Buster.ogg;
#SAMPLESTART:92.02;
#SAMPLELENGTH:15;
#BPMS:0=193;
#BGSTAGE:31;

//--------------- dance-single - Fred-104 ----------------
#NOTES:
     dance-single:
     Fred-104:
     Beginner:
     4:
     :
0000
0000
0000
0000
,
0000
0000
0000
0000
,
0000
0000
0000
0000
,
0000
0000
0000
0000
,
0000
0000
0000
0000
,
1000
0000
0001
0000
,
1000
0000
0001
0000
,
1000
0000
0001
0000
,
1001
0000
0000
0000
,
1000
0000
0000
0000
,
0010
0000
0000
0000
,
0100
0000
0000
0000
,
0001
0000
0001
0000
,
0100
0000
0000
0000
,
0010
0000
0000
0000
,
1000
0000
0000
0000
,
0001
0000
1000
0000
,
0001
0000
0000
0000
,
0100
0000
0000
0000
,
0010
0000
0000
0000
,
0100
0000
0100
0000
,
0010
0000
0000
0000
,
1000
0000
0000
0000
,
0001
0000
1000
0000
,
1001
0000
0000
0000
,
1000
0000
0000
0000
,
0010
0000
0010
0000
,
0100
0000
0000
0000
,
0001
0000
1000
0000
,
0001
0000
0001
0000
,
1000
0000
1000
0000
,
0010
0000
0010
0000
,
2002
0000
0000
3003
,
0001
0000
0100
0000
,
0010
0000
1000
0000
,
0010
0000
1000
0000
,
0001
0000
0001
0000
,
1000
0000
0010
0000
,
1000
0000
1000
0000
,
0001
0000
1000
0000
,
0002
0000
0000
0003
,
1000
0000
0010
0000
,
1000
0000
1000
0000
,
0001
0000
0100
0000
,
0002
0000
0003
0000
,
1000
0000
0001
0000
,
1000
0000
0010
0000
,
0100
0000
0100
0000
,
0100
0000
0000
0000
,
1001
0000
0000
0000
,
0000
0000
0000
0000
,
0000
0000
0000
0000
,
0000
0000
0000
0000
,
0000
0000
0000
0000
,
0000
0000
0000
0000
,
0000
0000
0000
0000
,
0000
0000
0000
0000
,
1000
0000
1000
0000
,
0001
0000
0001
0000
,
1000
0000
0001
0000
,
0100
0000
0100
0000
,
0010
0000
0010
0000
,
1000
0000
0001
0000
,
1000
0000
0001
0000
,
1000
1000
1000
0000
,
0000
0000
0000
0000
,
0001
0000
1000
0000
,
0001
0000
0001
0000
,
0100
0000
0100
0000
,
0001
0000
1000
0000
,
0001
0000
1000
0000
,
1000
0000
0010
0000
,
1000
0000
1000
0000
,
0001
0001
0001
0000
,
1000
0000
0001
0000
,
1000
0000
0010
0000
,
1000
0000
1000
0000
,
0001
0000
0001
0000
,
0100
0000
0010
0000
,
0100
0000
0100
0000
,
0010
0000
0100
0000
,
0100
0100
0100
0000
,
0001
0000
1000
0000
,
0001
0000
1000
0000
,
0010
0000
0010
0000
,
0100
0000
0100
0000
,
0001
0000
0000
0000
,
1000
0000
0000
0000
,
0001
0000
1000
0000
,
0001
0000
0000
0000
,
1001
0000
0000
0000
;

//--------------- dance-single - Fred-104 ----------------
#NOTES:
     dance-single:
     Fred-104:
     Easy:
     8:
     :
0000
0000
0000
0000
,
0000
0000
0000
0000
,
0000
0000
0000
0000
,
0000
0000
0000
0000
,
0000
0000
0000
0000
,
1000
0000
0010
0000
,
0100
0000
0001
0000
,
1000
1000
0001
0001
,
0100
0000
0000
0000
0000
0000
0000
0000
0000
0000
0000
0000
0000
0000
0000
0000
0100
0000
0000
0000
0000
0000
0000
0000
0000
0000
0000
0000
0000
0000
0000
0000
0100
0000
0000
0000
0000
0000
0000
0000
0000
0000
0000
0000
0000
0000
0000
0000
2002
3003
0000
0000
0000
0000
0000
0000
0000
0000
0000
0000
0000
0000
0000
0000
,
1001
0000
0010
0100
,
1000
0000
0010
1000
,
0001
0000
1000
1000
,
0001
0100
0100
0010
,
1000
0000
0010
1000
,
0100
0000
0010
0010
,
0001
0000
1000
0001
,
1000
1000
0001
1001
,
1000
0000
0010
0100
,
0100
0000
0010
0010
,
1000
0000
0001
0001
,
0100
0001
0001
1000
,
0001
0000
0100
0010
,
1000
0000
1000
0010
,
0100
0001
1000
0001
,
2002
0000
0000
3003
,
1001
0000
0100
0000
,
0010
0010
1000
0001
,
0010
0000
0100
0000
,
1000
0000
1000
0000
0001
1000
0001
0000
,
0101
0000
1010
0000
,
0011
0000
1100
0000
,
0001
0001
1000
1000
,
0001
0000
0000
0000
0000
0000
0000
0000
0000
0000
0000
0000
0000
0000
0000
0000
0000
0000
0000
0000
0000
0000
0000
0000
0000
0000
0000
0000
0000
0000
0000
0000
0000
0000
0000
0000
0000
0000
0000
0000
0000
0000
0000
0000
0000
0000
0000
0000
2002
3003
0000
0000
0000
0000
0000
0000
0000
0000
0000
0000
0000
0000
0000
0000
,
1000
0010
0100
0100
,
0002
0000
0103
0010
,
0100
0001
0100
0010
,
1000
0010
0100
0100
,
0001
0100
1000
0010
,
0200
0000
0301
1000
,
0001
0010
0001
1000
,
0001
0001
1000
0002
,
1003
0000
0010
0000
,
0100
0001
1000
0100
,
0010
0000
0001
0000
,
1000
1000
0001
1000
,
0010
0010
1000
0100
,
1000
0001
0001
0100
,
0010
0010
1000
1000
,
0001
0001
0100
0100
,
0120
0000
0000
0000
,
2030
0000
0000
0000
,
3002
0000
0000
0000
,
0203
0000
0000
0000
,
0320
0000
0000
0000
,
2030
0000
0000
0000
,
3200
0000
0000
0000
,
0320
0000
0000
0030
,
0001
0000
1000
0000
,
0010
0100
2000
3000
,
0001
0100
0010
1000
,
0100
0010
0002
0003
,
1000
1000
0010
0010
,
0001
0001
0100
0100
,
1000
0010
0100
0001
,
1000
0001
2002
3003
,
0100
0000
0000
0000
0000
0000
0000
0000
0000
0000
0000
0000
0000
0000
0000
0000
0100
0000
0000
0000
0000
0000
0000
0000
0000
0000
0000
0000
0000
0000
0000
0000
0100
0000
0000
0000
0000
0000
0000
0000
0000
0000
0000
0000
0000
0000
0000
0000
2002
3003
0000
0000
0000
0000
0000
0000
0000
0000
0000
0000
0000
0000
0000
0000
,
2000
3010
0002
0013
,
1000
0010
0200
0000
,
0301
0100
1000
0100
,
0001
0100
0020
0000
,
1030
0010
0100
0100
,
0001
0010
0100
0010
,
0001
1000
0001
0100
,
0010
0000
0000
0000
0000
0000
0000
0000
0000
0000
0000
0000
0000
0000
0000
0000
0010
0000
0000
0000
0000
0000
0000
0000
0000
0000
0000
0000
0000
0000
0000
0000
0010
0000
0000
0000
0000
0000
0000
0000
0000
0000
0000
0000
0000
0000
0000
0000
2002
3003
0000
0000
0000
0000
0000
0000
0000
0000
0000
0000
0000
0000
0000
0000
,
2000
3100
0002
0103
,
1000
0001
0020
0000
,
0031
0100
0010
1000
,
0100
0010
0200
0000
,
1300
0010
0100
0001
,
1000
0100
0100
0001
,
1000
0010
0100
0001
,
0100
0000
0000
0000
0000
0000
0000
0000
0000
0000
0000
0000
0000
0000
0000
0000
0100
0000
0000
0000
0000
0000
0000
0000
0000
0000
0000
0000
0000
0000
0000
0000
0100
0000
0000
0000
0000
0000
0000
0000
0000
0000
0000
0000
0000
0000
0000
0000
2002
3003
0000
0000
0000
0000
0000
0000
0000
0000
0000
0000
0000
0000
0000
0000
,
0002
0003
2000
3000
,
0010
0010
0100
0001
,
1000
0000
0000
1000
0001
0000
0000
0001
,
0100
0100
0010
1000
,
0001
0000
0000
1000
0001
0000
0000
0100
,
0010
0000
0000
1000
0001
0000
0000
0100
,
0010
0010
0100
0200
,
0301
1000
0001
1000
0001
0000
1000
0000
,
1001
0000
0000
0000
;

//--------------- dance-single - Fred-104 ----------------
#NOTES:
     dance-single:
     Fred-104:
     Medium:
     11:
     :
0000
0000
0000
0000
,
0000
0000
0000
0000
,
0000
0000
0000
0000
,
0000
0000
0000
0000
,
0000
0000
0000
0000
,
1000
0010
0100
0000
0001
1000
0100
0000
,
0010
0001
1000
0000
0010
0100
0010
0000
,
2000
3200
0320
0032
,
0103
0000
0000
0000
0000
0000
0000
0000
0000
0000
0000
0000
0000
0000
0000
0000
0100
0000
0000
0000
0000
0000
0000
0000
0000
0000
0000
0000
0000
0000
0000
0000
0100
0000
0000
0000
0000
0000
0000
0000
0000
0000
0000
0000
0000
0000
0000
0000
2002
3003
0000
0000
0000
0000
0000
0000
0000
0000
0000
0000
0000
0000
0000
0000
,
0001
0000
0000
0000
0100
0000
0010
0000
1000
0000
0000
0100
0000
0000
0010
0000
,
0001
0000
0000
0000
0100
0000
0010
0000
0100
0000
0000
0001
0000
0000
0100
0000
,
0010
0000
0000
0000
1000
0000
0100
0000
0010
0000
0000
0100
0000
0000
0001
0000
,
0100
0010
1000
1001
,
0100
0000
0000
0000
0010
0000
1000
0000
0100
0000
0000
1000
0000
0000
0010
0000
,
0100
0000
0000
0000
0001
0000
0010
0000
0100
0000
0000
0010
0000
0000
0001
0000
,
1000
0000
0000
0000
0001
0000
0100
0000
0010
0000
0000
1000
0000
0000
0001
0000
,
1000
0000
0000
0000
0000
0000
0000
0000
0010
0000
0000
0000
0000
0000
0000
0000
1000
0000
0000
0000
0000
0000
0000
0000
0000
0000
0000
0000
0000
0000
0000
0000
0001
0000
0000
0000
0000
0000
0000
0000
0000
0000
0000
0000
0000
0000
0000
0000
2002
3003
0000
0000
0000
0000
0000
0000
0000
0000
0000
0000
0000
0000
0000
0000
,
0001
0000
0100
0001
0100
0010
1000
0000
,
0001
0000
0010
0001
1000
0001
0100
0000
,
0001
0000
1000
0100
1000
0010
0100
0000
,
0001
0010
0100
1100
,
0010
0000
0100
0010
1000
0010
0100
0010
,
0100
0000
0001
0010
0100
0010
0100
0010
,
0001
0100
0010
1000
,
2002
0000
0000
3003
,
1000
0000
0000
0010
1000
0000
0010
0000
,
0100
0000
0001
0100
0010
0000
0100
0000
,
1000
0000
0000
0000
0001
0000
0100
0000
0010
0000
0000
0010
0000
0000
0100
0000
,
0010
1000
0001
1001
,
2100
3010
0102
0013
,
1200
0310
0201
0310
,
1000
0100
1000
0010
0100
0001
1000
0000
,
0010
0000
0000
0000
0000
0000
0000
0000
0000
0000
0000
0000
0000
0000
0000
0000
0000
0000
0000
0000
0000
0000
0000
0000
0000
0000
0000
0000
0000
0000
0000
0000
0000
0000
0000
0000
0000
0000
0000
0000
0000
0000
0000
0000
0000
0000
0000
0000
2002
3003
0000
0000
0000
0000
0000
0000
0000
0000
0000
0000
0000
0000
0000
0000
,
0001
0000
0000
0000
0100
0000
0010
0000
1000
0000
0000
0100
0000
0000
0010
0000
,
0002
0000
1003
0010
0200
0000
0310
0100
,
0001
0000
0000
0000
1000
0000
0100
0000
1000
0000
0000
0010
0000
0000
0100
0000
,
0010
1000
0010
1000
0001
1000
0001
0000
,
0100
0000
0000
0000
0010
0000
0100
0000
0001
0000
0000
0100
0000
0000
0010
0000
,
0200
0000
0301
1000
0010
0100
0010
0100
,
0010
0000
0000
0000
1000
0000
0010
0000
0100
0000
0000
0001
0000
0000
1000
0000
,
0001
0000
0001
0100
0000
0100
0010
0000
0010
2000
0000
0000
,
3001
0000
0000
0100
0000
0000
0010
0000
0010
0100
0000
0000
,
0001
0000
0001
1000
0000
0000
0010
0000
0000
0200
0000
0000
,
0301
0000
0000
0010
0000
0000
0100
0000
0100
1000
0000
0000
,
0100
0000
0010
0100
0000
0000
0001
0000
0100
0002
0000
0000
,
1003
0000
0100
0000
1000
0100
1000
0010
,
0100
0000
0001
0000
0100
0010
0100
0010
,
0100
0001
1000
0010
,
2000
3200
0320
0032
,
2003
0000
0000
0000
,
3020
0000
0000
0000
,
0230
0000
0000
0000
,
0302
0000
0000
0000
,
0023
0000
0000
0000
,
0230
0000
0000
0000
,
2300
0000
0000
0000
,
0002
0000
0000
3003
,
1000
1000
0010
0010
,
0100
0001
0100
0000
0001
0000
0001
0000
,
1000
0100
0010
0001
,
1000
0010
0100
0000
,
0001
0010
0001
0001
,
0100
0010
1000
0100
,
1000
0010
1000
0000
0001
0010
0001
0000
,
0100
0010
0100
0010
0200
0000
0300
0000
,
0100
0000
0000
0000
0000
0000
0000
0000
0000
0000
0000
0000
0000
0000
0000
0000
0100
0000
0000
0000
0000
0000
0000
0000
0000
0000
0000
0000
0000
0000
0000
0000
0100
0000
0000
0000
0000
0000
0000
0000
0000
0000
0000
0000
0000
0000
0000
0000
2002
3003
0000
0000
0000
0000
0000
0000
0000
0000
0000
0000
0000
0000
0000
0000
,
0001
0000
1000
0100
0010
0000
0001
0100
,
0010
1000
0010
0000
1000
0000
0001
0000
,
0010
0001
0100
0000
0010
1000
0100
0000
,
1000
0010
0100
0100
,
0001
0100
0001
0000
0100
0000
0010
1000
,
0100
0000
0010
0001
1000
0000
0010
0000
,
0100
0100
0001
1000
,
0001
0000
0000
0000
0000
0000
0000
0000
0100
0000
0000
0000
0000
0000
0000
0000
0001
0000
0000
0000
0000
0000
0000
0000
0100
0000
0000
0000
0000
0000
0000
0000
0010
0000
0000
0000
0000
0000
0000
0000
0000
0000
0000
0000
0000
0000
0000
0000
2002
3003
0000
0000
0000
0000
0000
0000
0000
0000
0000
0000
0000
0000
0000
0000
,
1000
0000
0010
1000
0100
0000
0010
0001
,
1000
0001
0100
0000
0001
0000
0100
0000
,
0010
1000
0010
0000
1000
0100
1000
0000
,
0001
0000
0100
0000
0010
0000
0010
1000
,
0001
0010
0001
0000
0010
0000
0100
1000
,
0001
0000
1000
0100
0010
0000
0001
0000
,
1000
1000
0010
0100
,
0001
0000
0000
0000
0000
0000
0000
0000
0010
0000
0000
0000
0000
0000
0000
0000
0001
0000
0000
0000
0000
0000
0000
0000
0010
0000
0000
0000
0000
0000
0000
0000
0001
0000
0000
0000
0000
0000
0000
0000
0000
0000
0000
0000
0000
0000
0000
0000
2002
3003
0000
0000
0000
0000
0000
0000
0000
0000
0000
0000
0000
0000
0000
0000
,
1000
0000
0010
1000
0100
0000
0010
0001
,
0100
0000
0010
1000
0001
0000
1000
0000
,
0001
0000
0000
1000
0010
0000
0000
0100
,
0001
1000
0010
0100
,
1001
0000
0000
1000
0100
0000
0000
0100
,
0010
0000
0000
0010
0001
0000
0000
0001
,
1000
0010
0100
0000
0001
1000
0100
0000
,
1000
0010
0100
0001
1000
0000
0001
0000
,
1001
0000
0000
0000
;

//--------------- dance-single - Fred-104 ----------------
#NOTES:
     dance-single:
     Fred-104:
     Hard:
     14:
     :
0000
0000
0000
0000
,
0000
0000
0000
0000
,
0000
0000
0000
0000
,
0000
0000
0000
0000
,
0000
0000
0000
0000
,
1000
0100
1000
0010
0100
0010
1000
0100
,
0010
0001
1000
0001
0100
0010
1000
0010
,
0200
0302
2003
3020
,
0130
0000
0000
0000
0000
0000
0000
0000
0000
0000
0000
0000
0000
0000
0000
0000
0100
0000
0000
0000
0000
0000
0000
0000
0000
0000
0000
0000
0000
0000
0000
0000
0100
0000
0000
0000
0000
0000
0000
0000
0000
0000
0000
0000
0000
0000
0000
0000
2002
3003
0000
0000
0000
0000
0000
0000
0000
0000
0000
0000
0000
0000
0000
0000
,
1100
0000
0000
0000
0100
0000
0010
0000
1000
0000
0010
0100
0000
0010
0100
0000
,
0001
0000
0000
0000
1000
0000
0100
0000
0010
0000
0001
0010
0000
0001
0010
0000
,
0001
0000
0000
0000
0100
0000
0010
0000
1000
0000
0001
1000
0000
0001
1000
0000
,
1100
1010
0101
0011
,
1001
0000
0000
0000
0001
0000
0100
0000
0010
0000
1000
0100
0000
0100
1000
0000
,
0001
0000
0000
0000
1000
0000
0100
0000
0010
0000
0100
0010
0000
0010
0001
0000
,
0100
0000
0000
0000
0010
0000
0100
0000
0001
0000
0100
0010
0000
0010
1000
0000
,
0010
0000
0000
0000
0000
0000
0000
0000
0010
0000
0000
0000
0000
0000
0000
0000
0010
0000
0000
0000
0000
0000
0000
0000
0000
0000
0000
0000
0000
0000
0000
0000
1000
0000
0000
0000
0000
0000
0000
0000
0000
0000
0000
0000
0000
0000
0000
0000
2002
3003
0000
0000
0000
0000
0000
0000
0000
0000
0000
0000
0000
0000
0000
0000
,
1010
0000
0000
0000
0001
0000
0010
0000
0100
0010
0100
0010
0100
0000
1000
0000
,
0010
0000
0000
0000
0100
0000
0001
0000
1000
0100
1000
0100
1000
0000
0001
0000
,
0100
0000
0000
0000
0010
0000
0100
0000
0010
1000
0010
1000
0001
0000
1000
0000
,
1001
1010
0101
0110
,
1001
0000
0001
0100
0010
1000
1000
0100
,
0010
0000
0100
1000
1000
0001
0010
0001
,
0100
0010
1000
0100
0010
0100
1000
0001
,
0200
0000
0000
0300
,
1001
0000
0000
0001
0100
0010
0100
0001
,
0100
0000
0000
0000
0010
0000
1000
0010
1000
0000
0010
0000
0100
0000
0100
0000
,
0001
0000
0000
0000
0100
0000
0010
0000
1000
0000
0000
1000
0000
0000
1000
0001
,
1000
0010
0100
0001
1000
0001
1001
0000
,
1100
0000
1000
0100
0001
0000
1000
0010
,
0001
0000
1000
0100
0001
0000
1000
0010
,
0001
1000
0010
0100
0001
0010
0100
1000
,
0001
0000
0000
0000
0000
0000
0000
0000
0000
0000
0000
0000
0000
0000
0000
0000
0000
0000
0000
0000
0000
0000
0000
0000
0000
0000
0000
0000
0000
0000
0000
0000
0000
0000
0000
0000
0000
0000
0000
0000
0000
0000
0000
0000
0000
0000
0000
0000
2002
3003
0000
0000
0000
0000
0000
0000
0000
0000
0000
0000
0000
0000
0000
0000
,
1100
0000
0000
0000
0100
0000
0010
0000
0001
0000
1000
0010
0000
0100
0010
0000
,
2000
0000
3020
0230
0302
0000
0023
0230
,
1300
0000
0000
0000
0001
0000
0100
0000
0010
0000
1000
0001
0000
0010
0001
0000
,
2000
3020
0230
0302
2003
3200
0320
0030
,
0101
0000
0000
0000
0001
0000
0100
0000
0010
0000
1000
0100
0000
0010
0001
0000
,
0020
0000
0000
0000
0000
0000
0000
0000
0000
0000
0000
0000
0000
0000
0000
0000
0032
0000
0000
0000
0000
0000
0000
0000
2003
0000
0000
0000
0000
0000
0000
0000
3020
0030
0000
0000
0000
0000
0000
0000
0020
0030
0000
0000
0000
0000
0000
0000
0020
0030
0000
0000
0000
0000
0000
0000
0020
0030
0000
0000
0000
0000
0000
0000
,
0110
0000
0000
0000
0001
0000
0100
0000
0010
0000
1000
0100
0000
0010
0001
0000
,
1000
0000
0010
1000
0000
0001
1000
0000
0010
0200
0000
0000
,
0301
0000
0001
0100
0000
0100
0010
0000
0010
1000
0000
1000
,
0100
0010
0001
1000
0000
0010
1000
0000
0001
0100
0001
0100
,
0010
0000
0010
1000
0000
1000
0100
0000
0100
0010
0000
0010
,
0001
1000
0001
2000
0000
0000
3010
0000
0100
0010
0000
0000
,
0100
0001
0010
0001
1000
0001
1000
0100
,
1000
0001
0010
0001
1000
0001
0100
0010
,
0100
0001
0010
1000
0010
0001
1000
0010
,
0100
0110
0000
1100
0000
0101
0000
1001
,
2000
0000
0000
0000
,
3020
0000
0000
0000
,
0230
0000
0000
0000
,
0302
0000
0000
0000
,
0023
0000
0000
0000
,
0230
0000
0000
0000
,
2300
0000
0000
0000
,
0002
0000
0000
0000
3003
0000
1000
0100
,
0010
0000
0001
0100
0010
0000
1000
0100
,
0010
0001
0100
0010
1000
0000
0001
0010
,
0100
1000
0010
0100
0001
1000
0001
0100
,
0001
1000
1001
0000
,
1000
0001
0100
0100
1000
0001
0010
0010
,
1000
0100
1000
1000
0001
0010
0001
0001
,
1000
0010
0001
0010
0100
0001
1000
0001
,
1000
1000
0001
0001
2002
0000
3003
0000
,
0100
0000
0000
0000
0000
0000
0000
0000
0000
0000
0000
0000
0000
0000
0000
0000
0100
0000
0000
0000
0000
0000
0000
0000
0000
0000
0000
0000
0000
0000
0000
0000
0100
0000
0000
0000
0000
0000
0000
0000
0000
0000
0000
0000
0000
0000
0000
0000
2002
3003
0000
0000
0000
0000
0000
0000
0000
0000
0000
0000
0000
0000
0000
0000
,
1020
0000
1030
0100
0020
0000
0031
0100
,
0010
1000
0001
0010
0200
0000
1300
0001
,
0100
0010
1000
0100
0010
0100
1000
0010
,
0100
0001
1000
0001
2000
0000
3010
0010
,
0100
0001
0100
0010
0120
0000
1030
0100
,
0010
0001
1000
0010
0210
0000
0301
0010
,
0100
1000
0010
0100
0010
1000
0010
1000
,
0001
0000
0000
0000
0000
0000
0000
0000
0100
0000
0000
0000
0000
0000
0000
0000
0001
0000
0000
0000
0000
0000
0000
0000
0100
0000
0000
0000
0000
0000
0000
0000
0110
0000
0000
0000
0000
0000
0000
0000
0000
0000
0000
0000
0000
0000
0000
0000
2002
3003
0000
0000
0000
0000
0000
0000
0000
0000
0000
0000
0000
0000
0000
0000
,
1200
0000
1300
0100
0020
0000
0031
0100
,
0010
1000
0001
0010
0210
0000
0310
0001
,
1000
0100
1000
0010
0100
0001
1000
0100
,
0010
0001
1000
0001
2001
0000
3100
0100
,
0010
1000
0001
0010
0021
0000
0130
1000
,
0001
0100
0010
1000
1200
0000
0310
0100
,
0001
0100
0001
1000
0100
0010
0001
1000
,
0010
0000
0000
0000
0000
0000
0000
0000
1000
0000
0000
0000
0000
0000
0000
0000
0010
0000
0000
0000
0000
0000
0000
0000
1000
0000
0000
0000
0000
0000
0000
0000
1100
0000
0000
0000
0000
0000
0000
0000
0000
0000
0000
0000
0000
0000
0000
0000
2002
3003
0000
0000
0000
0000
0000
0000
0000
0000
0000
0000
0000
0000
0000
0000
,
0101
0000
0001
0100
0010
1000
0001
0010
,
0100
1000
0010
0100
0010
1000
0001
0010
,
0200
0000
0000
0000
0000
0000
1300
0010
2000
0000
0000
0000
0000
0000
3001
0010
,
0001
0100
0010
1000
0001
1000
1001
0000
,
1100
0000
0000
0100
0001
0000
0000
0100
,
1000
0000
0000
0010
0001
0000
0000
0010
,
1000
0001
0100
0010
1000
0001
0201
0000
,
0301
0010
0100
1000
0001
0000
1010
0000
,
0110
0000
0000
0000
;

//--------------- dance-single - Fred-104 ----------------
#NOTES:
     dance-single:
     Fred-104:
     Challenge:
     17:
     :
0000
0000
0000
0000
,
0000
0000
0000
0000
,
0000
0000
0000
0000
,
0000
0000
0000
0000
,
0000
0000
0000
0000
,
1001
0000
0000
0000
0001
0000
0010
0100
1000
0000
0000
0000
0001
0000
0100
0010
,
1000
0000
0000
0000
1000
0000
0100
0010
0001
0000
0000
0000
1000
0000
0010
0100
,
0001
0000
0010
0100
1000
0000
0010
0100
0001
0010
0100
1000
0001
0100
0010
1000
,
0100
0000
0000
0000
0000
0000
0000
0000
0000
0000
0000
0000
0000
0000
0000
0000
0100
0000
0000
0000
0000
0000
0000
0000
0000
0000
0000
0000
0000
0000
0000
0000
0100
0000
0000
0000
0000
0000
0000
0000
0000
0000
0000
0000
0000
0000
0000
0000
2002
3003
0000
0000
0000
0000
0000
0000
0000
0000
0000
0000
0000
0000
0000
0000
,
1100
0000
0000
0000
0100
0000
0010
0000
0001
0000
0100
0010
0000
1000
0010
0100
,
0001
0000
0000
0000
0100
0000
0010
0000
1000
0000
0001
0010
0000
0010
0100
1000
,
0100
0000
0000
0000
0010
0000
0001
0000
1000
0000
0001
0100
0000
0001
0010
0001
,
1000
0000
0001
1000
0010
0000
1000
0100
0010
0001
0100
0010
1000
0000
1000
0000
,
1010
0000
0000
0000
0010
0000
0100
0000
0001
0000
0010
0001
0000
1000
0010
0100
,
0001
0000
0000
0000
1000
0000
0100
0000
1000
0000
0010
0100
0000
0010
1000
0010
,
0100
0000
0000
0000
0001
0000
0100
0000
0001
0000
0010
0100
0000
1000
0010
0100
,
0001
0000
0000
0000
0000
0000
0000
0000
0001
0000
0000
0000
0000
0000
0000
0000
0101
0000
0000
0000
0000
0000
0000
0000
0000
0000
0000
0000
0000
0000
0000
0000
1100
0000
0000
0000
0000
0000
0000
0000
0100
0000
0000
0000
0000
0000
0000
0000
0220
0330
0000
0000
0000
0000
0000
0000
0000
0000
0000
0000
0000
0000
0000
0000
,
0001
0000
0000
0000
0100
0010
1000
0000
0001
0010
0100
1000
0001
0100
0001
0100
,
0010
1000
0001
0000
1000
0100
0010
0000
0001
0100
0010
1000
0010
0100
0010
1000
,
0001
1000
0100
0000
0010
0001
0100
0000
0001
0010
0001
0100
0010
1000
0010
0100
,
0001
0000
0100
0001
0010
0000
0100
1000
0010
0000
0100
0000
0110
0000
0000
0000
,
0001
0000
1000
0000
0010
1000
0010
0000
1000
0100
0010
0001
1000
0010
0100
0001
,
1000
0000
0100
0000
0010
0001
1000
0000
0010
0100
0001
1000
0010
0100
0001
1000
,
0001
0000
0001
0000
1000
0000
1000
0000
0001
0100
0010
1000
0100
0010
0001
1000
,
0020
0000
0000
0030
,
1100
0000
0000
0010
0100
0001
0001
0001
,
1001
0000
0000
0000
1000
0000
0001
1000
0100
0000
1000
0000
0010
0000
0010
0000
,
0110
0000
0000
0000
0001
0000
0100
0000
0010
0000
0010
1000
0000
1000
0001
0010
,
0100
1000
0001
0100
0010
1000
0002
0003
,
1100
0100
0010
0001
0101
0100
0010
1000
,
1010
0010
0100
0001
0011
0010
0100
1000
,
0001
0000
0001
0000
1000
0000
1000
0000
0001
0100
0001
1000
0100
1000
0001
0100
,
0010
0000
0000
0000
0000
0000
0000
0000
0000
0000
0000
0000
0000
0000
0000
0000
0000
0000
0000
0000
0000
0000
0000
0000
0000
0000
0000
0000
0000
0000
0000
0000
0000
0000
0000
0000
0000
0000
0000
0000
0000
0000
0000
0000
0000
0000
0000
0000
2002
3003
0000
0000
0000
0000
0000
0000
0000
0000
0000
0000
0000
0000
0000
0000
,
1100
0000
0000
0000
0010
0000
0100
0000
0010
0000
1000
0100
0000
0010
0001
1000
,
0002
0000
0000
0000
0203
0000
2300
0000
3200
0000
0000
0000
0320
0000
1030
0001
,
1000
0000
0000
0000
1000
0000
0010
0000
0100
0000
0001
0010
0000
0100
1000
0001
,
0200
0000
0320
0000
2030
0000
3001
0100
0002
0000
2003
0000
3020
0000
0030
0000
,
0110
0000
0000
0000
0100
0000
0100
0000
0001
0000
1000
0100
0000
0010
0100
1000
,
0002
0000
0000
0000
0000
0000
0000
0000
0000
0000
0000
0000
0000
0000
0000
0000
0203
0000
0000
0000
0000
0000
0000
0000
0320
0000
0000
0000
0000
0000
0000
0000
0230
0300
0000
0000
0000
0000
0000
0000
0200
0300
0000
0000
0000
0000
0000
0000
0200
0300
0000
0000
0000
0000
0000
0000
0200
0300
0000
0000
0000
0000
0000
0000
,
0110
0000
0000
0000
0010
0000
1000
0000
0001
0000
0100
0010
0000
0100
1000
0100
,
0010
0000
0100
0001
0000
1000
0001
0000
1000
1001
0000
0000
,
1100
0000
0100
0010
0000
0010
0001
0000
0001
0100
0010
1000
,
0001
0010
0100
1000
0000
0010
0100
0000
0001
0100
0100
0100
,
0010
0000
1000
0010
0000
0100
0001
0000
0001
0010
0100
1000
,
0001
0100
0100
0020
0000
0000
1030
0000
0001
2000
0000
0000
,
3001
0010
0100
0000
1000
0000
0010
0000
1000
0010
1000
0010
0100
0001
0100
0001
,
1000
0000
0000
0000
0010
0100
0001
0000
1000
0100
1000
0100
0010
0001
0010
0001
,
1000
0010
0100
0001
1000
0100
0010
0001
0100
0010
0100
0001
1000
0001
0100
0010
,
1000
2100
3001
0102
1003
2010
3001
0012
,
2003
0000
0000
0000
,
3020
0000
0000
0000
,
0230
0000
0000
0000
,
0302
0000
0000
0003
,
0022
0000
0000
0033
,
2020
0000
0000
3030
,
0202
0000
0000
0303
,
2200
0000
0000
0000
3300
0000
1000
0100
,
0010
0000
0001
0100
0010
0000
1000
0100
,
0010
0000
0001
0000
1000
0010
1000
0000
0100
0000
0000
0000
0110
0000
0010
0000
,
0011
0001
1000
0001
0100
0010
1000
0100
,
1100
0101
1001
0000
,
1000
0000
0100
0000
0010
0000
0001
0010
0001
0000
0100
0000
0010
0000
1000
0010
,
1000
0000
0001
0000
0100
0010
0100
0000
0010
0000
1000
0000
0001
0000
1000
0001
,
1000
0100
1000
0100
0010
0001
0010
0001
1000
0010
0100
0001
1000
0100
0010
0001
,
0100
0100
0010
0010
0220
0000
0330
0000
,
0100
0000
0000
0000
0000
0000
0000
0000
0000
0000
0000
0000
0000
0000
0000
0000
0100
0000
0000
0000
0000
0000
0000
0000
0000
0000
0000
0000
0000
0000
0000
0000
0100
0000
0000
0000
0000
0000
0000
0000
0000
0000
0000
0000
0000
0000
0000
0000
2002
3003
0000
0000
0000
0000
0000
0000
0000
0000
0000
0000
0000
0000
0000
0000
,
0011
0000
0001
0100
0110
0000
1010
1000
,
0100
0000
0010
0000
0001
1000
0001
0000
0101
0000
0000
0000
0110
0000
0100
0000
,
0010
1000
0010
0100
0001
0010
0100
1000
,
0001
0000
0100
0010
0100
0000
0010
1000
0020
0000
0000
0000
1030
0000
1000
0000
,
0001
0000
0010
0000
0100
1000
0001
0000
0201
0000
0000
0000
0310
0000
0010
0000
,
1000
0000
0010
0000
0100
0001
1000
0000
1200
0000
0000
0000
0310
0000
0010
0000
,
0100
0001
0100
0010
1000
0001
0010
0100
,
1000
0000
0000
0000
0000
0000
0000
0000
1000
0000
0000
0000
0000
0000
0000
0000
0010
0000
0000
0000
0000
0000
0000
0000
0010
0000
0000
0000
0000
0000
0000
0000
0110
0000
0000
0000
0000
0000
0000
0000
0000
0000
0000
0000
0000
0000
0000
0000
2002
3003
0000
0000
0000
0000
0000
0000
0000
0000
0000
0000
0000
0000
0000
0000
,
0120
0000
1030
0100
0020
0000
0031
0010
,
0100
0000
1000
0000
0010
0100
1000
0000
0200
0000
0000
0000
0301
0000
1000
0000
,
0010
1000
0100
0010
0100
0001
0100
1000
,
0001
0000
0100
0010
1000
0000
0010
0100
0002
0000
0000
0000
1003
0000
1000
0000
,
0001
0000
0100
0000
0010
0100
1000
0000
0200
0000
0000
0000
0310
0000
1000
0000
,
0001
0000
0100
0000
1000
0100
0010
0000
2000
0000
0000
0000
3001
0000
1000
0000
,
0001
0010
0001
1000
0010
0100
0001
1000
,
0001
0000
0000
0000
0000
0000
0000
0000
0001
0000
0000
0000
0000
0000
0000
0000
0100
0000
0000
0000
0000
0000
0000
0000
0100
0000
0000
0000
0000
0000
0000
0000
0110
0000
0000
0000
0000
0000
0000
0000
0000
0000
0000
0000
0000
0000
0000
0000
2002
3003
0000
0000
0000
0000
0000
0000
0000
0000
0000
0000
0000
0000
0000
0000
,
1100
0000
0000
0000
0100
0000
0010
0000
0001
0000
0100
0000
0010
0000
0100
0001
,
1000
0000
0100
0000
0010
0000
0100
0000
1000
0000
0100
0000
0010
0001
1000
0000
,
1002
0000
0000
0000
0000
0000
0103
0010
2000
0000
0000
0000
0000
0000
3100
0010
,
0001
0000
0100
0010
1000
0000
0001
0010
0100
0000
1000
0000
1001
0000
0000
0000
,
1010
0000
0000
0000
0000
0000
1000
0100
0010
0000
0000
0000
0000
0000
0001
0100
,
0010
0000
0000
0000
0000
0000
1000
0100
0010
0000
0000
0000
0000
0000
0001
0100
,
0010
0000
1000
0100
0010
0000
0001
0100
0010
1000
0100
0010
0002
0000
0000
0000
,
1003
0100
0001
0010
0100
0000
0110
0000
,
1001
0000
0000
0000
;

//--------------- dance-double - Fred-104 ----------------
#NOTES:
     dance-double:
     Fred-104:
     Easy:
     8:
     :
00000000
00000000
00000000
00000000
,
00000000
00000000
00000000
00000000
,
00000000
00000000
00000000
00000000
,
00000000
00000000
00000000
00000000
,
00000000
00000000
00000000
00000000
,
00000001
00000000
00000100
00000000
,
00000010
00000000
00000100
00000000
,
00000010
00001000
00010000
00100000
,
01000000
00000000
00000000
00000000
00000000
00000000
00000000
00000000
00000000
00000000
00000000
00000000
00000000
00000000
00000000
00000000
01000000
00000000
00000000
00000000
00000000
00000000
00000000
00000000
00000000
00000000
00000000
00000000
00000000
00000000
00000000
00000000
01000000
00000000
00000000
00000000
00000000
00000000
00000000
00000000
00000000
00000000
00000000
00000000
00000000
00000000
00000000
00000000
20020000
30030000
00000000
00000000
00000000
00000000
00000000
00000000
00000000
00000000
00000000
00000000
00000000
00000000
00000000
00000000
,
10010000
00000000
01000000
00100000
,
00001000
00000000
00010000
00000100
,
00010000
00000000
00000100
00001000
,
00000010
00000010
00000010
00000100
,
00000001
00000000
00000100
00001000
,
00010000
00000000
00001000
00010000
,
01000000
00000000
00100000
10000000
,
00010000
00010000
01000000
01100000
,
00100000
00000000
10000000
01000000
,
00100000
00000000
00001000
00010000
,
00000100
00000000
00010000
00001000
,
00000010
00000100
00000100
00000001
,
00001000
00000010
00000100
00000010
,
00001000
00000001
00000010
00000100
,
00010000
00001000
00010000
00010000
,
00022000
00000000
00000000
00033000
,
00001001
00000000
00000010
00000000
,
00000100
00000100
00000001
00001000
,
00000100
00000000
00000010
00000000
,
00000001
00000100
00001000
00010000
,
00011000
00000000
00010100
00000000
,
00011000
00000000
01001000
00000000
,
00001000
00010000
01000000
10000000
,
00010000
00000000
00000000
00000000
00000000
00000000
00000000
00000000
00000000
00000000
00000000
00000000
00000000
00000000
00000000
00000000
00000000
00000000
00000000
00000000
00000000
00000000
00000000
00000000
00000000
00000000
00000000
00000000
00000000
00000000
00000000
00000000
00000000
00000000
00000000
00000000
00000000
00000000
00000000
00000000
00000000
00000000
00000000
00000000
00000000
00000000
00000000
00000000
20020000
30030000
00000000
00000000
00000000
00000000
00000000
00000000
00000000
00000000
00000000
00000000
00000000
00000000
00000000
00000000
,
01000000
01000000
00100000
10000000
,
00200000
00301000
00020000
00030010
,
00001000
00000010
00000100
00000100
,
00000001
00000100
00000001
00000000
00001000
00000100
00001000
00000000
,
00000010
00000100
00000001
00000100
,
00002000
00013000
00000200
00010300
,
00001000
00100000
00010000
10000000
,
00010000
00010000
10000000
00200000
,
01300000
00000000
00100000
10000000
,
01000000
01000000
00100000
00001000
,
00010000
00000000
00000100
00000010
,
00000001
00001000
00000001
00000100
,
00000001
00000100
00000100
00000010
,
00001000
00000100
00000010
00001000
,
00000100
00010000
00001000
00010000
,
01000000
01000000
00100000
10000000
,
10020000
00000000
00000000
00000000
,
20030000
00000000
00000000
00000000
,
32000000
00000000
00000000
00000000
,
03200000
00000000
00000000
00000000
,
00302000
00000000
00000000
00000000
,
00003020
00000000
00000000
00000000
,
00000230
00000000
00000000
00000000
,
00000302
00000000
00000000
00000003
,
00001000
00000000
00000010
00000000
,
00000001
00000100
00001000
00000000
,
00010000
00000000
00100000
00000000
,
10000000
01000000
00010000
00000000
,
00001000
00010000
00001000
00001000
,
00000100
00000010
00000001
00001000
,
00000010
00001000
00001000
00000100
,
00000010
00000100
00000010
00000100
00000020
00000000
00000030
00000000
,
00000100
00000000
00000000
00000000
00000000
00000000
00000000
00000000
00000000
00000000
00000000
00000000
00000000
00000000
00000000
00000000
00000100
00000000
00000000
00000000
00000000
00000000
00000000
00000000
00000000
00000000
00000000
00000000
00000000
00000000
00000000
00000000
00000100
00000000
00000000
00000000
00000000
00000000
00000000
00000000
00000000
00000000
00000000
00000000
00000000
00000000
00000000
00000000
00002002
00003003
00000000
00000000
00000000
00000000
00000000
00000000
00000000
00000000
00000000
00000000
00000000
00000000
00000000
00000000
,
00000002
00000103
00002000
00003100
,
00000001
00000100
00000020
00000000
,
00001030
00000100
00010000
00001000
,
00010000
00100000
10000000
00000000
,
00010000
01000000
10000000
01000000
,
00010000
00100000
01000000
00000000
,
00100000
00100000
00001000
00010000
,
00001000
00000100
00000010
00000000
,
00020000
00031000
00000020
00001030
,
00010000
00001000
00200000
00000000
,
00310000
01000000
10000000
01000000
,
00010000
00100000
00002000
00003000
,
00100000
00010000
00001000
00000100
,
00000010
00010000
00001000
00010000
,
00100000
01000000
00010000
00001000
,
00000100
00000000
00000000
00000000
00000000
00000000
00000000
00000000
00000000
00000000
00000000
00000000
00000000
00000000
00000000
00000000
00000100
00000000
00000000
00000000
00000000
00000000
00000000
00000000
00000000
00000000
00000000
00000000
00000000
00000000
00000000
00000000
00000100
00000000
00000000
00000000
00000000
00000000
00000000
00000000
00000000
00000000
00000000
00000000
00000000
00000000
00000000
00000000
00002002
00003003
00000000
00000000
00000000
00000000
00000000
00000000
00000000
00000000
00000000
00000000
00000000
00000000
00000000
00000000
,
00000001
00000100
00000010
00001000
,
00000100
00000010
00000001
00000100
,
00002000
00000000
00023000
00000000
,
01030000
10000000
00010000
01000000
,
00011000
00000000
00000000
00001000
00010000
00000000
00000000
00010000
,
00001000
00000000
00000000
00001000
00010000
00000000
00000000
00010000
,
00001000
00000100
00000010
00000200
,
00000301
00001000
00000001
00001000
00000001
00000000
00001000
00000000
,
00001001
00000000
00000000
00000000
;

//--------------- dance-double - Fred-104 ----------------
#NOTES:
     dance-double:
     Fred-104:
     Medium:
     12:
     :
00000000
00000000
00000000
00000000
,
00000000
00000000
00000000
00000000
,
00000000
00000000
00000000
00000000
,
00000000
00000000
00000000
00000000
,
00000000
00000000
00000000
00000000
,
00010000
00010000
01000000
01000000
,
10000000
00100000
00010000
00001000
,
00000020
00000032
00002003
00003020
,
00000130
00000000
00000000
00000000
00000000
00000000
00000000
00000000
00000000
00000000
00000000
00000000
00000000
00000000
00000000
00000000
00000100
00000000
00000000
00000000
00000000
00000000
00000000
00000000
00000000
00000000
00000000
00000000
00000000
00000000
00000000
00000000
00000100
00000000
00000000
00000000
00000000
00000000
00000000
00000000
00000000
00000000
00000000
00000000
00000000
00000000
00000000
00000000
00002002
00003003
00000000
00000000
00000000
00000000
00000000
00000000
00000000
00000000
00000000
00000000
00000000
00000000
00000000
00000000
,
00000001
00000000
00000000
00000000
00001000
00000000
00000010
00000000
00000100
00000000
00000000
00000100
00000000
00000000
00000010
00000000
,
00001000
00000000
00000000
00000000
00000001
00000000
00000100
00000000
00001000
00000000
00000000
00001000
00000000
00000000
00010000
00000000
,
00001000
00000000
00000000
00000000
01000000
00000000
00001000
00000000
00010000
00000000
00000000
00001000
00000000
00000000
00100000
00000000
,
00010000
01000000
00100000
01100000
,
00010000
00000000
00000000
00000000
10000000
00000000
00100000
00000000
01000000
00000000
00000000
01000000
00000000
00000000
00100000
00000000
,
10000000
00000000
00000000
00000000
01000000
00000000
00100000
00000000
00001000
00000000
00000000
00010000
00000000
00000000
00001000
00000000
,
00001000
00000000
00000000
00000000
00010000
00000000
00001000
00000000
00010000
00000000
00000000
01000000
00000000
00000000
00100000
00000000
,
10000000
00000000
00000000
00000000
00000000
00000000
00000000
00000000
00010000
00000000
00000000
00000000
00000000
00000000
00000000
00000000
10000000
00000000
00000000
00000000
00000000
00000000
00000000
00000000
00000000
00000000
00000000
00000000
00000000
00000000
00000000
00000000
00100000
00000000
00000000
00000000
00000000
00000000
00000000
00000000
00000000
00000000
00000000
00000000
00000000
00000000
00000000
00000000
20020000
30030000
00000000
00000000
00000000
00000000
00000000
00000000
00000000
00000000
00000000
00000000
00000000
00000000
00000000
00000000
,
01000000
00000000
00100000
00001000
00010000
00001000
00010000
00000000
,
00001000
00000000
00000100
00000010
00000001
00001000
00000001
00000000
,
00000100
00000000
00000010
00001000
00000010
00000100
00000001
00000000
,
00001000
00000010
00000100
00000101
,
00000010
00000000
00000010
00000000
00000001
00000100
00000001
00000100
,
00001000
00000000
00001000
00000000
00010000
00001000
00010000
00001000
,
00100000
00010000
00100000
01000000
10000000
00010000
01000000
00100000
,
02000000
00000000
00000000
03000000
,
10010000
00000000
00000000
01000000
00100000
00010000
00100000
00000000
,
00001000
00000000
00010000
00001000
00010000
00000100
00001000
00000010
,
00010000
00000000
00000000
00000000
00000100
00000000
00001000
00000000
00000010
00000000
00000000
00000010
00000000
00000000
00000100
00000000
,
00000001
00000100
00000010
00001010
,
00010010
00010000
00011000
00001000
,
00101000
00010000
00011000
00001000
,
00010000
00000000
00000100
00000000
00010000
00001000
00010000
00001000
,
00010000
00000000
00000000
00000000
00000000
00000000
00000000
00000000
00000000
00000000
00000000
00000000
00000000
00000000
00000000
00000000
00000000
00000000
00000000
00000000
00000000
00000000
00000000
00000000
00000000
00000000
00000000
00000000
00000000
00000000
00000000
00000000
00000000
00000000
00000000
00000000
00000000
00000000
00000000
00000000
00000000
00000000
00000000
00000000
00000000
00000000
00000000
00000000
00022000
00033000
00000000
00000000
00000000
00000000
00000000
00000000
00000000
00000000
00000000
00000000
00000000
00000000
00000000
00000000
,
00001000
00000000
00000000
00000000
00100000
00000000
00010000
00000000
00100000
00000000
00000000
01000000
00000000
00000000
01000000
00000000
,
00200000
00000000
00310000
10000000
00200000
00000000
10300000
00010000
,
01000000
00000000
00000000
00000000
00100000
00000000
00001000
00000000
00010000
00000000
00000000
00001000
00000000
00000000
00000010
00000000
,
00000100
00000010
00000100
00000010
00001000
00000001
00000010
00000000
,
00000100
00000000
00000000
00000000
00000010
00000000
00000001
00000000
00001000
00000000
00000000
00000010
00000000
00000000
00010000
00000000
,
00002000
00000000
00013000
00000010
00001000
00000100
00010000
00000100
,
00001000
00000000
00000000
00000000
00000010
00000000
00010000
00000000
00001000
00000000
00000000
00100000
00000000
00000000
01000000
00000000
,
00100000
00000000
00100000
00010000
00000000
00010000
10000000
00000000
00010000
02000000
00000000
00000000
,
03100000
00000000
00100000
10000000
00000000
10000000
01000000
00000000
01000000
00100000
00000000
00000000
,
00001000
00000000
00001000
00010000
00000000
00000000
00000100
00000000
00000000
00001000
00000000
00000001
,
00000100
00000000
00000100
00000010
00000000
00000010
00001000
00000000
00001000
00000001
00000000
00000000
,
00000100
00000000
00000100
00000010
00000000
00000000
00010000
00000000
00001000
00020000
00000000
00000000
,
00031000
00000000
00010000
00000000
00000010
00010000
00001000
00010000
,
00100000
00000000
00010000
00000000
01000000
00001000
00010000
00001000
,
00000100
00000010
00000001
00000000
00000100
00000010
00001000
00000000
,
00000200
00000320
00000032
00002003
,
00003020
00000000
00000000
00000000
,
00000230
00000000
00000000
00000000
,
00002300
00000000
00000000
00000000
,
00023000
00000000
00000000
00000000
,
02030000
00000000
00000000
00000000
,
23000000
00000000
00000000
00000000
,
30200000
00000000
00000000
00000000
,
02000000
00000000
00000000
03300000
,
10000000
10000000
00100000
01000000
,
00010000
00000000
00100000
00001000
00010000
00000000
00011000
00000000
,
00001000
00000010
00000100
00000100
,
00000001
00001000
00001001
00000000
,
00000001
00000100
00001000
00010000
,
01000000
10000000
00100000
00010000
,
00001000
00010000
00001000
00000000
00100000
00010000
10000000
00000000
,
00010000
10000000
00010000
10000000
20020000
00000000
30030000
00000000
,
01000000
00000000
00000000
00000000
00000000
00000000
00000000
00000000
00000000
00000000
00000000
00000000
00000000
00000000
00000000
00000000
01000000
00000000
00000000
00000000
00000000
00000000
00000000
00000000
00000000
00000000
00000000
00000000
00000000
00000000
00000000
00000000
01000000
00000000
00000000
00000000
00000000
00000000
00000000
00000000
00000000
00000000
00000000
00000000
00000000
00000000
00000000
00000000
20020000
30030000
00000000
00000000
00000000
00000000
00000000
00000000
00000000
00000000
00000000
00000000
00000000
00000000
00000000
00000000
,
00100000
00000000
10000000
00100000
20000000
00000000
30010000
00100000
,
00020000
00000000
01030000
00001000
00010000
00000000
00001000
00000000
,
00000100
00000010
00000100
00000000
00000010
00000000
00000001
00000000
,
00001000
00000001
00001000
00000000
00000010
00000000
00000100
00000000
,
00000001
00000000
00000100
00000010
00000100
00000000
00000010
00000000
,
00001000
00000000
00000100
00010000
00001000
00000000
00010000
00000000
,
00100000
00000000
01000000
00000000
10000000
00010000
10000000
00000000
,
00010000
00000000
00000000
00000000
00000000
00000000
00000000
00000000
01000000
00000000
00000000
00000000
00000000
00000000
00000000
00000000
00010000
00000000
00000000
00000000
00000000
00000000
00000000
00000000
01000000
00000000
00000000
00000000
00000000
00000000
00000000
00000000
00010000
00000000
00000000
00000000
00000000
00000000
00000000
00000000
00000000
00000000
00000000
00000000
00000000
00000000
00000000
00000000
20020000
30030000
00000000
00000000
00000000
00000000
00000000
00000000
00000000
00000000
00000000
00000000
00000000
00000000
00000000
00000000
,
02000000
00000000
03100000
00010000
00002000
00000000
00013000
00000100
,
00001000
00000000
00000010
00000000
00000100
00000000
00000001
00001000
,
00000001
00000000
00000010
00000000
00000100
00000000
00010000
00001000
,
00010000
00001000
00010000
00010000
,
00001000
00000000
00100000
00010000
10000000
00000000
00100000
00000000
,
01000000
00000000
00010000
00100000
00001000
00000000
00010000
00000000
,
00000010
00001000
00000010
00000000
00000100
00000001
00000100
00000000
,
00000001
00000000
00000000
00000000
00000000
00000000
00000000
00000000
00001000
00000000
00000000
00000000
00000000
00000000
00000000
00000000
00000001
00000000
00000000
00000000
00000000
00000000
00000000
00000000
00001000
00000000
00000000
00000000
00000000
00000000
00000000
00000000
00000001
00000000
00000000
00000000
00000000
00000000
00000000
00000000
00000000
00000000
00000000
00000000
00000000
00000000
00000000
00000000
00002002
00003003
00000000
00000000
00000000
00000000
00000000
00000000
00000000
00000000
00000000
00000000
00000000
00000000
00000000
00000000
,
00000100
00000000
00000010
00001000
00000100
00000000
00000010
00000001
,
00001000
00000000
00000010
00010000
00001000
00000000
00100000
00010000
,
02000000
00000000
00000000
03100000
02000000
00000000
00000000
13000000
,
01000000
00100000
00001000
00011000
,
00010000
00000000
00000000
00000010
00001000
00000000
00000000
00100000
,
00001000
00000000
00000000
00000100
00010000
00000000
00000000
01000000
,
00010000
00000000
00001000
00000000
00010000
00001000
00020000
00000000
,
00031000
00100000
00010000
10000000
00100000
00000000
01100000
00000000
,
10010000
00000000
00000000
00000000
;

//--------------- dance-double - Fred-104 ----------------
#NOTES:
     dance-double:
     Fred-104:
     Hard:
     15:
     :
00000000
00000000
00000000
00000000
,
00000000
00000000
00000000
00000000
,
00000000
00000000
00000000
00000000
,
00000000
00000000
00000000
00000000
,
00000000
00000000
00000000
00000000
,
00001000
00000000
00010000
00000010
00001000
00000000
00000001
00000010
,
00000100
00000000
00001000
00000010
00010000
00000000
00001000
00100000
,
00010000
00100000
01000000
10000000
00010000
01000000
00100000
10000000
,
01000000
00000000
00000000
00000000
00000000
00000000
00000000
00000000
00000000
00000000
00000000
00000000
00000000
00000000
00000000
00000000
01000000
00000000
00000000
00000000
00000000
00000000
00000000
00000000
00000000
00000000
00000000
00000000
00000000
00000000
00000000
00000000
01000000
00000000
00000000
00000000
00000000
00000000
00000000
00000000
00000000
00000000
00000000
00000000
00000000
00000000
00000000
00000000
20020000
30030000
00000000
00000000
00000000
00000000
00000000
00000000
00000000
00000000
00000000
00000000
00000000
00000000
00000000
00000000
,
01100000
00000000
00000000
00000000
00100000
00000000
10000000
00000000
01000000
00000000
00100000
01000000
00000000
01000000
00100000
00000000
,
00001000
00000000
00000000
00000000
00010000
00000000
00000100
00000000
00001000
00000000
00000010
00001000
00000000
00001000
00000100
00000000
,
00000010
00000000
00000000
00000000
00000001
00000000
00001000
00000000
00000001
00000000
00000100
00000010
00000000
00000010
00001000
00000000
,
00001010
00001001
00000101
00001100
,
00011000
00000000
00000000
00000000
00010000
00000000
00000100
00000000
00001000
00000000
00000010
00001000
00000000
00000100
00010000
00000000
,
00001000
00000000
00000000
00000000
00100000
00000000
00010000
00000000
01000000
00000000
00001000
00010000
00000000
00001000
00100000
00000000
,
00001000
00000000
00000000
00000000
00010000
00000000
00000010
00000000
00001000
00000000
00000100
00010000
00000000
00001000
00100000
00000000
,
00010000
00000000
00000000
00000000
00000000
00000000
00000000
00000000
00010000
00000000
00000000
00000000
00000000
00000000
00000000
00000000
00010000
00000000
00000000
00000000
00000000
00000000
00000000
00000000
00000000
00000000
00000000
00000000
00000000
00000000
00000000
00000000
01000000
00000000
00000000
00000000
00000000
00000000
00000000
00000000
00000000
00000000
00000000
00000000
00000000
00000000
00000000
00000000
20020000
30030000
00000000
00000000
00000000
00000000
00000000
00000000
00000000
00000000
00000000
00000000
00000000
00000000
00000000
00000000
,
01100000
00000000
00000000
00000000
00100000
00000000
01000000
00000000
00010000
01000000
00010000
01000000
00010000
00000000
00100000
00000000
,
00101000
00000000
00000000
00000000
00001000
00000000
00010000
00000000
00000010
00001000
00000010
00001000
00000100
00000000
00010000
00000000
,
00011000
00000000
00000000
00000000
00000100
00000000
00010000
00000000
00001000
01000000
00001000
01000000
00001000
00000000
00010000
00000000
,
00011000
01001000
00010100
00011000
,
00001000
00000100
00000010
00000001
00000100
00000100
00000010
00000010
,
00001000
00000001
00000010
00001000
00000010
00000010
00000100
00000100
,
00000001
00000100
00001000
00010000
01000000
10000000
00010000
01000000
,
00200000
00000000
00000000
00300000
,
10010000
00000000
00000000
01000000
00100000
00001000
00010000
00000100
,
00000010
00000000
00000000
00000000
00001000
00000000
00000001
00001000
00000001
00000000
00000100
00000000
00000010
00000000
00001000
00000000
,
00000001
00000000
00000000
00000000
00000100
00000000
00000010
00000000
00001000
00000000
00000000
00001000
00000000
00000000
00000100
00010000
,
00000100
00010000
00001000
00010000
00001000
00001000
00011000
00000000
,
00110000
00100000
01000000
00000000
10100000
00100000
01000000
00000000
,
11000000
01000000
00100000
00000000
01010000
01000000
00100000
00000000
,
10000000
01000000
00100000
00001000
00010000
00010000
00001000
00010000
,
00001000
00000000
00000000
00000000
00000000
00000000
00000000
00000000
00000000
00000000
00000000
00000000
00000000
00000000
00000000
00000000
00000000
00000000
00000000
00000000
00000000
00000000
00000000
00000000
00000000
00000000
00000000
00000000
00000000
00000000
00000000
00000000
00000000
00000000
00000000
00000000
00000000
00000000
00000000
00000000
00000000
00000000
00000000
00000000
00000000
00000000
00000000
00000000
00002002
00003003
00000000
00000000
00000000
00000000
00000000
00000000
00000000
00000000
00000000
00000000
00000000
00000000
00000000
00000000
,
00001100
00000000
00000000
00000000
00000100
00000000
00000010
00000000
00000001
00000000
00001000
00000010
00000000
00000100
00000010
00000000
,
00002000
00000000
00003200
00020300
00032000
00000000
00023000
02030000
,
13000000
00000000
00000000
00000000
00100000
00000000
01000000
00000000
00100000
00000000
10000000
00010000
00000000
10000000
00100000
00000000
,
02000000
03200000
20300000
32000000
03200000
00302000
00023000
00030000
,
00011000
00000000
00000000
00000000
00010000
00000000
00000100
00000000
00001000
00000000
00000100
00000010
00000000
00000100
00000001
00000000
,
00002000
00000000
00000000
00000000
00000000
00000000
00000000
00000000
00000000
00000000
00000000
00000000
00000000
00000000
00000000
00000000
00003020
00000000
00000000
00000000
00000000
00000000
00000000
00000000
00020030
00000000
00000000
00000000
00000000
00000000
00000000
00000000
00032000
00003000
00000000
00000000
00000000
00000000
00000000
00000000
00002000
00003000
00000000
00000000
00000000
00000000
00000000
00000000
00002000
00003000
00000000
00000000
00000000
00000000
00000000
00000000
00002000
00003000
00000000
00000000
00000000
00000000
00000000
00000000
,
00011000
00000000
00000000
00000000
00001000
00000000
00010000
00000000
00000010
00000000
00001000
00000100
00000000
00000010
00000100
00000000
,
00000001
00000000
00000001
00001000
00000000
00001000
00000010
00000000
00000010
00000200
00000000
00000000
,
00000301
00000000
00000001
00000100
00000000
00000100
00001000
00000000
00001000
00010000
00000000
00010000
,
00001000
00010000
00100000
01000000
00000000
00100000
01000000
00000000
01000000
00100000
10000000
00100000
,
01000000
00000000
01000000
00100000
00000000
00100000
10000000
00000000
10000000
00010000
00000000
00010000
,
01000000
00001000
00010000
00000200
00000000
00000000
00001300
00000000
00000100
00010000
00000000
00000000
,
00010000
00000000
00001000
00010000
01000000
10000000
10000000
10000000
,
00100000
00000000
01000000
00100000
00001000
00010000
00010000
00010000
,
00000100
00001000
00000010
00000100
00000001
00000010
00000100
00000010
,
00000001
00000011
00000000
00001010
00000000
00011000
00000000
00110000
,
00200000
00000000
00000000
00000000
,
20300000
00000000
00000000
00000000
,
32000000
00000000
00000000
00000000
,
03200000
00000000
00000000
00000000
,
00302000
00000000
00000000
00000000
,
00023000
00000000
00000000
00000000
,
00030020
00000000
00000000
00000000
,
00002030
00000000
00000000
00000000
00000000
00000000
00003010
00001000
,
00010000
00000000
00100000
00010000
00001000
00000000
00000010
00001000
,
00010000
00001000
00010000
00100000
01000000
00000000
00001000
00010000
,
00000100
00001000
00000100
00000010
00001000
00000100
00010000
00001000
,
00010000
00100000
01000000
00010000
00001000
00000000
00010000
00000100
,
00001000
00000010
00000100
00000100
00000110
00000000
00000010
00001000
,
00000100
00010000
00001000
00010000
00011000
00000000
00001000
00100000
,
00010000
00100000
01000000
00100000
00010000
00001000
00000100
00000010
,
00001000
00001000
00010000
00010000
00022000
00000000
00033000
00000000
,
00000100
00000000
00000000
00000000
00000000
00000000
00000000
00000000
00000000
00000000
00000000
00000000
00000000
00000000
00000000
00000000
00000100
00000000
00000000
00000000
00000000
00000000
00000000
00000000
00000000
00000000
00000000
00000000
00000000
00000000
00000000
00000000
00000100
00000000
00000000
00000000
00000000
00000000
00000000
00000000
00000000
00000000
00000000
00000000
00000000
00000000
00000000
00000000
00002002
00003003
00000000
00000000
00000000
00000000
00000000
00000000
00000000
00000000
00000000
00000000
00000000
00000000
00000000
00000000
,
00001010
00000000
00000001
00000100
00001000
00000000
00010000
00001000
,
00000100
00000001
00000010
00000100
00001000
00000000
00010000
00001000
,
00000010
00010000
00001000
00010000
00100000
01000000
00010000
00001000
,
00000100
00000010
00010000
00001000
00010000
00000000
00001000
00010000
,
00100000
10000000
00100000
00010000
00001000
00000000
00010000
10000000
,
00010000
01000000
10000000
01000000
00100000
00000000
00001000
00010000
,
00100000
01000000
00010000
00100000
00010000
00001000
00000100
00000010
,
00010000
00000000
00000000
00000000
00000000
00000000
00000000
00000000
00001000
00000000
00000000
00000000
00000000
00000000
00000000
00000000
00010000
00000000
00000000
00000000
00000000
00000000
00000000
00000000
00001000
00000000
00000000
00000000
00000000
00000000
00000000
00000000
00011000
00000000
00000000
00000000
00000000
00000000
00000000
00000000
00000000
00000000
00000000
00000000
00000000
00000000
00000000
00000000
00022000
00033000
00000000
00000000
00000000
00000000
00000000
00000000
00000000
00000000
00000000
00000000
00000000
00000000
00000000
00000000
,
00110000
00000000
10000000
01000000
00010000
00000000
10000000
01000000
,
00010000
01000000
00010000
00001000
00000100
00000000
00000010
00000100
,
00001000
00010000
00100000
01000000
00001000
00010000
00000100
00000010
,
00000100
00001000
00010000
00100000
01000000
00000000
00100000
00010000
,
00001000
00000100
00000001
00000100
00001000
00000000
00010000
00001000
,
00000010
00000001
00001000
00000010
00000100
00000000
00001000
00010000
,
01000000
10000000
00010000
00001000
00010000
01000000
10000000
01000000
,
00010000
00000000
00000000
00000000
00000000
00000000
00000000
00000000
10000000
00000000
00000000
00000000
00000000
00000000
00000000
00000000
00010000
00000000
00000000
00000000
00000000
00000000
00000000
00000000
01000000
00000000
00000000
00000000
00000000
00000000
00000000
00000000
01100000
00000000
00000000
00000000
00000000
00000000
00000000
00000000
00000000
00000000
00000000
00000000
00000000
00000000
00000000
00000000
00022000
00033000
00000000
00000000
00000000
00000000
00000000
00000000
00000000
00000000
00000000
00000000
00000000
00000000
00000000
00000000
,
00000110
00000000
00000001
00000100
00001000
00000100
00000001
00000010
,
00001000
00010000
00000010
00010000
00100000
00010000
00001000
00100000
,
02000000
00000000
00000000
00000000
00000000
00000000
03100000
01000000
20000000
00000000
00000000
00000000
00000000
00000000
30100000
01000000
,
00010000
10000000
01000000
00010000
00001000
00000100
00000110
00000000
,
00000001
00000011
00000000
00001010
00000000
00011000
00000000
00100000
,
00010000
10010000
00000000
11000000
00000000
01010000
00000000
00011000
,
00001000
00000100
00000010
00000001
00000100
00001000
00020000
00000000
,
00031000
00010000
01000000
10000000
00010000
00000000
01100000
00000000
,
10010000
00000000
00000000
00000000
;

//--------------- dance-double - Fred-104 ----------------
#NOTES:
     dance-double:
     Fred-104:
     Challenge:
     17:
     :
00000000
00000000
00000000
00000000
,
00000000
00000000
00000000
00000000
,
00000000
00000000
00000000
00000000
,
00000000
00000000
00000000
00000000
,
00000000
00000000
00000000
00000000
,
00010000
00001000
00010000
00000100
00001000
00000001
00000100
00001000
,
00010000
00001000
00000100
00000010
00001000
00000001
00000010
00000100
,
00001000
00000000
00001000
00000000
00000001
00000000
00000001
00000000
00001000
00000100
00001000
00000100
00000010
00000001
00000010
00000001
,
00000100
00000000
00000000
00000000
00000000
00000000
00000000
00000000
00000000
00000000
00000000
00000000
00000000
00000000
00000000
00000000
00000100
00000000
00000000
00000000
00000000
00000000
00000000
00000000
00000000
00000000
00000000
00000000
00000000
00000000
00000000
00000000
00000100
00000000
00000000
00000000
00000000
00000000
00000000
00000000
00000000
00000000
00000000
00000000
00000000
00000000
00000000
00000000
00002002
00003003
00000000
00000000
00000000
00000000
00000000
00000000
00000000
00000000
00000000
00000000
00000000
00000000
00000000
00000000
,
00000110
00000000
00000000
00000000
00000001
00000000
00000100
00000000
00000010
00000000
00001000
00000100
00000000
00010000
00000100
00010000
,
00001000
00000000
00000000
00000000
00100000
00000000
00001000
00000000
00010000
00000000
00001000
00100000
00000000
00100000
00010000
00100000
,
01000000
00000000
00000000
00000000
10000000
00000000
00100000
00000000
01000000
00000000
00010000
01000000
00000000
00100000
10000000
00010000
,
10000000
00000000
01000000
10000000
00100000
00000000
01000000
00010000
00100000
00000000
00001000
00000000
00011000
00000000
00000000
00000000
,
01001000
00000000
00000000
00000000
00001000
00000000
00010000
00000000
00000100
00000000
00010000
00001000
00000000
00010000
00000100
00001000
,
00000100
00000000
00000000
00000000
00000010
00000000
00000001
00000000
00001000
00000000
00000001
00000010
00000000
00000100
00001000
00000001
,
00000100
00000000
00000000
00000000
00000010
00000000
00001000
00000000
00000100
00000000
00010000
00001000
00000000
01000000
00001000
00010000
,
00001000
00000000
00000000
00000000
00000000
00000000
00000000
00000000
00001000
00000000
00000000
00000000
00000000
00000000
00000000
00000000
00011000
00000000
00000000
00000000
00000000
00000000
00000000
00000000
00000000
00000000
00000000
00000000
00000000
00000000
00000000
00000000
00011000
00000000
00000000
00000000
00000000
00000000
00000000
00000000
00010000
00000000
00000000
00000000
00000000
00000000
00000000
00000000
00020200
00030300
00000000
00000000
00000000
00000000
00000000
00000000
00000000
00000000
00000000
00000000
00000000
00000000
00000000
00000000
,
00010000
00000000
00001000
00000000
00100000
00000000
00010000
00000000
10000000
00100000
10000000
00100000
01000000
00100000
01000000
00100000
,
10000000
00000000
01000000
00000000
00100000
00000000
00001000
00000000
00010000
00001000
00010000
00001000
00010000
00000100
00010000
00000100
,
00010000
00000000
00000100
00000000
00001000
00000000
00000001
00000000
00000100
00000010
00000100
00000010
00001000
00000010
00001000
00000010
,
00000100
00000000
00000010
00000001
00000100
00000000
00000010
00001000
00000100
00000000
00000010
00000000
00000110
00000000
00000000
00000000
,
00000001
00000100
00000001
00000000
00001000
00000100
00001000
00000000
00000010
00001000
00000010
00001000
00000100
00010000
00001000
00000000
,
00100000
00010000
00100000
00000000
00001000
00010000
00001000
00000000
01000000
00010000
01000000
00010000
10000000
01000000
00100000
00000000
,
00001000
00000000
00010000
00000000
00001000
00000000
00010000
00000000
00001000
00010000
00001000
00010000
00001000
00010000
00001000
00000000
,
00022000
00000000
00000000
00033000
,
00001001
00000000
00000000
00000001
00000100
00000100
00000010
00001000
,
00001100
00000000
00000000
00000000
00000010
00000000
00000001
00001000
00000010
00000000
00000100
00000000
00000010
00000000
00001000
00000000
,
00001100
00000000
00000000
00000000
00000100
00000000
00010000
00000000
00001000
00000000
01000000
00001000
00000000
00010000
00001000
00100000
,
00001000
00010000
00000010
00010000
00001000
00001000
00020000
00030000
,
00011000
00000000
00010000
01000000
10000000
00000000
10000000
01000000
,
00010000
00000000
00001000
00000010
00000001
00000000
00000001
00000010
,
00001000
00000000
00010000
00000000
00100000
00000000
10000000
00000000
00010000
10000000
00010000
10000000
00010000
10000000
00010000
10000000
,
01000000
00000000
00000000
00000000
00000000
00000000
00000000
00000000
00000000
00000000
00000000
00000000
00000000
00000000
00000000
00000000
00000000
00000000
00000000
00000000
00000000
00000000
00000000
00000000
00000000
00000000
00000000
00000000
00000000
00000000
00000000
00000000
00000000
00000000
00000000
00000000
00000000
00000000
00000000
00000000
00000000
00000000
00000000
00000000
00000000
00000000
00000000
00000000
20020000
30030000
00000000
00000000
00000000
00000000
00000000
00000000
00000000
00000000
00000000
00000000
00000000
00000000
00000000
00000000
,
11000000
00000000
00000000
00000000
00010000
00000000
10000000
00000000
00100000
00000000
01000000
00100000
00000000
10000000
00100000
01000000
,
00020000
00000000
00130000
00001000
00000020
00000000
00001030
00010000
,
00100000
00000000
00000000
00000000
01000000
00000000
00100000
00000000
00010000
00000000
01000000
00100000
00000000
10000000
00100000
01000000
,
00020000
00230000
02300000
03020000
00032000
00003200
00000320
00000030
,
00000110
00000000
00000000
00000000
00001000
00000000
00000001
00000000
00000100
00000000
00000001
00000010
00000000
00000100
00001000
00000100
,
00000020
00000000
00000000
00000000
00000000
00000000
00000000
00000000
00000000
00000000
00000000
00000000
00000000
00000000
00000000
00000000
00000031
00000000
00000000
00000000
00000000
00000000
00000000
00000000
00002000
00000000
00000000
00000000
00000000
00000000
00000000
00000000
00003200
00000300
00000000
00000000
00000000
00000000
00000000
00000000
00000200
00000300
00000000
00000000
00000000
00000000
00000000
00000000
00000200
00000300
00000000
00000000
00000000
00000000
00000000
00000000
00000200
00000300
00000000
00000000
00000000
00000000
00000000
00000000
,
00000110
00000000
00000000
00000000
00000010
00000000
00001000
00000000
00000100
00000000
00010000
00000100
00000000
00010000
00001000
00010000
,
00001000
00000000
00010000
00100000
00000000
10000000
00100000
00000000
00001000
00010000
00000000
00000000
,
00011000
00000000
00001000
00000100
00000000
00000100
00000010
00000000
00000010
00000001
00001000
00000001
,
00000100
00000001
00000010
00000100
00000000
00001000
00000010
00000000
00000100
00000001
00000001
00000100
,
00000010
00000000
00001000
00000100
00000000
00010000
00001000
00000000
01000000
00010000
00100000
01000000
,
10000000
00100000
01000000
00020000
00000000
00000000
10030000
00000000
00010000
02000000
00000000
00000000
,
03010000
00100000
00010000
00000000
10000000
00000000
01000000
00000000
00100000
00010000
00100000
00010000
00100000
00001000
00010000
00000000
,
00001000
00000000
00000000
00000000
00000010
00001000
00000010
00000000
00001000
00000100
00001000
00000100
00000010
00000001
00000010
00000000
,
00000001
00000100
00000001
00000100
00000010
00001000
00000010
00001000
00000100
00010000
00000100
00010000
00001000
00010000
00001000
00010000
,
00001000
00020000
00130000
00020000
00031000
00020000
00030010
00020000
,
00032000
00000000
00000000
00000000
,
00023000
00000000
00000000
00000000
,
00230000
00000000
00000000
00000000
,
20300000
00000000
00000000
00000000
,
32000000
00000000
00000000
00000000
,
03020000
00000000
00000000
00000000
,
00032000
00000000
00000000
00000000
,
00000002
00000000
00000000
00000000
00003003
00000000
00000001
00000100
,
00001000
00000000
00000001
00000010
00001000
00000000
00000001
00000100
,
00001000
00000000
00010000
00000000
00001000
00010000
00001000
00000000
00010000
00000000
00000000
00000000
00011000
00000000
00001000
00000000
,
00101000
00100000
00010000
10000000
00100000
01000000
00010000
10000000
,
10100000
01010000
10010000
00000000
,
10000000
00000000
01000000
00000000
00100000
00000000
00001000
00010000
00001000
00000000
00100000
00000000
00001000
00000000
00010000
00000100
,
00010000
00000000
00001000
00000000
00000100
00000000
00000010
00000100
00000010
00000000
00000001
00000000
00001000
00000000
00000001
00000100
,
00000010
00001000
00000010
00001000
00000100
00010000
00000100
00010000
00001000
00100000
00001000
00100000
00010000
01000000
00100000
10000000
,
00100000
00100000
01000000
01000000
02200000
00000000
03300000
00000000
,
01000000
00000000
00000000
00000000
00000000
00000000
00000000
00000000
00000000
00000000
00000000
00000000
00000000
00000000
00000000
00000000
01000000
00000000
00000000
00000000
00000000
00000000
00000000
00000000
00000000
00000000
00000000
00000000
00000000
00000000
00000000
00000000
01000000
00000000
00000000
00000000
00000000
00000000
00000000
00000000
00000000
00000000
00000000
00000000
00000000
00000000
00000000
00000000
20020000
30030000
00000000
00000000
00000000
00000000
00000000
00000000
00000000
00000000
00000000
00000000
00000000
00000000
00000000
00000000
,
01200000
00000000
10300000
01000000
00200000
00000000
00301000
00010000
,
00001000
00000000
00010000
00000000
00000010
00001000
00000010
00000000
00000100
00000000
00000000
00000000
00000110
00000000
00000010
00000000
,
00000001
00001000
00000001
00000100
00001000
00000100
00000010
00000100
,
00000001
00001000
00000100
00010000
00002000
00000000
01003000
00010000
,
00001000
00000000
00000100
00000000
00010000
00001000
00010000
00000000
00012000
00000000
00000000
00000000
00003010
00000000
00001000
00000000
,
00000100
00000000
00010000
00000000
00001000
00100000
00001000
00000000
00201000
00000000
00000000
00000000
00310000
00000000
00100000
00000000
,
01000000
00100000
00010000
00001000
00100000
00001000
00010000
00000010
,
00001000
00000000
00000000
00000000
00000000
00000000
00000000
00000000
00001000
00000000
00000000
00000000
00000000
00000000
00000000
00000000
00000001
00000000
00000000
00000000
00000000
00000000
00000000
00000000
00000001
00000000
00000000
00000000
00000000
00000000
00000000
00000000
00000101
00000000
00000000
00000000
00000000
00000000
00000000
00000000
00000000
00000000
00000000
00000000
00000000
00000000
00000000
00000000
00002002
00003003
00000000
00000000
00000000
00000000
00000000
00000000
00000000
00000000
00000000
00000000
00000000
00000000
00000000
00000000
,
00001010
00000000
00000010
00001000
00020000
00000000
00130000
00010000
,
00001000
00000000
00000010
00000000
00010000
00001000
00010000
00000000
00002000
00000000
00000000
00000000
00103000
00000000
00010000
00000000
,
10000000
00100000
01000000
00100000
10000000
01000000
00100000
01000000
,
00010000
01000000
00100000
10000000
10010000
00000000
01000000
00100000
,
00001000
00000000
00010000
00000000
00000100
00000010
00000100
00000000
00002000
00000000
00000000
00000000
00003100
00000000
00010000
00000000
,
00001000
00000000
00010000
00000000
00100000
01000000
00100000
00000000
00020000
00000000
00000000
00000000
00031000
00000000
00000100
00000000
,
00000010
00001000
00010000
00100000
01000000
00010000
00100000
00001000
,
00010000
00000000
00000000
00000000
00000000
00000000
00000000
00000000
00010000
00000000
00000000
00000000
00000000
00000000
00000000
00000000
00001000
00000000
00000000
00000000
00000000
00000000
00000000
00000000
00001000
00000000
00000000
00000000
00000000
00000000
00000000
00000000
00101000
00000000
00000000
00000000
00000000
00000000
00000000
00000000
00000000
00000000
00000000
00000000
00000000
00000000
00000000
00000000
00022000
00033000
00000000
00000000
00000000
00000000
00000000
00000000
00000000
00000000
00000000
00000000
00000000
00000000
00000000
00000000
,
00010010
00000000
00001000
00000100
00000010
00000001
00001000
00000010
,
00000010
00000100
00000001
00000010
00001000
00010000
00100000
10000000
,
00020000
00000000
00000000
00000000
00000000
00000000
10030000
01000000
00200000
00000000
00000000
00000000
00000000
00000000
00310000
01000000
,
00100000
00000000
01000000
00100000
10000000
00000000
00010000
00100000
01000000
00000000
00010000
00000000
00110000
00000000
00000000
00000000
,
00011000
00000000
00000000
00000000
00000000
00000000
00100000
00001000
00010000
00000000
00000000
00000000
00000000
00000000
00000010
00010000
,
00001000
00000000
00000000
00000000
00000000
00000000
01000000
00001000
00010000
00000000
00000000
00000000
00000000
00000000
00000100
00010000
,
00001000
00000000
00100000
00010000
10000000
00000000
00100000
01000000
00010000
10000000
01000000
00100000
00020000
00000000
00000000
00000000
,
10030000
00100000
00001000
00000100
00000010
00000000
00000101
00000000
,
00001001
00000000
00000000
00000000
;
