#VERSION:0.83;
#TITLE:Stay my side;
#ARTIST:DJ Yoshitaka feat.RINA;
#GENRE:R&B;
#BANNER:Stay my side.png;
#BACKGROUND:Stay my side-bg.png;
#CDTITLE:./CDTitles/bm IIDX 18 Resort Anthem.png;
#MUSIC:Stay my side.ogg;
#SAMPLESTART:61.8;
#SAMPLELENGTH:15;
#BPMS:0=100;
#BGSTAGE:2;

//--------------- dance-single - Fred-104 ----------------
#NOTEDATA:;
#STEPSTYPE:dance-single;
#DESCRIPTION:Fred-104;
#DIFFICULTY:Beginner;
#METER:2;
#CREDIT:Fred-104;
#NOTES:
0000
0000
0000
0000
,
0000
0000
0000
0000
,
0000
0000
0000
0000
,
0000
0000
0000
0000
,
0000
0000
0000
0000
,
0000
0000
0000
0000
,
1000
0000
0000
0000
,
0001
0000
0000
0000
,
1000
0000
0000
0000
,
0010
0000
0000
0000
,
1000
0000
0000
0000
,
0000
0000
0000
0000
,
0001
0000
0000
0000
,
0000
0000
0000
0000
,
1000
0000
0000
0000
,
0000
0000
0000
0000
,
0010
0000
0000
0000
,
0000
0000
0000
0000
,
1000
0000
0000
0000
,
0000
0000
0000
0000
,
0001
0000
0000
0000
,
0000
0000
0000
0000
,
1000
0000
0000
0000
,
0000
0000
0000
0000
,
0001
0000
0000
0000
,
0000
0000
0000
0000
,
1000
0000
0000
0000
,
0001
0000
0000
0000
,
1000
0000
0000
0000
,
0010
0000
0000
0000
,
0100
0000
0000
0000
,
0001
0000
0000
0000
,
0010
0000
0000
0000
,
0100
0000
0000
0000
,
1000
0000
0000
0000
,
0001
0000
0000
0000
,
1000
0000
0000
0000
,
0001
0000
0000
0000
,
0100
0000
0000
0000
,
0000
0000
0000
0000
,
0001
0000
0000
0000
,
0000
0000
0000
0000
,
1000
0000
0000
0000
;

//--------------- dance-single - Fred-104 ----------------
#NOTEDATA:;
#STEPSTYPE:dance-single;
#DESCRIPTION:Fred-104;
#DIFFICULTY:Easy;
#METER:3;
#CREDIT:Fred-104;
#NOTES:
0000
0000
0000
0000
,
0000
0000
0000
0000
,
0000
0000
0000
0000
,
0000
0000
0000
0000
,
0000
0000
0000
0000
,
0000
0000
0000
0000
,
0001
0000
0100
0000
,
0001
0000
1000
0000
,
0001
0000
0010
0000
,
0001
0000
1000
0001
,
2000
0000
3020
0000
,
1030
0000
0100
0000
,
0020
0000
0230
0000
,
0310
0000
0001
1000
,
0002
0000
2003
0000
,
3001
0000
0100
0000
,
0020
0000
2030
0000
,
3010
0000
0100
0000
,
0001
0000
0010
0001
,
1000
0000
0001
1000
,
0100
0000
1000
0000
,
0010
0000
1000
0001
,
1000
0000
0100
0000
,
1000
0001
1000
0000
,
0001
0000
1000
0000
,
1001
0000
0000
0001
,
0001
0000
0100
0000
,
1000
0000
0010
0001
,
1000
0000
0010
0000
,
1000
0001
1000
0100
,
1000
0000
0100
0000
,
0001
0000
0010
1000
,
0001
0000
1000
0000
,
2002
0000
0000
3003
,
0001
1000
0001
0001
,
0010
0001
1000
1000
,
0001
1000
0010
0010
,
0100
0001
1000
0100
,
2000
0000
0000
0000
,
3002
0000
0000
0000
,
0203
0000
0000
0310
,
1000
1000
0001
2002
,
3003
0000
0000
0000
;

//--------------- dance-single - Fred-104 ----------------
#NOTEDATA:;
#STEPSTYPE:dance-single;
#DESCRIPTION:Fred-104;
#DIFFICULTY:Medium;
#METER:6;
#CREDIT:Fred-104;
#NOTES:
0000
0000
0000
0000
,
0000
0000
0000
0000
,
0000
0000
0000
0000
,
0000
0000
0000
0000
,
0000
0000
0000
0000
,
0000
0000
0000
0000
,
1000
0000
0010
0100
0000
0010
1000
0000
,
0001
0000
0100
0001
0000
0100
0001
0000
,
0010
0000
0100
1000
0000
0001
1000
0000
,
0010
0000
0100
0010
0000
1000
0010
0100
,
0101
0000
0002
0000
0203
0000
0301
1000
,
0001
0000
0000
1000
0000
0000
0020
0000
0000
0000
0030
0000
1000
0000
0010
0000
,
2000
0000
3200
0000
0320
0000
0031
1000
,
0001
0000
0000
1000
0000
0000
0010
0000
0000
0000
0100
0000
0010
0000
0000
0000
,
1010
0000
2000
0000
3020
0000
1030
0001
,
0010
0000
0000
0001
0000
0000
0200
0000
0000
0000
0300
0000
0001
0000
1000
0000
,
0001
0000
0000
0000
0100
0000
0010
0000
0100
0000
0000
0001
0000
0000
1000
0000
,
0100
0000
0010
0001
0000
1000
0010
0100
,
0001
0000
0000
0100
0000
0000
0001
0000
0000
0000
0010
0000
0001
0000
0000
0000
,
1000
0000
0010
0100
0010
1000
0001
0000
,
1000
0000
0000
0001
0000
0000
1000
0000
0000
0000
0100
0000
1000
0000
0000
0000
,
0020
0000
2030
0000
3200
0000
0310
0001
,
0010
0000
0001
1000
0000
0001
0100
0010
,
0100
0000
0001
0010
0000
0001
0100
0010
,
1000
0000
0001
1000
0000
0001
0010
0001
,
1000
1000
0001
0001
1000
0001
1001
0000
,
1100
0010
0101
0010
,
1001
0000
0100
0000
0010
0001
1000
0000
,
1010
0100
0011
0100
,
1000
0001
1000
0000
0010
1000
0001
0000
,
0101
0010
1100
0010
,
1001
0000
0001
0000
0010
0001
1000
0000
,
1001
0100
0110
0010
,
2002
0000
0000
3003
,
1000
0000
0010
0100
0000
0010
1000
0010
,
0100
0000
0001
0010
0000
0001
1000
0001
,
0100
0000
0001
0010
0000
0100
1000
0001
,
1000
0000
0100
1000
0000
0010
1000
0001
,
0200
0000
0000
0000
,
0320
0000
0000
0000
,
2030
0000
0000
0000
0000
0000
3100
0010
,
0100
0000
0010
0002
0000
1003
0001
2000
,
3000
0000
0000
0000
;

//--------------- dance-single - Fred-104 ----------------
#NOTEDATA:;
#STEPSTYPE:dance-single;
#DESCRIPTION:Fred-104;
#DIFFICULTY:Hard;
#METER:9;
#CREDIT:Fred-104;
#NOTES:
0000
0000
0000
0000
,
0000
0000
0000
0000
,
0000
0000
0000
0000
,
0000
0000
0000
0000
,
0000
0000
0000
0000
,
0000
0000
0000
0000
,
1000
0000
0000
0010
0100
0000
0010
0000
0000
1000
0001
0000
0010
0000
0001
0000
,
0100
0000
0000
0010
0100
0000
0001
0000
1000
0001
1000
0000
0100
0000
0010
0000
,
0001
0000
0100
0001
0100
0000
0001
0000
0000
0010
0100
0000
1000
0000
0010
0000
,
0100
0000
0001
1000
0001
0000
0010
0000
0100
1000
0010
0000
0100
0000
0001
0000
,
1002
0000
0010
0000
0100
0000
1003
0010
,
1000
0000
0000
0010
0000
0000
0200
0000
0000
0000
0301
0000
1000
0000
0001
0000
,
0020
0000
0000
0000
0001
0000
0000
0000
0130
0000
0000
0100
1000
0000
0001
0000
,
0100
0000
0000
0010
0100
0000
0001
0000
0000
1000
0001
0000
1000
0000
0001
0000
,
2001
0000
0010
0000
0100
0000
3001
1000
,
0010
0000
1000
0000
0100
0000
0020
0000
0000
0000
0031
0000
1000
0001
0100
0000
,
0010
0000
0000
1000
0100
0000
1000
0000
1100
0000
0000
0001
0000
0000
1000
0000
,
0002
0000
0013
0020
0100
0130
1000
0001
,
1000
0000
0000
0010
0000
0000
1000
0000
0000
0010
0100
0000
0001
0000
0010
0000
,
0001
1000
0001
0010
0100
1000
0010
0100
,
0010
0000
0000
1000
0000
0000
0010
0000
0000
0100
0010
0000
1000
0000
0100
0000
,
0010
0000
0001
1000
0001
0000
0100
0000
0020
0000
0000
0000
0130
0000
0001
0000
,
1000
0000
0000
0010
1000
0000
0100
0000
0000
1000
0010
0000
0100
0000
0001
0000
,
1000
0000
0000
0100
0010
0000
0001
0000
0000
0100
0001
0000
0010
0000
0001
0000
,
0100
0000
0000
0010
0100
0000
0010
0000
0000
0000
1000
0000
0100
0000
0001
0000
,
0000
0000
0100
0000
0010
0000
0100
0000
1000
0001
1000
0001
1000
0000
0100
0000
,
1100
0000
1000
0010
1010
0000
0001
0010
,
0011
0000
0000
0000
0001
0000
0100
0000
0010
1000
0010
0000
1000
0000
0100
0000
,
0110
0000
0000
0000
0010
0000
0001
0000
0101
0000
0000
0000
0010
0000
1000
0100
,
1000
0000
0100
0000
0001
0000
1000
0010
0000
0001
1000
0000
0010
0000
1000
0000
,
1001
0000
1000
0100
1100
0000
0001
0010
,
0011
0000
1000
0100
0001
0010
1000
0001
,
1001
0000
1000
0010
0001
0100
1000
0001
,
2000
0000
0000
3000
,
0001
0000
0100
0001
0100
0000
0010
0000
0100
0001
0100
0000
0001
0000
1000
0000
,
0100
0000
0010
0001
0010
0000
0100
0000
0010
0001
0010
0000
0100
0000
1000
0000
,
0001
0000
0010
0100
1000
0000
0010
0000
1000
0100
0010
0000
0001
0000
0100
0000
,
0010
0000
1000
0001
0010
0000
0100
0000
0010
0001
1000
0000
0010
0000
0100
0000
,
0002
0000
0000
0000
,
0203
0000
0000
0000
,
0320
0000
0000
0000
0000
0000
1030
0001
,
2000
0000
3100
0020
0000
0031
1000
0002
,
0003
0000
0000
0000
;

//--------------- dance-double - Fred-104 ----------------
#NOTEDATA:;
#STEPSTYPE:dance-double;
#DESCRIPTION:Fred-104;
#DIFFICULTY:Easy;
#METER:3;
#CREDIT:Fred-104;
#NOTES:
00000000
00000000
00000000
00000000
,
00000000
00000000
00000000
00000000
,
00000000
00000000
00000000
00000000
,
00000000
00000000
00000000
00000000
,
00000000
00000000
00000000
00000000
,
00000000
00000000
00000000
00000000
,
00001000
00000000
00010000
00000000
,
00001000
00000000
00010000
00000000
,
00000010
00000000
00001000
00000000
,
00000010
00000000
00001000
00000001
,
00002000
00000000
00003020
00000000
,
00000130
00000000
00000001
00000000
,
00000200
00000000
00000320
00000000
,
00001030
00000000
00000100
00010000
,
00000200
00000000
00020300
00000000
,
00031000
00000000
00100000
00000000
,
00002000
00000000
00203000
00000000
,
00310000
00000000
10000000
00000000
,
01000000
00000000
00100000
00001000
,
00010000
00000000
00001000
00010000
,
00001000
00000000
00000010
00000000
,
00000001
00000000
00001000
00000001
,
00001000
00000000
00000100
00000000
,
00010000
00001000
00010000
00000000
,
00000010
00000000
00010000
00000000
,
00011000
00000000
00000000
00001000
,
00010000
00000000
01000000
00000000
,
10000000
00000000
00100000
00010000
,
00001000
00000000
00000100
00000000
,
00000001
00000010
00001000
00010000
,
00001000
00000000
00010000
00000000
,
01000000
00000000
10000000
00100000
,
00010000
00000000
00001000
00000000
,
00022000
00000000
00000000
00033000
,
00010000
00001000
00010000
00000100
,
00001000
00000001
00000100
00000000
,
00000001
00000010
00000100
00010000
,
00001000
00010000
00001000
00000000
,
02000000
00000000
00000000
00000000
,
03200000
00000000
00000000
00000000
,
02300000
00000000
00000000
03010000
,
10000000
10000000
00010000
20020000
,
30030000
00000000
00000000
00000000
;

//--------------- dance-double - Fred-104 ----------------
#NOTEDATA:;
#STEPSTYPE:dance-double;
#DESCRIPTION:Fred-104;
#DIFFICULTY:Medium;
#METER:6;
#CREDIT:Fred-104;
#NOTES:
00000000
00000000
00000000
00000000
,
00000000
00000000
00000000
00000000
,
00000000
00000000
00000000
00000000
,
00000000
00000000
00000000
00000000
,
00000000
00000000
00000000
00000000
,
00000000
00000000
00000000
00000000
,
10000000
00000000
00010000
00100000
00000000
00010000
01000000
00000000
,
00100000
00000000
01000000
00001000
00000000
00010000
00001000
00000000
,
00100000
00000000
00001000
00010000
00000000
00000010
00001000
00000000
,
00000100
00000000
00001000
00000001
00000000
00000100
00000010
00001000
,
00001001
00000000
00000002
00000000
00000203
00000000
00001300
00010000
,
00001000
00000000
00000000
00100000
00000000
00000000
02000000
00000000
00000000
00000000
03000000
00000000
10000000
00000000
00010000
00000000
,
20000000
00000000
32000000
00000000
03200000
00000000
00301000
00010000
,
00001000
00000000
00000000
00100000
00000000
00000000
00001000
00000000
00000000
00000000
00010000
00000000
00000100
00000000
00000000
00000000
,
00001100
00000000
00002000
00000000
00003200
00000000
00010300
00000010
,
00010000
00000000
00000000
00001000
00000000
00000000
00200000
00000000
00000000
00000000
00300000
00000000
00010000
00000000
01000000
00000000
,
00100000
00000000
00000000
00000000
01000000
00000000
00001000
00000000
00010000
00000000
00000000
00001000
00000000
00000000
00000010
00000000
,
00000100
00000000
00001000
00000001
00000000
00000010
00000001
00000010
,
00000100
00000000
00000000
00001000
00000000
00000000
00000001
00000000
00000000
00000000
00000100
00000000
00000010
00000000
00000000
00000000
,
00001000
00000000
00000100
00010000
00001000
00010000
01000000
00000000
,
10000000
00000000
00000000
00010000
00000000
00000000
00100000
00000000
00000000
00000000
00010000
00000000
01000000
00000000
00000000
00000000
,
00002000
00000000
00023000
00000000
00032000
00000000
00103000
00001000
,
00100000
00000000
00001000
00010000
00000000
00000010
00001000
00000010
,
00001000
00000000
00000100
00010000
00000000
00001000
00100000
00010000
,
01000000
00000000
00010000
00100000
00000000
00001000
00010000
00001000
,
00000010
00000100
00001000
00000010
00010000
00001000
00011000
00000000
,
00101000
00010000
00010010
00001000
,
00011000
00000000
00001000
00000000
00010000
01000000
10000000
00000000
,
11000000
00100000
01010000
00100000
,
10000000
01000000
00010000
00000000
00001000
00000010
00000100
00000000
,
00001100
00000010
00000101
00000010
,
00001001
00000000
00000001
00000000
00000010
00000100
00010000
00000000
,
00011000
00000010
00011000
01000000
,
00022000
00000000
00000000
00033000
,
00001000
00000000
00100000
00010000
00000000
01000000
00010000
10000000
,
00010000
00000000
00100000
01000000
00000000
10000000
01000000
00100000
,
00001000
00000000
00010000
00000100
00000000
00000010
00000001
00001000
,
00000001
00000000
00000100
00000010
00000000
00010000
00000100
00010000
,
00002000
00000000
00000000
00000000
,
00203000
00000000
00000000
00000000
,
00302000
00000000
00000000
00000000
00000000
00000000
01003000
00001000
,
00010000
00000000
00001000
00020000
00000000
00030100
00010000
00002000
,
00003000
00000000
00000000
00000000
;

//--------------- dance-double - Fred-104 ----------------
#NOTEDATA:;
#STEPSTYPE:dance-double;
#DESCRIPTION:Fred-104;
#DIFFICULTY:Hard;
#METER:9;
#CREDIT:Fred-104;
#NOTES:
00000000
00000000
00000000
00000000
,
00000000
00000000
00000000
00000000
,
00000000
00000000
00000000
00000000
,
00000000
00000000
00000000
00000000
,
00000000
00000000
00000000
00000000
,
00000000
00000000
00000000
00000000
,
00010000
00000000
00000000
00001000
00010000
00000000
00000010
00000000
00000000
00010000
00001000
00000000
00010000
00000000
00001000
00000000
,
00100000
00000000
00000000
00010000
01000000
00000000
00001000
00000000
00010000
00000100
00010000
00000000
00000010
00000000
00010000
00000000
,
00001000
00000000
00100000
00010000
00100000
00000000
00001000
00000000
00000000
01000000
00010000
00000000
00100000
00000000
00001000
00000000
,
00010000
00000000
00000010
00001000
00000010
00000000
00010000
00000000
00000100
00001000
00000100
00000000
00010000
00000000
00001000
00000000
,
00012000
00000000
00010000
00000000
00100000
00000000
00013000
00000100
,
00001000
00000000
00000000
00000010
00000000
00000000
00002000
00000000
00000000
00000000
00003100
00000000
00010000
00000000
00001000
00000000
,
00020000
00000000
00000000
00000000
00001000
00000000
00000000
00000000
00030100
00000000
00000000
00010000
00001000
00000000
01000000
00000000
,
00010000
00000000
00000000
00100000
00010000
00000000
01000000
00000000
00000000
00001000
00010000
00000000
00001000
00000000
00010000
00000000
,
00020100
00000000
00001000
00000000
00000010
00000000
00031000
00100000
,
00010000
00000000
01000000
00000000
00001000
00000000
00020000
00000000
00000000
00000000
00031000
00000000
00000010
00000100
00001000
00000000
,
00000010
00000000
00000000
00010000
00001000
00000000
00010000
00000000
00011000
00000000
00000000
00001000
00000000
00000000
01000000
00000000
,
00010000
00000000
00200000
00001000
00302000
00010000
00013000
00000010
,
00001000
00000000
00000000
00000001
00000000
00000000
00000100
00000000
00000000
00000001
00000010
00000000
00000100
00000000
00000010
00000000
,
00001000
00010000
01000000
00100000
00010000
10000000
00100000
00010000
,
00001000
00000000
00000000
00010000
00000000
00000000
00000010
00000000
00000000
00000100
00000001
00000000
00001000
00000000
00000100
00000000
,
00000010
00000000
00000100
00001000
00000100
00000000
00001000
00000000
00000002
00000000
00000000
00000000
00001003
00000000
00000100
00000000
,
00010000
00000000
00000000
00000010
00001000
00000000
00000100
00000000
00000000
00010000
00001000
00000000
01000000
00000000
00001000
00000000
,
00010000
00000000
00000000
00001000
00100000
00000000
00010000
00000000
00000000
01000000
00001000
00000000
00100000
00000000
00001000
00000000
,
00010000
00000000
00000000
00001000
00010000
00000000
00001000
00000000
00000000
00000000
00000010
00000000
00000100
00000000
00001000
00000000
,
00000000
00000000
00000100
00000000
00000010
00000000
00000001
00000000
00000100
00000010
00000100
00000010
00000100
00000000
00000001
00000000
,
00001001
00000000
00000001
00000100
00000110
00000000
00001000
00000100
,
00000110
00000000
00000000
00000000
00000001
00000000
00000100
00000000
00001000
00010000
00100000
00000000
01000000
00000000
00010000
00000000
,
10010000
00000000
00000000
00000000
10000000
00000000
00100000
00000000
01100000
00000000
00000000
00000000
00010000
00000000
00100000
01000000
,
00100000
00000000
00010000
00000000
10000000
00000000
00100000
00010000
00000000
00001000
00000100
00000000
00000010
00000000
00001000
00000000
,
00001010
00000000
00001000
00000100
00000110
00000000
00000001
00000100
,
00000110
00000000
00000001
00000010
00001000
00010000
01000000
10000000
,
10010000
00000000
10000000
00100000
00010000
00001000
00000100
00000001
,
00002000
00000000
00000000
00003000
,
00000001
00000000
00000100
00000001
00000010
00000000
00000001
00000000
00001000
00000010
00010000
00000000
00001000
00000000
00010000
00000000
,
00000100
00000000
00010000
00001000
00100000
00000000
00010000
00000000
10000000
00010000
01000000
00000000
00100000
00000000
10000000
00000000
,
00010000
00000000
10000000
01000000
00100000
00000000
01000000
00000000
00010000
00001000
00000010
00000000
00000100
00000000
00001000
00000000
,
00000001
00000000
00000100
00000010
00000100
00000000
00001000
00000000
00010000
00100000
01000000
00000000
00010000
00000000
10000000
00000000
,
02000000
00000000
00000000
00000000
,
03200000
00000000
00000000
00000000
,
00302000
00000000
00000000
00000000
00000000
00000000
00013000
00001000
,
00020000
00000000
00031000
00020000
00000000
00030100
00001000
00000002
,
00000003
00000000
00000000
00000000
;
