#TITLE:Starlight Parade;
#ARTIST:肥塚良彦;
#ARTISTTRANSLIT:Yoshihiko Koezuka;
#BANNER:Starlight Parade.png;
#BACKGROUND:Starlight Parade-bg.png;
#CDTITLE:./CDTitles/jb copious.png;
#MUSIC:Starlight Parade.ogg;
#SAMPLESTART:71.299;
#SAMPLELENGTH:15;
#BPMS:0=131;
#STAGE:16;

//--------------- dance-single - Fred-104 ----------------
#NOTES:
     dance-single:
     Fred-104:
     Beginner:
     1:
     :
0000
0000
0000
0000
,
0000
0000
0000
0000
,
0000
0000
0000
0000
,
0000
0000
0000
0000
,
0000
0000
0000
0000
,
0000
0000
0000
0000
,
1000
0000
0000
0000
,
0000
0000
0000
0000
,
0001
0000
0000
0000
,
0000
0000
0000
0000
,
1000
0000
0000
0000
,
0000
0000
0000
0000
,
1000
0000
0000
0000
,
0000
0000
0000
0000
,
0001
0000
0000
0000
,
0010
0000
0000
0000
,
0001
0000
0000
0000
,
1000
0000
0000
0000
,
1000
0000
0000
0000
,
1000
0000
0000
0000
,
0001
0000
0000
0000
,
1000
0000
0000
0000
,
0001
0000
0000
0000
,
0000
0000
0000
0000
,
1000
0000
0000
0000
,
0000
0000
0000
0000
,
0100
0000
0000
0000
,
0000
0000
0000
0000
,
0010
0000
0000
0000
,
0000
0000
0000
0000
,
0010
0000
0000
0000
,
0001
0000
0000
0000
,
0001
0000
0000
0000
,
1000
0000
0000
0000
,
1000
0000
0000
0000
,
0000
0000
0000
0000
,
0001
0000
0000
0000
,
1000
0000
0000
0000
,
0000
0000
0000
0000
,
1000
0000
0000
0000
,
0000
0000
0000
0000
,
0010
0000
0000
0000
,
0000
0000
0000
0000
,
1000
0000
0000
0000
,
0000
0000
0000
0000
,
0001
0000
0000
0000
,
0000
0000
0000
0000
,
1000
0000
0000
0000
,
0000
0000
0000
0000
,
0010
0000
0000
0000
,
0000
0000
0000
0000
,
0001
0000
0000
0000
,
0000
0000
0000
0000
,
1000
0000
0000
0000
,
0000
0000
0000
0000
,
1000
0000
0000
0000
,
0000
0000
0000
0000
,
0001
0000
0000
0000
,
0000
0000
0000
0000
,
1000
0000
0000
0000
,
0000
0000
0000
0000
,
0001
0000
0000
0000
,
1000
0000
0000
0000
;

//--------------- dance-single - Fred-104 ----------------
#NOTES:
     dance-single:
     Fred-104:
     Easy:
     3:
     :
0000
0000
0000
0000
,
0000
0000
0000
0000
,
0000
0000
0000
0000
,
0000
0000
0000
0000
,
0000
0000
0000
0000
,
0000
0000
0000
0000
,
1000
0000
0010
0000
,
1000
0000
0001
0000
,
0001
0000
0001
0000
,
1000
0000
1000
1000
,
1000
0000
0001
0000
,
1000
0000
0010
0000
,
1000
0000
0001
0000
,
1000
0000
1000
0000
,
1000
0000
1000
0000
,
0100
0000
0100
0000
,
0001
0000
0001
0000
,
0010
0000
0010
0000
,
1000
0000
1000
0000
,
0100
0000
1000
0000
,
0001
0000
0010
0000
,
0001
0000
0001
0000
,
0100
0100
0000
0100
,
0100
0000
0100
0100
,
0100
0000
0100
0000
,
0100
0000
0100
0100
,
0001
0000
1000
0000
,
0010
0000
1000
0000
,
0001
0000
1000
0000
,
1000
0000
0001
0001
,
0001
0000
1000
0000
,
0001
0000
1000
0000
,
0010
0000
1000
0000
,
0001
0000
1000
0000
,
0001
0000
1000
0000
,
0010
0000
1000
0000
,
0001
0000
0001
0000
,
2002
0000
0000
0000
,
3003
0000
0000
0000
,
0001
0000
0001
0000
,
0010
0010
0010
0000
,
0001
0000
1000
0000
,
0100
0100
0100
0000
,
1000
0000
0001
0000
,
1000
0000
0010
0000
,
1000
0000
0001
0000
,
1000
1000
0001
0001
,
1000
0000
0001
0000
,
1000
0000
1000
0000
,
0010
0000
1000
0000
,
1000
0000
0010
0010
,
0010
0000
1000
0000
,
0001
0000
0001
0000
,
1000
0000
0001
0000
,
1000
0000
1000
0000
,
1000
0000
0001
0000
,
0001
0001
0001
0000
,
0100
0100
0100
0000
,
0010
0010
0010
0000
,
1000
1000
1000
0000
,
0001
0001
0001
0000
,
1000
0000
0001
0000
,
2002
0000
3003
0000
;

//--------------- dance-single - Fred-104 ----------------
#NOTES:
     dance-single:
     Fred-104:
     Medium:
     7:
     :
0000
0000
0000
0000
,
0000
0000
0000
0000
,
0000
0000
0000
0000
,
0000
0000
0000
0000
,
0000
0000
0000
0000
,
0000
0000
0000
0000
,
1000
0010
1000
0100
,
1000
0100
0100
0001
,
0100
0001
0010
0001
,
0010
0000
0001
0000
1000
0001
1000
0000
,
0002
0000
0000
0000
0003
0000
1000
0000
0010
0000
0000
0010
0000
0000
0010
0000
,
1000
0000
0010
0100
0010
0000
1000
0000
,
0002
0000
2003
0000
,
3010
0100
0000
0100
0000
0100
0000
0010
,
1000
0001
0010
0001
,
0010
0000
0100
0000
0010
0100
0010
0000
,
0100
1000
0001
1000
,
0001
0100
0010
0000
1000
0000
0010
0000
,
2000
0000
0000
0000
3000
0000
0001
0000
0100
0000
0000
0100
0000
0000
0100
0000
,
0000
0000
0010
0100
0000
0100
0000
0001
,
1000
0000
0010
1000
0010
0000
0100
0001
,
0000
1000
0000
0010
0000
1000
0000
1000
,
0000
0010
1000
0010
0000
1000
0001
0100
,
0000
0010
0200
0000
0000
0300
0000
0010
,
0000
1000
0100
0010
0000
0001
0100
0010
,
0000
1000
0002
0000
0203
0000
0320
0000
,
1030
0000
1010
0000
0010
0000
0100
0001
,
0000
0001
0100
0001
0000
1000
0001
1000
,
0000
0010
1000
0010
0000
0100
0001
0100
,
0002
1000
1000
1003
,
0001
0000
0000
0100
0000
0000
1000
0000
,
0001
0100
0010
0000
1000
0000
0010
0000
,
1000
0000
0000
0010
0000
0000
0001
0000
,
0010
0100
0010
0000
0100
0000
1000
0000
,
0001
0000
0000
0100
0000
0000
1000
0000
,
0001
1000
0100
0000
0010
0000
0100
0000
,
1000
0000
0000
0010
0000
0000
0100
0000
,
0001
0000
1000
0000
0001
0000
1000
0000
0000
0000
0002
0000
0000
2000
0000
0000
,
3003
0000
0000
0000
,
1000
0100
1000
0000
0010
0000
0100
0000
,
0002
0103
2000
3100
,
0001
0100
0001
0000
0100
0010
0100
0000
,
0020
1000
0230
1000
,
0310
0100
0001
0000
0100
0010
1000
0000
,
0001
1000
0100
0000
1000
0001
0100
0000
,
0020
0000
1000
0000
0001
0000
1030
1000
,
0000
0001
1000
0010
1000
0000
1001
0000
,
0001
0010
0001
0000
1000
0000
0100
0000
,
0020
0001
1000
0031
,
0100
0010
1000
0000
0010
0100
0010
0000
,
1000
0100
0010
0000
0001
0100
0001
0000
,
0200
0001
1000
0301
,
1000
0100
0010
0000
0100
0010
0001
0000
,
1000
0010
1000
0100
,
1000
0001
1000
0000
0010
0100
0001
0000
,
0000
0100
0010
0100
0000
0010
1000
0010
,
0000
1000
0100
0010
0000
0001
1000
0000
,
0002
0010
0010
0013
,
2000
0100
0100
3100
,
0000
0001
1000
0010
0000
1000
0100
0010
,
0000
0001
1000
0100
0000
1000
0010
0000
,
0210
0301
2000
3010
,
0100
0000
0000
0000
0001
0000
0001
1000
0000
0000
0000
0000
0000
0000
0000
0000
;

//--------------- dance-single - Fred-104 ----------------
#NOTES:
     dance-single:
     Fred-104:
     Hard:
     11:
     :
0000
0000
0000
0000
,
0000
0000
0000
0000
,
0000
0000
0000
0000
,
0000
0000
0000
0000
,
0000
0000
0000
0000
,
0000
0000
0000
0000
,
1000
0100
0010
0000
0001
0100
0001
1000
,
0000
0010
1000
0001
0000
1000
0100
0010
,
0000
1000
0100
0001
0000
0100
1000
0001
,
0100
0000
0010
0000
0100
0010
0100
0100
,
0020
0000
0000
0000
0000
0000
1030
0000
0100
0000
0000
1000
0000
0000
0002
0000
,
0000
0103
0010
0020
0000
1030
0000
0001
,
1000
0000
0000
0000
0001
0000
0100
0000
0010
0000
0000
0001
0000
0000
1000
0000
,
0000
1100
0000
0101
0000
1001
0000
0010
,
0100
0010
0010
0001
0000
0101
0000
1001
,
0000
0010
1000
0100
0000
0010
0001
1000
,
0001
0100
0100
0000
0010
1000
0001
1000
,
0002
0203
0320
2030
,
3001
0000
0000
0000
1000
0000
0100
0000
0010
0000
0000
0100
0000
0000
1000
0000
,
0000
0001
0001
0100
0000
1000
0000
0100
,
0001
0000
0010
0010
1000
0010
0000
0001
,
0000
0000
0011
0000
0000
0000
1010
0000
0000
0000
1001
0000
0000
0000
0010
0100
,
0000
0000
0010
0000
0100
0000
0010
0100
0000
0000
0001
0000
0100
0000
0001
0100
,
0000
0000
0010
0000
2002
0000
0000
0000
0000
0000
3003
0000
0000
0000
1000
0100
,
0000
0000
1000
0000
0010
0000
0100
0010
0000
0000
1000
0000
0010
0000
0100
0010
,
0000
0100
1001
0000
0200
0000
0310
0000
,
0001
0000
0010
0000
0001
0000
0000
0000
0001
0000
0010
0000
0100
0000
1000
0001
,
0000
0000
1000
0000
0100
0000
1000
0001
0000
0000
1000
0000
0100
0000
1000
0001
,
0000
0000
0001
0000
0100
0000
0010
1000
0000
0000
1000
0000
0100
0000
0010
0001
,
0000
0000
0100
0000
0010
0000
0000
0000
1000
0000
0000
0001
0000
0000
1000
0000
,
1200
0001
1000
0301
,
1000
0010
0100
0000
0001
0010
0100
0000
,
1020
0001
1000
0031
,
0100
0010
0100
0000
0001
1000
0100
0000
,
0201
1000
0001
1300
,
0010
1000
0001
0000
1000
0100
0010
0000
,
1200
0000
0001
0000
1000
0000
0301
0001
,
1000
0000
0010
0000
0100
0000
0001
0000
0000
0000
2000
0000
0000
0002
0000
0000
,
3003
0000
0000
0000
,
1000
0000
0010
0000
1000
0000
0010
0100
0000
0000
0002
0000
0000
0023
0000
0000
,
0130
0000
0000
0010
0000
0000
1001
0000
0000
0000
0100
0000
0010
0000
1000
0000
,
0010
1000
0100
0010
0001
0100
0001
1000
,
0001
0010
1000
0000
0001
0100
1000
0000
,
0001
0100
0010
1000
0100
0010
0001
0000
,
1200
0000
0010
0000
1000
0000
0310
0100
,
0000
0110
0000
0110
0000
0011
0000
1001
,
0000
0100
0010
0001
1000
0010
1000
0000
,
0001
0000
0100
0000
0010
0000
1000
0100
0000
0000
0020
0000
0000
0230
0000
0000
,
1300
0000
0000
0001
0000
0000
1001
0000
0000
0000
0100
0000
0010
0000
0100
0000
,
0002
0000
1003
0100
0002
0000
1003
0100
,
0010
0000
0001
0000
1000
0010
0100
0100
,
0010
1000
0010
0000
1000
0100
0010
0001
,
0000
0100
0010
1000
0000
0001
0010
0100
,
2000
0010
0100
3010
,
0001
0000
0000
0100
0000
0000
0010
0000
0100
0000
0001
0000
1000
0000
0001
0000
,
1000
0000
0100
0000
1000
0000
0010
1000
0000
0000
0001
0000
0100
0000
0001
0010
,
0000
0000
0001
0000
0100
0000
0001
1000
0000
0000
0000
0000
1001
0000
0000
0000
,
1000
0020
0001
0000
1000
0000
0031
0000
,
1000
0200
0001
0000
1000
0000
0301
0000
,
1000
0000
0100
0000
1000
0000
0010
1000
0000
0000
0001
0000
0100
0000
0010
0100
,
0000
0000
0001
0000
1000
0000
0001
1000
0000
0000
0001
0000
1000
0000
0000
1001
,
0000
0200
0010
0301
,
1000
0010
0000
0000
1000
0000
0001
0100
0000
0000
0000
0000
0000
0000
0000
0000
;

//--------------- dance-double - Fred-104 ----------------
#NOTES:
     dance-double:
     Fred-104:
     Easy:
     3:
     :
00000000
00000000
00000000
00000000
,
00000000
00000000
00000000
00000000
,
00000000
00000000
00000000
00000000
,
00000000
00000000
00000000
00000000
,
00000000
00000000
00000000
00000000
,
00000000
00000000
00000000
00000000
,
00000001
00000000
00000001
00000000
,
00000100
00000000
00000100
00000000
,
00001000
00000000
00010000
00000000
,
01000000
00000000
10000000
10000000
,
10000000
00000000
00100000
00000000
,
01000000
00000000
00010000
00000000
,
00100000
00000000
00001000
00000000
,
00001000
00000000
00010000
00000000
,
00000010
00000000
00010000
00000000
,
00001000
00000000
00001000
00000000
,
00000100
00000000
00000001
00000000
,
00000001
00000000
00001000
00000000
,
00000001
00000000
00000001
00000000
,
00000010
00000000
00001000
00000000
,
00001000
00000000
00010000
00000000
,
00100000
00000000
01000000
00000000
,
00100000
00100000
00000000
01000000
,
01000000
00000000
00100000
00100000
,
00100000
00000000
00010000
00000000
,
00001000
00000000
00000100
00000100
,
00000001
00000000
00000100
00000000
,
00001000
00000000
00010000
00000000
,
01000000
00000000
10000000
00000000
,
10000000
00000000
00010000
00010000
,
00010000
00000000
10000000
00000000
,
00100000
00000000
00100000
00000000
,
00010000
00000000
00001000
00000000
,
00000010
00000000
00000001
00000000
,
00000001
00000000
00000100
00000000
,
00001000
00000000
00001000
00000000
,
00010000
00000000
00010000
00000000
,
00022000
00000000
00000000
00000000
,
00033000
00000000
00000000
00000000
,
00010000
00000000
00010000
00000000
,
00100000
00100000
00100000
00000000
,
10000000
00000000
00100000
00000000
,
00010000
00010000
00010000
00000000
,
10000000
00000000
01000000
00000000
,
00010000
00000000
00001000
00000000
,
00001000
00000000
00000100
00000000
,
00000001
00000001
00000001
00000001
,
00000001
00000000
00000100
00000000
,
00000010
00000000
00000010
00000000
,
00001000
00000000
00010000
00000000
,
00100000
00000000
01000000
01000000
,
01000000
00000000
00100000
00000000
,
00010000
00000000
00001000
00000000
,
00000100
00000000
00000010
00000000
,
00001000
00000000
00010000
00000000
,
00100000
00000000
10000000
00000000
,
10000000
10000000
10000000
00000000
,
01000000
01000000
01000000
00000000
,
00010000
00010000
00010000
00000000
,
00001000
00001000
00001000
00000000
,
00000100
00000100
00000100
00000000
,
00000001
00000000
00001000
00000000
,
00002002
00000000
00003003
00000000
;

//--------------- dance-double - Fred-104 ----------------
#NOTES:
     dance-double:
     Fred-104:
     Medium:
     8:
     :
00000000
00000000
00000000
00000000
,
00000000
00000000
00000000
00000000
,
00000000
00000000
00000000
00000000
,
00000000
00000000
00000000
00000000
,
00000000
00000000
00000000
00000000
,
00000000
00000000
00000000
00000000
,
00001000
00001000
00010000
00100000
,
10000000
10000000
00100000
01000000
,
00010000
00010000
00001000
00000100
,
00000001
00000000
00001000
00000000
00000001
00001000
00000001
00000000
,
00000020
00000000
00000000
00000000
00000030
00000000
00001000
00000000
00000100
00000000
00000000
00000100
00000000
00000000
00000100
00000000
,
00010000
00000000
00001000
00010000
00001000
00000000
00010000
00000000
,
02000000
00000000
03200000
00000000
,
10300000
01000000
00000000
00100000
00000000
00100000
00000000
01000000
,
00010000
00100000
00100000
00001000
,
00010000
00000000
00001000
00000000
00000100
00000010
00000100
00000000
,
00000001
00000001
00000010
00001000
,
00010000
00100000
10000000
00000000
00010000
00000000
01000000
00000000
,
00200000
00000000
00000000
00000000
00300000
00000000
10000000
00000000
01000000
00000000
00000000
01000000
00000000
00000000
00100000
00000000
,
00000000
00000000
00100000
00010000
00000000
00010000
00000000
00001000
,
00000010
00000000
00000001
00000100
00000001
00000000
00000100
00001000
,
00000000
00010000
00000000
01000000
00000000
10000000
00000000
00100000
,
00000000
01000000
00010000
00100000
00000000
00001000
00010000
00000100
,
00000000
00000010
00000200
00000000
00000000
00000300
00000000
00000001
,
00000000
00000100
00000010
00001000
00000000
00000100
00010000
00001000
,
00000000
00100000
02000000
00000000
03200000
00000000
00320000
00000000
,
10030000
00000000
11000000
00000000
01000000
00000000
00010000
00001000
,
00000000
00000100
00000001
00000100
00000000
00001000
00010000
00001000
,
00000000
00010000
01000000
00010000
00000000
10000000
01000000
10000000
,
02000000
00100000
00100000
03100000
,
00001000
00000000
00000000
00010000
00000000
00000000
00000100
00000000
,
00000010
00000001
00000010
00000000
00001000
00000000
00000010
00000000
,
00001000
00000000
00000000
00010000
00000000
00000000
00100000
00000000
,
00010000
00001000
00010000
00000000
00000010
00000000
00010000
00000000
,
00001000
00000000
00000000
01000000
00000000
00000000
00001000
00000000
,
00010000
00000100
00001000
00000000
00000100
00000000
00010000
00000000
,
00001000
00000000
00000000
01000000
00000000
00000000
00010000
00000000
,
00001000
00000000
00000100
00000000
00000001
00000000
00001000
00000000
00000000
00000000
00000002
00000000
00000000
00002000
00000000
00000000
,
00003003
00000000
00000000
00000000
,
00010000
00001000
00010000
00000000
01000000
00000000
00100000
00000000
,
20000000
30100000
00020000
00031000
,
00000010
00000100
00000010
00000000
00000001
00000100
00000001
00000000
,
00000200
00000010
00002300
00000100
,
00013000
00001000
00100000
00000000
00010000
00100000
10000000
00000000
,
00100000
00010000
00001000
00000000
00010000
00001000
00000010
00000000
,
00000200
00000000
00001000
00000000
00000001
00000000
00001300
00001000
,
00000000
00000010
00000100
00000010
00001000
00000000
00001001
00000000
,
00000001
00000100
00001000
00000000
00010000
00000000
01000000
00000000
,
00200000
10000000
00010000
10300000
,
00100000
10000000
01000000
00000000
00100000
00010000
01000000
00000000
,
00010000
00001000
00000100
00000000
00000010
00001000
00000100
00000000
,
00020000
00001000
00100000
00031000
,
00010000
00001000
00100000
00000000
00010000
01000000
00100000
00000000
,
10000000
01000000
00010000
00001000
,
00010000
00001000
00000100
00000000
00001000
00000100
00000001
00000000
,
00000000
00000100
00000001
00000100
00000000
00001000
00010000
00001000
,
00000000
00010000
00100000
00010000
00000000
00100000
10000000
00000000
,
00020000
00100000
00100000
00130000
,
00002000
00000010
00000010
00003010
,
00000001
00000001
00000010
00000001
00000000
00000010
00001000
00000010
,
00000000
00001000
00010000
00001000
00000000
00010000
01000000
00000000
,
12000000
03100000
00020000
01030000
,
00100000
00000000
00000000
00000000
10000000
00000000
00010000
10000000
00000000
00000000
00000000
00000000
00000000
00000000
00000000
00000000
;

//--------------- dance-double - Fred-104 ----------------
#NOTES:
     dance-double:
     Fred-104:
     Hard:
     11:
     :
00000000
00000000
00000000
00000000
,
00000000
00000000
00000000
00000000
,
00000000
00000000
00000000
00000000
,
00000000
00000000
00000000
00000000
,
00000000
00000000
00000000
00000000
,
00000000
00000000
00000000
00000000
,
00000001
00000010
00000100
00000000
00000010
00000001
00000100
00001000
,
00000000
00010000
00001000
00010000
00000000
00010000
01000000
10000000
,
00000000
10000000
01000000
00010000
00000000
00010000
00001000
00000100
,
00000001
00000000
00000100
00000000
00000010
00000100
00001000
00001000
,
00000002
00000000
00000000
00000000
00000000
00000000
00000013
00000000
00001000
00000000
00000000
00010000
00000000
00000000
00020000
00000000
,
00000000
00130000
10000000
00020000
00000000
01030000
00000000
00100000
,
01000000
00000000
00000000
00000000
00100000
00000000
00010000
00000000
00001000
00000000
00000000
00010000
00000000
00000000
00001000
00000000
,
00000000
00011000
00000000
00001010
00000000
00000011
00000000
00000100
,
00000010
00000010
00000001
00001000
00000000
00001010
00000000
00011000
,
00000000
00001000
00010000
01000000
00000000
00010000
00001000
00000100
,
00010000
00001000
00010000
00000000
00001000
00010000
01000000
10000000
,
00020000
20030000
30200000
00320000
,
00031000
00000000
00000000
00000000
00010000
00000000
00001000
00000000
00000100
00000000
00000000
00000010
00000000
00000000
00000100
00000000
,
00000000
00000010
00000001
00000100
00000000
00000010
00000000
00001000
,
00000100
00000000
00010000
00001000
00010000
00100000
00000000
10000000
,
00000000
00000000
10100000
00000000
00000000
00000000
01010000
00000000
00000000
00000000
10010000
00000000
00000000
00000000
01000000
00100000
,
00000000
00000000
00010000
00000000
00001000
00000000
00010000
00001000
00000000
00000000
00000100
00000000
00000010
00000000
00000100
00000010
,
00000000
00000000
00000100
00000000
00000220
00000000
00000000
00000000
00000000
00000000
00000330
00000000
00000000
00000000
00000100
00000010
,
00000000
00000000
00001000
00000000
00000100
00000000
00010000
00001000
00000000
00000000
00100000
00000000
00010000
00000000
01000000
00100000
,
00000000
01000000
01100000
00000000
01000000
00100000
10000000
00100000
,
01000000
00000000
00010000
00000000
10000000
00000000
00000000
00000000
01000000
00000000
00100000
00000000
00001000
00000000
00010000
00001000
,
00000000
00000000
00100000
00000000
00001000
00000000
00010000
00001000
00000000
00000000
00010000
00000000
00000010
00000000
00010000
00001000
,
00000000
00000000
00010000
00000000
00001000
00000000
00010000
00000100
00000000
00000000
00001000
00000000
00000100
00000000
00000010
00000100
,
00000000
00000000
00010000
00000000
00001000
00000000
00000000
00000000
00010000
00000000
00000000
00001000
00000000
00000000
00010000
00000000
,
00012000
00023000
02030000
23000000
,
30100000
10000000
01000000
00000000
00100000
00001000
00010000
00000000
,
00021000
00032000
00003200
00000302
,
00000103
00000010
00000100
00000000
00000001
00000100
00001000
00000000
,
00012000
00023000
00230000
20300000
,
30010000
10000000
01000000
00000000
00100000
00010000
00001000
00000000
,
00021000
00000000
00032000
00000000
00003200
00000000
00000301
00000001
,
00000100
00000000
00000010
00000000
00001000
00000000
00000100
00000000
00000000
00000000
00020000
00000000
00000000
00002000
00000000
00000000
,
00033000
00000000
00000000
00000000
,
00010000
00000000
00100000
00000000
01000000
00000000
00100000
01000000
00000000
00000000
20000000
00000000
00000000
30200000
00000000
00000000
,
00310000
00000000
00000000
00100000
00000000
00000000
10010000
00000000
00000000
00000000
01000000
00000000
00100000
00000000
10000000
00000000
,
00010000
00100000
01000000
00100000
00001000
00010000
00000100
00001000
,
00010000
01000000
00100000
00000000
00010000
00001000
00000100
00000000
,
00000100
00001000
00000010
00000100
00000001
00000010
00001000
00000000
,
00012000
00000000
00100000
00000000
00000010
00000000
00103000
00100000
,
00000000
00011000
00000000
00110000
00000000
10100000
00000000
10010000
,
00000000
01000000
00100000
00010000
10000000
00100000
10000000
00000000
,
01000000
00000000
00100000
00000000
00001000
00000000
00010000
00001000
00000000
00000000
00020000
00000000
00000000
00032000
00000000
00000000
,
00003100
00000000
00000000
00000001
00000000
00000000
00001001
00000000
00000000
00000000
00000100
00000000
00000010
00000000
00000001
00000000
,
00002000
00000000
00003010
00010000
00002000
00000000
00103000
00001000
,
00010000
00000000
00001000
00000000
00010000
01000000
00100000
10000000
,
01000000
00100000
00001000
00000000
00010000
00001000
00010000
00000100
,
00000000
00001000
00000100
00000010
00000000
00000001
00000100
00001000
,
00020000
00000100
01000000
00030100
,
00010000
00000000
00000000
00010000
00000000
00000000
00010000
00000000
01000000
00000000
10000000
00000000
01000000
00000000
10000000
00000000
,
01000000
00000000
00010000
00000000
00001000
00000000
00010000
00001000
00000000
00000000
00000100
00000000
00000001
00000000
00000100
00000001
,
00000000
00000000
00000100
00000000
00001000
00000000
00010000
00001000
00000000
00000000
00000000
00000000
00010000
00000000
00000000
00000000
,
00012000
00000010
00100000
00003010
,
00021000
01000000
00000100
01030000
,
00001000
00000000
00010000
00000000
00100000
00000000
01000000
00100000
00000000
00000000
00001000
00000000
00010000
00000000
00000100
00010000
,
00000000
00000000
00001000
00000000
00000100
00000000
00000010
00000100
00000000
00000000
00010000
00000000
00001000
00000000
00000000
00011000
,
00000000
00000000
00010000
01000000
00100000
10000000
01000000
00100000
,
00001000
00010000
00000000
00000000
00001000
00000000
00010000
00000010
00000000
00000000
00000000
00000000
00000000
00000000
00000000
00000000
;
