#TITLE:Starlight Express;
#ARTIST:ginkiha;
#BANNER:Starlight Express.png;
#BACKGROUND:Starlight Express-bg.png;
#CDTITLE:./CDTitles/SDVX II -infinite infection-.png;
#MUSIC:Starlight Express.ogg;
#SAMPLESTART:66.267;
#SAMPLELENGTH:15;
#BPMS:0=200,32=400,35.5=200,204=230,208=275,212=320,216=400,224=200;
#STOPS:32=0.15,33=0.15,34=0.15,35=0.075;
#STAGE:3;

//--------------- dance-single - Fred-104 ----------------
#NOTES:
     dance-single:
     Fred-104:
     Beginner:
     5:
     :
0000
0000
0000
0000
,
0000
0000
0000
0000
,
0000
0000
0000
0000
,
0000
0000
0000
0000
,
0000
0000
0000
0000
,
1000
0000
0000
0000
,
0001
0000
0000
0000
,
1000
0000
0001
0000
,
2002
0000
0000
3003
,
1000
0000
0010
0000
,
1000
0000
0000
0000
,
0001
0000
0010
0000
,
0001
0000
0000
0000
,
1000
0000
0100
0000
,
1000
0000
0000
0000
,
0001
0000
1000
0000
,
0001
0000
1000
0000
,
1001
0000
0000
0000
,
1000
0000
0010
0000
,
0100
0000
0001
0000
,
0001
0000
0100
0000
,
0010
0000
1000
0000
,
0001
0000
1000
0000
,
0100
0000
0010
0000
,
0001
0000
1000
0000
,
0001
0001
0001
0001
,
0001
0000
1000
0000
,
0001
0000
1000
0000
,
0010
0000
0100
0000
,
0100
0000
0010
0000
,
1000
0000
0001
0000
,
1000
0000
0001
0000
,
1000
0000
0001
0000
,
1000
1000
1000
1000
,
1000
0000
0000
0001
,
1001
0000
0000
0000
,
1000
0000
0000
0000
,
0010
0000
0000
0000
,
0100
0000
0001
0000
,
1000
0000
1000
0000
,
0010
0000
0100
0000
,
0001
0000
0100
0000
,
0001
0000
1000
0000
,
0001
0000
0000
0000
,
1000
0000
0010
0010
,
0010
0000
0000
0000
,
0100
0000
0001
0001
,
0001
0000
1000
0000
,
0001
0000
1000
1000
,
1000
0000
0001
0000
,
1001
0000
0000
0000
,
2000
0000
3000
0000
,
0200
0000
0300
0000
,
0020
0000
0030
0000
,
0002
0000
0000
0000
,
0000
0000
0000
0000
,
0003
0000
0000
0000
,
1000
0000
0010
0000
,
1000
0000
0001
0001
,
0001
0000
1000
0000
,
0001
0000
0100
0100
,
0100
0000
0001
0000
,
1000
0000
0001
0001
,
0001
0000
1000
0000
,
0001
0000
1000
0000
,
0001
0000
0000
0000
,
1000
0000
0010
0010
,
0010
0000
0100
0000
,
0001
0000
1000
0000
,
0001
0000
1000
0000
,
0010
0000
0100
0000
,
0001
0000
1000
0000
,
0001
0000
1000
0000
,
1001
0000
0000
0000
,
0001
0000
0000
0000
,
1000
0000
0000
0010
,
0010
0000
0000
0000
,
0100
0000
0001
0001
,
0001
0000
0000
0000
,
1000
0000
0000
0100
,
0100
0000
0001
0000
,
1000
0000
0001
0000
,
1001
0000
0000
0000
;

//--------------- dance-single - Fred-104 ----------------
#NOTES:
     dance-single:
     Fred-104:
     Easy:
     8:
     :
0000
0000
0000
0000
,
0000
0000
0000
0000
,
0000
0000
0000
0000
,
0000
0000
0000
0000
,
0000
0000
0000
0000
,
1000
0010
0000
0010
,
0100
0001
0000
0001
,
1000
0001
0000
1000
,
2000
3000
0000
0000
0020
0030
0000
0000
0200
0300
0000
0000
0002
0003
0000
0000
,
1000
0000
0000
0010
0000
0010
0000
0100
,
0000
0001
1000
0001
,
0100
0000
0000
0001
0000
0001
0000
1000
,
0000
0010
1000
0001
,
1000
0000
0000
0100
0000
0100
0000
0010
,
0000
0001
0100
0010
,
1000
0000
0000
0001
0000
1000
0000
0001
,
0000
0100
0000
0000
0110
0000
0000
0000
,
1001
0000
0000
0000
,
1000
0010
1000
0100
,
0100
0010
0001
1000
,
0001
0001
0100
0010
,
0100
0001
0010
0100
,
1000
0010
1000
0100
,
1000
0010
0100
0001
,
1000
1000
0001
0001
,
1000
0001
2002
3003
,
0001
0100
0001
0100
,
0010
0100
0010
0000
0100
0000
0100
0000
,
1000
0010
0100
0001
,
1000
0001
1000
0000
0001
0000
0100
0000
,
0001
0001
0100
0010
,
1000
0010
1000
0000
0010
0000
0100
0000
,
0001
0001
1000
1000
,
0001
0000
0100
0000
0010
0100
0010
0000
,
2002
0000
3003
0001
,
1001
0000
1000
0000
,
0010
0000
0100
0100
,
0001
0000
1000
0000
,
0001
0000
0100
0010
,
1000
0000
0000
0001
0000
0000
1000
0000
,
0000
0010
0000
0000
0100
0000
0001
0000
,
0100
0000
0001
0000
,
1000
0001
1000
0001
,
1000
0000
0000
0010
0000
0000
0100
0000
,
0000
0001
0000
0000
0100
0000
0100
0000
,
0010
0000
1000
0000
,
0010
0100
0100
0001
,
1000
0000
0000
0001
0000
0000
1000
0000
,
0000
0010
0000
0000
0100
0000
0001
0000
,
1000
0000
0001
0000
,
1000
0100
0010
0001
,
2000
3000
0000
0000
0000
0000
0000
0000
0001
0000
0000
0000
0000
0000
0000
0000
,
2000
3000
0000
0000
0000
0000
0000
0000
0001
0000
0000
0000
0000
0000
0000
0000
,
2000
3000
0000
0000
0000
0000
0000
0000
0001
0000
0000
0000
0000
0000
0000
0000
,
1000
0000
0001
0000
,
1000
0000
0001
0000
,
2002
0000
0000
3003
,
1000
0000
0001
0000
0000
0100
0000
0100
,
0000
0001
0100
0010
,
1000
0000
0010
0000
0000
0100
0000
0100
,
0000
0001
1000
0001
,
0100
0000
0001
0000
0000
1000
0000
0001
,
0000
1000
0100
0010
,
0001
0000
1000
1000
0000
0010
0000
0100
,
0000
0001
0000
0001
2000
0000
3000
0000
,
0001
0100
0001
0010
,
0000
0001
0100
0010
0100
0010
0100
0000
,
1000
0100
0100
0010
,
0001
0100
0001
0000
1000
0100
1000
0000
,
0001
0000
0100
0010
,
2000
3200
0320
0032
,
1003
0000
0000
0001
0000
0100
0000
0110
,
0000
0010
0000
0000
1001
0000
0000
0000
,
2002
0000
0000
3003
,
0001
0000
1000
0000
,
0010
0000
0000
0000
0100
0000
0001
0100
,
0001
0000
1000
0000
,
0001
0000
0000
0000
1000
0010
0000
1000
,
0010
0000
0100
0000
,
0001
0000
0000
0000
1000
0000
0001
0100
,
0010
0000
1001
0000
,
0001
1000
0010
0100
,
0110
0000
0000
0000
;

//--------------- dance-single - Fred-104 ----------------
#NOTES:
     dance-single:
     Fred-104:
     Medium:
     12:
     :
0000
0000
0000
0000
,
0000
0000
0000
0000
,
0000
0000
0000
0000
,
0000
0000
0000
0000
,
0000
0000
0000
0000
,
0010
0001
1000
0001
,
0100
0010
1000
1000
,
0001
0010
0100
1000
,
0002
0003
0000
0000
0000
0000
0000
0000
2000
3000
0000
0000
0000
0000
0000
0000
2002
3003
0000
0000
0000
0000
0000
0000
0002
0003
0000
0000
0000
0000
0000
0000
,
0100
0010
1000
0010
0000
1000
0000
1000
,
0000
0001
0100
0000
0100
0010
1000
0000
,
0001
0010
0001
0010
0000
0100
0000
0100
,
0000
1000
0010
0000
0100
0010
1000
0000
,
0100
1000
0100
0010
0000
0100
0000
0001
,
0000
0100
0001
0000
0100
0010
1000
0000
,
0001
0100
0010
1000
0000
1001
0000
0110
,
0000
1001
0000
1000
0100
0000
0110
0000
,
2002
0000
0000
3003
,
1000
0010
1000
0000
0001
0010
0001
0000
,
1000
0100
0010
0000
0001
1000
0010
0000
,
0100
0001
0100
0000
0001
0010
0001
0000
,
0100
0010
1000
0000
0010
0100
0001
0000
,
1000
0100
1000
0100
1000
0010
1000
0000
,
0001
0100
0001
0100
0001
0010
0001
0000
,
1000
0010
0100
0001
0100
0010
1000
0000
,
0001
0000
0000
1000
0000
0000
0001
0000
0100
0000
0010
0000
0200
0000
0000
0000
,
0302
0000
2003
0000
3001
0100
0010
0100
,
0002
0023
0230
2300
,
3001
0100
1000
0000
0001
0010
1000
0000
,
0002
2003
3020
0230
,
0301
0100
0010
0100
0001
1000
0001
0000
,
1000
0010
1000
0100
1000
0001
0100
0000
,
0001
0010
0100
0010
0001
1000
0001
0000
,
0100
0010
0100
0001
1000
0001
1001
0000
,
0001
0100
0000
0100
0000
0100
0010
1000
,
0001
0000
0000
0100
0000
0000
0010
0000
,
0000
1000
0000
0000
0100
0000
0010
0000
,
0001
0100
0000
0001
0010
0000
0001
0000
,
1000
0010
0100
0001
,
1000
0000
0001
0100
0000
0010
0100
0000
,
0010
0100
0000
0010
1000
0000
0010
0000
,
0100
0001
0100
0000
0100
0010
0100
0000
,
0100
1000
0100
1000
0100
0010
0001
0000
,
1000
0000
1010
0000
0010
0100
0001
0000
,
0100
0010
0100
0000
0001
0010
0001
0000
,
1000
0010
0000
0100
0010
0000
1000
0001
,
0100
0000
0001
0000
0100
0010
0100
0000
,
0001
0010
0000
0001
0100
0000
0010
0000
,
1000
0010
0000
0010
0000
0010
0100
0001
,
0100
0010
1000
0000
0001
0010
0100
0000
,
1000
0100
0010
0001
1000
0010
0100
0000
,
0002
0003
0000
0000
0000
0000
0000
0000
1000
0000
0000
0000
0000
0000
0000
0000
0001
0000
0000
0000
0000
0000
0000
0000
1000
0000
0000
0000
0000
0000
0000
0000
,
0002
0003
0000
0000
0000
0000
0000
0000
1000
0000
0000
0000
0000
0000
0000
0000
0001
0000
0000
0000
0000
0000
0000
0000
1000
0000
0000
0000
0000
0000
0000
0000
,
0002
0003
0000
0000
0000
0000
0000
0000
1000
0000
0000
0000
0000
0000
0000
0000
0001
0000
0000
0000
0000
0000
0000
0000
1000
0000
0000
0000
0000
0000
0000
0000
,
0002
0003
0000
0000
0000
0000
0000
0000
1000
0000
0000
0000
0000
0000
0000
0000
0001
0000
0000
0000
0000
0000
0000
0000
1000
0000
0000
0000
0000
0000
0000
0000
,
0001
1000
0001
0000
,
2002
0000
0000
3003
,
0001
0010
0001
0010
0000
0001
0000
1000
,
0000
0010
0100
0010
0100
0010
1000
0000
,
0010
1000
0010
1000
0000
0001
0000
1000
,
0000
0100
0010
0100
0010
0001
0010
0000
,
0001
0100
0001
0010
0000
0001
0000
1000
,
0000
0001
0100
0001
0100
0010
1000
0000
,
0001
1000
0100
0010
0000
0011
0000
1001
,
0000
1010
0000
1000
0001
0000
1001
0000
,
1000
0100
1000
0100
0000
0010
0000
0100
,
0000
1000
0010
0100
0001
0100
0001
0000
,
1000
0000
0010
0000
1000
0000
0000
0000
0001
0000
0000
0100
0000
0000
0001
0000
,
0200
0320
2030
3200
,
0310
0000
0001
0000
0010
0000
0000
0000
0001
0000
0000
1000
0000
0000
0001
0000
,
0200
0320
2030
3002
,
1003
0010
0100
0010
0000
1001
0000
0110
,
0000
0001
0000
0100
0010
0000
0110
0000
,
2002
0000
0000
3003
,
0001
0000
0100
0000
,
0010
0000
1000
0000
0100
0000
0010
0001
,
1000
0000
0001
0000
,
0100
0000
0100
0000
0001
0100
0000
0010
,
1000
0010
0100
0001
,
1000
0000
0100
0000
0010
0000
0001
1000
,
0001
0100
0110
0010
,
1000
0010
0100
0001
,
1001
0000
0000
0000
;

//--------------- dance-single - Fred-104 ----------------
#NOTES:
     dance-single:
     Fred-104:
     Hard:
     16:
     :
0000
0000
0000
0000
,
0000
0000
0000
0000
,
0000
0000
0000
0000
,
0000
0000
0000
0000
,
0000
0000
0000
0000
,
1000
0010
1000
0100
,
0010
0001
0100
0001
,
1000
0001
0100
0010
,
0220
0330
0000
0000
0000
0000
0000
0000
0000
0000
0000
0000
0000
0000
0000
0000
2200
3300
0000
0000
0000
0000
0000
0000
0000
0000
0000
0000
0000
0000
0000
0000
0202
0303
0000
0000
0000
0000
0000
0000
0000
0000
0000
0000
0000
0000
0000
0000
2002
3003
0000
0000
0000
0000
0000
0000
0001
0000
0000
0000
0000
0000
0000
0000
,
1000
0000
0010
0000
0100
0000
0010
0000
1000
0100
1000
0000
0001
0100
0001
0000
,
1000
0100
0001
0100
1000
0010
0001
0010
,
1000
0100
0010
0001
0000
0101
0000
1100
,
0000
0100
0001
0100
0001
0010
0100
0100
,
1000
0000
0010
0000
1000
0000
0100
0000
0010
0100
0010
0000
0100
0001
0100
0000
,
0002
0203
2300
3200
0302
0023
2030
3020
,
0031
1000
0010
0110
0000
1010
0000
0101
,
0000
0110
0000
0001
0100
0010
0110
0000
,
2002
0000
0000
3003
0100
0100
0100
0000
,
0001
0100
0010
1000
0010
0100
0001
0010
,
1000
0010
0001
1000
0010
0100
0101
0000
,
0001
1000
0100
0010
0001
0100
0010
1000
,
0100
0001
0100
1000
0010
0100
0001
1000
,
0001
0000
0100
0000
0010
0000
0100
0000
0001
0100
0001
0100
0001
0000
1000
0000
,
0010
0100
0010
0000
1000
0100
1000
0000
0001
0100
0001
0000
0100
0010
0100
0000
,
0001
0100
0010
1000
0001
0010
0100
1000
,
0001
0100
0001
0100
0010
1000
0010
1000
0001
1000
0001
1000
0002
0000
0000
0000
,
1003
1000
0010
0010
0100
0001
0100
0010
,
1000
0010
1000
0010
0100
0001
0100
0001
1000
0001
1000
0001
2000
0000
0000
0000
,
3001
0100
0010
0100
0001
0010
0100
1000
,
0001
0100
0001
0000
1000
0100
1000
0000
0001
0100
0001
0000
0100
0000
0010
0000
,
1000
0000
0100
0000
1000
0000
0010
0000
1000
0100
1000
0100
1000
0000
0001
0000
,
0100
0001
0100
0000
0010
0100
0010
0000
1000
0000
1000
0000
0001
0000
0001
0000
,
1000
0010
0100
0001
1000
0100
0001
0100
,
1000
0001
1000
0001
1000
0000
0001
0000
0100
0000
0001
0000
1001
0000
0000
0000
,
1000
1000
0000
1000
0000
1000
0010
0100
,
0001
0000
0001
0010
0000
0010
0100
0000
,
0100
1000
0000
1000
0010
0000
0100
0000
,
0001
0100
0000
1000
0100
0000
0001
1000
,
0001
0100
0010
1000
0001
0100
0010
1000
,
0001
0000
1000
0100
0000
0010
0001
0000
,
1000
0010
0000
0100
0001
0000
1000
0000
,
0001
0100
0001
0010
0100
1000
0010
0100
,
0001
0100
0010
1000
0001
0001
0001
0001
,
1000
0010
0100
0010
1000
0100
0010
0000
,
0001
0100
0010
1000
0010
0100
0001
0000
,
1000
0100
0010
0001
0100
0010
1000
0100
,
0010
0001
1000
0001
0100
0010
0010
0010
,
1000
0001
0100
0001
1000
0100
0010
0000
,
0001
0010
1000
0010
0001
0100
0010
0000
,
1000
0100
1100
0000
0001
0100
0010
1000
,
0001
1000
0100
0010
0001
0100
0110
0000
,
2000
3000
0000
0000
0000
0000
0000
0000
0100
0000
0000
0000
0000
0000
0000
0000
1000
0000
0000
0000
0000
0000
0000
0000
0100
0000
0000
0000
0000
0000
0000
0000
1000
0000
0000
0000
0000
0000
0000
0000
0100
0000
0000
0000
0000
0000
0000
0000
1000
0000
0000
0000
0000
0000
0000
0000
0000
0000
0000
0000
0000
0000
0000
0000
,
0002
0003
0000
0000
0000
0000
0000
0000
0100
0000
0000
0000
0000
0000
0000
0000
0001
0000
0000
0000
0000
0000
0000
0000
0100
0000
0000
0000
0000
0000
0000
0000
0001
0000
0000
0000
0000
0000
0000
0000
0100
0000
0000
0000
0000
0000
0000
0000
0001
0000
0000
0000
0000
0000
0000
0000
0000
0000
0000
0000
0000
0000
0000
0000
,
2000
3000
0000
0000
0000
0000
0000
0000
0010
0000
0000
0000
0000
0000
0000
0000
1000
0000
0000
0000
0000
0000
0000
0000
0010
0000
0000
0000
0000
0000
0000
0000
1000
0000
0000
0000
0000
0000
0000
0000
0010
0000
0000
0000
0000
0000
0000
0000
1000
0000
0000
0000
0000
0000
0000
0000
0000
0000
0000
0000
0000
0000
0000
0000
,
0002
0003
0000
0000
0000
0000
0000
0000
1000
0000
0000
0000
0000
0000
0000
0000
0001
0000
0000
0000
0000
0000
0000
0000
1000
0000
0000
0000
0000
0000
0000
0000
0001
0000
0000
0000
0000
0000
0000
0000
1000
0000
0000
0000
0000
0000
0000
0000
0001
0000
0000
0000
0000
0000
0000
0000
1000
0000
0000
0000
0000
0000
0000
0000
,
0001
1000
0001
1000
0001
0000
0000
0000
,
2002
0000
0000
3003
,
1000
0000
0010
0000
0100
0000
0001
0000
1000
0100
1000
0000
0001
0100
0001
0000
,
1000
0010
0100
0010
0001
0010
0100
0010
,
1000
0100
1000
1010
0000
1001
0000
0011
,
0000
0001
1000
0010
0100
0010
1000
0100
,
0010
0000
0001
0000
1000
0000
0100
0000
1000
0010
1000
0000
0001
0010
0001
0000
,
1000
0100
0010
0100
0001
0100
0010
0100
,
1000
0001
0100
0110
0000
1100
0000
0101
,
0000
1001
0000
0100
0220
0000
0330
0000
,
0001
0000
0100
0000
0010
0000
1000
0000
0001
0010
0001
0000
0100
0010
0100
0000
,
0001
0100
0010
1000
0100
0001
0100
1000
,
0001
0000
0100
0000
0001
0100
0000
0001
0100
0000
0010
1000
0000
0010
1000
0000
,
0001
0010
0001
0000
1000
0010
1000
0000
0001
1000
0001
1000
0001
1000
0001
1000
,
0001
0000
0010
0000
0100
1000
0000
0100
1000
0000
0001
0100
0000
0010
0100
0000
,
0001
0100
0001
1000
0100
1000
0001
0010
0001
1000
0010
1000
,
0001
0100
0010
1010
0000
0101
0000
1001
,
0001
1000
0001
1000
0001
0000
0200
0000
0310
0000
0100
0000
0110
0000
0000
0000
,
2002
0000
0000
3003
0100
0100
0110
0000
,
1000
0100
0010
0100
0010
0001
0100
0010
,
1000
0000
0000
0000
0000
0000
0000
0000
0100
0000
0000
0000
0000
0000
0000
0000
0010
0000
0000
0000
0000
0000
0000
0000
1000
0000
0000
0000
0000
0000
0000
0000
0001
0000
0000
0000
0000
0000
0000
0000
0100
0000
0000
0000
0000
0000
0000
0000
0010
0000
0000
0000
0000
0000
0000
0000
0002
0003
0000
0000
0000
0000
0000
0000
,
2000
3000
0000
0000
0000
0000
0000
0000
1000
0000
0000
0000
0000
0000
0000
0000
0100
0000
0000
0000
0000
0000
0000
0000
1000
0000
0000
0000
0000
0000
0000
0000
0010
0000
0000
0000
0000
0000
0000
0000
0100
0000
0000
0000
0000
0000
0000
0000
0001
0000
0000
0000
0000
0000
0000
0000
1000
0000
0000
0000
0000
0000
0000
0000
,
0001
0000
0000
0000
0000
0000
0000
0000
0010
0000
0000
0000
0000
0000
0000
0000
0100
0000
0000
0000
0000
0000
0000
0000
1000
0000
0000
0000
0000
0000
0000
0000
0001
0000
0000
0000
0000
0000
0000
0000
0200
0300
0000
0000
0000
0000
0000
0000
0001
0000
0000
0000
0000
0000
0000
0000
0200
0300
0000
0000
0000
0000
0000
0000
,
0200
0300
0000
0000
0000
0000
0000
0000
0010
0000
0000
0000
0000
0000
0000
0000
1000
0000
0000
0000
0000
0000
0000
0000
0010
0000
0000
0000
0000
0000
0000
0000
1000
0000
0000
0000
0000
0000
0000
0000
0100
0000
0000
0000
0000
0000
0000
0000
0010
0000
0000
0000
0000
0000
0000
0000
0001
0000
0000
0000
0000
0000
0000
0000
,
1000
0000
0000
0000
0000
0000
0000
0000
0100
0000
0000
0000
0000
0000
0000
0000
0001
0000
0000
0000
0000
0000
0000
0000
0100
0000
0000
0000
0000
0000
0000
0000
1000
0000
0000
0000
0000
0000
0000
0000
0001
0000
0000
0000
0000
0000
0000
0000
0100
0000
0000
0000
0000
0000
0000
0000
0020
0030
0000
0000
0000
0000
0000
0000
,
1100
0010
0101
0010
,
1100
0000
0101
0000
1010
0000
0011
0001
,
1001
0000
0000
0000
;

//--------------- dance-double - Fred-104 ----------------
#NOTES:
     dance-double:
     Fred-104:
     Easy:
     8:
     :
00000000
00000000
00000000
00000000
,
00000000
00000000
00000000
00000000
,
00000000
00000000
00000000
00000000
,
00000000
00000000
00000000
00000000
,
00000000
00000000
00000000
00000000
,
00010000
00010000
00000000
01000000
,
00100000
01000000
00000000
00010000
,
00100000
00001000
00000000
00010000
,
00000020
00000030
00000000
00000000
00002000
00003000
00000000
00000000
00000200
00000300
00000000
00000000
00020000
00030000
00000000
00000000
,
00000010
00000000
00000000
00010000
00000000
00001000
00000000
00100000
,
00000000
00010000
01000000
00100000
,
10000000
00000000
00000000
01000000
00000000
00100000
00000000
01000000
,
00000000
10000000
00100000
01000000
,
00010000
00000000
00000000
00100000
00000000
00001000
00000000
00100000
,
00000000
00001000
00010000
00000100
,
00001000
00000000
00000000
00000100
00000000
00001000
00000000
00000100
,
00000000
00000010
00000000
00000000
00000110
00000000
00000000
00000000
,
00001001
00000000
00000000
00000000
,
00000001
00000100
00001000
00000000
,
00001000
00010000
01000000
10000000
,
00010000
01000000
00100000
00000000
,
10000000
00100000
00010000
00001000
,
00000010
00000001
00001000
00000000
,
00000001
00000100
00000010
00000100
,
00000001
00000010
00001000
00010000
,
00100000
10000000
20020000
30030000
,
00010000
10000000
00100000
10000000
,
00010000
01000000
00010000
00000000
10000000
00000000
01000000
00000000
,
01000000
00100000
00001000
00010000
,
00000100
00010000
00000100
00000000
00010000
00000000
00001000
00000000
,
00010000
00000010
00001000
00000100
,
00010000
00001000
00010000
00000000
00001000
00000000
00000100
00000000
,
00000001
00000001
00000100
00000100
,
00000010
00000000
00001000
00000000
00010000
00001000
00010000
00000000
,
00022000
00000000
00033000
00010000
,
10010000
00000000
01000000
00000000
,
00100000
00000000
00001000
00000000
,
00010000
00000000
00000100
00000000
,
00001000
00000000
00000010
00000000
,
00000100
00000000
00000000
00000001
00000000
00000000
00000100
00000000
,
00000000
00000010
00000000
00000000
00000100
00000000
00000010
00000000
,
00001000
00000000
00000010
00000000
,
00010000
00001000
00100000
00001000
,
00100000
00000000
00000000
00010000
00000000
00000000
10000000
00000000
,
00000000
01000000
00000000
00000000
00100000
00000000
01000000
00000000
,
10000000
00000000
00010000
00000000
,
01000000
00100000
01000000
00001000
,
00010000
00000000
00000000
00000100
00000000
00000000
00010000
00000000
,
00000000
00001000
00000000
00000000
00010000
00000000
00000010
00000000
,
00001000
00000000
00000001
00000000
,
00000100
00000010
00000100
00000000
,
00000002
00000003
00000000
00000000
00000000
00000000
00000000
00000000
00001000
00000000
00000000
00000000
00000000
00000000
00000000
00000000
,
00000002
00000003
00000000
00000000
00000000
00000000
00000000
00000000
00001000
00000000
00000000
00000000
00000000
00000000
00000000
00000000
,
00000002
00000003
00000000
00000000
00000000
00000000
00000000
00000000
00001000
00000000
00000000
00000000
00000000
00000000
00000000
00000000
,
00000002
00000003
00000000
00000000
00000000
00000000
00000000
00000000
00001000
00000000
00000000
00000000
00000000
00000000
00000000
00000000
,
00000001
00000000
00001000
00000000
,
00002002
00000000
00000000
00003003
,
00000010
00000000
00000100
00000000
00000000
00010000
00000000
00010000
,
00000000
00001000
00100000
00010000
,
10000000
00000000
01000000
00000000
00000000
00100000
00000000
00100000
,
00000000
00010000
10000000
00100000
,
01000000
00000000
00010000
00000000
00000000
10000000
00000000
00100000
,
00000000
01000000
00100000
01000000
,
00001000
00000000
00010000
00010000
00000000
00000100
00000000
00010000
,
00000000
00001000
00000000
00010000
00002000
00000000
00003000
00000000
,
00010000
00001000
00000100
00000001
,
00000000
00001000
00000100
00000010
00000100
00000010
00000001
00000000
,
00000100
00000010
00000100
00000100
,
00000001
00000100
00000001
00000000
00001000
00000100
00001000
00000000
,
00000100
00000000
00010000
00001000
,
00020000
00230000
20300000
30020000
,
01030000
00000000
00000000
00100000
00000000
10000000
00000000
10010000
,
00000000
00010000
00000000
00000000
01100000
00000000
00000000
00000000
,
00022000
00000000
00000000
00033000
,
00010000
00000000
00001000
00000000
,
00000100
00000000
00000000
00000000
00000001
00000000
00000100
00000010
,
00000100
00000000
00000001
00000000
,
00000100
00000000
00000000
00000000
00000010
00000100
00000000
00000010
,
00000100
00000000
00010000
00000000
,
00001000
00000000
00000000
00000000
01000000
00000000
00100000
01000000
,
00100000
00000000
10010000
00000000
,
01000000
00100000
00001000
00010000
,
00011000
00000000
00000000
00000000
;

//--------------- dance-double - Fred-104 ----------------
#NOTES:
     dance-double:
     Fred-104:
     Medium:
     12:
     :
00000000
00000000
00000000
00000000
,
00000000
00000000
00000000
00000000
,
00000000
00000000
00000000
00000000
,
00000000
00000000
00000000
00000000
,
00000000
00000000
00000000
00000000
,
00001000
00001000
00010000
00010000
,
00100000
00100000
01000000
01000000
,
10000000
10000000
01000000
00100000
,
00002000
00003000
00000000
00000000
00000000
00000000
00000000
00000000
00020000
00030000
00000000
00000000
00000000
00000000
00000000
00000000
00022000
00033000
00000000
00000000
00000000
00000000
00000000
00000000
00000020
00000030
00000000
00000000
00000000
00000000
00000000
00000000
,
00000100
00000001
00000100
00000001
00000000
00000100
00000000
00000100
,
00000000
00000001
00000010
00000000
00000100
00001000
00000100
00000000
,
00010000
00001000
00100000
00001000
00000000
00010000
00000000
00001000
,
00000000
00100000
00010000
00000000
10000000
00100000
01000000
00000000
,
00010000
01000000
00100000
01000000
00000000
00010000
00000000
10000000
,
00000000
00100000
01000000
00000000
00100000
00001000
00010000
00000000
,
00000100
00001000
00000100
00000010
00000000
00001001
00000000
00000110
,
00000000
00001001
00000000
00000001
00000100
00000000
00000110
00000000
,
00022000
00000000
00000000
00033000
,
01000000
00100000
01000000
00000000
00010000
01000000
00010000
00000000
,
10000000
01000000
00010000
00001000
,
00000100
00000010
00000100
00000000
00000001
00000010
00000001
00000000
,
00000001
00000100
00001000
00010000
,
00001000
00100000
00001000
00100000
00010000
01000000
00100000
00000000
,
10000000
01000000
10000000
00100000
01000000
00010000
01000000
00000000
,
00010000
00100000
01000000
10000000
01000000
00100000
00001000
00000000
,
00010000
00000000
00000000
00010000
00000000
00000000
00010000
00000000
00000010
00000000
00001000
00000000
00000200
00000000
00000000
00000000
,
00020300
00000000
00032000
00000000
00013000
00000100
00001000
00000100
,
00000020
00000032
00002003
00003020
,
00000130
00000010
00000100
00000000
00000001
00001000
00000001
00000000
,
00000200
00000320
00020030
00032000
,
00013000
00001000
00100000
00010000
01000000
00100000
10000000
00000000
,
00010000
01000000
00010000
01000000
00100000
01000000
00010000
00000000
,
10000000
00100000
01000000
00100000
10000000
01000000
00100000
00000000
,
00001000
00010000
00001000
00100000
00001000
00010000
00011000
00000000
,
00001000
00000100
00000000
00000100
00000000
00000100
00000010
00000001
,
00001000
00000000
00000000
00000001
00000000
00000000
00000100
00000000
,
00000000
00000010
00000000
00000000
00010000
00000000
00001000
00000000
,
00100000
00010000
00000000
00100000
01000000
00000000
10000000
00000000
,
00010000
01000000
00100000
10000000
,
00010000
00000000
10000000
01000000
00000000
01000000
00100000
00000000
,
00100000
00001000
00000000
00001000
00010000
00000000
00001000
00000000
,
00010000
00001000
00010000
00000000
00000010
00001000
00000010
00000000
,
00001000
00000100
00001000
00000000
00000001
00000100
00000001
00000000
,
00001000
00000100
00000000
00000010
00000001
00000000
00001000
00000010
,
00000000
00001000
00000001
00000000
00000100
00000010
00000100
00000000
,
00000001
00000100
00000000
00000010
00001000
00000000
00000100
00010000
,
00001000
00000000
00100000
00000000
00010000
10000000
00010000
00000000
,
01000000
00100000
00000000
00100000
10000000
00000000
00100000
00000000
,
10000000
10000000
00000000
00100000
00000000
01000000
00010000
00100000
,
00001000
00010000
00001000
00000000
00010000
00000100
00001000
00000000
,
00000010
00000100
00000001
00000000
00001000
00000100
00000010
00000000
,
00020000
00030000
00000000
00000000
00000000
00000000
00000000
00000000
00001000
00000000
00000000
00000000
00000000
00000000
00000000
00000000
00010000
00000000
00000000
00000000
00000000
00000000
00000000
00000000
00001000
00000000
00000000
00000000
00000000
00000000
00000000
00000000
,
00020000
00030000
00000000
00000000
00000000
00000000
00000000
00000000
00001000
00000000
00000000
00000000
00000000
00000000
00000000
00000000
00010000
00000000
00000000
00000000
00000000
00000000
00000000
00000000
00001000
00000000
00000000
00000000
00000000
00000000
00000000
00000000
,
00020000
00030000
00000000
00000000
00000000
00000000
00000000
00000000
00001000
00000000
00000000
00000000
00000000
00000000
00000000
00000000
00010000
00000000
00000000
00000000
00000000
00000000
00000000
00000000
00001000
00000000
00000000
00000000
00000000
00000000
00000000
00000000
,
00020000
00030000
00000000
00000000
00000000
00000000
00000000
00000000
00001000
00000000
00000000
00000000
00000000
00000000
00000000
00000000
00010000
00000000
00000000
00000000
00000000
00000000
00000000
00000000
00001000
00000000
00000000
00000000
00000000
00000000
00000000
00000000
,
00010000
00001000
00010000
00000000
,
00022000
00000000
00000000
00033000
,
00001000
00010000
00001000
00010000
00000000
00100000
00000000
10000000
,
00000000
00100000
10000000
00100000
01000000
00010000
01000000
00000000
,
00010000
01000000
00010000
00001000
00000000
00010000
00000000
00001000
,
00000000
00000100
00000001
00000100
00000001
00000010
00000001
00000000
,
00000100
00000010
00001000
00000010
00000000
00001000
00000000
00000100
,
00000000
00010000
00001000
00100000
00010000
10000000
00100000
00000000
,
01000000
00010000
01000000
00100000
00000000
10100000
00000000
10010000
,
00000000
00110000
00000000
10000000
01000000
00000000
01100000
00000000
,
00100000
01000000
00100000
01000000
00000000
00010000
00000000
10000000
,
00000000
01000000
00100000
00001000
00010000
00001000
00000100
00000000
,
00000010
00000000
00000001
00000000
00001000
00000000
00000000
00000000
00000001
00000000
00000000
00000100
00000000
00000000
00000010
00000000
,
00002000
00003200
00020300
00032000
,
01003000
00000000
00010000
00000000
01000000
00000000
00000000
00000000
00100000
00000000
00000000
10000000
00000000
00000000
01000000
00000000
,
00200000
00302000
00023000
00030200
,
00001300
00000010
00001000
00000010
00000000
00000110
00000000
00001001
,
00000000
00000001
00000000
00000100
00000010
00000000
00001010
00000000
,
00022000
00000000
00000000
00033000
,
00011000
00000000
00001000
00000000
,
00000100
00000000
00001000
00000000
00000001
00000000
00000100
00000010
,
00000100
00000000
00000001
00000000
,
00000010
00000000
00001000
00000000
00010000
00100000
00000000
00100000
,
01000000
10000000
00010000
01000000
,
00100000
00000000
00100000
00000000
10000000
00000000
00010000
01000000
,
00010000
00100000
00011000
00010000
,
00000100
00001000
00000001
00000010
,
00000110
00000000
00000000
00000000
;

//--------------- dance-double - Fred-104 ----------------
#NOTES:
     dance-double:
     Fred-104:
     Hard:
     16:
     :
00000000
00000000
00000000
00000000
,
00000000
00000000
00000000
00000000
,
00000000
00000000
00000000
00000000
,
00000000
00000000
00000000
00000000
,
00000000
00000000
00000000
00000000
,
00000001
00000001
00000100
00000100
,
00001000
00001000
00010000
00010000
,
01000000
01000000
10000000
10000000
,
20020000
30030000
00000000
00000000
00000000
00000000
00000000
00000000
00000000
00000000
00000000
00000000
00000000
00000000
00000000
00000000
02200000
03300000
00000000
00000000
00000000
00000000
00000000
00000000
00000000
00000000
00000000
00000000
00000000
00000000
00000000
00000000
20020000
30030000
00000000
00000000
00000000
00000000
00000000
00000000
00000000
00000000
00000000
00000000
00000000
00000000
00000000
00000000
02000000
03000000
00000000
00000000
00000000
00000000
00000000
00000000
01000000
00000000
00000000
00000000
00000000
00000000
00000000
00000000
,
00100000
10000000
01000000
00100000
00000000
00001000
00000000
00000010
,
00000000
00001000
00010000
00001000
00000010
00000001
00001000
00010000
,
00001000
00000100
00000010
00000001
00000000
00001000
00000000
00000010
,
00000000
00010000
00001000
00010000
01000000
10000000
00010000
00001000
,
00010000
01000000
10000000
01000000
00010000
00010000
00001000
00001000
,
00000200
00000320
00000032
00002003
00003200
00000320
00000032
00000203
,
00000310
00001000
00000100
00001100
00000000
00011000
00000000
01010000
,
00000000
10010000
00000000
00010000
01000000
00100000
10100000
00000000
,
20020000
00000000
00000000
30030000
01000000
01000000
01000000
00000000
,
00010000
00100000
10000000
00100000
00001000
00010000
00100000
01000000
,
00001000
00010000
00001000
00000100
00000001
00000100
00001000
00000000
,
00000001
00000010
00001000
00000001
00000010
00000100
00010000
00001000
,
01000000
00001000
00010000
00001000
00100000
00010000
10000000
10000000
,
00010000
01000000
10000000
01000000
00010000
00010000
00010000
00010000
,
00001000
00100000
00001000
00010000
00000100
00000010
00000001
00001000
,
00000001
00000010
00000100
00010000
00001000
00100000
01000000
10000000
,
00010000
00100000
00010000
00100000
01000000
10000000
01000000
10000000
00010000
01000000
00010000
01000000
00200000
00000000
00000000
00000000
,
10300000
01000000
00100000
00001000
00010000
00100000
10000000
01000000
,
00100000
01000000
00100000
00000000
00001000
00010000
00001000
00000000
00010000
00000100
00010000
00000100
00001000
00000000
00000010
00000000
,
00000100
00000001
00001000
00000100
00000001
00001000
00000010
00010000
,
00001000
00010000
00001000
00000000
00100000
00010000
00100000
00000000
00001000
00100000
00001000
00100000
00010000
00000000
01000000
00000000
,
00100000
10000000
00100000
00010000
00001000
01000000
00001000
00010000
,
00000100
00000010
00000100
00000000
00001000
00000001
00001000
00000000
00000010
00000000
00000010
00000000
00000100
00000000
00000100
00000000
,
00000001
00000100
00000010
00001000
00000100
00010000
00001000
00010000
,
00001000
00010000
00001000
00010000
00001000
00000000
00100000
00000000
00010000
00000000
10000000
00000000
10010000
00000000
00000000
00000000
,
00010000
01000000
00000000
10000000
00000000
00100000
00001000
00010000
,
00001000
00000000
00001000
00000010
00000000
00000010
00000100
00000000
,
00000100
00000001
00000000
00000001
00000010
00000000
00000100
00000000
,
00001000
00000001
00000000
00000010
00000001
00000000
00001000
00000001
,
00000010
00000100
00010000
00001000
00100000
00001000
00010000
00001000
,
01000000
00000000
00010000
01000000
00000000
10000000
01000000
00000000
,
00010000
01000000
00000000
00100000
10000000
00000000
00010000
00000000
,
10000000
01000000
00100000
01000000
00100000
00001000
00010000
00000100
,
00010000
00001000
00000100
00000001
00000010
00000010
00000010
00000010
,
00000001
00001000
00000100
00000010
00000100
00001000
00000001
00000000
,
00000100
00000010
00001000
00000100
00010000
00001000
00010000
00000000
,
00001000
00100000
00010000
10000000
00010000
01000000
00100000
00000000
,
10000000
01000000
00010000
01000000
10000000
00100000
01000000
00100000
,
10000000
01000000
00100000
00001000
00010000
00100000
10000000
00000000
,
00010000
01000000
10000000
01000000
00010000
00001000
00000100
00000000
,
00000001
00000100
00000110
00000000
00001000
00000100
00000010
00000001
,
00001000
00000010
00000100
00000001
00001000
00000100
00000110
00000000
,
00000002
00000003
00000000
00000000
00000000
00000000
00000000
00000000
00000100
00000000
00000000
00000000
00000000
00000000
00000000
00000000
00000001
00000000
00000000
00000000
00000000
00000000
00000000
00000000
00000100
00000000
00000000
00000000
00000000
00000000
00000000
00000000
00000001
00000000
00000000
00000000
00000000
00000000
00000000
00000000
00000100
00000000
00000000
00000000
00000000
00000000
00000000
00000000
00000001
00000000
00000000
00000000
00000000
00000000
00000000
00000000
00000000
00000000
00000000
00000000
00000000
00000000
00000000
00000000
,
00002000
00003000
00000000
00000000
00000000
00000000
00000000
00000000
00000100
00000000
00000000
00000000
00000000
00000000
00000000
00000000
00001000
00000000
00000000
00000000
00000000
00000000
00000000
00000000
00000100
00000000
00000000
00000000
00000000
00000000
00000000
00000000
00001000
00000000
00000000
00000000
00000000
00000000
00000000
00000000
00000100
00000000
00000000
00000000
00000000
00000000
00000000
00000000
00001000
00000000
00000000
00000000
00000000
00000000
00000000
00000000
00000000
00000000
00000000
00000000
00000000
00000000
00000000
00000000
,
00000020
00000030
00000000
00000000
00000000
00000000
00000000
00000000
00010000
00000000
00000000
00000000
00000000
00000000
00000000
00000000
00000010
00000000
00000000
00000000
00000000
00000000
00000000
00000000
00010000
00000000
00000000
00000000
00000000
00000000
00000000
00000000
00000010
00000000
00000000
00000000
00000000
00000000
00000000
00000000
00010000
00000000
00000000
00000000
00000000
00000000
00000000
00000000
00000010
00000000
00000000
00000000
00000000
00000000
00000000
00000000
00000000
00000000
00000000
00000000
00000000
00000000
00000000
00000000
,
00020000
00030000
00000000
00000000
00000000
00000000
00000000
00000000
00001000
00000000
00000000
00000000
00000000
00000000
00000000
00000000
00010000
00000000
00000000
00000000
00000000
00000000
00000000
00000000
00001000
00000000
00000000
00000000
00000000
00000000
00000000
00000000
00010000
00000000
00000000
00000000
00000000
00000000
00000000
00000000
00001000
00000000
00000000
00000000
00000000
00000000
00000000
00000000
00010000
00000000
00000000
00000000
00000000
00000000
00000000
00000000
00001000
00000000
00000000
00000000
00000000
00000000
00000000
00000000
,
00010000
00001000
00010000
00001000
00010000
00000000
00000000
00000000
,
00022000
00000000
00000000
00033000
,
00001000
00010000
00100000
10000000
00010000
01000000
10000000
01000000
,
00001000
00010000
00100000
01000000
00001000
00010000
00100000
00001000
,
00010000
00001000
00000100
00000001
00001000
00000001
00000100
00000010
,
00001000
00000001
00000010
00000100
00010000
00001000
00011000
00000000
,
00001000
00010000
00100000
10000000
00010000
01000000
10000000
01000000
,
00010000
01000000
00100000
10000000
00100000
00010000
00001000
00010000
,
01000000
00001000
00010000
00011000
00000000
00001100
00000000
00000101
,
00000000
00001001
00000000
00000100
00000220
00000000
00000330
00000000
,
00000001
00000000
00000010
00000000
00000100
00000000
00010000
00000000
00001000
00010000
00001000
00000000
00010000
00001000
00010000
00000000
,
00001000
01000000
00001000
00010000
00000100
00010000
00001000
00000100
,
00000010
00000000
00000001
00000000
00001000
00000100
00000000
00000100
00000010
00000000
00000010
00000001
00000000
00000001
00001000
00000000
,
00000001
00000100
00000001
00000000
00000100
00000010
00000100
00000000
00000010
00001000
00000010
00001000
00000100
00001000
00000100
00000000
,
00000010
00000000
00000001
00000000
00001000
00000010
00000000
00001000
00000010
00000000
00010000
00001000
00000000
00010000
00001000
00000000
,
00100000
00001000
00010000
00001000
00100000
00010000
10000000
00100000
01000000
00010000
10000000
01000000
,
00100000
00010000
10000000
11000000
00000000
01010000
00000000
00011000
,
00010000
00001000
00010000
00001000
00010000
00000000
00000020
00000000
00001030
00000000
00000010
00000000
00000110
00000000
00000000
00000000
,
00002002
00000000
00000000
00003003
00000100
00000100
00000100
00000000
,
00000001
00000100
00000001
00000100
00000010
00001000
00000100
00010000
,
00001000
00100000
00010000
10000000
00100000
01000000
00010000
01000000
,
01000000
00100000
10000000
01000000
00100000
00001000
00010000
00001000
,
00100000
00001000
00010000
00001000
00000010
00000100
00000001
00000100
,
00000100
00000010
00001000
00000010
00000100
00000001
00000100
00000001
,
00000100
00001000
00000100
00001000
00010000
01000000
10000000
00010000
,
10010000
01000000
00011000
00000100
,
00001001
00000000
00000100
00000000
00011000
00000000
01000000
00100000
,
10010000
00000000
00000000
00000000
;
