#VERSION:0.83;
#TITLE:Stand Alone Beat Masta;
#ARTIST:GUHROOVY;
#BANNER:Stand Alone Beat Masta.png;
#BACKGROUND:Stand Alone Beat Masta-bg.png;
#CDTITLE:./CDTitles/jb saucer.png;
#MUSIC:Stand Alone Beat Masta.ogg;
#SAMPLESTART:39.6;
#SAMPLELENGTH:15;
#BPMS:0=200;
#STAGE:31;

//--------------- dance-single - Fred-104 ----------------
#NOTEDATA:;
#STEPSTYPE:dance-single;
#DESCRIPTION:Fred-104;
#DIFFICULTY:Beginner;
#METER:7;
#CREDIT:Fred-104;
#NOTES:
0000
0000
0000
0000
,
0000
0000
0000
0000
,
0000
0000
0000
0000
,
0000
0000
0000
0000
,
0000
0000
0000
0000
,
0000
0000
0000
0000
,
0000
0000
0000
0000
,
0000
0000
0000
0000
,
0000
0000
0000
0000
,
1000
0000
0001
0000
,
1000
0000
0010
0000
,
0100
0000
0001
0000
,
1000
0000
0001
0001
,
0001
0000
1000
0000
,
0010
0000
0100
0000
,
0001
0001
1000
1000
,
2002
0000
3003
0000
,
1000
0000
0010
0000
,
1000
1000
1000
0100
,
1000
0000
0001
0000
,
0100
0100
0010
0100
,
0100
0000
0001
0000
,
1000
0010
0010
1000
,
0010
0000
0100
0000
,
2002
0000
3003
0000
,
0001
0001
0010
0001
,
0001
1000
0010
0000
,
1000
1000
0100
1000
,
0001
0100
0010
0000
,
0100
0100
0010
1000
,
0001
1000
0001
0000
,
1000
1000
0001
0100
,
0220
0000
0330
0000
,
1000
0010
0010
1000
,
0001
0100
0010
0010
,
0100
0010
1000
0001
,
1000
0100
0010
0001
,
1000
1000
0001
0100
,
0010
0100
0001
0010
,
0100
1000
0001
1000
,
2002
0000
3003
0000
,
0001
0010
0001
1000
,
0001
0001
0100
0001
,
1000
0100
0100
1000
,
0001
0100
1000
0100
,
0001
0001
1000
0010
,
0100
0100
0001
1000
,
0001
0000
1000
0000
,
2002
0000
0000
0000
,
3003
0000
0000
0000
,
2000
0000
0000
3000
,
0200
0000
0000
0300
,
0020
0000
0000
0030
,
0002
0000
0000
0003
,
0200
0000
0000
0300
,
0020
0000
0000
0030
,
2000
0000
0000
3000
,
0002
0000
0000
0003
,
1000
0000
1000
0000
,
0010
0000
0100
0100
,
0100
0000
0001
0000
,
1000
0000
0001
0001
,
0001
0000
1000
0000
,
0001
0000
0100
0100
,
0100
0000
0010
0000
,
0100
0000
0010
0000
,
1000
0000
0010
0000
,
1000
1000
0010
0100
,
0001
0000
1000
0000
,
0001
0010
0100
1000
,
0001
0000
0100
0000
,
0010
1000
0001
0100
,
0010
0000
0100
0000
,
0110
0000
2002
3003
,
1000
0100
1000
0001
,
1000
1000
0100
0010
,
0001
0001
0100
0010
,
0100
0100
0001
1000
,
0001
0001
0010
0001
,
1000
0001
1000
1000
,
0001
1000
0001
1000
,
2002
0000
3003
0000
,
1000
0010
1000
0001
,
1000
0100
0001
0100
,
1000
0001
1000
0010
,
1000
0010
0001
0010
,
1000
1000
0001
0100
,
0010
0100
1000
0100
,
0001
1000
0001
1000
,
2002
0000
0000
3003
,
1000
1000
1000
1000
,
0010
0010
0010
0010
,
0100
0100
0100
0100
,
0001
0001
0001
0001
,
1000
1000
1000
1000
,
0100
0100
0100
0100
,
0010
0010
0010
0010
,
0001
0001
0001
0001
,
2002
0000
0000
0000
,
0000
0000
0000
0000
,
3003
0000
0000
0000
;

//--------------- dance-single - Fred-104 ----------------
#NOTEDATA:;
#STEPSTYPE:dance-single;
#DESCRIPTION:Fred-104;
#DIFFICULTY:Easy;
#METER:11;
#CREDIT:Fred-104;
#NOTES:
0000
0000
0000
0000
,
0000
0000
0000
0000
,
0000
0000
0000
0000
,
0000
0000
0000
0000
,
0000
0000
0000
0000
,
0000
0000
0000
0000
,
0000
0000
0000
0000
,
0000
0000
0000
0000
,
0000
0000
0000
0000
,
1000
0010
1000
0000
0001
0000
0001
0000
,
0100
0010
0100
0000
0010
0000
0010
0000
,
1000
0001
1000
0000
0001
0000
0100
0000
,
0010
0000
0100
0010
0000
0010
0100
0000
,
1001
0000
0110
0000
,
1100
0000
0101
0000
,
1000
0010
1000
0000
0001
0100
0001
0000
,
1000
0001
2002
3003
,
0001
0010
0001
1000
,
0010
0000
0100
0000
0010
0000
1000
0001
,
1000
0100
0100
0010
,
0001
0000
1000
0000
0010
0100
0010
0100
,
0010
1000
0100
1000
,
0001
0000
0100
0000
0001
0000
0010
0001
,
0010
0001
1000
0010
,
0100
0010
0220
0330
,
0001
0010
0001
1000
,
0010
1000
0010
0000
1000
0000
0100
0000
,
1000
0010
0100
0001
,
1000
0100
1000
0100
1000
0000
0001
0000
,
0100
0100
0010
1000
,
0001
0100
0001
0000
0100
0000
0010
0000
,
1000
0001
1000
0000
0010
0100
0010
0000
,
1000
0001
1000
0002
0000
0000
0003
0000
,
1000
0100
0100
1000
,
0001
0100
0001
0000
0100
0010
0100
0000
,
0010
1000
0010
0100
,
0010
0100
0010
0000
1000
0100
1000
0000
,
0001
0100
0001
0100
,
0010
0100
0010
0000
1000
0001
1000
0000
,
0010
0000
0100
0000
0001
1000
0001
0000
,
2000
3200
0320
0032
,
1003
0010
0100
0010
,
1000
0100
0010
0000
0001
1000
0001
0000
,
0100
0100
0010
1000
,
0001
0100
0001
0000
0010
0100
1000
0000
,
0001
0100
0100
0010
,
1000
0010
0100
0000
0001
1000
0100
0000
,
0010
0001
1000
0010
,
0220
0000
0000
0000
,
0330
0000
0000
0000
,
2000
0000
0000
0010
0000
0000
3010
0000
,
0002
0000
0000
0010
0000
0000
0013
0000
,
2000
0000
0000
0010
0000
0000
3010
0000
,
0002
0000
0000
0010
0000
0000
0013
0000
,
2000
0000
0000
0100
0000
0000
3100
0000
,
0002
0000
0000
0100
0000
0000
0103
0000
,
2000
0000
0000
0100
0000
0000
3100
0000
,
0002
0000
0000
0100
0000
0000
0103
0000
,
1001
0000
0100
0000
,
0010
0010
1000
0001
,
0100
0000
0010
0000
,
1000
0100
0001
0100
,
1000
0000
0001
0000
,
0100
0100
0010
1000
,
0001
0000
0000
0202
0000
0000
0303
0000
,
1000
0000
0000
2200
0000
0000
3300
0000
,
0010
0000
0100
0000
,
0010
0010
1000
0001
,
0100
0000
0010
0000
,
1000
0100
0001
1000
,
0100
0000
0010
0000
,
0001
0100
1000
0100
,
0001
0000
0000
0022
0000
0000
0033
0000
,
1000
0000
0000
2020
0000
0000
3030
0000
,
1000
0010
1000
0100
,
0100
0000
1000
0000
0001
0100
0001
0100
,
0010
0100
0100
0010
,
1000
0000
0001
0000
0100
0010
0100
0010
,
0100
0001
1000
0100
,
0010
0000
0001
0000
1000
0001
1000
0001
,
1000
0010
0100
0001
,
2000
0000
0002
3003
,
0001
0100
0001
0000
0100
0010
0100
0000
,
0010
1000
0010
0000
1000
0100
1000
0000
,
0001
0010
0001
0000
1000
0010
1000
0000
,
0010
0100
0010
0000
1000
0001
1000
0000
,
0001
0100
0001
0000
0100
0010
0100
0000
,
0010
1000
0010
0000
1000
0100
1000
0000
,
0001
1000
0001
1000
0001
1000
0001
1000
,
0010
0000
0000
0000
,
1000
1000
0100
0100
,
0001
0001
0010
0010
,
0001
0001
0100
0100
,
1000
1000
0010
0010
,
1000
1000
0010
0010
,
0001
0001
0100
0100
,
0001
0001
0010
0010
,
1000
1000
0100
0100
,
2002
0000
0000
0000
,
0000
0000
0000
0000
,
3003
0000
0000
0000
;

//--------------- dance-single - Fred-104 ----------------
#NOTEDATA:;
#STEPSTYPE:dance-single;
#DESCRIPTION:Fred-104;
#DIFFICULTY:Medium;
#METER:15;
#CREDIT:Fred-104;
#NOTES:
0000
0000
0000
0000
,
0000
0000
0000
0000
,
0000
0000
0000
0000
,
0000
0000
0000
0000
,
0000
0000
0000
0000
,
0000
0000
0000
0000
,
0000
0000
0000
0000
,
0000
0000
0000
0000
,
0000
0000
0000
0000
,
0001
0000
0100
0000
0010
0000
0000
0000
1000
0010
1000
0000
0010
0000
0100
0000
,
0000
0000
0100
0000
0010
0000
0000
0000
1000
0001
1000
0000
0100
0000
0010
0000
,
0000
0000
0010
0000
0001
0000
0000
0000
0100
0010
0100
0000
0001
0000
0100
0000
,
0000
0000
0100
0000
0010
0000
0100
0000
0000
0000
0100
0000
1000
0001
1000
0001
,
1000
0000
1000
0100
0001
0000
0001
0100
,
1000
0000
1000
0010
0001
0000
0001
0010
,
1000
0000
0001
0000
0100
0000
0010
0000
1000
0001
1000
0001
1000
0001
1000
0001
,
2000
0001
0002
3003
,
1000
0100
0010
0001
1000
0010
0100
0001
,
0100
0000
0010
0000
0100
0000
0010
0000
1000
0000
0001
0000
0100
0000
0010
0100
,
0010
0100
1000
0010
1000
0001
1000
0001
,
1000
0000
0100
0000
0010
0000
0100
0000
0010
0000
0001
0000
1000
0000
0001
0100
,
0001
1000
0100
0001
0100
0100
0010
0100
,
0010
0000
0001
0000
0100
0000
0010
0000
1000
0000
0010
0000
0100
0000
0001
0010
,
0001
0000
0010
0000
0100
0000
1000
0000
0001
0000
0100
0010
0100
0000
0001
0000
,
1000
0001
1000
0000
0001
1000
0001
0000
0100
0010
0100
0010
0200
0000
0000
0000
,
0301
0100
1000
0100
0000
0001
0000
1000
,
0010
1000
0100
1000
0010
0100
0001
0000
,
1000
0100
0010
0100
0000
0001
0000
0100
,
0010
1000
0001
0010
0000
0010
0100
1000
,
0010
0100
0010
1000
0000
0100
0000
0010
,
0001
0100
1000
0100
0001
1000
0100
0000
,
0010
0000
0001
0000
1000
0000
0010
0000
0100
0010
0100
0010
0100
0010
0100
0010
,
0100
0001
1000
0200
0000
0000
0300
0000
,
0100
1000
0001
0100
0010
1000
0001
0010
,
0000
0010
0100
0010
0001
0000
1001
0000
,
0100
0010
1000
0010
0100
0010
1000
0100
,
0000
0100
0001
0100
0010
0000
0011
0000
,
0001
0100
1000
0100
0001
0100
0010
1000
,
0000
0010
1000
0100
1000
0000
1001
0000
,
1000
0000
0100
0000
0010
0000
0000
0000
0001
0000
0100
0010
0100
0000
0001
0000
,
2000
3002
0203
0320
,
1030
0001
0100
0001
1000
0100
0010
0100
,
1000
0010
0100
0001
0200
0000
1000
0000
,
0301
0100
0010
0100
1000
0100
0010
1000
,
0001
0010
1000
0100
0020
0000
1000
0000
,
0031
0010
0001
1000
0100
0010
0100
0010
,
0001
0100
1000
0100
0020
0000
1030
0010
,
0001
0000
0000
0000
1000
0000
0001
0000
0100
0010
0100
0010
0100
0010
0100
0010
,
0200
0000
0000
0000
,
0300
0000
0000
0000
,
0001
0000
0010
0001
0000
0010
0001
0000
,
1000
0000
0010
1000
0000
0010
1000
0000
,
0001
0000
0100
0001
0000
0100
0001
0000
,
1000
0000
0100
0001
0000
0100
1000
0000
,
0001
0000
0100
0010
0000
1000
0010
0000
,
0100
0000
0001
0100
0000
1000
0100
0000
,
0010
0000
0100
0010
0000
1000
0010
0000
,
1000
0000
0100
0001
0000
0100
1000
0000
,
0001
0000
0000
0001
0000
0000
0010
0000
0001
0000
0000
0001
0000
0000
0100
0000
,
0010
0000
0000
0010
0000
0000
1000
0000
0010
0000
0000
0010
0000
0000
0100
0000
,
0001
0000
0000
1000
0000
0000
0100
0000
1000
0000
0000
0100
0000
0000
0010
0000
,
0001
0000
0000
0100
0000
0000
0010
0000
0100
0000
0000
0010
0000
0000
1000
0000
,
0100
0000
0000
1000
0000
0000
0100
0000
0010
0000
0000
0100
0000
0000
0010
0000
,
0001
0000
0000
0100
0000
0000
1000
0000
0100
0000
0000
0001
0000
0000
1000
0000
,
0001
0000
0100
0220
0000
0000
0330
0000
,
1000
0000
0100
0220
0000
0000
0330
0000
,
0001
0000
0000
0001
0000
0000
0001
0000
0010
0000
0000
0010
0000
0000
0010
0000
,
1000
0000
0000
1000
0000
0000
0100
0000
0100
0000
0000
0100
0000
0000
0001
0000
,
1000
0000
0000
1000
0000
0000
1000
0000
0100
0000
0000
0100
0000
0000
0100
0000
,
0001
0000
0000
0001
0000
0000
0010
0000
0010
0000
0000
0010
0000
0000
1000
0000
,
0001
0000
0000
0100
0000
0000
0010
0000
0100
0000
0000
1000
0000
0000
0010
0000
,
0100
0000
0000
0001
0000
0000
1000
0000
0100
0000
0000
0010
0000
0000
0100
0000
,
1000
0000
0100
0220
0000
0000
0330
0000
,
0001
0000
0100
0220
0000
0000
0330
0000
,
0001
0100
0001
0100
0010
0100
0001
0100
,
0010
0000
1000
0000
0010
0000
0100
0000
0010
0000
1000
0000
0001
0000
1000
0100
,
1000
0100
0010
0100
0001
0100
1000
0100
,
0010
0000
0100
0000
0001
0000
1000
0000
0001
0000
0010
0100
0010
0000
0100
1000
,
0100
1000
0010
0100
0001
0100
1000
0010
,
0100
0000
0001
0000
1000
0000
0010
0000
0001
0000
1000
0000
0001
0100
0001
0100
,
0001
0000
0100
0000
0010
0000
1000
0000
0001
1000
0001
1000
0001
0000
0000
0000
,
2000
0000
0002
3003
,
1000
0000
0100
1000
0100
0000
0010
0000
0001
0000
1000
0001
1000
0000
0010
0000
,
0100
0000
0010
0100
0010
0000
1000
0000
0001
0000
0010
0001
0010
0000
0100
0000
,
1000
0000
0001
0100
0001
0000
0100
0000
0010
0000
0100
0010
0100
0000
1000
0000
,
0100
0000
0010
0100
0010
0000
0100
0000
0001
0000
1000
0001
1000
0000
0001
0000
,
0010
0000
0001
0010
0001
0000
0100
0000
0010
0000
1000
0010
1000
0000
0001
0000
,
1000
0000
0100
1000
0100
0000
0010
0000
0001
0000
0100
0010
0100
0000
0001
0000
,
1000
0000
0010
0000
1000
0000
0010
0000
0100
0001
0100
0001
0100
0001
0100
0001
,
0100
0000
0000
0000
,
0001
0100
1000
0010
,
1000
0100
0001
0010
,
0001
0010
1000
0100
,
1000
0010
0001
0100
,
0110
0100
1000
0010
,
0100
0001
0010
1000
,
1001
1000
0100
0001
,
1000
0010
0001
1000
,
2002
0000
0000
0000
,
0000
0000
0000
0000
,
3003
0000
0000
0000
;

//--------------- dance-single - Fred-104 ----------------
#NOTEDATA:;
#STEPSTYPE:dance-single;
#DESCRIPTION:Fred-104;
#DIFFICULTY:Hard;
#METER:18;
#CREDIT:Fred-104;
#NOTES:
0000
0000
0000
0000
,
0000
0000
0000
0000
,
0000
0000
0000
0000
,
0000
0000
0000
0000
,
0000
0000
0000
0000
,
0000
0000
0000
0000
,
0000
0000
0000
0000
,
0000
0000
0000
0000
,
0000
0000
0000
0000
,
0001
0000
1000
0000
0010
0000
0000
0000
1000
0001
0100
0001
1000
0000
0100
0000
,
0010
0000
0010
0000
0001
0000
0000
0000
0100
0001
1000
0001
0100
0000
0010
0000
,
1000
0000
1000
0000
0001
0000
0000
0000
0010
0100
1000
0100
0010
0000
1000
0000
,
0001
0000
0100
0001
0100
0000
0120
0000
0000
0000
1030
0000
0001
0100
0001
0100
,
0010
0000
1100
0100
0010
0000
0101
0100
,
0010
0000
1010
0010
0100
0000
0011
0010
,
0100
0000
1000
0010
0100
0000
0001
0010
0100
1000
0010
0100
0001
0010
0100
1000
,
0020
1000
0100
0001
0200
0000
0330
0000
,
1000
0000
0100
0000
1000
0000
1000
0000
0010
1000
0001
0010
0100
0000
0010
0000
,
0001
0000
0100
0000
0001
0000
1000
0000
0001
1000
0010
0100
0001
0000
1000
0100
,
0010
0000
1000
0000
0010
0000
0001
0000
1000
0010
0100
0010
1000
0000
0001
0000
,
1000
0000
0010
0100
0001
1000
0100
0000
0010
0000
0001
0100
0010
0100
0001
1000
,
0001
0000
1000
0100
1000
0000
0001
0000
0100
0010
1000
0100
0010
0000
0100
0000
,
1000
0000
0001
0010
0001
0000
1000
0000
0001
0010
0100
1000
0100
0000
1000
0000
,
0001
0000
1000
0010
0100
0000
0100
0000
0010
0000
1000
0010
1000
0000
0001
0100
,
0001
0010
0100
1000
0010
0100
0001
0010
0100
1000
0010
0100
0002
0000
0000
0000
,
1003
0000
0010
0100
0010
0000
1000
0000
0001
0010
0100
1000
0001
0000
0100
0000
,
0010
0000
1000
0100
0010
0000
0100
0010
0001
0000
1000
0000
0001
0000
0100
0000
,
0001
0000
1000
0001
0100
0000
0001
0000
1000
0100
0010
0100
1000
0000
0001
0000
,
1000
0100
0010
0000
0001
0010
0200
0000
0000
0000
1300
0000
0010
1000
0010
1000
,
0001
0000
1000
0001
0100
0000
0001
0000
0010
0100
1000
0010
0100
0000
0001
0000
,
1000
0010
0100
0000
0001
0100
0010
0000
1000
0000
1000
0000
0001
0000
0100
0010
,
0100
0000
0010
1000
0010
0000
1000
0000
0001
0100
0010
0100
0001
0100
0010
0100
,
0001
0100
1000
0020
0000
0000
0000
0000
,
0130
0000
0001
0100
0010
0000
1000
0100
0010
0000
0001
1000
0010
0000
0100
0000
,
0010
0000
1000
0010
1000
0000
0001
0000
0100
0000
0010
0000
0020
0000
0000
0000
,
1030
0000
0001
0010
0100
0000
1000
0100
0010
0000
0001
1000
0010
0000
0100
0000
,
0001
0000
1000
0001
0100
0000
0001
0000
0100
0000
1000
0000
0020
0000
0000
0000
,
0130
0000
0001
0010
0100
0000
1000
0001
0100
0000
0010
0100
0010
0000
1000
0000
,
0001
1000
0001
0000
0100
0000
0100
0000
0010
0100
0010
0000
0100
1000
0100
1000
,
0001
0000
0010
0000
0100
0000
1000
0000
0010
0000
0100
0010
0100
0000
0001
1000
,
0002
0100
2003
0000
3020
0000
0032
0000
,
1003
0000
0010
0000
1000
0000
0010
0000
0100
0001
1000
0000
0001
1000
0100
0000
,
0010
0000
0001
0100
0001
0000
0100
0010
0100
0000
0010
0000
1000
0000
0010
1000
,
0010
0000
0100
0000
0100
0000
0010
0000
1000
0001
0010
0000
0001
1000
0010
0000
,
1000
0100
1000
0000
0001
0100
0001
0000
1000
0000
0010
0100
1000
0000
0001
0100
,
0001
0010
0100
0000
1000
0000
1000
0000
0010
0100
0010
0000
1000
0000
0100
0000
,
0010
0000
0001
1000
0010
0000
1000
0001
0010
0000
0001
1000
0100
0010
0001
0100
,
0010
0000
1000
0001
0100
0000
0002
1000
0103
0010
0001
0100
0010
1000
0010
0100
,
0002
0000
0000
0000
,
0003
0000
0000
0000
,
1010
0000
0100
0001
0000
1000
0100
0000
,
0110
0000
0010
0001
0000
1000
0001
0000
,
0101
0000
0100
0010
0000
1000
0010
0000
,
0110
0000
0100
1000
0000
0001
0100
0000
,
1001
0000
0100
0010
0000
1000
0010
0000
,
0011
0000
0001
0100
0000
1000
0100
0000
,
0110
0000
0010
1000
0000
0010
0001
0000
,
1001
0000
0100
0010
0000
1000
0100
0000
,
1020
0000
0100
0000
0031
0002
0000
0203
,
0000
2300
0000
3200
0000
0302
0000
1003
,
1002
0000
0100
0000
1003
2000
0000
3020
,
0000
0230
0000
0320
0000
1030
0001
0100
,
0201
0000
1000
0000
0301
0002
0000
0023
,
0000
2030
0000
3002
0000
0103
1000
0001
,
0101
0000
0100
2020
0000
0000
3030
0000
,
1100
0000
0100
0022
0000
0000
0033
0000
,
1000
0000
0010
0100
0000
0010
1000
0000
0001
0000
0100
0001
0000
0100
0010
0000
,
1000
0000
0001
0010
0000
0100
1000
0000
0001
0000
0100
0001
0000
1000
0001
0100
,
0001
0000
1000
0100
0000
0100
0010
0000
0001
0000
1000
0010
0000
0100
0010
0000
,
1000
0000
0001
0010
0000
0100
0010
0000
0001
0000
1000
0001
0000
0100
0001
1000
,
0001
0000
0010
0100
0000
0100
1000
0010
0100
0000
0001
0100
0000
0100
0010
1000
,
0001
0000
1000
0100
0000
0010
0001
0010
0100
0000
1000
0001
0000
0100
0001
1000
,
0001
0000
0100
0010
0000
1000
0010
0100
0001
0000
0010
0001
0000
1000
0010
0100
,
0001
0000
0000
0000
0101
0000
1001
0000
0000
0000
1000
0100
0010
0000
0000
0000
,
0001
0000
0100
0001
0010
0000
0100
1000
0010
0000
0100
0001
1000
0000
0100
1000
,
0001
0000
1000
0100
0010
0000
0001
1000
0010
0000
0100
0001
1000
0001
0100
0010
,
1000
0000
0001
1000
0010
0000
1000
0001
0100
0000
0010
1000
0100
0000
0010
0001
,
0100
0000
0010
1000
0100
0000
0010
0001
1000
0000
0001
0100
0010
0100
1000
0100
,
0010
0000
0001
1000
0010
0000
1000
0100
0010
0000
0001
1000
0010
0000
1000
0010
,
0100
0000
0010
1000
0100
0000
0010
0001
0100
0000
0001
0100
0010
1000
0001
0010
,
0100
0000
1000
0001
0100
0000
0001
1000
0100
1000
0001
0100
0001
1000
0100
0010
,
0002
0000
2000
3003
,
1000
0010
0100
0010
1000
0000
0001
0010
0100
1000
0000
0010
0100
0000
0001
0100
,
0010
0100
0001
0100
0010
0000
1000
0100
1000
0010
0000
0010
0100
0000
0001
0100
,
0010
1000
0100
0010
0100
0000
1000
0001
0100
0001
0000
1000
0100
0000
0010
0001
,
1000
0001
0100
0010
1000
0000
0001
0010
0100
1000
0000
1000
0001
0000
0100
0010
,
1000
0100
0010
0100
1000
0000
0001
0100
0010
0100
0001
1000
0001
0000
1000
0100
,
0010
0001
0010
0100
1000
0000
0001
0100
0010
1000
0010
0100
0001
0100
0001
1000
,
0001
0010
0001
0100
0010
1000
0100
1000
0001
0010
0100
1000
0010
0100
0001
1000
,
0001
0000
0000
0000
,
1100
0010
0001
0100
,
1000
0100
0001
0010
,
0011
0100
1000
0010
,
1000
0100
0001
0010
,
0101
0100
1000
0010
,
1000
0100
0001
0010
,
0110
0100
1000
0010
,
0110
0100
0001
0010
,
2002
0000
0000
0000
,
0000
0000
0000
0000
,
3003
0000
0000
0000
;

//--------------- dance-double - Fred-104 ----------------
#NOTEDATA:;
#STEPSTYPE:dance-double;
#DESCRIPTION:Fred-104;
#DIFFICULTY:Easy;
#METER:11;
#CREDIT:Fred-104;
#NOTES:
00000000
00000000
00000000
00000000
,
00000000
00000000
00000000
00000000
,
00000000
00000000
00000000
00000000
,
00000000
00000000
00000000
00000000
,
00000000
00000000
00000000
00000000
,
00000000
00000000
00000000
00000000
,
00000000
00000000
00000000
00000000
,
00000000
00000000
00000000
00000000
,
00000000
00000000
00000000
00000000
,
00001000
00001000
00000010
00000100
,
00000001
00000100
00000010
00000010
,
00001000
00000001
00000100
00000100
,
00000010
00000000
00001000
00000001
00000000
00000100
00000010
00000000
,
00001100
00000000
00000110
00000000
,
00000011
00000000
00001001
00000000
,
00000001
00000000
00000100
00000000
00001000
00010000
00001000
00000000
,
00020000
00000000
00002000
00033000
,
00010000
00001000
00100000
00100000
,
00010000
00000000
10000000
00000000
00010000
10000000
00010000
10000000
,
01000000
00100000
00100000
00001000
,
00010000
00000000
00001000
00010000
00000000
00001000
00010000
00000000
,
00000100
00000100
00001000
00000100
,
00010000
00000000
00000010
00000000
00001000
00000010
00001000
00000010
,
00001000
00000001
00000100
00000010
,
00000100
00000010
00000220
00000330
,
00000001
00000000
00000000
00000100
00000000
00000010
00000000
00000000
,
00001000
00000100
00000010
00000001
,
00000100
00000000
00000000
00001000
00000000
00010000
00000000
00000000
,
01000000
00000000
10000000
00000000
00010000
01000000
00010000
00000000
,
01000000
00000000
00000000
00100000
00000000
10000000
00000000
00000000
,
00010000
10000000
00100000
00010000
,
00001000
00000000
00000000
00010000
00000000
00001000
00000000
00000000
,
00000010
00000100
00000010
00000200
00000000
00000000
00000300
00000000
,
00000001
00000100
00000001
00000001
,
00001000
00000010
00000100
00000000
00000010
00000000
00001000
00000000
,
00000001
00000010
00000100
00000100
,
00010000
00001000
00010000
00000000
00001000
00000000
00001000
00000000
,
00100000
00010000
00100000
01000000
,
10000000
00010000
01000000
00000000
00010000
00000000
10000000
00000000
,
01000000
00000000
00100000
00000000
00001000
00010000
00001000
00000000
,
00020000
00032000
00003200
00000302
,
00001003
00000010
00001000
00000001
,
00000100
00000010
00000100
00000000
00000001
00000000
00000001
00000000
,
00000100
00000010
00001000
00000001
,
00000010
00000100
00000010
00000000
00000100
00000000
00001000
00000000
,
00010000
00001000
00010000
00000010
,
00010000
00001000
00010000
00000000
00001000
00000000
00100000
00000000
,
00010000
00000000
10000000
00000000
00010000
10000000
00010000
00000000
,
20020000
00000000
00000000
00000000
,
30030000
00000000
00000000
00000000
,
00010000
00000000
00000000
00010000
00000000
00000000
10000000
00000000
,
01000000
00000000
00000000
01000000
00000000
00000000
00100000
00000000
,
00001000
00000000
00000000
00001000
00000000
00000000
00010000
00000000
,
00000010
00000000
00000000
00000010
00000000
00000000
00001000
00000000
,
00000100
00000000
00000000
00000100
00000000
00000000
00010000
00000000
,
00000100
00000000
00000000
00000100
00000000
00000000
00001000
00000000
,
00000010
00000000
00000000
00000010
00000000
00000000
00000100
00000000
,
00000010
00000000
00000000
00000010
00000000
00000000
00001000
00000000
,
00001001
00000000
00000100
00000000
,
00000010
00000010
00000001
00001000
,
00000010
00000000
00000100
00000000
,
00001000
00001000
00010000
01000000
,
10000000
00000000
00010000
00000000
,
01000000
01000000
00100000
10000000
,
01000000
00000000
00000000
02200000
00000000
00000000
03300000
00000000
,
00010000
00000000
00000000
00022000
00000000
00000000
00033000
00000000
,
00011000
00000000
00000010
00000000
,
00001000
00001000
00000010
00000100
,
00000001
00000000
00001000
00000000
,
00000001
00000001
00000010
00001000
,
00010000
00000000
00001000
00000000
,
00010000
00100000
10000000
00010000
,
01000000
00000000
00000000
02200000
00000000
00000000
03300000
00000000
,
10000000
00000000
00000000
20020000
00000000
00000000
30030000
00000000
,
00010000
01000000
00100000
10000000
,
01000000
00000000
00100000
00000000
00001000
00010000
00001000
00010000
,
00001000
00010000
00000100
00001000
,
00000010
00000000
00001000
00000000
00000001
00000100
00000001
00000100
,
00000010
00001000
00000001
00000010
,
00000100
00000000
00001000
00000000
00000100
00010000
00000100
00010000
,
00001000
00000000
00100000
00000000
00010000
10000000
00010000
00000000
,
20000000
00000000
00020000
30030000
,
00100000
10000000
00100000
00000000
10000000
01000000
10000000
00000000
,
01000000
00100000
01000000
00000000
00100000
00010000
00100000
00000000
,
00001000
00010000
00001000
00000000
00100000
00001000
00100000
00000000
,
00001000
00010000
00001000
00000000
00010000
00000010
00010000
00000000
,
00000010
00001000
00000010
00000000
00001000
00000100
00001000
00000000
,
00000001
00000100
00000001
00000000
00000100
00000010
00000100
00000000
,
00000001
00001000
00000001
00001000
00000001
00001000
00000001
00001000
,
00000001
00000000
00000000
00000000
,
00000001
00000001
00000010
00000010
,
00000100
00000100
00010000
00010000
,
00001000
00001000
00100000
00100000
,
01000000
01000000
10000000
10000000
,
00010000
00010000
01000000
01000000
,
00100000
00100000
00001000
00001000
,
00000010
00000010
00000001
00000001
,
00001000
00001000
00000001
00000001
,
00002002
00000000
00000000
00000000
,
00000000
00000000
00000000
00000000
,
00003003
00000000
00000000
00000000
;

//--------------- dance-double - Fred-104 ----------------
#NOTEDATA:;
#STEPSTYPE:dance-double;
#DESCRIPTION:Fred-104;
#DIFFICULTY:Medium;
#METER:14;
#CREDIT:Fred-104;
#NOTES:
00000000
00000000
00000000
00000000
,
00000000
00000000
00000000
00000000
,
00000000
00000000
00000000
00000000
,
00000000
00000000
00000000
00000000
,
00000000
00000000
00000000
00000000
,
00000000
00000000
00000000
00000000
,
00000000
00000000
00000000
00000000
,
00000000
00000000
00000000
00000000
,
00000000
00000000
00000000
00000000
,
00001000
00010000
00100000
00000000
01000000
00100000
00010000
10000000
,
00000000
01000000
00100000
00000000
01000000
10000000
00010000
01000000
,
00000000
00100000
01000000
00000000
00100000
00001000
00010000
00001000
,
00000000
00000000
00010000
00000000
00000010
00000000
00001000
00000000
00000000
00000000
00000001
00000000
00000100
00000010
00000100
00000010
,
00000100
00000000
00001000
00000001
00000100
00000000
00000010
00010000
,
00001000
00000000
00010000
00001000
01000000
00000000
00010000
00100000
,
01000000
00000000
10000000
00000000
00010000
00000000
01000000
00000000
00100000
01000000
00100000
01000000
00100000
01000000
00100000
01000000
,
00200000
01000000
02000000
03300000
,
00010000
10000000
01000000
10000000
00100000
01000000
00100000
10000000
,
01000000
00100000
00010000
00100000
00001000
00010000
00001000
00100000
,
00001000
00010000
00000010
00001000
00000100
00010000
00000100
00001000
,
00000010
00001000
00000100
00000001
00000000
00000100
00001000
00000010
,
00000100
00000001
00000010
00000001
00001000
00000010
00000100
00000010
,
00001000
00000001
00000010
00000100
00001000
00000100
00010000
00001000
,
00100000
00010000
10000000
00100000
01000000
00010000
10000000
01000000
,
00100000
01000000
00100000
00000000
10000000
01000000
10000000
00000000
00010000
01000000
00010000
01000000
00020000
00000000
00000000
00000000
,
10030000
01000000
00010000
01000000
00000000
01000000
00000000
00100000
,
10000000
01000000
00100000
00001000
00010000
00001000
00010000
00000000
,
00001000
00000100
00001000
00000100
00000000
00000010
00000000
00000001
,
00001000
00000001
00000100
00000010
00000000
00000010
00001000
00000001
,
00000010
00000100
00001000
00000100
00000000
00010000
00000000
00001000
,
00100000
00001000
00010000
00001000
00100000
00010000
10000000
00000000
,
00010000
01000000
10000000
01000000
00000000
00010000
10000000
00100000
,
01000000
00010000
10000000
02000000
00000000
00000000
03000000
00000000
,
10100000
00000000
01100000
00000000
10100000
00000000
00100000
01000000
,
00000000
01000000
00100000
00010000
00001000
00000000
00011000
00000000
,
00010100
00000000
00001100
00000000
00010100
00000000
00001000
00000100
,
00000000
00000100
00000010
00000001
00001000
00000000
00001001
00000000
,
00000101
00000000
00000110
00000000
00000101
00000000
00000100
00000010
,
00000000
00001000
00000001
00000010
00000100
00000000
00001000
00000010
,
00000100
00000000
00000010
00000000
00001000
00000100
00010000
00000000
,
00002000
00023000
00230000
20300000
,
30010000
01000000
00010000
01000000
10000000
01000000
10000000
01000000
,
00010000
01000000
00010000
01000000
00100000
01000000
00010000
00000000
,
00010000
00001000
00010000
00001000
00000100
00001000
00000100
00001000
,
00000100
00000001
00000100
00000001
00000100
00000010
00001000
00000000
,
00000001
00000010
00000001
00000010
00001000
00000010
00001000
00000010
,
00001000
00010000
00001000
00010000
00100000
10000000
00010000
00000000
,
10000000
00000000
01000000
00000000
00100000
00000000
00001000
00000000
00010000
00001000
00010000
00001000
00010000
00001000
00010000
00001000
,
00020000
00000000
00000000
00000000
,
00030000
00000000
00000000
00000000
,
00010000
00000000
00001000
00010000
00000000
00001000
00010000
00000000
,
00000010
00000000
00001000
00000010
00000000
00001000
00000010
00000000
,
00000100
00000000
00000001
00000100
00000000
00000001
00000100
00000000
,
00000010
00000000
00001000
00000100
00000000
00000010
00000100
00000000
,
00000001
00000000
00000100
00000010
00000000
00001000
00000100
00000000
,
00010000
00000000
00000100
00001000
00000000
00000100
00010000
00000000
,
00001000
00000000
00100000
00010000
00000000
01000000
00010000
00000000
,
10000000
00000000
01000000
00010000
00000000
01000000
10000000
00000000
,
00100000
00000000
10000000
00000000
01000000
00000000
00000000
00100000
,
00000000
00100000
00000000
00001000
00000000
00010000
00000010
00001000
,
00000001
00000000
00000100
00000000
00000010
00000010
00000000
00001000
,
00000000
00000001
00000000
00000010
00000000
00000100
00000010
00000001
,
00001000
00000000
00000010
00000000
00000100
00000100
00000000
00000010
,
00000000
00001000
00000000
00000100
00000000
00010000
00001000
01000000
,
00010000
00000000
10000000
20020000
00000000
00000000
30030000
00000000
,
01000000
00000000
00100000
02200000
00000000
00000000
03300000
00000000
,
00100000
00000000
00000000
10000000
00000000
00000000
10000000
00000000
01000000
00000000
00000000
00100000
00000000
00000000
00100000
00000000
,
00001000
00000000
00000000
00010000
00000000
00000000
00010000
00000000
00000010
00000000
00000000
00001000
00000000
00000000
00001000
00000000
,
00000100
00000000
00000000
00000010
00000000
00000000
00000010
00000000
00000001
00000000
00000000
00000100
00000000
00000000
00000100
00000000
,
00000010
00000000
00000000
00001000
00000000
00000000
00001000
00000000
00010000
00000000
00000000
00100000
00000000
00000000
00100000
00000000
,
01000000
00000000
00000000
00100000
00000000
00000000
00100000
00000000
00010000
00000000
00000000
10000000
00000000
00000000
10000000
00000000
,
01000000
00000000
00000000
00100000
00000000
00000000
00100000
00000000
00001000
00000000
00000000
00010000
00000000
00000000
00010000
00000000
,
00000010
00000000
00001000
00002020
00000000
00000000
00003030
00000000
,
00000001
00000000
00000100
00000202
00000000
00000000
00000303
00000000
,
00001000
00000100
00000010
00000100
00000010
00000001
00001000
00000010
,
00000100
00000000
00000001
00000000
00000100
00000000
00000001
00000000
00000100
00000000
00001000
00000000
00010000
00000000
00001000
00010000
,
00001000
00010000
00001000
00010000
00100000
10000000
00010000
00100000
,
00010000
00000000
10000000
00000000
00010000
00000000
01000000
00000000
00010000
00000000
01000000
00000000
00100000
00000000
10000000
00010000
,
10000000
01000000
00100000
01000000
00100000
00001000
00010000
00001000
,
00100000
00000000
00001000
00000000
00010000
00000000
00001000
00000000
00010000
00000000
00000010
00000000
00001000
00000010
00001000
00000010
,
00001000
00000000
00000010
00000000
00000100
00000000
00000001
00000000
00001000
00000001
00001000
00000001
00001000
00000000
00000000
00000000
,
00000002
00000000
00002000
00003003
,
00000001
00000100
00001000
00010000
00001000
00010000
01000000
00000000
,
00010000
01000000
10000000
01000000
00010000
10000000
00010000
00000000
,
10000000
00100000
10000000
00100000
00010000
00001000
00010000
00000000
,
00001000
00000010
00000001
00001000
00000001
00000100
00000010
00000000
,
00001000
00000001
00000010
00000100
00000010
00000100
00001000
00000100
,
00010000
00001000
01000000
00001000
01000000
00010000
10000000
01000000
,
00100000
00000000
00010000
00000000
10000000
00000000
00100000
00000000
01000000
00100000
01000000
00100000
01000000
00100000
01000000
00100000
,
01000000
00000000
00000000
00000000
,
00011000
00010000
00100000
00100000
,
10000000
10000000
01000000
01000000
,
00100000
00100000
00001000
00001000
,
00000010
00000010
00000001
00000001
,
00001001
00001000
00000100
00000100
,
00000001
00000001
00000100
00000100
,
00001000
00001000
00010000
00010000
,
01000000
01000000
10000000
10000000
,
20020000
00000000
00000000
00000000
,
00000000
00000000
00000000
00000000
,
30030000
00000000
00000000
00000000
;

//--------------- dance-double - Fred-104 ----------------
#NOTEDATA:;
#STEPSTYPE:dance-double;
#DESCRIPTION:Fred-104;
#DIFFICULTY:Hard;
#METER:18;
#CREDIT:Fred-104;
#NOTES:
00000000
00000000
00000000
00000000
,
00000000
00000000
00000000
00000000
,
00000000
00000000
00000000
00000000
,
00000000
00000000
00000000
00000000
,
00000000
00000000
00000000
00000000
,
00000000
00000000
00000000
00000000
,
00000000
00000000
00000000
00000000
,
00000000
00000000
00000000
00000000
,
00000000
00000000
00000000
00000000
,
00010000
00000000
00001000
00000000
00100000
00000000
00000000
00000000
00010000
10000000
00010000
10000000
00010000
00000000
01000000
00000000
,
00100000
00000000
10000000
00000000
00100000
00000000
00000000
00000000
10000000
01000000
10000000
01000000
10000000
00000000
01000000
00000000
,
00100000
00000000
00001000
00000000
00010000
00000000
00000000
00000000
00001000
00010000
00001000
00010000
00001000
00000000
00010000
00000000
,
00000100
00000000
00001000
00000100
00000010
00000000
00000210
00000000
00000000
00000000
00001300
00000000
00000001
00000100
00000001
00000100
,
00000010
00000000
00000011
00000010
00000100
00000000
00001100
00000100
,
00010000
00000000
00011000
00001000
00100000
00000000
01010000
01000000
,
00100000
00000000
10000000
00000000
01000000
00000000
00100000
00000000
00001000
00010000
00001000
00100000
00001000
00010000
00001000
00100000
,
00001000
00010000
00000010
00001000
00000200
00000000
00000000
00000000
,
00000301
00000000
00001000
00000010
00000100
00000000
00000001
00000000
00001000
00000100
00000010
00000001
00000100
00000000
00000010
00000000
,
00001000
00000000
00000001
00000100
00000001
00000000
00000100
00000000
00000010
00001000
00000100
00010000
00000100
00000000
00001000
00000000
,
00000100
00000000
00010000
00001000
00100000
00000000
00001000
00000000
00010000
00001000
01000000
00010000
01000000
00000000
00100000
00000000
,
10000000
00000000
00010000
01000000
00010000
01000000
00100000
00000000
10000000
00000000
00100000
00000000
01000000
00010000
10000000
01000000
,
00100000
00000000
00001000
00010000
00001000
00000000
01000000
00000000
00001000
00010000
00001000
00100000
00001000
00000000
00010000
00000000
,
00000010
00000000
00001000
00000100
00001000
00000000
00000010
00000000
00010000
00000010
00001000
00000010
00001000
00000000
00000100
00000000
,
00000010
00000000
00000001
00000010
00000100
00000000
00001000
00000000
00000001
00000100
00000010
00000100
00000001
00000000
00001000
00000100
,
00000010
00000001
00000100
00000010
00001000
00000100
00010000
00001000
00100000
00010000
10000000
00100000
02000000
00000000
00000000
00000000
,
03010000
00000000
10000000
00100000
01000000
00000000
00010000
00000000
00000000
00000000
00010000
00000000
00000000
00000000
00001000
00000000
,
00000100
00000010
00000001
00000000
00001000
00000001
00000100
00000000
00000010
00000000
00000010
00000000
00001000
00000000
00000001
00000000
,
00000100
00000000
00000001
00000100
00001000
00000000
00000100
00000000
00000000
00000000
00000001
00000000
00000000
00000000
00000100
00000000
,
00001000
00000100
00001000
00000000
00010000
00001000
00010000
00000000
00000000
00000000
00100000
00000000
01000000
00010000
10000000
00010000
,
01000000
00000000
00100000
10000000
00010000
00000000
00100000
00000000
00000000
00000000
00100000
00000000
00000000
00000000
10000000
00000000
,
00100000
00010000
00100000
00000000
00001000
00010000
00001000
00000000
00000010
00000000
00010000
00000000
00001000
00000000
00100000
00000000
,
00001000
00000000
00010000
00001000
00010000
00000000
00000010
00000000
00001000
00000100
00001000
00000100
00000010
00000001
00000010
00000001
,
00000010
00000001
00000100
00002000
00000000
00000000
00003000
00000000
,
00000100
00000001
00000010
00000100
00010000
00001000
00010000
00001000
,
00100000
00000000
00010000
01000000
00100000
00000000
10000000
01000000
00100000
00000000
00010000
00000000
10000000
01000000
10000000
01000000
,
00100000
01000000
00100000
10000000
01000000
00100000
00001000
00010000
,
00001000
00000000
00100000
00001000
00010000
00000000
00001000
00010000
00000100
00000000
00001000
00000000
00000001
00000100
00000001
00000100
,
00000010
00000100
00000001
00001000
00000100
00000010
00000001
00001000
,
00000010
00000000
00000100
00000001
00000010
00000000
00000100
00001000
00000010
00000000
00000100
00000000
00000010
00000100
00000010
00000100
,
00000010
00000000
00000100
00000000
00000001
00000000
00001000
00000000
00000100
00000000
00000010
00000100
00000010
00000000
00000100
00000010
,
00000002
00000100
00002003
00000000
00023000
00000000
00230000
00000000
,
10300000
00010000
01000000
00100000
10000000
00100000
00001000
00100000
,
01000000
00010000
00001000
00000100
00000001
00001000
00000100
00000000
,
00000001
00000100
00001000
00000100
00000010
00000100
00001000
00010000
,
00001000
00010000
01000000
00010000
00001000
00100000
00001000
00000000
,
00100000
10000000
00100000
00001000
00010000
00000010
00000001
00000010
,
00010000
00000000
00001000
00000000
00000100
00000000
00000001
00000000
00001000
00000000
00000001
00000000
00000010
00000100
00000010
00000100
,
00001000
00000000
00000010
00000000
00000100
00000000
00001000
00000000
00010000
00001000
00010000
00001000
00010000
00001000
00010000
00001000
,
00020000
00000000
00000000
00000000
,
00030000
00000000
00000000
00000000
,
00011000
00000000
00010000
01000000
00000000
10000000
00100000
00000000
,
00011000
00000000
00001000
00000100
00000000
00000001
00000010
00000000
,
00011000
00000000
00010000
00100000
00000000
10000000
01000000
00000000
,
00011000
00000000
00001000
00000010
00000000
00000001
00000100
00000000
,
00001100
00000000
00001000
00000100
00000000
00000001
00000100
00000000
,
00000110
00000000
00000010
00001000
00000000
00010000
00001000
00000000
,
00011000
00000000
00010000
00100000
00000000
10000000
00100000
00000000
,
10010000
00000000
01000000
00100000
00000000
10000000
01000000
00000000
,
02100000
00000000
00010000
00000000
13000000
10000000
00000000
01000000
,
00000000
00100000
00000000
00001000
00000000
00010000
00000100
00001000
,
00001020
00000000
00000001
00000000
00001030
00001000
00000000
00000010
,
00000000
00000001
00000000
00000100
00000000
00001000
00010000
00001000
,
00012000
00000000
00100000
00000000
00003010
00000010
00000000
00001000
,
00000000
00000001
00000000
00000100
00000000
00001000
00010000
01000000
,
10000000
00000000
01000000
02200000
00000000
00000000
03300000
00000000
,
00010000
00000000
01000000
02200000
00000000
00000000
03300000
00000000
,
10000000
00000000
00100000
10000000
00000000
00100000
01000000
00000000
00100000
00000000
10000000
01000000
00000000
01000000
00100000
00000000
,
00010000
00000000
01000000
00010000
00000000
00010000
00001000
00000000
00010000
00000000
00000100
00001000
00000000
00000100
00001000
00000000
,
00000010
00000000
00001000
00000010
00000000
00000010
00000100
00000000
00000001
00000000
00001000
00000100
00000000
00000100
00000010
00000000
,
00000001
00000000
00000100
00000010
00000000
00001000
00000010
00000000
00001000
00000000
00000100
00010000
00000000
00001000
00010000
00000000
,
00001000
00000000
00100000
00010000
00000000
00100000
01000000
10000000
00010000
00000000
01000000
00100000
00000000
10000000
00100000
01000000
,
00010000
00000000
10000000
01000000
00000000
00100000
00001000
00010000
00001000
00000000
00010000
00000100
00000000
00001000
00000010
00000100
,
00000001
00000000
00000010
00000001
00000000
00001000
00000001
00000100
00000010
00000000
00001000
00000100
00000000
00010000
00001000
00010000
,
00001000
00000000
00000000
00000000
00000100
00000000
00000110
00000000
00000000
00000000
00000001
00001000
00000001
00000000
00000000
00000000
,
00001000
00000000
00000001
00000010
00000001
00000000
00000010
00000100
00000010
00000000
00000100
00001000
00000100
00000000
00001000
00010000
,
00001000
00000000
00010000
00100000
00010000
00000000
00100000
01000000
00100000
00000000
01000000
10000000
01000000
10000000
00010000
01000000
,
00010000
00000000
01000000
00100000
01000000
00000000
00100000
10000000
00100000
00000000
10000000
01000000
10000000
00000000
01000000
00100000
,
01000000
00000000
00100000
00010000
00100000
00000000
00001000
00010000
00001000
00000000
00010000
00000010
00001000
00000010
00010000
00000010
,
00001000
00000000
00000001
00000100
00000001
00000000
00001000
00000100
00001000
00000000
00000010
00000100
00000010
00000000
00001000
00000001
,
00001000
00000000
00000001
00000010
00000001
00000000
00000100
00000010
00000100
00000000
00000001
00000010
00000100
00001000
00000100
00010000
,
00001000
00000000
00100000
00001000
00010000
00000000
00001000
00100000
00010000
01000000
00100000
10000000
00100000
10000000
00010000
00100000
,
02000000
00000000
00200000
03300000
,
10000000
00100000
00000000
01000000
00100000
00000000
10000000
01000000
00100000
00010000
00000000
00100000
00001000
00000000
00010000
00001000
,
00010000
00000010
00000000
00001000
00000010
00000000
00001000
00000100
00000010
00000100
00000000
00001000
00000001
00000000
00000100
00000010
,
00001000
00000001
00000000
00000010
00000100
00000000
00001000
00000100
00000010
00000100
00000000
00000001
00000100
00000000
00000010
00001000
,
00000001
00000010
00000000
00000010
00000100
00000000
00010000
00001000
00010000
00000100
00000000
00010000
00001000
00000000
00100000
00010000
,
10000000
00100000
01000000
00100000
10000000
00000000
01000000
00100000
00010000
10000000
00000000
10000000
00100000
00000000
01000000
00100000
,
10000000
01000000
00100000
00010000
00100000
00000000
00001000
00010000
00000100
00001000
00000100
00001000
00000010
00000000
00000100
00000010
,
00001000
00000001
00000010
00000100
00001000
00000100
00010000
00001000
00100000
00010000
00100000
01000000
00100000
00010000
10000000
00100000
,
01000000
00000000
00000000
00000000
,
10010000
01000000
00100000
00001000
,
00010000
00000100
00000010
00000001
,
00001001
00000100
00000010
00001000
,
00000100
00010000
00001000
01000000
,
01100000
00100000
10000000
01000000
,
00100000
00001000
00010000
00000010
,
00001010
00001000
00000100
00000001
,
00000010
00001000
00010000
01000000
,
20020000
00000000
00000000
00000000
,
00000000
00000000
00000000
00000000
,
30030000
00000000
00000000
00000000
;
