#TITLE:スパンコール;
#ARTIST:Yukky feat. Rio Kuniyoshi;
#TITLETRANSLIT:Spangle;
#BANNER:Spangle.png;
#BACKGROUND:Spangle-bg.png;
#CDTITLE:./CDTitles/REFLEC BEAT.png;
#MUSIC:Spangle.ogg;
#SAMPLESTART:73.2;
#SAMPLELENGTH:15;
#BPMS:0=200;
#BGSTAGE:16;

//--------------- dance-single - Fred-104 ----------------
#NOTES:
     dance-single:
     Fred-104:
     Beginner:
     2:
     :
0000
0000
0000
0000
,
0000
0000
0000
0000
,
0000
0000
0000
0000
,
0000
0000
0000
0000
,
0000
0000
0000
0000
,
1000
0000
0000
0000
,
0000
0000
0000
0000
,
0001
0000
0000
0000
,
0000
0000
0000
0000
,
1000
0000
0000
0000
,
0000
0000
0000
0000
,
0001
0000
0000
0000
,
0000
0000
0000
0000
,
1000
0000
0000
0000
,
0000
0000
0000
0000
,
1000
0000
0000
0000
,
0000
0000
0000
0000
,
0001
0000
0000
0000
,
0000
0000
0000
0000
,
0001
0000
0000
0000
,
0000
0000
0000
0000
,
1000
0000
0000
0000
,
0000
0000
0000
0000
,
1000
0000
0000
0000
,
0000
0000
0000
0000
,
0001
0000
0000
0000
,
0000
0000
0000
0000
,
0001
0000
0000
0000
,
0000
0000
0000
0000
,
1000
0000
0000
0000
,
0000
0000
0000
0000
,
0001
0000
0000
0000
,
0000
0000
0000
0000
,
0001
0000
0000
0000
,
0000
0000
0000
0000
,
1000
0000
0000
0000
,
0000
0000
0000
0000
,
1000
0000
0000
0000
,
0000
0000
0000
0000
,
1000
0000
0000
0000
,
0000
0000
0000
0000
,
0001
0000
0000
0000
,
0000
0000
0000
0000
,
0001
0000
0000
0000
,
0000
0000
0000
0000
,
1000
0000
0000
0000
,
0000
0000
0000
0000
,
0001
0000
0000
0000
,
0000
0000
0000
0000
,
1000
0000
0000
0000
,
0000
0000
0000
0000
,
0001
0000
0000
0000
,
0000
0000
0000
0000
,
1000
0000
0000
0000
,
0000
0000
0000
0000
,
0001
0000
0000
0000
,
0000
0000
0000
0000
,
1000
0000
0000
0000
,
0000
0000
0000
0000
,
0001
0000
0000
0000
,
0000
0000
0000
0000
,
1000
0000
0000
0000
,
0000
0000
0000
0000
,
1000
0000
0000
0000
,
0000
0000
0000
0000
,
0001
0000
0000
0000
,
0000
0000
0000
0000
,
0001
0000
0000
0000
,
0000
0000
0000
0000
,
1000
0000
0000
0000
,
0000
0000
0000
0000
,
1000
0000
0000
0000
,
0000
0000
0000
0000
,
0001
0000
0000
0000
,
0000
0000
0000
0000
,
0001
0000
0000
0000
,
0000
0000
0000
0000
,
1000
0000
0000
0000
,
1000
0000
0000
0000
,
0001
0000
0000
0000
,
0001
0000
0000
0000
,
1000
0000
0000
0000
,
0001
0000
0000
0000
;

//--------------- dance-single - Fred-104 ----------------
#NOTES:
     dance-single:
     Fred-104:
     Easy:
     4:
     :
0000
0000
0000
0000
,
0000
0000
0000
0000
,
0000
0000
0000
0000
,
0000
0000
0000
0000
,
0000
0000
0000
0000
,
0002
0000
0003
0000
,
0020
0000
0030
0000
,
0200
0000
0300
0000
,
2000
0000
3000
0000
,
0002
0000
0003
0000
,
2000
0000
3000
0000
,
0010
0000
0000
0000
,
0100
0000
0001
0000
,
1001
0000
0000
0000
,
0001
0000
0010
0000
,
0100
0000
0100
0000
,
1000
0000
0001
0000
,
1000
0000
1000
0000
,
0010
0000
0100
0000
,
0001
0000
0001
0000
,
0002
0003
1001
0000
,
1000
0000
1000
0000
,
0100
0000
0100
0000
,
0001
0000
0001
0000
,
0010
0000
0010
0000
,
1000
0000
1000
0000
,
0001
0000
0001
0000
,
1000
0000
0001
0000
,
1001
0000
0000
0000
,
2000
0000
3000
0000
,
0002
0000
0003
0000
,
2000
0000
0000
0000
,
3000
0000
0000
0000
,
0002
0000
0003
0000
,
2000
0000
3000
0000
,
0002
0000
0000
0000
,
0003
0000
0000
0000
,
2000
3000
0200
0300
,
0020
0030
0002
0003
,
1000
0000
0001
0000
,
0100
0000
0010
0000
,
0100
0000
0100
0000
,
0001
0000
0001
0000
,
1000
0000
1000
0000
,
0001
0000
1000
0000
,
0002
0003
0020
0030
,
0200
0300
0020
0030
,
0100
0000
1000
0000
,
0001
0000
1000
0000
,
0010
0000
0010
0000
,
0100
0000
0100
0000
,
0001
0000
0001
0000
,
1000
0000
1000
0000
,
0001
0000
0001
0000
,
0010
0000
0010
0000
,
0100
0000
0100
0000
,
1000
0000
1000
0000
,
0001
0000
0001
0000
,
0100
0000
0010
0000
,
0100
0000
0001
0000
,
1001
0000
0000
0000
,
2000
3000
2000
3000
,
0002
0003
0002
0003
,
0010
0000
0100
0000
,
0010
0000
0010
0000
,
0002
0003
0002
0003
,
2000
3000
1000
1000
,
1000
0000
0001
0000
,
0100
0000
0010
0000
,
0100
0000
0100
0000
,
0001
0000
0001
0000
,
1000
0000
0100
0000
,
1000
0000
0001
0000
,
1000
0000
0001
0000
,
0100
0000
0010
0000
,
0100
0000
0100
0000
,
0001
0000
1000
0000
,
0002
0000
0000
0000
,
0003
0000
0000
0000
,
1000
0000
0000
0000
,
0001
0000
0000
0000
,
1000
0000
0000
0000
,
2002
0000
0000
0000
,
0000
0000
3003
0000
;

//--------------- dance-single - Fred-104 ----------------
#NOTES:
     dance-single:
     Fred-104:
     Medium:
     8:
     :
0000
0000
0000
0000
,
0000
0000
0000
0000
,
0000
0000
0000
0000
,
0000
0000
0000
0000
,
0000
0000
0000
0000
,
0001
0000
0020
0000
,
0130
0000
2000
0000
,
3001
0000
0000
0000
2000
0000
0000
3000
,
0010
0000
0200
0000
,
0301
0000
2000
0000
,
3001
0000
1000
0000
,
0100
0010
0001
0010
,
0100
0000
0000
1000
0000
0000
0001
0000
,
1001
0000
0000
0001
0000
0000
0010
0000
,
0001
0000
1000
0000
0010
0100
0010
0000
,
1000
0000
0001
0001
0000
0000
0010
0000
,
0100
0100
1000
1000
,
1001
0000
0000
0001
0000
0000
1000
1000
,
0010
0100
0010
1000
,
0001
0010
0100
1000
,
0001
0010
2002
3003
,
1000
1000
0010
0010
,
0100
0000
0001
1000
0000
0000
0000
0000
,
0001
0001
0100
0100
,
0010
0000
1000
0001
0000
0000
0001
0000
,
1000
0100
1000
0100
,
0001
0100
0001
0100
,
1000
0001
1000
0000
0010
0100
0010
0000
,
2002
0000
3003
0000
,
2000
0000
3200
0000
,
0320
0000
0032
0000
,
1003
0000
0000
0002
0000
0000
0000
0000
,
0000
0000
0003
0100
,
0020
0000
0000
0000
,
0230
0000
0000
0000
,
0302
0000
0000
0000
,
1003
0000
0001
0000
1000
0001
1000
0000
,
0001
0001
0100
0100
,
1000
1000
0100
0100
,
0001
0000
1000
0100
0000
0010
0001
0000
,
1000
0000
0001
0100
0000
0010
0100
0000
,
0001
0001
0000
1000
0000
0001
0001
0000
,
0010
0100
1000
0001
,
1000
0010
0000
0010
0100
0000
0001
0000
,
0100
0010
0110
0000
,
2000
3000
0100
0010
,
0002
0003
0100
0010
,
0100
0000
0001
0100
0000
0000
0001
0000
,
0100
0000
0010
0000
1000
0001
1000
0000
,
0002
0003
0010
0100
,
2000
3000
0001
1000
,
0010
0000
0010
0000
0100
0000
0001
1000
,
0001
0010
0100
1000
,
0001
0100
0001
0100
,
1000
0100
1000
0100
,
0001
0000
1000
0100
0000
0000
0010
0000
,
0001
0000
1000
0010
0000
0000
0100
0000
,
0001
1000
0001
1000
0001
0000
0000
0000
,
1000
0000
1000
0000
0001
1000
0001
0000
,
0100
0000
0010
0100
0000
0000
0001
0000
,
1001
0000
0000
0000
,
0002
0003
0200
0300
,
0020
0000
0030
0000
1000
0001
0000
1000
,
0100
0000
0000
0010
0000
0000
0001
0000
,
1000
0000
0001
1000
0001
0000
1000
0000
,
0020
0030
0200
0300
,
0020
0030
1000
0001
,
0010
0000
0100
0100
,
1000
0000
1000
0000
0001
1000
0001
0000
,
1000
0100
0010
0001
,
0000
1000
0010
1000
,
0001
0010
0100
1000
,
0001
0000
0100
0000
0010
0100
0010
0000
,
1000
0001
0010
0001
,
0010
0100
1000
0001
,
1000
0010
1000
0010
,
0100
0001
1000
0001
,
0010
0000
0000
0100
0000
0000
1000
0000
,
0001
0100
0001
0000
1000
0010
1000
0000
,
0002
0000
0000
1003
,
0200
0000
0000
0310
,
0100
0000
0000
0010
0100
0000
0100
0000
,
0110
0000
0000
2002
0000
0000
0000
0000
,
0000
0000
3003
0000
;

//--------------- dance-single - Fred-104 ----------------
#NOTES:
     dance-single:
     Fred-104:
     Hard:
     11:
     :
0000
0000
0000
0000
,
0000
0000
0000
0000
,
0000
0000
0000
0000
,
0000
0000
0000
0000
,
0000
0000
0000
0000
,
0001
0000
1000
0001
2000
0000
0000
0000
,
0000
0000
3100
0010
0001
0000
1000
0000
,
0001
0000
0100
0010
0200
0000
0000
0000
,
0000
0000
0310
1000
0001
0000
0010
0000
,
0100
0000
1000
0001
1000
0000
0001
0000
,
0100
0000
0010
1000
0001
0000
0010
0000
,
0200
0320
0032
2003
,
3001
0100
0010
1000
0000
0001
1000
0000
,
1001
0000
0001
0100
0000
0010
0100
0001
,
0100
0000
0010
0000
1000
0001
1000
0100
,
1000
0000
0001
1000
0000
0010
1000
0000
,
0001
0000
1000
0100
0010
0001
1000
0000
,
1001
0000
0001
0010
0000
0001
1000
0001
,
0100
0000
0010
0100
0001
0000
1000
0100
,
0010
0000
0001
0000
1000
0000
0001
0100
,
0010
0110
2002
3003
,
1000
0100
1000
0000
0001
0000
0001
0000
,
0100
0000
0010
1000
0000
0010
0100
0000
,
0001
0100
0001
0000
1000
0000
1000
0000
,
0100
0000
0010
0001
0000
1000
0001
0000
,
2000
3020
0032
0023
,
1030
0002
0023
0230
,
0300
0010
0100
0010
0100
1000
0100
1000
,
0002
0000
0003
0000
,
2000
0000
3002
0000
,
2003
0000
3020
0000
,
0230
0000
0001
0002
0000
0000
0000
0000
,
0000
0000
0300
0003
,
2000
0000
0000
0000
,
3002
0000
0003
0000
,
0020
0000
0000
0000
,
0130
0000
0010
0100
0010
0100
0010
0100
,
1000
0000
0001
0100
0000
0010
0100
0000
,
0001
0000
1000
0100
0000
0010
0001
0000
,
1000
0000
0001
0100
0000
0010
1000
0010
,
0100
0000
0001
1000
0100
0010
0100
0000
,
1000
0010
0000
0100
0000
0001
0010
0000
,
0010
0000
0100
0010
0100
0000
1000
0001
,
1000
0010
0000
0010
1000
0001
0010
0000
,
0110
0000
0100
1000
0001
0000
1001
0000
,
0001
0000
0100
0000
0010
1000
0100
0000
,
0010
0000
0001
0000
1000
0001
0100
0000
,
0010
1000
0010
0100
0000
0010
1000
0000
,
0001
0010
0100
0000
0010
0001
1000
0001
,
2000
0100
0100
3100
,
0020
0100
0100
0130
,
1000
0000
0001
0100
0010
0000
1000
0001
,
0010
0000
0100
0010
0100
0000
1001
0000
,
0002
0203
0320
2030
,
3002
2003
3200
0320
,
0031
1000
0010
0100
0000
0010
1000
0000
,
0001
0000
1000
0100
0000
0010
0001
0000
,
1000
0010
1000
0010
1000
0000
1001
0000
,
0001
0010
0001
0010
0100
0010
0100
0000
,
1000
0001
1000
0010
0000
0100
0001
0000
,
0001
0001
0000
0000
0000
0000
0000
0000
,
2000
3001
2000
3001
,
0200
0000
0310
0000
1000
0001
0000
1000
,
0010
0000
0100
0001
0000
1000
0001
0000
,
1001
0000
1000
0010
0100
0010
1000
0001
,
0020
0130
0020
0031
,
0200
0310
0200
0302
,
2003
0000
3100
0010
0000
0001
0100
0000
,
0110
0000
0010
1000
0010
1000
0010
1000
,
0001
0100
0101
1000
,
0100
0010
0110
1000
,
0001
1000
1010
0010
,
0100
0010
0100
0010
0100
0001
0100
0000
,
0001
2000
3200
0320
,
0032
2003
3020
0230
,
0301
0000
2000
0000
3001
0100
0020
0000
,
0230
0000
0302
0000
1003
0001
0010
0000
,
0110
0000
0100
1000
0000
0100
1000
0000
,
0001
0100
0001
0100
0010
0100
0010
0100
,
0002
0000
0000
0000
0000
0000
1003
0001
,
0020
0000
0000
0000
0000
0130
0010
0100
,
0010
0000
0001
1000
0002
0000
0103
0000
,
0110
0000
0010
0020
0000
0000
0000
0000
,
0000
0000
0030
0000
;

//--------------- dance-double - Fred-104 ----------------
#NOTES:
     dance-double:
     Fred-104:
     Easy:
     4:
     :
00000000
00000000
00000000
00000000
,
00000000
00000000
00000000
00000000
,
00000000
00000000
00000000
00000000
,
00000000
00000000
00000000
00000000
,
00000000
00000000
00000000
00000000
,
00020000
00000000
00030000
00000000
,
00002000
00000000
00003000
00000000
,
00020000
00000000
00030000
00000000
,
00000020
00000000
00000030
00000000
,
00002000
00000000
00003000
00000000
,
00000002
00000000
00000003
00000000
,
00000010
00000000
00000100
00000000
,
00000010
00000000
00000100
00000000
,
00010000
00000000
00000000
00000000
,
00001000
00000000
00100000
00000000
,
00010000
00000000
10000000
00000000
,
00010000
00000000
01000000
00000000
,
00010000
00000000
00000000
00000000
,
10000000
00000000
01000000
00000000
,
00100000
00000000
00100000
00000000
,
00002000
00003000
00011000
00000000
,
00010000
00000000
00010000
00000000
,
00000100
00000000
00000100
00000000
,
00000010
00000000
00000010
00000000
,
00000001
00000000
00000001
00000000
,
00001000
00000000
00001000
00000000
,
00000010
00000000
00000010
00000000
,
00010000
00000000
00001000
00000000
,
00011000
00000000
00000000
00000000
,
00020000
00000000
00030000
00000000
,
00002000
00000000
00003000
00000000
,
00020000
00000000
00000000
00000000
,
00030000
00000000
00000000
00000000
,
00002000
00000000
00003000
00000000
,
00200000
00000000
00300000
00000000
,
00020000
00000000
00000000
00000000
,
00030000
00000000
00000000
00000000
,
10000000
00000000
00010000
00000000
,
01000000
00000000
00001000
00000000
,
00010000
00000000
00001000
00000000
,
00010000
00000000
00000100
00000000
,
00000010
00000000
00000100
00000000
,
00000010
00000000
00000001
00000000
,
00001000
00000000
00000001
00000000
,
00000100
00000000
00001000
00000000
,
00011000
00000000
00000000
00000000
,
00010000
00000000
00001000
00000000
,
00100000
00000000
00001000
00000000
,
00010000
00000000
00001000
00000000
,
00010000
00000000
00001000
00000000
,
00000100
00000000
00000010
00000000
,
00000100
00000000
00000001
00000000
,
00001000
00000000
00000000
00000000
,
00000001
00000000
00000001
00000000
,
00000010
00000000
00000010
00000000
,
00001000
00000000
00000000
00000000
,
00010000
00000000
00010000
00000000
,
00001000
00000000
00001000
00000000
,
01000000
00000000
00000000
00000000
,
00001000
00000000
00010000
00000000
,
00011000
00000000
00000000
00000000
,
00002000
00003000
00002000
00003000
,
00020000
00030000
00020000
00030000
,
00001000
00000000
01000000
00000000
,
00010000
00000000
10000000
00000000
,
02000000
03000000
02000000
03000000
,
00200000
00300000
00200000
00300000
,
00001000
00000000
00010000
00000000
,
00000010
00000000
00001000
00000000
,
00000010
00000000
00000010
00000000
,
00010000
00000000
00010000
00000000
,
00001000
00000000
00001000
00000000
,
01000000
00000000
01000000
00000000
,
00001000
00000000
00010000
00000000
,
00000100
00000000
00001000
00000000
,
00000001
00000000
00000100
00000000
,
00001000
00000000
00010000
00000000
,
00002000
00000000
00000000
00000000
,
00003000
00000000
00000000
00000000
,
00010000
00000000
00000000
00000000
,
00001000
00000000
00000000
00000000
,
00100000
00000000
00000000
00000000
,
20020000
00000000
00000000
00000000
,
00000000
00000000
30030000
00000000
;

//--------------- dance-double - Fred-104 ----------------
#NOTES:
     dance-double:
     Fred-104:
     Medium:
     8:
     :
00000000
00000000
00000000
00000000
,
00000000
00000000
00000000
00000000
,
00000000
00000000
00000000
00000000
,
00000000
00000000
00000000
00000000
,
00000000
00000000
00000000
00000000
,
00001000
00100000
00020000
00000000
,
00130000
01000000
20000000
00000000
,
30010000
01000000
00200000
00000000
,
00310000
00001000
00020000
00000000
,
00030010
00001000
00000200
00000000
,
00000310
00000001
00001000
00000001
,
00000100
00000001
00000100
00001000
,
00010000
00000000
00000000
00001000
00000000
00000000
00010000
00000000
,
00011000
00000000
00000000
00001000
00000000
00000000
01000000
00000000
,
00001000
00010000
00000100
00000010
,
00000001
00000000
00001000
00001000
00000000
00000000
00000001
00000000
,
00000100
00001000
00010000
00001000
,
00011000
00000000
00000000
00000000
00010000
00000000
00000100
00000010
,
00000100
00000010
00000001
00000010
,
00000001
00001000
00000010
00000100
,
00001000
00010000
00011000
00000000
,
00001000
00001000
00100000
00100000
,
00010000
00000000
10000000
00100000
00000000
00000000
00000000
00000000
,
01000000
01000000
00010000
00010000
,
10000000
00000000
01000000
00100000
00000000
00000000
00001000
00000000
,
00010000
00001000
00010000
00001000
,
00000010
00000001
00000010
00000001
,
00001000
00000010
00000100
00001000
,
00022000
00000000
00033000
00000000
,
00002000
00000000
02003000
00000000
,
03002000
00000000
00023000
00000000
,
00031000
00000000
00000000
02000000
00000000
00000000
00000000
00000000
,
00000000
00000000
03000000
00100000
,
00200000
00000000
00000000
00000000
,
20300000
00000000
00000000
00000000
,
32000000
00000000
00000000
00000000
,
03010000
00010000
00001000
00001000
,
00010000
00010000
00000100
00000100
,
00000001
00000001
00000100
00000100
,
00000010
00000000
00000001
00001000
00000000
00000000
00000100
00000000
,
00010000
00000000
00001000
01000000
00000000
00010000
01000000
00000000
,
00100000
10000000
00000000
00100000
00000000
10000000
00010000
00000000
,
10000000
01000000
00100000
00001000
,
00010000
00001000
00000000
00001000
00010000
00000000
00000010
00000000
,
00001000
00000001
00001001
00000000
,
00000002
00000003
00001000
00000010
,
00020000
00030000
00001000
00100000
,
00010000
00000000
00000000
10000000
00000000
00000000
00010000
00000000
,
01000000
00100000
00010000
00001000
,
00020000
00030000
00000100
00000010
,
00000200
00000300
00001000
00000010
,
00010000
00000000
00010000
00000000
00001000
00000000
00001000
00010000
,
00000010
00010000
00001000
00000000
,
00010000
00001000
00010000
00001000
,
00000100
00000001
00000100
00000001
,
00000010
00000000
00000100
00001000
00000000
00000000
00000100
00000000
,
00010000
00000000
00001000
00100000
00000000
00000000
00010000
00000000
,
10000000
00010000
10000000
00010000
10000000
00000000
00100000
00000000
,
00100000
00000000
01000000
00000000
00001000
00010000
00001000
00000000
,
00010000
00000000
00000000
00000100
00000000
00000000
00000010
00000000
,
00001001
00000000
00000000
00000000
,
00000002
00000003
00002000
00003000
,
00000002
00000000
00000003
00000000
00000100
00001000
00000000
00001000
,
00010000
00000000
00000000
00001000
00000000
00000000
00100000
00000000
,
00001000
00010000
00001000
01000000
,
00200000
00300000
02000000
03000000
,
00020000
00030000
10000000
01000000
,
00010000
00000000
00000000
00001000
00000000
00000000
00010000
00000000
,
00000100
00000000
00000100
00000000
00010000
00001000
00010000
00000000
,
00011000
00001000
00100000
00100000
,
00000000
00010000
10000000
00010000
,
01000000
01000000
00100000
00100000
,
00010000
00000000
00010000
00000000
00001000
00010000
00001000
00000000
,
00010000
00000100
00010000
00000100
,
00001000
00000100
00000010
00000001
,
00001000
00000001
00001000
00000001
,
00000100
00001000
00010000
00001000
,
00010000
00000000
00000000
00010000
00000000
00000000
00001000
00000000
,
00100000
00010000
00100000
00000000
00010000
10000000
00010000
00000000
,
02000000
00000000
03100000
00000000
,
00020000
00000000
00031000
00010000
,
00001000
00000000
00000000
00001000
00010000
00000000
00010000
00000000
,
00001000
00000000
00000000
00022000
00000000
00000000
00000000
00000000
,
00000000
00000000
00033000
00000000
;

//--------------- dance-double - Fred-104 ----------------
#NOTES:
     dance-double:
     Fred-104:
     Hard:
     11:
     :
00000000
00000000
00000000
00000000
,
00000000
00000000
00000000
00000000
,
00000000
00000000
00000000
00000000
,
00000000
00000000
00000000
00000000
,
00000000
00000000
00000000
00000000
,
00010000
00000000
00001000
00010000
00002000
00000000
00000000
00000000
,
00000000
00000000
00013000
00000100
00001000
00000000
00000001
00000000
,
00000100
00000000
00000010
00001000
00000020
00000000
00000000
00000000
,
00000000
00000000
00010030
00001000
00100000
00000000
00010000
00000000
,
01000000
00000000
00100000
10000000
00100000
00000000
01000000
00000000
,
00001000
00000000
00010000
00000100
00010000
00000000
00001000
00000000
,
00020000
00032000
00003020
00000032
,
00000103
00000000
00001000
00010000
00000000
00010000
00001000
00000000
,
00011000
00000000
00001000
00100000
00000000
00010000
10000000
00010000
,
01000000
00000000
00100000
00000000
01000000
00010000
10000000
00000000
,
01000000
00000000
00100000
00001000
00000000
00001000
00010000
00000000
,
00001000
00000000
00000100
00000010
00000100
00000010
00001000
00000000
,
00001001
00000000
00000001
00000010
00000000
00000100
00001000
00000100
,
00010000
00000000
00001000
01000000
00010000
00000000
01000000
00001000
,
00010000
00000000
00001000
00000000
00000100
00000000
00000001
00001000
,
00000100
00000010
00000220
00000330
,
00000001
00000010
00000100
00001000
,
00000100
00000000
00010000
00001000
00010000
00000000
00011000
00000000
,
00001000
00100000
00010000
10000000
,
00100000
00000000
01000000
00010000
10000000
00000000
10010000
00000000
,
00020000
00230000
02300000
03020000
,
00031000
00000020
00000230
00002300
,
00003000
00000001
00000100
00000001
00000100
00000010
00000100
00001000
,
00020000
00000000
00000000
00030000
,
00012000
00000000
00023000
00000000
,
00030200
00000000
00002300
00000000
,
00003001
00000000
00000200
00000020
00000000
00000000
00000000
00000000
,
00000000
00000000
00000300
00000030
,
00020000
00000000
00000000
00000000
,
00032000
00000000
00003000
00000000
,
00200000
00000000
00000000
00000000
,
00310000
00000000
00100000
01000000
00100000
01000000
00100000
01000000
,
10000000
00000000
00010000
10000000
00100000
00000000
01000000
00000000
,
00001000
00000000
00010000
00000100
00000010
00000000
00000001
00000000
,
00001000
00000000
00000001
00000100
00000000
00001000
00010000
00000000
,
00001000
00000000
00010000
00000100
00000000
00001000
00000100
00000000
,
00010000
00001000
00000000
01000000
00000000
00010000
00100000
00000000
,
00001000
00000000
00010000
00001000
00010000
00000000
00100000
10000000
,
00100000
10000000
00000000
10000000
01000000
00100000
00010000
00000000
,
10010000
00000000
10000000
00100000
00010000
00000000
00011000
00000000
,
00001000
00000000
00010000
00000010
00001000
00000000
00000100
00000000
,
00000010
00000000
00000001
00001000
00000010
00000000
00000100
00000000
,
00001000
00000000
00010000
00001000
00000000
00001000
00100000
00000000
,
01000000
00100000
00010000
00000000
00100000
00001000
00010000
00001000
,
00000200
00000001
00000001
00000301
,
00000020
00000100
00000100
00000130
,
00010000
00000000
00001000
01000000
00010000
00000000
00010000
00100000
,
00001000
00000000
00001000
00010000
00000100
00000010
00000001
00000000
,
00002000
00003020
00000230
00002300
,
00023000
00230000
20300000
30020000
,
00130000
00000000
01000000
00100000
00000000
00001000
00010000
00000000
,
00000100
00000000
00000010
00000001
00000000
00001000
00000001
00000000
,
00000100
00000010
00000100
00000010
00000100
00000000
00000110
00000000
,
00000010
00010000
00000010
00010000
00001000
00010000
00001000
00000000
,
00100000
00010000
01000000
00010000
00000000
00100000
01000000
00000000
,
10000000
10000000
00000000
00000000
00000000
00000000
00000000
00000000
,
00020000
01030000
20000000
31000000
,
00020000
00000000
10030000
00000000
01000000
00100000
00000000
00100000
,
00001000
00000000
00010000
00000100
00000000
00000100
00000010
00000100
,
00001000
00000000
00000001
00000100
00000010
00001000
00000001
00000100
,
00000020
00001030
00000200
00000310
,
00002000
00013000
00002000
02003000
,
03100000
00000000
10000000
00000000
01000000
00100000
00001000
00000000
,
00011000
00000000
00010000
00001000
00000100
00000010
00001000
00000100
,
00000010
00000001
00001001
00001000
,
00000010
00000100
00001100
00001000
,
00010000
00100000
10100000
10000000
,
01000000
00100000
01000000
00100000
00001000
00010000
00001000
00000000
,
00010000
00000200
00000320
00000032
,
00000203
00002300
00023000
00032000
,
00103000
00000000
02000000
00000000
13000000
00100000
00020000
00000000
,
00032000
00000000
00023000
00000000
00030100
00000010
00000001
00000000
,
00001001
00000000
00000001
00000010
00000000
00000001
00001000
00000000
,
00000010
00010000
00000010
00010000
00001000
00010000
00100000
10000000
,
00020000
00000000
00000000
00000000
00000000
00000000
10030000
00010000
,
00200000
00000000
00000000
00000000
00000000
00301000
00010000
00001000
,
00010000
00000000
00000010
00000100
00000020
00000000
00000030
00000000
,
00001001
00000000
00000100
00000200
00000000
00000000
00000000
00000000
,
00000000
00000000
00000300
00000000
;
