#VERSION:0.83;
#TITLE:Sounds Of Summer;
#ARTIST:Hommarju;
#GENRE:UK HARDCORE;
#BANNER:Sounds Of Summer.png;
#BACKGROUND:Sounds Of Summer-bg.png;
#CDTITLE:./CDTitles/BEMANI SUMMER DIARY 2015.png;
#MUSIC:Sounds Of Summer.ogg;
#SAMPLESTART:79.542;
#SAMPLELENGTH:15;
#BPMS:0=175;
#STOPS:168=0.343,168.5=0.172,169=0.171,169.5=0.171,170.5=0.172,171=0.343,172=0.343,172.5=0.171,173=0.171,173.5=0.172,174.5=0.172,175=0.342,176=0.343,176.5=0.171,177=0.171,177.5=0.172,178.5=0.171,179=0.343,180=0.343,180.5=0.171,181=0.172,181.5=0.257,181.75=0.086,182=0.086,182.25=0.086,182.5=0.171;
#BGSTAGE:6;

//--------------- dance-single - Fred-104 ----------------
#NOTEDATA:;
#STEPSTYPE:dance-single;
#DESCRIPTION:Fred-104;
#DIFFICULTY:Beginner;
#METER:5;
#CREDIT:Fred-104;
#NOTES:
0000
0000
0000
0000
,
0000
0000
0000
0000
,
0000
0000
0000
0000
,
0000
0000
0000
0000
,
0000
0000
0000
0000
,
0000
0000
0000
0000
,
0000
0000
0000
0000
,
0000
0000
0000
0000
,
0000
0000
0000
0000
,
0000
0000
0000
0000
,
1000
0000
0001
0000
,
0010
0000
0100
0000
,
1000
0000
0001
0000
,
0100
0000
0010
0000
,
1000
0000
1000
0000
,
0001
0000
0001
0000
,
1000
1000
1000
0000
,
1001
0000
0000
0000
,
0001
0000
0010
0000
,
0100
0100
0100
0000
,
1000
0000
0001
0000
,
0100
0100
0100
0000
,
0010
0000
0100
0000
,
0001
0001
0001
0000
,
1000
0000
0100
0000
,
1000
1000
1000
0000
,
0001
0000
0010
0000
,
0200
0000
0300
0000
,
1000
0000
0010
0000
,
0200
0000
0300
0000
,
0010
0000
1000
0000
,
0002
0000
0003
0000
,
1000
0000
0001
0000
,
1001
0000
0000
0000
,
0002
0000
0000
0003
,
2000
0000
0000
3000
,
0020
0000
0000
0030
,
0200
0000
0000
0300
,
0001
0000
1000
0000
,
0100
0000
0010
0000
,
0001
0000
1000
0000
,
2002
0000
0000
3003
,
0002
0000
0000
0000
,
0000
0000
0000
0000
,
0000
0000
0000
0000
,
0000
0000
0000
0003
,
2000
0000
0000
0000
,
0000
0000
0000
0000
,
3002
0000
0000
0000
,
0000
0000
0000
0003
,
0200
0000
0000
0000
,
0000
0000
0000
0000
,
0320
0000
0000
0000
,
0030
0000
0000
0000
,
1000
0000
0001
0000
,
0010
0010
0010
0000
,
0100
0000
0010
0000
,
0001
0001
0001
0000
,
1000
0000
0010
0000
,
0100
0100
0100
0000
,
0001
0000
1000
0000
,
0001
0001
0001
0000
,
1000
0000
0000
0000
;

//--------------- dance-single - Fred-104 ----------------
#NOTEDATA:;
#STEPSTYPE:dance-single;
#DESCRIPTION:Fred-104;
#DIFFICULTY:Easy;
#METER:9;
#CREDIT:Fred-104;
#NOTES:
0000
0000
0000
0000
,
0000
0000
0000
0000
,
0000
0000
0000
0000
,
0000
0000
0000
0000
,
0000
0000
0000
0000
,
0000
0000
0000
0000
,
0000
0000
0000
0000
,
0000
0000
0000
0000
,
0000
0000
0000
0000
,
0000
0000
0000
0000
,
1000
0100
0002
0003
,
1000
0010
0002
0003
,
1000
0010
0002
0003
,
1000
0100
0002
0003
,
1000
0001
0010
0100
,
1000
0100
1000
0000
0001
0100
0001
0000
,
0100
0100
0010
0010
,
0220
0000
0000
0330
,
0001
0000
0000
0010
0000
0010
0000
0100
,
0000
1000
1001
0000
,
1000
0000
0000
0010
0000
0010
0000
0100
,
0000
0010
1001
0000
,
0001
0000
0000
1000
0000
0001
0000
0100
,
0000
0010
0110
0000
,
1000
0000
0000
0100
0000
0010
0000
0001
,
0000
1000
0001
1001
,
0001
0010
0100
1000
,
0001
0000
0100
0000
0010
1000
0010
0000
,
0100
0001
1000
0100
,
0010
0000
0100
0000
1000
0001
1000
0000
,
0010
0100
0010
1000
,
0100
0000
0010
0000
0001
0010
0001
0000
,
0010
1000
0010
0001
,
2002
0000
0000
3003
,
0002
0000
0023
0000
,
0230
0000
2300
0000
,
3002
0000
0203
0000
,
0320
0000
2030
0000
,
3001
0010
0100
1000
,
0001
0000
0100
0000
0010
0100
0010
0000
,
1000
0100
0010
0100
,
1000
0001
1001
0000
,
0002
0000
0000
0003
,
2000
0000
0000
3000
,
0020
0000
0000
0030
,
0200
0000
0000
0300
,
0001
0001
0010
0010
,
1000
1000
0001
0001
,
0100
0100
1000
1000
,
0001
1000
1001
0000
,
1000
0100
1000
0000
0100
0010
0100
0000
,
0010
0001
0010
0000
0001
1000
0001
0000
,
0100
0010
0100
0010
0100
0010
0100
0000
,
2002
0000
0000
3003
,
1000
0000
0000
0010
0000
1000
0000
0100
,
0000
0010
0010
0000
0001
0000
0000
0000
,
1000
0000
0000
0001
0000
0100
0000
0001
,
0000
0010
0010
0000
0100
0000
0000
0000
,
1000
0000
0000
0001
0000
0100
0000
0010
,
0000
1000
1000
0000
0001
0000
0000
0000
,
0010
0000
0000
0100
0000
1000
0000
0010
,
0000
0100
0001
0000
1000
0000
0001
0000
,
0020
0130
1000
0001
,
0100
0010
0100
0000
0001
0000
1000
0000
,
0100
0010
0100
1000
,
0010
0100
0010
0000
1000
0000
0001
0000
,
0010
0100
1000
0010
,
0100
0001
0100
0000
0010
0000
1000
0000
,
0001
0010
1000
0010
,
0001
1000
0001
1000
0001
0000
1001
0000
,
1000
0000
0100
0000
0010
0000
0100
0100
,
1000
0000
0001
0000
0100
0001
0100
0000
,
0010
0000
1000
0000
0001
0000
0010
0010
,
0100
0000
0010
0000
0001
1000
0001
0000
,
0010
0000
0100
0000
1000
0000
0010
0100
,
0010
0000
1000
0000
0001
0010
0100
0000
,
1000
0000
0001
0000
0100
0010
0100
0000
,
0001
1000
0001
1000
0001
1000
0001
0000
,
1001
0000
0000
0000
;

//--------------- dance-single - Fred-104 ----------------
#NOTEDATA:;
#STEPSTYPE:dance-single;
#DESCRIPTION:Fred-104;
#DIFFICULTY:Medium;
#METER:13;
#CREDIT:Fred-104;
#NOTES:
0000
0000
0000
0000
,
0000
0000
0000
0000
,
0000
0000
0000
0000
,
0000
0000
0000
0000
,
0000
0000
0000
0000
,
0000
0000
0000
0000
,
0000
0000
0000
0000
,
0000
0000
0000
0000
,
0000
0000
0000
0000
,
0000
0000
0000
0000
,
0001
0010
0001
0010
0000
0200
0300
0000
,
1000
0010
1000
0010
0000
0200
0300
0000
,
0001
0100
0001
0100
0000
0020
0030
0000
,
1000
0100
1000
0100
0000
0020
0030
0000
,
0001
1000
0010
1000
0000
0100
0000
0010
,
0000
0100
1000
0000
0001
1000
0010
0000
,
0100
0001
1000
0100
0010
0001
0100
0010
,
0200
0000
0000
0300
,
0001
0010
0001
1000
0000
0010
0001
0010
,
0000
1000
0010
0000
0110
0000
1001
0000
,
0001
0010
0100
0010
0000
1000
0010
0001
,
0000
0010
0100
0000
1100
0000
0101
0000
,
1000
0001
0100
0001
0000
0100
1000
0100
,
0000
0010
0100
0000
0101
0000
1001
0000
,
0001
0010
0100
1000
0000
0010
0100
1000
,
0000
0100
0001
1000
0100
0000
0110
0000
,
0002
0013
0001
1000
0010
0100
0001
1000
,
0100
0000
0000
0100
0010
0000
0000
0010
0001
0000
1000
0000
0010
0000
0010
0000
,
0100
0010
1000
0001
0010
0100
1000
0010
,
0100
0000
0000
0100
0001
0000
0000
0001
1000
0000
0001
0000
0100
0000
0100
0000
,
0001
0010
0100
0010
0001
1000
0010
0100
,
0010
0000
0000
0010
1000
0000
0000
1000
0100
0000
0010
0000
0001
0000
1000
0000
,
0010
0000
0100
0000
0010
0000
1000
0000
0001
1000
0001
1000
0001
0000
0010
0000
,
0200
0000
0000
0300
,
2000
0000
3200
0000
,
0302
0000
0023
0000
,
2030
0000
3020
0000
,
0032
0000
0203
0000
,
1300
0100
0010
0000
0001
0100
0010
0000
,
1000
0010
0100
0001
0100
0010
1000
0000
,
0001
0010
0100
1000
0001
0100
1000
0100
,
0010
1000
0100
0010
0001
1000
0001
0000
,
1100
0100
0010
0001
1000
0001
1001
0000
,
0101
0100
0010
1000
0001
0010
0110
0000
,
1010
0010
0001
0100
1000
0001
1001
0000
,
0011
0000
0010
0000
1000
0000
0100
0001
1000
0001
2000
0000
3000
0000
0000
0000
,
0002
0100
1000
0010
,
0203
1000
0010
0001
,
2300
0100
3002
0010
,
1003
0100
0010
0011
,
0100
0001
1000
0001
0100
0001
1000
0001
,
0010
0100
1000
0100
0010
0001
1000
0010
,
0100
0000
0100
0000
0001
0000
0001
0000
1000
0001
1000
0001
1000
0000
0001
0000
,
2000
0000
0000
3000
,
1000
0100
1000
0001
0100
0010
1000
0100
,
0000
0010
0100
0000
1100
0000
1001
0000
,
0001
0100
0010
0100
0001
1000
0001
0010
,
0000
0100
1000
0000
1100
0000
1001
0000
,
0001
1000
0010
1000
0001
1000
0100
0010
,
0000
0100
1000
0000
0110
0000
1001
0000
,
0001
0100
1000
0100
0001
0100
1000
0100
,
0000
0010
1000
0100
0010
0000
0011
0000
,
0002
0000
1003
0001
0100
0010
0100
0010
,
1000
0010
0100
0001
1000
0100
0010
0000
,
0200
0000
1300
0010
0100
1000
0100
0010
,
0100
0001
1000
0100
0010
0001
1000
0000
,
0200
0000
1300
0010
0100
0010
1000
0001
,
0010
0100
0010
0001
1000
0010
0100
0000
,
0001
0010
0100
1000
0010
0100
0001
1000
,
0100
0010
0001
1000
0001
0000
1001
0000
,
1000
0010
1000
0010
0100
0001
1000
0001
,
0100
0001
1000
0001
0010
0100
0010
0000
,
0001
0010
0001
0010
0100
1000
0001
1000
,
0010
1000
0100
1000
0001
0100
0010
0000
,
1000
0010
1000
0100
1000
0001
0100
0010
,
1000
0010
0100
0001
1000
0100
0010
0000
,
0001
1000
0010
0100
0001
1000
0100
0010
,
0100
0000
1000
0000
0001
0000
0100
0000
0001
1000
0001
1000
0001
0000
0000
0000
,
1001
0000
0000
0000
;

//--------------- dance-single - Fred-104 ----------------
#NOTEDATA:;
#STEPSTYPE:dance-single;
#DESCRIPTION:Fred-104;
#DIFFICULTY:Hard;
#METER:17;
#CREDIT:Fred-104;
#NOTES:
0000
0000
0000
0000
,
0000
0000
0000
0000
,
0000
0000
0000
0000
,
0000
0000
0000
0000
,
0000
0000
0000
0000
,
0000
0000
0000
0000
,
0000
0000
0000
0000
,
0000
0000
0000
0000
,
0000
0000
0000
0000
,
0000
0000
0000
0000
,
1000
0100
0100
0001
0100
0100
1000
0000
,
0001
0100
0100
1000
0100
0100
0001
0000
,
1000
0010
0010
0001
0010
0010
1000
0000
,
0001
0010
0010
1000
0010
0010
0001
0000
,
0010
0000
0100
1000
0001
0000
0100
0000
0010
0000
1000
0001
0010
0000
0100
0000
,
1000
0100
0010
0000
0001
0010
0100
0000
1000
0010
0100
0000
0001
0100
0010
0000
,
1000
0010
1000
0001
0010
0001
1000
0100
1000
0001
0100
0001
1000
0100
0010
0100
,
0020
0000
0000
0030
,
0012
1003
0001
2010
3001
0100
0010
1000
,
0100
0010
0110
0000
0011
0000
1001
0000
,
2100
3001
1000
0102
1003
0100
0010
0001
,
0010
0100
1100
0000
0011
0000
1001
0000
,
1020
0130
0001
0021
0130
1000
0001
0100
,
0010
0001
0010
0100
0101
0000
1001
0000
,
2100
3001
1000
0120
1030
0100
0010
0001
,
0012
0103
2010
3100
0012
0000
1003
0001
,
2001
3001
1000
0100
0010
1000
0010
0001
,
0011
0000
0000
0000
1010
0000
0000
0001
1000
0000
0100
0000
0001
0000
0100
0000
,
1000
0001
0100
1000
0100
0010
0100
0001
,
1001
0000
0000
0000
1100
0000
0000
0001
0100
0000
0010
0000
0001
0000
0010
0000
,
0100
0000
0001
1000
0100
0000
0010
0000
0001
0000
0100
0010
1000
0000
0001
0000
,
1000
0010
0000
0010
0001
0010
0000
0010
1000
0000
0010
0000
0100
0000
0001
0000
,
1000
0000
0100
0010
0001
1000
0010
0000
0100
0000
0010
1000
0001
0010
0100
1000
,
0002
0000
0000
0003
,
1000
0010
1000
0010
0100
0000
1000
0000
0100
0000
0001
0000
1000
0000
0100
0010
,
0001
0000
1000
0000
0010
0000
0001
0000
0010
0100
0010
0100
0010
1000
0010
1000
,
0001
0000
0010
0000
0100
0000
1000
0000
0001
0100
0010
0000
1000
0010
1000
0001
,
0010
0000
0100
0000
1000
0000
0010
0100
0001
0000
1000
0000
0100
0000
0010
0000
,
0001
0100
0001
0100
0010
0000
0001
0000
1000
0000
0100
0000
0010
0000
1000
0100
,
0010
0000
0001
0000
1000
0000
0010
0000
0100
0001
1000
0001
0010
0000
0100
1000
,
0001
0100
0010
0100
0001
0100
0010
1000
0001
0010
0100
0010
0001
1000
0010
0100
,
0001
1000
0100
0010
0001
1000
0010
1000
0001
0010
0100
1000
0001
0000
1000
0000
,
1100
0101
0011
1010
0110
1001
0010
0000
,
0011
1010
1100
0101
0110
1001
0100
0000
,
1010
0011
0101
1100
0110
1001
0001
0000
,
0101
0000
1100
0000
1010
0000
0011
0001
1000
0010
0110
0000
1001
0000
0000
0000
,
0001
0000
0010
0100
0010
0000
0010
0100
0010
0000
0001
0000
1000
0000
0010
0000
,
0100
0000
0001
1000
0001
0000
0001
1000
0001
0000
0010
0000
0100
0000
1000
0000
,
0001
0000
1000
0100
1000
0000
1000
0100
1000
0000
0001
0000
0100
0000
0010
0000
,
1000
0000
0001
0010
0100
0000
1000
0100
0010
0000
0001
0000
1000
0001
1000
0000
,
0001
0010
0001
0010
0100
1000
0001
0000
1000
0010
1000
0010
0100
0001
1000
0000
,
0001
0100
0001
0100
0010
1000
0001
0000
1000
0100
1000
0100
0010
0001
1000
0000
,
0001
0010
0100
1000
0001
0100
0010
1000
0010
0100
0001
1000
0100
0010
0001
1000
,
0002
0000
0000
0003
,
0012
1003
0001
2010
3001
0010
0100
2100
,
3001
0102
1003
0100
0110
0000
0001
1000
,
2100
3001
1000
0102
1003
0100
0010
0012
,
1003
0102
1003
0010
0110
0000
1000
0001
,
0021
0130
1000
0120
1030
0001
1000
0210
,
0301
0120
1030
0001
1001
0000
0001
0010
,
0210
1300
0001
0210
0301
1000
0100
0010
,
0000
0101
0110
1010
1001
0000
0001
1000
,
0002
0000
0000
0003
1001
0000
1000
0100
0001
0000
0100
0000
0010
0000
0001
1000
,
0010
0000
0001
0010
0100
0000
0001
0000
1000
0000
0100
0000
1000
0000
0010
0000
,
0100
0000
0001
0000
1000
0000
0100
0001
0100
0000
1000
0000
0001
0000
0100
1000
,
0100
0000
0010
1000
0001
0000
0010
0000
0100
0000
1000
0000
0010
0000
0100
0000
,
0001
0000
0010
0000
0100
0000
0001
0100
1000
0000
0001
0000
1000
0000
0010
0001
,
0010
0000
0100
0010
1000
0000
0001
0000
0010
0100
1000
0000
0001
1000
0010
0000
,
0100
0001
1000
0001
0010
0100
1000
0100
0010
0001
0100
0010
1000
0010
0100
0001
,
1000
0100
1000
0100
0010
0000
0001
0000
0011
0000
0000
0000
1001
0000
0000
0000
,
0001
0010
0001
0010
0100
0000
0001
0000
0100
0000
1000
0000
0001
0000
0100
0001
,
1000
0000
0010
0000
0100
0000
1000
0000
0100
0010
0100
0010
0100
0001
0100
0001
,
1000
0000
0100
0000
0001
0000
1000
0000
0010
0000
0100
0000
1000
0000
0001
1000
,
0010
0000
0100
0000
1000
0000
0100
0001
1000
0000
0100
0000
0010
0001
0010
0001
,
0010
0000
0001
1000
0010
0000
0001
0000
0010
0000
0100
0000
0010
1000
0001
1000
,
0100
0000
0010
0100
1000
0000
0001
0000
0100
0001
1000
0001
0100
0010
1000
0001
,
0010
0000
0100
0010
0001
1000
0010
0000
0100
0010
1000
0001
0010
0100
0010
0001
,
1000
0010
0100
0001
1000
0100
0010
0001
0010
0100
1000
0010
0100
0000
0001
0000
,
1001
0000
0000
0000
;

//--------------- dance-double - Fred-104 ----------------
#NOTEDATA:;
#STEPSTYPE:dance-double;
#DESCRIPTION:Fred-104;
#DIFFICULTY:Easy;
#METER:9;
#CREDIT:Fred-104;
#NOTES:
00000000
00000000
00000000
00000000
,
00000000
00000000
00000000
00000000
,
00000000
00000000
00000000
00000000
,
00000000
00000000
00000000
00000000
,
00000000
00000000
00000000
00000000
,
00000000
00000000
00000000
00000000
,
00000000
00000000
00000000
00000000
,
00000000
00000000
00000000
00000000
,
00000000
00000000
00000000
00000000
,
00000000
00000000
00000000
00000000
,
00001000
00010000
02000000
03000000
,
10000000
00100000
00020000
00030000
,
00001000
00000100
00000002
00000003
,
00000010
00001000
00020000
00030000
,
00001000
00010000
00100000
01000000
,
00010000
10000000
00010000
00000000
10000000
01000000
10000000
00000000
,
01000000
00100000
00001000
00010000
,
00022000
00000000
00000000
00033000
,
00010000
00000000
00000000
00001000
00000000
00000100
00000000
00000001
,
00000000
00001000
00000110
00000000
,
00000001
00000000
00000000
00000100
00000000
00001000
00000000
00010000
,
00000000
00001000
00011000
00000000
,
00001000
00000000
00000000
00010000
00000000
01000000
00000000
00100000
,
00000000
00010000
10010000
00000000
,
10000000
00000000
00000000
01000000
00000000
00100000
00000000
00001000
,
00000000
00010000
00001000
00011000
,
00010000
00001000
00000100
00000001
,
00001000
00000000
00000100
00000000
00000010
00000001
00000010
00000000
,
00000100
00010000
00001000
00010000
,
01000000
00000000
00100000
00000000
00010000
10000000
00010000
00000000
,
10000000
01000000
00010000
00001000
,
00010000
00000000
00001000
00000000
00000100
00000010
00000100
00000000
,
00000001
00000010
00001000
00010000
,
00022000
00000000
00000000
00033000
,
00002000
00000000
00203000
00000000
,
02300000
00000000
23000000
00000000
,
30200000
00000000
00320000
00000000
,
00032000
00000000
00023000
00000000
,
00031000
00100000
01000000
10000000
,
00100000
00000000
01000000
00000000
00010000
00100000
00010000
00000000
,
10000000
01000000
00010000
00001000
,
00100000
00001000
00011000
00000000
,
00020000
00000000
00000000
00030000
,
00002000
00000000
00000000
00003000
,
00000200
00000000
00000000
00000300
,
00000002
00000000
00000000
00000003
,
00001000
00000100
00000010
00000001
,
00000100
00001000
00010000
00100000
,
10000000
01000000
00010000
00001000
,
00000010
00000001
00001001
00000000
,
00000001
00000100
00000001
00000000
00001000
00000100
00001000
00000000
,
00000100
00010000
00000100
00000000
00010000
00001000
00010000
00000000
,
01000000
00100000
01000000
00100000
01000000
00100000
01000000
00000000
,
20020000
00000000
00000000
30030000
,
10000000
00000000
00000000
00100000
00000000
01000000
00000000
00100000
,
00000000
00010000
00001000
00000000
00010000
00000000
00000000
00000000
,
00001000
00000000
00000000
00000010
00000000
00000100
00000000
00001000
,
00000000
00000001
00000100
00000000
00001000
00000000
00000000
00000000
,
00010000
00000000
00000000
00001000
00000000
00010000
00000000
01000000
,
00000000
00100000
00010000
00000000
10000000
00000000
00000000
00000000
,
00100000
00000000
00000000
01000000
00000000
00001000
00000000
00010000
,
00000000
00000010
00010000
00000000
00001000
00000000
00010000
00000000
,
00000200
00001300
00000100
00000010
,
00000001
00001000
00000001
00000000
00000100
00000000
00001000
00000000
,
00010000
00100000
01000000
00010000
,
10000000
01000000
10000000
00000000
01000000
00000000
00100000
00000000
,
00001000
00010000
00100000
10000000
,
00010000
01000000
00010000
00000000
10000000
00000000
00100000
00000000
,
00010000
00001000
00000100
00000010
,
00001000
00000001
00001000
00000001
00001000
00000000
00001001
00000000
,
00000001
00000000
00000100
00000000
00000010
00000000
00001000
00001000
,
00000001
00000000
00000010
00000000
00000100
00000100
00010000
00000000
,
00001000
00000000
01000000
00000000
00001000
00000000
00010000
00010000
,
00001000
00000000
01000000
00000000
00010000
00100000
00100000
00000000
,
01000000
00000000
10000000
00000000
00100000
00000000
00010000
00010000
,
00001000
00000000
00010000
00000000
00001000
00001000
00000100
00000000
,
00000001
00000000
00000010
00000000
00000100
00001000
00000100
00000000
,
00010000
00001000
00010000
00001000
00010000
00001000
00010000
00000000
,
00011000
00000000
00000000
00000000
;

//--------------- dance-double - Fred-104 ----------------
#NOTEDATA:;
#STEPSTYPE:dance-double;
#DESCRIPTION:Fred-104;
#DIFFICULTY:Medium;
#METER:14;
#CREDIT:Fred-104;
#NOTES:
00000000
00000000
00000000
00000000
,
00000000
00000000
00000000
00000000
,
00000000
00000000
00000000
00000000
,
00000000
00000000
00000000
00000000
,
00000000
00000000
00000000
00000000
,
00000000
00000000
00000000
00000000
,
00000000
00000000
00000000
00000000
,
00000000
00000000
00000000
00000000
,
00000000
00000000
00000000
00000000
,
00000000
00000000
00000000
00000000
,
10000000
01000000
00010000
00001000
00000000
00020000
00030000
00000000
,
00001000
00010000
00001000
00000010
00000000
00000002
00000003
00000000
,
00001000
00000001
00000100
00001000
00000000
00020000
00030000
00000000
,
00001000
00010000
00100000
10000000
00000000
00020000
00030000
00000000
,
10000000
00100000
00010000
00001000
00000000
00010000
00000000
00100000
,
00000000
01000000
00001000
00000000
00010000
00001000
00000100
00000000
,
00000010
00001000
00000001
00000010
00001000
00010000
01000000
00100000
,
00020000
00000000
00000000
00030000
,
10000000
00010000
01000000
00001000
00000000
00010000
00001000
00000100
,
00000000
00000010
00001000
00000000
00001001
00000000
00010100
00000000
,
00010000
00001000
00000010
00000100
00000000
00001000
00000010
00010000
,
00000000
00001000
01000000
00000000
00110000
00000000
10100000
00000000
,
00010000
01000000
10000000
01000000
00000000
00100000
10000000
00010000
,
00000000
00100000
00001000
00000000
00011000
00000000
00010010
00000000
,
00010000
00001000
00000100
00000001
00000000
00001000
00000100
00000010
,
00000000
00000001
00000100
00001000
00010000
00001000
00010000
00000000
,
00001000
00010000
00100000
10000000
00010000
00100000
01000000
00100000
,
00001000
00000000
00000000
00000000
00000010
00000000
00000000
00000100
00001000
00000000
00000001
00000000
00000100
00000000
00001000
00000000
,
00010000
00000010
00000100
00001000
00010000
00100000
01000000
00010000
,
00100000
00000000
00000000
00000000
10000000
00000000
00000000
00100000
00010000
00000000
01000000
00000000
00001000
00000000
00010000
00000000
,
00001000
00000100
00000010
00010000
00001000
00000010
00000001
00000010
,
00000100
00000000
00000000
00010000
00001000
00000000
00000000
01000000
00010000
00000000
00100000
00000000
10000000
00000000
00100000
00000000
,
00001000
00000000
01000000
00000000
00100000
00000000
10000000
00000000
00010000
01000000
00010000
01000000
00001000
00000000
00010000
00000000
,
00002000
00000000
00000000
00003000
,
00020000
00032000
00003200
00000302
,
00000023
00002030
00023000
00032000
,
00023000
00230000
20300000
32000000
,
03020000
00032000
00023000
00032000
,
00013000
00001000
00000100
00000001
00001000
00000100
00000010
00000100
,
00010000
01000000
10000000
00100000
01000000
00001000
00000100
00000010
,
00010000
00001000
00000010
00000100
00001000
00000001
00000100
00001000
,
00010000
00100000
10000000
01000000
00010000
00001000
00011000
00000000
,
00011000
00001100
00000101
00000011
00000010
00000100
00011000
00000000
,
00101000
00110000
10100000
01100000
00010000
10000000
10010000
00000000
,
11000000
01010000
00011000
00001010
00000010
00000001
00001001
00000000
,
00000011
00000000
00001010
00000000
00011000
00000000
01010000
01000000
10000000
00010000
00100000
00000000
01100000
00000000
00000000
00000000
,
10000000
00100000
00010000
00000000
00001000
00000100
00000001
00000000
,
00000001
00000010
00001000
00000000
00010000
01000000
10000000
00000000
,
10000000
01000000
00010000
00000000
00001000
00000010
00000001
00000000
,
00000001
00000100
00001000
00000000
00010000
00100000
10000000
00000000
,
00010000
00100000
10000000
00100000
00001000
00010000
00001000
00000010
,
00000001
00001000
00000010
00000100
00001000
00010000
00100000
10000000
,
00010000
00000000
00100000
00000000
01000000
00000000
00100000
00000000
00001000
00010000
00001000
00010000
00001000
00000000
00000100
00000000
,
00000220
00000000
00000000
00000330
,
00001000
00000001
00000100
00010000
01000000
00001000
00010000
00100000
,
10000000
01000000
00100000
00000000
00011000
00000000
00010010
00000000
,
00010000
00001000
00000010
00000001
00001000
00000010
00000100
00010000
,
01000000
00001000
00010000
00000000
01100000
00000000
10010000
00000000
,
10000000
01000000
00001000
00000100
00010000
00001000
00000010
00000001
,
00000100
00001000
00010000
00000000
00011000
00000000
01100000
00000000
,
00010000
00100000
10000000
00100000
00001000
00010000
01000000
10000000
,
01000000
00100000
00001000
00010000
00000010
00001000
00001001
00000000
,
00000002
00000000
00000103
00001000
00010000
00001000
00000100
00000010
,
00001000
00000100
00000010
00001000
00010000
00100000
01000000
00000000
,
00020000
00000000
10030000
00100000
00010000
00001000
00010000
00100000
,
01000000
00010000
10000000
01000000
00010000
00001000
00000100
00000000
,
00000020
00000000
00001030
00000100
00000010
00001000
00010000
01000000
,
00100000
00001000
00010000
00100000
10000000
00100000
00010000
00000000
,
00001000
00010000
00100000
10000000
01000000
00010000
00001000
00010000
,
00000100
00000010
00000001
00000100
00000010
00001000
00001001
00000000
,
00000001
00000100
00001000
00010000
00001000
00010000
00100000
01000000
,
00010000
10000000
00100000
00010000
00001000
01000000
00001000
00010000
,
00001000
00000100
00000001
00001000
00000100
00000001
00000100
00010000
,
00001000
00010000
01000000
10000000
00010000
00100000
01000000
00000000
,
10000000
00010000
00100000
00001000
00010000
00001000
00000100
00000010
,
00001000
00000100
00000010
00000001
00000100
00001000
00010000
00000010
,
00010000
00100000
01000000
00010000
10000000
00100000
00010000
00001000
,
00000100
00000000
00000001
00000000
00000010
00000000
00000100
00000000
00010000
00001000
00010000
00001000
00010000
00000000
00000000
00000000
,
00011000
00000000
00000000
00000000
;

//--------------- dance-double - Fred-104 ----------------
#NOTEDATA:;
#STEPSTYPE:dance-double;
#DESCRIPTION:Fred-104;
#DIFFICULTY:Hard;
#METER:17;
#CREDIT:Fred-104;
#NOTES:
00000000
00000000
00000000
00000000
,
00000000
00000000
00000000
00000000
,
00000000
00000000
00000000
00000000
,
00000000
00000000
00000000
00000000
,
00000000
00000000
00000000
00000000
,
00000000
00000000
00000000
00000000
,
00000000
00000000
00000000
00000000
,
00000000
00000000
00000000
00000000
,
00000000
00000000
00000000
00000000
,
00000000
00000000
00000000
00000000
,
00000001
00000100
00000010
00000100
00001000
00020000
00030000
00000000
,
00100000
10000000
01000000
00100000
00001000
00020000
00030000
00000000
,
00001000
00000010
00000001
00000010
00000100
00020000
00030000
00000000
,
00001000
00010000
00100000
01000000
00010000
20000000
30000000
00000000
,
01000000
00000000
00100000
00010000
00100000
00000000
00001000
00000000
00010000
00000000
00000010
00001000
00000010
00000000
00000100
00000000
,
00000001
00000000
00000010
00000100
00001000
00000000
00000010
00000100
00000001
00000000
00000010
00000100
00001000
00000000
00000100
00000000
,
00010000
00001000
01000000
00001000
00010000
00001000
00100000
00010000
10000000
00100000
01000000
00010000
10000000
01000000
00100000
00001000
,
00020000
00000000
00000000
00030000
,
00010100
00000100
00001000
00001001
00000001
00000100
00001000
00010000
,
01000000
10000000
11000000
00000000
01010000
00000000
00011000
00000000
,
00101000
00001000
00100000
00110000
10000000
01000000
00100000
00001000
,
00010000
00000010
00001010
00000000
00000101
00000000
00011000
00000000
,
01001000
00001000
00010000
00110000
00100000
10000000
01000000
00010000
,
00001000
00000100
00000110
00000000
00001001
00000000
00001100
00000000
,
00010100
00010000
00001000
01001000
01000000
00010000
00100000
00001000
,
00021000
00030010
00012000
00103000
00021000
00000000
00031000
00010000
,
00011000
00010000
00001000
00000010
00000100
00010000
00001000
01000000
,
01010000
00000000
00000000
00000000
11000000
00000000
00000000
00100000
00010000
00000000
10000000
00000000
00100000
00000000
00010000
00000000
,
00001000
00010000
00000100
00000010
00000001
00000100
00001000
00010000
,
00011000
00000000
00000000
00000000
00010010
00000000
00000000
00001000
00010000
00000000
00100000
00000000
01000000
00000000
00100000
00000000
,
10000000
00000000
01000000
00100000
00001000
00000000
00010000
00000000
00100000
00000000
01000000
00001000
00010000
00000000
00100000
00000000
,
10000000
00000000
00010000
01000000
10000000
00000000
10000000
01000000
00010000
00000000
10000000
00000000
01000000
00000000
00010000
00000000
,
00001000
00000000
00010000
00000010
00001000
00000010
00000100
00000000
00000001
00000000
00001000
00000100
00010000
00001000
01000000
00001000
,
00020000
00000000
00000000
00030000
,
00010000
00001000
00010000
00001000
00000010
00000000
00000100
00000000
00000010
00000000
00000001
00000000
00000010
00000000
00001000
00010000
,
00001000
00000000
00010000
00000000
00100000
00000000
10000000
00000000
00010000
00100000
00010000
00100000
01000000
10000000
01000000
10000000
,
00010000
00000000
01000000
00000000
00100000
00000000
00010000
00000000
00001000
00010000
00001000
00000000
00000010
00000100
00000010
00000100
,
00001000
00000000
00000001
00000000
00000100
00000000
00001000
00010000
00001000
00000000
00010000
00000000
00100000
00000000
01000000
00000000
,
00001000
00010000
00001000
00010000
01000000
00000000
00100000
00000000
00010000
00000000
10000000
00000000
00100000
00000000
00010000
00001000
,
00010000
00000000
00001000
00000000
00000010
00000000
00000001
00000000
00000010
00000100
00000010
00000100
00001000
00000000
00000001
00000010
,
00000001
00000100
00000001
00000100
00000010
00010000
00000010
00010000
00001000
00100000
00001000
00100000
00010000
10000000
00010000
10000000
,
01000000
00100000
01000000
00100000
00001000
00010000
00000100
00010000
00001000
00000000
00010000
00000000
00011000
00000000
00000000
00000000
,
00010010
00101000
00010100
01001000
00001000
00010000
00011000
00000000
,
00101000
00010010
01001000
00010100
00001000
00010000
00011000
00000000
,
00010100
01001000
00010010
00101000
00010000
00001000
00011000
00000000
,
01001000
00000000
00010100
00000000
00101000
00000000
00010010
00010000
00001000
00000100
00000001
00000000
00001001
00000000
00000000
00000000
,
00001000
00000001
00000100
00010000
01000000
00001000
00010000
01000000
,
10000000
01000000
00001000
00000100
00010000
00001000
00000100
00000001
,
00001000
00000010
00000100
00001000
00010000
00100000
10000000
00010000
,
00100000
10000000
00100000
00001000
00010000
00001000
00000100
00000001
,
00001000
00000001
00001000
00000000
00000010
00001000
00000010
00000000
00010000
00001000
00010000
00000000
00001000
01000000
00001000
00000000
,
01000000
00010000
01000000
00010000
10000000
01000000
00100000
00000000
00001000
00010000
00001000
00010000
00000010
00001000
00000001
00000000
,
00000010
00000100
00000010
00000100
00010000
00001000
00010000
00001000
01000000
00100000
01000000
00100000
10000000
00010000
00100000
00001000
,
00020000
00000000
00000000
00030000
,
00010000
00001000
00000010
00000100
00001000
00000010
00000100
00001000
,
00010000
01000000
10000000
00100000
01100000
01000000
01010000
00000000
,
00001000
00010000
00100000
10000000
00010000
00100000
01000000
00001000
,
00000100
00000010
00000001
00000100
00000110
00000000
00001000
00000100
,
00000010
00001000
00010000
01000000
00100000
00001000
00010000
00100000
,
01000000
00100000
00010000
00001000
00011000
00000000
00010000
00001000
,
00000100
00000010
00010000
00000010
00000100
00001000
00000100
00000001
,
00000000
00000011
00001001
00001010
00010010
00000000
00001000
00010000
,
00002000
00000000
00000000
00003000
00011000
00000000
00001000
00010000
00100000
00000000
01000000
00000000
00010000
00000000
10000000
01000000
,
00010000
00000000
00001000
00010000
01000000
00000000
00100000
00000000
00001000
00000000
00000010
00000000
00000100
00000000
00000000
00000000
,
00001000
00000000
00000010
00000000
00010000
00000000
00001000
00010000
00100000
00000000
01000000
00000000
00010000
00000000
10000000
01000000
,
00100000
00000000
00001000
00010000
00000100
00000000
00000010
00000000
00000100
00000000
00001000
00000000
00010000
00000000
00000000
00000000
,
00100000
00000000
00010000
00000000
10000000
00000000
00100000
00010000
00001000
00000000
00010000
00000000
00000100
00000000
00000010
00000100
,
00001000
00000000
00000001
00000100
00001000
00000000
00010000
00000000
00100000
10000000
00010000
00000000
00100000
00000000
00001000
00000000
,
00010000
00001000
00010000
00001000
00000100
00000001
00000100
00000001
00001000
00000100
00001000
00000100
00000010
00000001
00001000
00000010
,
00000100
00001000
00010000
00001000
00011000
00000000
01100000
00000000
,
00001000
00010000
00001000
00010000
00100000
00000000
10000000
00000000
00010000
00000000
00100000
00000000
01000000
00000000
00100000
00001000
,
00100000
00000000
00001000
00000000
00000010
00000000
00000100
00000000
00001000
00000010
00001000
00000010
00000100
00000001
00000100
00000001
,
00000100
00000000
00000010
00000000
00000100
00000000
00001000
00000000
00010000
00000000
00100000
00000000
01000000
00000000
00010000
10000000
,
01000000
00000000
00010000
00000000
00001000
00000000
00010000
00000100
00001000
00000000
00000100
00000000
00000010
00000100
00001000
00000100
,
00000010
00000000
00000100
00010000
00001000
00000000
00010000
00000000
00001000
00000000
00000100
00000000
00000001
00001000
00000100
00000010
,
00000001
00000000
00001000
00000010
00000100
00000000
00000001
00000000
00000010
00000100
00001000
00000100
00010000
00000000
00001000
01000000
,
00001000
00010000
00100000
00000000
01000000
00100000
10000000
00000000
01000000
00100000
00001000
00010000
00000100
00001000
00000001
00000000
,
00000100
00000001
00001000
00000001
00000010
00000100
00010000
00001000
00100000
00010000
00100000
01000000
10000000
00010000
01000000
00001000
,
00010000
00000000
00000000
00000000
;
