#TITLE:蒼氷のフラグメント;
#ARTIST:BEMANI Sound Team "JYUNN";
#TITLETRANSLIT:Souhi no fragment;
#ARTISTTRANSLIT:JYUNN;
#BANNER:Souhi no fragment.png;
#BACKGROUND:Souhi no fragment-bg.png;
#CDTITLE:./CDTitles/NOSTALGIA Op.3.png;
#MUSIC:Souhi no fragment.ogg;
#SAMPLESTART:83.077;
#SAMPLELENGTH:15;
#BPMS:0=130;
#BGSTAGE:3;

//--------------- dance-single - Fred-104 ----------------
#NOTES:
     dance-single:
     Fred-104:
     Beginner:
     1:
     :
0000
0000
0000
0000
,
0000
0000
0000
0000
,
0000
0000
0000
0000
,
0000
0000
0000
0000
,
0000
0000
0000
0000
,
0000
0000
0000
0000
,
0000
0000
0000
0000
,
0000
0000
0000
0000
,
0000
0000
0000
0000
,
1000
0000
0000
0000
,
0000
0000
0000
0000
,
0001
0000
0000
0000
,
0000
0000
0000
0000
,
1000
0000
0000
0000
,
0000
0000
0000
0000
,
0001
0000
0000
0000
,
1000
0000
0000
0000
,
0001
0000
0000
0000
,
1000
0000
0000
0000
,
0001
0000
0000
0000
,
1000
0000
0000
0000
,
0001
0000
0000
0000
,
0000
0000
0000
0000
,
0000
0000
0000
0000
,
0000
0000
0000
0000
,
1000
0000
0000
0000
,
0001
0000
0000
0000
,
1000
0000
0000
0000
,
0001
0000
0000
0000
,
1000
0000
0000
0000
,
1000
0000
0000
0000
,
0001
0000
0000
0000
,
0001
0000
0000
0000
,
1000
0000
0000
0000
,
0001
0000
0000
0000
,
1000
0000
0000
0000
,
0010
0000
0000
0000
,
1000
0000
0000
0000
,
0001
0000
0000
0000
,
1000
0000
0000
0000
,
0001
0000
0000
0000
,
1000
0000
0000
0000
,
0000
0000
0000
0000
,
0000
0000
0000
0000
,
0000
0000
0000
0000
,
0001
0000
0000
0000
,
1000
0000
0000
0000
,
0001
0000
0000
0000
,
1000
0000
0000
0000
,
0100
0000
0000
0000
,
1000
0000
0000
0000
,
0100
0000
0000
0000
,
1000
0000
0000
0000
,
0001
0000
0000
0000
,
0000
0000
0000
0000
,
1000
0000
0000
0000
,
0000
0000
0000
0000
,
0001
0000
0000
0000
,
0000
0000
0000
0000
,
1000
0000
0000
0000
,
0001
0000
0000
0000
,
0000
0000
0000
0000
,
1000
0000
0000
0000
,
0000
0000
0000
0000
,
0001
0000
0000
0000
,
0000
0000
0000
0000
,
1000
0000
0000
0000
,
0000
0000
0000
0000
,
0100
0000
0000
0000
;

//--------------- dance-single - Fred-104 ----------------
#NOTES:
     dance-single:
     Fred-104:
     Easy:
     5:
     :
0000
0000
0000
0000
,
0000
0000
0000
0000
,
0000
0000
0000
0000
,
0000
0000
0000
0000
,
0000
0000
0000
0000
,
0000
0000
0000
0000
,
0000
0000
0000
0000
,
0000
0000
0000
0000
,
0000
0000
0000
0000
,
1000
0000
0000
0000
,
0001
0000
0000
0001
0000
0000
0000
0000
,
0010
0000
0000
0010
0000
0000
0000
0000
,
0100
0000
0000
0100
0000
0000
0000
0000
,
1000
0000
0000
0000
,
0001
0000
0000
0001
0000
0000
1000
0000
,
0010
0000
0000
0010
0000
0000
0010
0000
,
0100
0000
0000
0100
0000
0000
0100
0000
,
0001
0000
1000
0100
,
0010
0000
0000
0010
0000
0000
0001
0000
,
1000
0000
0001
0100
,
0010
0000
0000
0100
0000
0000
0001
0000
,
1001
0000
0000
1000
0000
0000
0000
0000
,
0000
0000
0001
0000
,
1000
0000
0000
0000
,
0000
0000
0000
0000
,
0001
0000
0010
0000
,
1000
0010
0001
0000
,
1000
0000
0001
0000
,
0100
0010
0100
0010
,
0100
0001
0100
0000
,
0010
1000
0010
0000
,
1000
0100
1000
0000
,
0001
0010
0001
0000
,
1000
0000
0100
0000
,
0010
0010
0001
0000
,
1000
0000
0001
0000
,
0100
0010
0100
0010
,
0100
0000
0001
0000
,
0010
0100
1000
0000
,
0001
0000
1000
0000
,
0010
1000
0001
1000
,
1001
0000
0000
0000
,
0000
0000
0000
0000
,
0000
0000
0000
0000
,
0000
0000
0000
0000
,
0001
0010
0100
1000
,
0001
0100
0010
0010
,
0100
0001
1000
0100
,
0001
0100
1000
1000
,
0001
0100
0010
0100
,
0001
1000
0100
0100
,
0010
0001
1000
0001
,
0100
0010
0110
0000
,
0001
0010
0001
0010
,
1000
0100
1000
0100
,
0001
1000
0001
0100
,
0010
1000
0001
0000
,
1000
0010
1000
0010
,
0001
0100
0001
0100
,
1000
0001
1000
0000
,
0001
0000
0010
0000
,
0100
0100
1000
0000
,
0001
0000
0100
0000
,
0010
1000
0001
0010
,
0100
0000
1000
0000
,
0001
0000
1000
0000
,
0001
0100
0001
0100
,
1000
0010
1000
0010
,
0001
0000
0000
0000
;

//--------------- dance-single - Fred-104 ----------------
#NOTES:
     dance-single:
     Fred-104:
     Medium:
     10:
     :
0000
0000
0000
0000
,
0000
0000
0000
0000
,
0000
0000
0000
0000
,
0000
0000
0000
0000
,
0000
0000
0000
0000
,
0000
0000
0000
0000
,
0000
0000
0000
0000
,
0000
0000
0000
0000
,
0000
0000
0000
0000
,
1000
0100
1000
0100
0000
0010
0001
0000
,
1000
0010
1000
0010
0000
0100
0001
0000
,
0010
0100
0010
0100
0000
1000
0001
0000
,
0100
0010
1000
0001
0010
0100
0010
0000
,
0001
0100
0001
0010
0001
1000
0010
0000
,
0100
0001
1000
0001
0010
0100
1000
0000
,
0100
0010
0001
1000
0010
0100
0001
1000
,
0100
0010
0100
0010
0001
1000
0001
0000
,
0010
0100
1000
0001
0100
0001
0100
0000
,
0010
1000
0100
1000
0010
1000
0001
1000
,
0100
0000
0100
0000
0010
0000
0010
0000
0001
0000
0000
1000
0000
0001
0000
0000
,
1000
0100
0010
0001
0100
0010
1000
0001
,
1000
0000
0000
1000
0000
0000
0000
0000
,
0000
0000
0001
0000
,
1001
0000
0000
0000
,
0000
0000
0000
0000
,
0001
0010
0100
0000
1000
0010
0100
0000
,
0010
1000
0100
0000
0010
0001
1000
0001
,
0100
0010
0100
0000
0010
1000
0001
1000
,
0100
0010
0100
0010
0001
0000
1001
0000
,
0001
0100
0001
0100
1000
0100
0001
0000
,
1000
0100
1000
0100
0001
0100
1000
0000
,
0001
0100
0010
1000
0010
0100
0001
1000
,
0100
0010
0001
0100
0010
1000
0001
0000
,
0010
0100
1000
0010
0100
0001
0100
0000
,
0001
0000
0100
0010
1000
0001
0010
0000
,
0100
0010
0001
0000
0100
0010
1000
0000
,
0100
0010
0001
1000
0001
0100
0010
0100
,
0001
0000
1000
0100
0001
0100
0010
0000
,
0001
1000
0110
1001
,
0001
0010
0001
0010
0000
0000
0100
1000
0100
1000
0000
0000
,
0001
0000
0000
0100
0000
0000
0010
0000
0100
0000
0010
0000
1000
0000
0000
0001
0000
0000
1000
0000
0000
0000
0000
0000
,
1001
0000
0000
0000
,
0000
0000
0000
0000
0000
1000
0000
0001
,
0000
0000
0000
0000
0100
0000
0000
0010
,
0000
1000
0000
0000
,
0001
0010
0100
1000
1100
0000
0001
1000
,
0010
0000
0100
0000
0010
0000
1000
0000
0100
1000
0100
0000
0010
0001
0010
0000
,
0001
0100
0001
0010
0001
0100
0010
1000
,
0001
0000
0100
0000
1000
0000
0100
0000
0001
1000
0001
0000
0100
0010
0100
0000
,
0001
1000
0100
0010
0001
1000
0010
0100
,
0010
0000
1000
0000
0100
0000
1000
0000
0001
0100
0001
0000
1000
0100
1000
0000
,
0010
0000
0100
0000
0010
0000
1000
0001
1000
0000
0001
0000
0010
0000
0100
0000
,
0010
0001
1000
0001
0100
0010
0110
0000
,
0001
1000
0001
0000
1000
0100
1000
0000
0001
0100
0001
0100
0001
0000
1000
0000
,
0100
0010
0100
1000
0001
0100
0110
0000
,
0001
0010
0001
0000
1000
0000
0001
0000
0100
0010
0100
0000
0001
0000
1000
0000
,
0100
0000
0010
0000
0001
0000
1000
0000
0010
0100
0010
0000
1000
0001
1000
0000
,
0100
0010
0001
1000
0001
0100
0010
0010
,
0100
0001
0100
0000
0010
1000
0001
0000
,
1000
0100
0010
0001
0100
0010
1000
0000
,
0001
0010
1000
0100
,
0001
0000
1000
0100
0010
0000
0001
0000
,
1000
0010
0001
0100
,
1000
0000
0001
0100
0010
0000
1000
0000
,
0001
0000
0100
0000
,
1000
0000
0010
0000
,
0001
0010
0100
1000
,
0010
0100
0001
0010
,
0100
0000
0000
0000
;

//--------------- dance-single - Fred-104 ----------------
#NOTES:
     dance-single:
     Fred-104:
     Hard:
     14:
     :
0000
0000
0000
0000
,
0000
0000
0000
0000
,
0000
0000
0000
0000
,
0000
0000
0000
0000
,
0000
0000
0000
0000
,
0000
0000
0000
0000
,
0000
0000
0000
0000
,
0000
0000
0000
0000
,
0000
0000
0000
0000
,
0001
0010
0001
0001
0001
1000
0001
0000
,
0100
0010
0100
0100
0001
0100
0100
0000
,
0010
1000
0100
0100
1000
0010
0100
0000
,
0001
0010
0001
0001
0100
0001
0001
0000
,
1000
0100
1000
1000
0100
0010
0001
0000
,
1000
0010
0001
1000
0100
0001
1000
0000
,
0001
0000
0010
0000
1000
0000
0010
0000
0100
0000
1000
0001
0100
0010
1000
0000
,
0001
0000
0010
0100
1000
0000
0001
0000
1000
0000
0010
0000
0100
0001
0000
0000
,
1000
0000
0001
0100
0010
0000
1000
0000
0001
0010
0001
1000
0010
1000
0001
0000
,
0100
0000
0001
1000
0001
0000
0100
0000
0001
1000
0100
1000
0100
0010
0001
0000
,
1000
0000
0000
0001
0000
1000
0001
0000
0100
0001
0000
1000
0001
0000
0010
0000
0000
0100
0000
0000
1100
0000
0000
0000
,
0001
0000
0000
0000
0000
0000
1000
0000
0010
0000
1000
0000
0010
0000
0000
0000
0000
0000
0100
0000
0000
0000
0000
0000
0010
0000
1000
0000
0010
0000
1000
0000
0000
0000
0000
0000
0001
0000
0000
0000
0000
0000
0010
0000
0000
0100
0000
0000
,
0010
0000
0000
0010
0000
0000
0000
0000
,
0000
0000
0100
0000
,
1000
0000
0000
0000
,
0000
0000
0000
0000
,
0001
0100
0010
1000
1001
0001
1000
0100
,
0010
0000
0001
0000
1000
0000
0010
0000
0110
0000
0100
0000
0001
0000
0010
0100
,
0010
0000
0001
0000
0100
0000
0010
0000
1010
0000
0000
0000
0001
0000
0100
0010
,
0100
0000
0010
0000
1000
0000
0001
0000
1001
0000
0000
0000
0001
1000
0001
1000
,
0001
0000
1000
0010
1000
0000
0001
0010
0100
1000
0001
0000
0100
0010
0100
0000
,
0001
1000
0100
0000
1000
0001
0100
0000
0001
1000
0100
1000
0100
1000
0001
1000
,
0001
0100
0001
0100
0010
0100
0001
0000
1000
0001
0010
0000
0000
0000
0010
0100
,
1000
0001
1000
0001
0100
0001
1000
0000
0100
0000
0010
0000
0001
1000
0001
1000
,
0001
1000
0100
0010
0011
1000
0010
0100
,
0001
1000
0010
1000
0110
1000
0001
0100
,
0010
1000
0001
0010
1001
0010
0001
1000
,
0010
0000
0100
0000
0001
0000
1000
0000
0100
0010
0001
0010
0001
1000
0010
0100
,
0001
1000
0001
0100
0110
1000
0001
0010
,
1000
0010
0001
0100
0110
0000
1001
0000
,
1000
0100
1000
0100
0010
0001
1000
0010
0100
0001
0100
0010
,
1000
0000
0000
0000
0000
0000
0001
0000
0000
0010
0000
0000
0100
0000
0000
0000
0010
0000
0000
0000
0001
0000
0000
0000
1000
0000
0000
0000
0000
0000
0001
0000
0100
0000
0001
0000
0100
0000
0000
0000
0000
0000
0000
0000
0000
0000
0000
0000
,
1001
0000
0000
0000
,
0000
0000
0000
0000
0000
0001
0000
0100
,
0000
0000
0000
0000
1000
0000
0000
0010
,
0000
0001
0000
0000
,
0001
0000
0100
0000
1000
0000
0100
0000
0110
0000
1000
0000
0001
1000
0100
0000
,
0010
0000
0000
0001
0000
0000
1000
0000
0000
0001
0000
0000
0100
0001
0100
0001
0000
0000
1000
0001
1000
0001
0000
0000
,
1000
0001
0010
0001
0100
0010
0001
0010
,
1000
0000
0000
0001
0000
0000
0010
0000
0000
0100
0000
0000
0010
0001
0010
0001
0000
0000
1000
0010
1000
0010
0000
0000
,
1000
0000
0001
0000
0010
0100
1000
0000
0010
0000
0100
0000
0001
0000
1000
0000
,
0100
0000
0001
0000
0100
0000
1000
0000
0001
0010
0100
0000
1000
0010
0100
0000
,
0001
0000
1000
0000
0100
0000
0010
0001
0010
0000
0100
1000
0100
1000
0001
0000
,
0100
0001
1000
0000
0100
1000
0001
0000
0010
0100
0010
0100
1000
0001
1000
0001
,
0100
0001
0100
0001
1000
0100
1000
0100
0010
0001
1000
0001
1000
0000
0001
0000
,
0010
0000
0000
0100
0000
0000
0010
0000
0000
0100
0000
0000
1000
0000
0000
0100
0000
0000
1000
0000
0000
0000
0000
0000
0001
0000
0000
0000
0000
0000
1000
0000
0000
0010
0000
0000
1000
0000
0000
0000
0001
0000
0000
0000
0010
0000
0000
0000
,
0100
1000
0100
1000
0001
0100
0001
0100
0010
1000
0001
0010
0100
0000
1000
0000
,
0001
0000
0100
0010
0100
0010
1000
0000
0001
0010
0001
0010
0100
1000
0100
1000
,
0001
0000
0100
0000
0001
1000
0100
0000
0010
0001
0010
0001
1000
0000
1000
0000
,
0001
0100
0001
0100
0010
1000
0010
1000
0001
1000
0100
0010
0001
1000
0010
0100
,
0001
0000
0000
0000
1000
0000
0000
0000
0001
0000
0000
0000
0010
0000
0000
0100
0000
0000
0010
0000
0000
0100
0000
0000
0010
0000
0000
0000
0001
0000
0000
0000
0100
0000
0000
0000
0010
0000
0000
0000
0000
0000
1000
0000
0000
0000
0000
0000
,
1001
0001
0010
0100
0010
1000
0001
0100
,
0010
0001
1000
0010
0100
0001
1000
0100
,
1000
0001
0100
1000
0001
0010
0100
0001
,
1000
0001
0010
1000
0001
0100
1000
0000
,
0001
0000
0100
0000
,
1000
0000
0010
0000
,
0001
0010
0001
0010
0100
1000
0001
0100
,
0010
1000
0100
0010
0001
0100
0010
1000
,
0100
0000
0000
0000
;

//--------------- dance-double - Fred-104 ----------------
#NOTES:
     dance-double:
     Fred-104:
     Easy:
     5:
     :
00000000
00000000
00000000
00000000
,
00000000
00000000
00000000
00000000
,
00000000
00000000
00000000
00000000
,
00000000
00000000
00000000
00000000
,
00000000
00000000
00000000
00000000
,
00000000
00000000
00000000
00000000
,
00000000
00000000
00000000
00000000
,
00000000
00000000
00000000
00000000
,
00000000
00000000
00000000
00000000
,
00010000
00000000
00000000
00000000
,
00001000
00000000
00000000
00001000
00000000
00000000
00000000
00000000
,
00010000
00000000
00000000
00010000
00000000
00000000
00000000
00000000
,
00000010
00000000
00000000
00000010
00000000
00000000
00000000
00000000
,
00001000
00000000
00000000
00000000
,
00000001
00000000
00000000
00000001
00000000
00000000
00000100
00000000
,
00001000
00000000
00000000
00001000
00000000
00000000
00010000
00000000
,
00100000
00000000
00000000
01000000
00000000
00000000
01000000
00000000
,
00010000
00000000
10000000
01000000
,
00100000
00000000
00000000
00100000
00000000
00000000
00001000
00000000
,
00010000
00000000
00001000
00010000
,
00000010
00000000
00000000
00010000
00000000
00000000
00001000
00000000
,
00011000
00000000
00000000
00010000
00000000
00000000
00000000
00000000
,
00000000
00000000
00001000
00000000
,
00010000
00000000
00000000
00000000
,
00000000
00000000
00000000
00000000
,
00000100
00000000
00010000
00000000
,
00001000
00010000
00100000
00000000
,
01000000
00000000
00010000
00000000
,
10000000
01000000
10000000
01000000
,
00100000
00001000
00010000
00000000
,
00001000
00010000
00000100
00000000
,
00010000
00001000
00010000
00000000
,
00001000
00000100
00000001
00000000
,
00001000
00000000
00000100
00000000
,
00000010
00000001
00001000
00000000
,
00000010
00000000
00000100
00000000
,
00001000
00010000
00001000
00010000
,
00100000
00000000
01000000
00000000
,
00010000
10000000
01000000
00000000
,
00100000
00000000
00001000
00000000
,
00010000
00100000
10000000
01000000
,
01100000
00000000
00000000
00000000
,
00000000
00000000
00000000
00000000
,
00000000
00000000
00000000
00000000
,
00000000
00000000
00000000
00000000
,
00000001
00000100
00000010
00000100
,
00001000
00010000
00001000
00001000
,
00010000
01000000
00100000
00010000
,
10000000
00100000
01000000
01000000
,
00010000
10000000
01000000
00100000
,
00001000
00010000
00000100
00000100
,
00010000
00001000
00010000
00000010
,
00001000
00000100
00000110
00000000
,
00000001
00000100
00001000
00010000
,
00100000
10000000
00010000
00000000
,
10000000
01000000
00010000
00001000
,
00000010
00000001
00001000
00000000
,
00000001
00000010
00001000
00010000
,
00100000
10000000
00000000
00000000
,
10000000
01000000
00010000
01000000
,
10000000
00000000
01000000
00000000
,
00100000
00100000
00001000
00000000
,
00010000
00000000
00001000
00000000
,
00010000
00001000
01000000
00010000
,
01000000
00000000
00100000
00000000
,
10000000
00000000
00010000
00000000
,
10000000
01000000
00100000
00001000
,
00010000
00100000
10000000
01000000
,
00100000
00000000
00000000
00000000
;

//--------------- dance-double - Fred-104 ----------------
#NOTES:
     dance-double:
     Fred-104:
     Medium:
     10:
     :
00000000
00000000
00000000
00000000
,
00000000
00000000
00000000
00000000
,
00000000
00000000
00000000
00000000
,
00000000
00000000
00000000
00000000
,
00000000
00000000
00000000
00000000
,
00000000
00000000
00000000
00000000
,
00000000
00000000
00000000
00000000
,
00000000
00000000
00000000
00000000
,
00000000
00000000
00000000
00000000
,
00001000
00010000
00001000
00010000
00000000
01000000
00100000
00000000
,
01000000
10000000
01000000
10000000
00000000
00010000
10000000
00000000
,
01000000
00100000
01000000
00100000
00000000
00001000
00010000
00000000
,
00001000
00010000
00001000
00010000
00000010
00001000
00000010
00000000
,
00000100
00000001
00000010
00000100
00010000
00001000
00100000
00000000
,
01000000
10000000
00010000
01000000
00100000
10000000
01000000
00000000
,
00100000
00001000
00010000
00001000
00000100
00000001
00001000
00000100
,
00000010
00000001
00001000
00000010
00000100
00001000
00010000
00000000
,
00001000
00010000
00100000
01000000
00010000
10000000
01000000
00000000
,
00100000
00010000
00100000
00001000
00010000
00001000
00010000
00000010
,
00010000
00000000
00010000
00000000
00001000
00000000
00001000
00000000
00010000
00000000
00000000
00001000
00000000
00001000
00000000
00000000
,
00010000
00001000
00000100
00000001
00001000
00000100
00000010
00000001
,
00001000
00000000
00000000
00000010
00000000
00000000
00000000
00000000
,
00000000
00000000
00010000
00000000
,
00011000
00000000
00000000
00000000
,
00000000
00000000
00000000
00000000
,
00001000
00010000
00001000
00000000
00010000
00100000
01000000
00000000
,
00010000
00100000
01000000
00000000
10000000
00100000
01000000
00010000
,
00100000
01000000
10000000
00000000
00100000
10000000
01000000
00100000
,
00001000
00010000
00000010
00010000
00001000
00000000
00011000
00000000
,
00010000
00001000
00010000
00001000
00000100
00001000
00010000
00000000
,
00001000
00010000
00001000
00010000
01000000
00010000
00001000
00000000
,
00010000
00001000
00010000
00001000
00000010
00000001
00000010
00000100
,
00001000
00000001
00000100
00000010
00000100
00001000
00010000
00000000
,
00001000
00010000
00001000
00100000
01000000
00100000
00010000
00000000
,
10000000
00000000
01000000
00100000
00001000
00010000
00001000
00000000
,
00010000
00001000
00000010
00000000
00001000
00010000
00001000
00000000
,
00010000
00001000
00000100
00001000
00010000
00001000
00010000
00000010
,
00010000
00000000
00001000
00010000
00100000
01000000
00010000
00000000
,
10000000
01000000
01100000
00011000
,
00001000
00010000
00001000
00010000
00000000
00000000
00000010
00001000
00000010
00001000
00000000
00000000
,
00000100
00000000
00000000
00000010
00000000
00000000
00000001
00000000
00001000
00000000
00000001
00000000
00000100
00000000
00000000
00000010
00000000
00000000
00000100
00000000
00000000
00000000
00000000
00000000
,
00001001
00000000
00000000
00000000
,
00000000
00000000
00000000
00000000
00000000
00000001
00000000
00000010
,
00000000
00000000
00000000
00000000
00001000
00000000
00000000
00010000
,
00000000
00100000
00000000
00000000
,
10000000
00010000
10000000
01000000
01100000
00000000
00001000
00010000
,
00001000
00000000
00000100
00000000
00000010
00000000
00001000
00000000
00000001
00000010
00000001
00000000
00000010
00000100
00000010
00000000
,
00000100
00010000
00001000
00010000
00001000
00010000
00100000
01000000
,
00010000
00000000
10000000
00000000
01000000
00000000
00100000
00000000
00001000
00010000
00001000
00000000
00100000
00010000
00100000
00000000
,
00001000
00010000
00000010
00001000
00000010
00010000
00000100
00001000
,
00000010
00000000
00010000
00000000
00000100
00000000
00001000
00000000
00000001
00000100
00000001
00000000
00001000
00000100
00001000
00000000
,
00000010
00000000
00000100
00000000
00001000
00000000
00010000
00001000
00010000
00000000
00001000
00000000
01000000
00000000
00010000
00000000
,
01000000
00001000
00010000
01000000
00100000
00010000
10010000
00000000
,
00010000
00100000
00010000
00000000
10000000
00100000
10000000
00000000
00010000
00100000
00010000
00100000
00010000
00000000
10000000
00000000
,
00100000
00010000
00001000
00000010
00000001
00000100
00000110
00000000
,
00000001
00000100
00000001
00000000
00001000
00000000
00000100
00000000
00000010
00000001
00000010
00000000
00000100
00000000
00010000
00000000
,
00001000
00000000
00010000
00000000
00100000
00000000
01000000
00000000
00010000
10000000
00010000
00000000
01000000
00100000
01000000
00000000
,
00010000
10000000
01000000
00100000
00001000
00010000
00001000
00001000
,
00010000
00001000
00000100
00000000
00000001
00000100
00001000
00000000
,
00010000
00100000
10000000
00100000
00010000
00001000
00010000
00000000
,
00001000
00010000
01000000
10000000
,
00100000
00000000
00010000
00001000
00010000
00000000
00001000
00000000
,
00010000
00001000
00000100
00000001
,
00000010
00000000
00001000
00010000
00001000
00000000
00010000
00000000
,
00001000
00000000
00001000
00000000
,
01000000
00000000
00010000
00000000
,
10000000
01000000
00100000
00001000
,
00010000
00000100
00000010
00000001
,
00001000
00000000
00000000
00000000
;

//--------------- dance-double - Fred-104 ----------------
#NOTES:
     dance-double:
     Fred-104:
     Hard:
     14:
     :
00000000
00000000
00000000
00000000
,
00000000
00000000
00000000
00000000
,
00000000
00000000
00000000
00000000
,
00000000
00000000
00000000
00000000
,
00000000
00000000
00000000
00000000
,
00000000
00000000
00000000
00000000
,
00000000
00000000
00000000
00000000
,
00000000
00000000
00000000
00000000
,
00000000
00000000
00000000
00000000
,
00010000
00001000
00010000
00000010
00000100
00000001
00001000
00000000
,
00000001
00000010
00001000
00010000
01000000
10000000
00010000
00000000
,
01000000
00100000
00010000
00001000
00000100
00000010
00001000
00000000
,
00000100
00000010
00001000
00010000
01000000
00100000
00010000
00000000
,
10000000
00100000
00010000
00001000
00010000
01000000
10000000
00000000
,
01000000
00100000
00001000
00010000
00000010
00001000
00000001
00000000
,
00000010
00000000
00000100
00000000
00001000
00000000
00000001
00000000
00000100
00000000
00001000
00010000
00001000
00000000
01000000
00000000
,
00010000
00000000
00100000
01000000
00100000
00000000
00001000
00000000
00010000
00000000
00000010
00000000
00010000
00001000
00000000
00000000
,
00010000
00000000
00001000
00100000
01000000
00000000
00100000
00000000
00010000
10000000
00010000
01000000
00001000
00010000
00001000
00000000
,
00010000
00000000
00001000
00000100
00000010
00000000
00001000
00000000
00000100
00001000
00000001
00000100
00000001
00001000
00000001
00000000
,
00001000
00000000
00000000
00000001
00000000
00000001
00000010
00000000
00000010
00000100
00000000
00000100
00010000
00000000
00001000
00000000
00000000
01000000
00000000
00000000
01010000
00000000
00000000
00000000
,
10000000
00000000
00010000
01000000
00001000
00000000
00010000
00000000
00100000
01000000
00100000
00000000
10000000
00000000
00010000
00100000
,
00001000
00000000
00000000
00010000
00000000
00000000
00000000
00000000
,
00000000
00000000
00000001
00000000
,
00010000
00000000
00000000
00000000
,
00000000
00000000
00000000
00000000
,
00000001
00000100
00010000
01000000
00001000
00010000
00100000
10000000
,
01000000
00000000
00100000
00000000
00001000
00000000
00000010
00000000
00000100
00000000
00010000
00000000
00001000
00000000
00000100
00000010
,
00000100
00000000
00000001
00000000
00000100
00000000
00001000
00000000
00010000
00000000
00100000
00000000
10000000
00000000
01000000
00100000
,
00001000
00000000
00010000
00000000
00000100
00000000
00000010
00000000
00000011
00000000
00000000
00000000
00000001
00001000
00000001
00001000
,
00000001
00000000
00001000
00000010
00001000
00000000
00000010
00010000
00001000
00100000
00010000
00000000
10000000
00100000
01000000
00000000
,
00010000
10000000
01000000
00000000
00100000
00001000
00010000
00000000
00001000
00010000
00001000
00010000
00000010
00001000
00000010
00001000
,
00000001
00000010
00000001
00000010
00000100
00001000
00000100
00000000
00010000
00001000
01000000
00000000
00000000
00000000
00010000
10000000
,
01000000
00100000
01000000
00100000
00010000
00100000
00001000
00000000
00010000
00000000
00001000
00000000
00000100
00000001
00000100
00000001
,
00001000
00000100
00000010
00010000
00100000
00001000
00010000
00100000
,
10000000
00010000
00100000
00001000
00000010
00001000
00010000
00001000
,
01000000
00001000
00000100
00000010
00001000
00000100
00000010
00000001
,
00000100
00000000
00001000
00000000
00010000
00000000
00100000
00000000
01000000
00010000
01000000
00010000
10000000
01000000
00100000
01000000
,
00100000
01000000
00010000
00001000
00000010
00000100
00001000
00010000
,
00001000
00000100
00000010
00000001
00000100
00001000
00010000
00000000
,
00001000
01000000
00001000
01000000
00010000
10000000
00010000
10000000
01000000
00100000
00010000
00100000
,
00001000
00000000
00000000
00000000
00000000
00000000
00010000
00000000
00000000
00001000
00000000
00000000
00010000
00000000
00000000
00000000
00000100
00000000
00000000
00000000
00000010
00000000
00000000
00000000
00000001
00000000
00000000
00000000
00000000
00000000
00001000
00000000
00000010
00000000
00001000
00000000
00000010
00000000
00000000
00000000
00000000
00000000
00000000
00000000
00000000
00000000
00000000
00000000
,
00000101
00000000
00000000
00000000
,
00000000
00000000
00000000
00000000
00000000
00010000
00000000
00001000
,
00000000
00000000
00000000
00000000
10000000
00000000
00000000
00001000
,
00000000
00010000
00000000
00000000
,
00001000
00000000
00010000
00000000
00001000
00000000
00000100
00000000
00000001
00000000
00001000
00000100
00000010
00000000
00000001
00000000
,
00001000
00000000
00000000
00000010
00000000
00000000
00000100
00000000
00000000
00001000
00000000
00000000
00010000
00001000
00010000
00001000
00000000
00000000
01000000
00010000
01000000
00010000
00000000
00000000
,
00100000
01000000
00010000
00001000
00000010
00000100
00001000
00000001
,
00000100
00000000
00000000
00001000
00000000
00000000
00010000
00000000
00000000
00100000
00000000
00000000
10000000
01000000
10000000
01000000
00000000
00000000
00100000
00010000
00100000
00010000
00000000
00000000
,
00100000
00000000
00001000
00000000
00010000
00000010
00001000
00000000
00000100
00000000
00000010
00000000
00000100
00000000
00001000
00000000
,
00000001
00000000
00000100
00000000
00001000
00000000
00010000
00000000
00001000
01000000
00010000
00000000
01000000
00001000
00010000
00000000
,
00001000
00000000
00000100
00000000
00000001
00000000
00000010
00000100
00001000
00000000
00000100
00010000
00001000
01000000
00001000
00000000
,
01000000
00010000
10000000
00000000
01000000
00100000
00010000
00000000
00100000
00001000
00100000
00001000
00010000
00000010
00010000
00000010
,
00001000
00000010
00001000
00000010
00000100
00000001
00000100
00000001
00000010
00000000
00000100
00000000
00010000
00000000
00001000
00000000
,
00100000
00000000
00000000
00001000
00000000
00000000
00100000
00000000
00000000
00000000
00000000
00000000
00001000
00000000
00000000
00010000
00000000
00000000
00001000
00000000
00000000
00000000
00000000
00000000
00010000
00000000
00000000
00100000
00000000
00000000
00010000
00000000
00000000
00100000
00000000
00000000
10000000
00000000
00000000
00000000
00010000
00000000
00000000
00000000
01000000
00000000
00000000
00000000
,
00010000
10000000
00010000
10000000
01000000
00100000
01000000
00100000
00001000
00010000
00000010
00010000
00001000
00000000
00010000
00000000
,
00000100
00000000
00001000
00000100
00001000
00000100
00000010
00000000
00000001
00000100
00000001
00000100
00001000
00010000
00001000
00010000
,
00001000
00000000
00100000
00000000
00010000
10000000
00100000
00000000
01000000
00010000
01000000
00010000
10000000
00000000
10000000
00000000
,
01000000
00100000
01000000
00100000
00001000
00010000
00001000
00010000
00000010
00001000
00000010
00001000
00000001
00001000
00000100
00001000
,
00000100
00000000
00000000
00000000
00000010
00000000
00000000
00000000
00000001
00000000
00000000
00000000
00001000
00000000
00000000
00000010
00000000
00000000
00001000
00000000
00000000
00000010
00000000
00000000
00010000
00000000
00000000
00000000
00001000
00000000
00000000
00000000
00010000
00000000
00000000
00000000
00001000
00000000
00000000
00000000
00000000
00000000
00000000
00000000
00000000
00000000
00000000
00000000
,
00010000
00001000
00000010
00000100
00000010
00000001
00001000
00000010
,
00000100
00001000
00010000
00100000
01000000
00010000
10000000
00100000
,
10000000
01000000
00010000
10000000
00100000
00010000
01000000
00100000
,
00010000
00001000
00000100
00000010
00001000
00000001
00000010
00000000
,
00000100
00000000
00010000
00000000
,
00100000
00000000
10000000
00000000
,
00010000
10000000
01000000
00100000
00001000
00010000
00000100
00000010
,
00000001
00001000
00000010
00010000
00001000
01000000
00010000
00100000
,
01000000
00000000
00000000
00000000
;
