#VERSION:0.83;
#TITLE:双璧のVANESSA;
#ARTIST:Remixed by REINHARD;
#TITLETRANSLIT:Souheki no VANESSA;
#BANNER:Souheki no VANESSA.png;
#BACKGROUND:Souheki no VANESSA-bg.png;
#CDTITLE:./CDTitles/RB colette -Autumn-.png;
#MUSIC:Souheki no VANESSA.ogg;
#SAMPLESTART:34.667;
#SAMPLELENGTH:15;
#DISPLAYBPM:45:360;
#BPMS:0=180,74=90,75=45,76=360,91=180,92=360,100=180,102=360,104=180,105=360,121=180,122=360,184=180,185=360,231=180,299=360,315=180,316=360,378=180,379=360,425=720,433=360,435=180,436=90;
#STOPS:82=0.167,91=1,102=0.042,102.25=0.041,102.5=0.042,102.75=0.042,103=0.041,103.25=0.042,103.5=0.042,103.75=0.041,104=1,253=0.111,253.333333=0.111,253.666667=0.111,298=1;
#TIMESIGNATURES:0=4=4,80=3=4,83=4=4,87=5=4,92=4=4,100=5=4,105=4=4,121=3=4,124=4=4,184=3=4,187=4=4,251=3=4,254=4=4,298=1=4,299=4=4,315=3=4,318=4=4,378=3=4,381=4=4,425=11=4,436=4=4;
#BGSTAGE:28;

//--------------- dance-single - Fred-104 ----------------
#NOTEDATA:;
#STEPSTYPE:dance-single;
#DESCRIPTION:Fred-104;
#DIFFICULTY:Beginner;
#METER:5;
#CREDIT:Fred-104;
#NOTES:
0000
0000
0000
0000
,
0000
0000
0000
0000
,
0000
0000
0000
0000
,
0000
0000
0000
0000
,
0000
0000
0000
0000
,
0000
0000
0000
0000
,
0000
0000
0000
0000
,
0000
0000
0000
0000
,
0000
0000
0000
0000
,
0000
0000
0000
0000
,
1000
0000
1000
0000
,
0001
0000
0001
0000
,
0100
0000
0010
0000
,
0100
0000
0100
0000
,
0001
0000
0100
0000
,
1000
0000
0100
0000
,
0010
0000
0010
0000
,
0100
0100
0100
0100
,
0110
0000
0000
0000
,
0001
0000
0001
0000
,
0001
0000
0000
1000
,
0000
0000
0000
0002
,
0000
0000
0000
0003
,
2000
0000
3000
0000
,
0002
0000
0003
0000
,
1001
0000
0000
0000
,
0000
1000
0000
0000
,
0000
0001
0000
0000
,
0000
0100
0000
0000
,
0000
0010
0000
0100
,
0000
0110
0000
0000
,
0001
0000
0000
0000
,
1000
0000
0000
0000
,
0010
0000
0001
0000
,
0010
0000
0000
0110
,
0000
0000
0000
0000
,
1000
0000
0000
1001
,
0000
0000
0000
0000
,
0001
0000
0000
0000
,
1000
0000
0000
0000
,
0010
0000
0000
0000
,
0100
0000
0000
0000
,
0100
0000
0000
0000
,
0010
0000
0000
0000
,
1000
0000
0000
0000
,
0001
0000
1000
0000
,
1001
0000
0000
0001
,
0000
0000
0000
1000
,
0000
0000
0000
0001
,
0000
1000
0000
1001
,
0000
0000
0000
0001
,
0000
0000
0000
1001
,
0000
0000
0000
1000
,
0000
0000
0000
0001
,
0000
0000
0000
1000
,
0000
0000
0000
0001
,
0000
0000
0000
0001
,
0000
0000
0000
0002
,
0000
0000
0000
0003
,
0000
0000
0000
2000
,
0000
0000
0000
3000
,
0000
0000
0000
0001
,
0000
1000
0000
0001
,
0000
0000
0100
0000
,
0010
0000
0100
0000
,
0100
0000
0110
0000
,
0000
0000
0000
0000
,
0000
0000
0000
0000
,
0000
0000
0000
0000
,
0000
0000
0001
0001
,
0001
0001
1000
1000
,
1000
1000
0100
0100
,
0100
0100
0010
0010
,
0010
0010
0020
0000
,
0000
0000
0030
0001
,
0000
0000
0000
1000
,
0000
0000
0000
0001
,
0000
0000
0000
0100
,
0000
0010
0000
0110
,
0000
0000
1000
0000
,
0000
0000
0001
0000
,
0000
0000
0100
0000
,
1000
0000
0100
0000
,
0000
0110
0000
0000
,
0000
0000
1000
0000
,
0000
1001
0000
0000
,
0000
0000
0001
0000
,
0000
0000
1000
0000
,
0000
0000
0001
0000
,
0100
0000
0001
0000
,
0100
0000
0001
0000
,
0000
0000
1000
0000
,
0000
0000
0100
0000
,
0000
0000
0010
0000
,
0001
0000
1001
0000
,
0000
1000
0000
0000
,
0000
0001
0000
0000
,
0000
1000
0000
0010
,
0000
1000
0000
0000
,
0000
0001
0000
0000
,
0000
0100
0000
0000
,
0000
0010
0000
0000
,
0000
1000
0000
0001
,
0000
1000
0000
0001
,
0000
0010
0000
0100
,
0000
0010
0000
0220
,
0000
0000
0000
0000
,
0000
0000
0000
0000
,
0000
0000
0000
0000
,
0000
0000
0000
0000
,
0330
0000
0000
0000
;

//--------------- dance-single - Fred-104 ----------------
#NOTEDATA:;
#STEPSTYPE:dance-single;
#DESCRIPTION:Fred-104;
#DIFFICULTY:Easy;
#METER:10;
#CREDIT:Fred-104;
#NOTES:
0000
0000
0000
0000
,
0000
0000
0000
0000
,
0000
0000
0000
0000
,
0000
0000
0000
0000
,
0000
0000
0000
0000
,
0000
0000
0000
0000
,
0000
0000
0000
0000
,
0000
0000
0000
0000
,
0000
0000
0000
0000
,
0000
0000
0000
0000
,
1000
0000
0001
0000
,
0100
0000
0010
1000
,
0010
0000
0100
0000
,
0001
0000
1000
0000
,
1001
0010
0100
1000
,
0001
0010
0100
1000
,
0001
0001
1000
1000
,
0100
0100
0100
0100
,
2002
0000
0000
3003
,
1000
0001
1000
0001
,
1000
0000
0000
0002
0003
0000
0110
0000
,
0000
1001
0000
0001
,
1000
0000
0000
0000
0000
0000
0000
0000
0000
0000
0000
0000
0000
0000
0000
0000
0001
0000
0000
0000
0000
0000
0000
0000
0000
0000
0000
0000
0000
0000
0000
0000
0000
0000
0000
0000
0000
0000
0000
0000
0000
0000
0000
0000
0000
0000
0000
0000
2002
3003
0000
0000
0000
0000
0000
0000
0000
0000
0000
0000
0000
0000
0000
0000
,
1000
0100
1000
0100
,
0010
0001
0010
0001
,
2002
0000
0000
0000
,
3003
0001
0000
0001
,
0000
1000
0000
1000
,
0000
0010
0000
0100
,
0000
0001
1000
0001
,
0000
1001
1000
0000
,
0001
0000
0100
0000
,
0010
0000
1000
0000
,
0100
0010
0001
0000
,
1000
0000
0000
1001
,
0000
0000
0001
0000
,
0010
0000
0000
0110
,
0000
0000
0100
0000
,
1000
0000
0001
0000
,
0100
0000
0010
0000
,
1000
0100
1000
0000
,
0001
0100
0001
0000
,
1000
0000
0100
0000
,
0010
0000
0001
0000
,
1000
0000
0010
0000
,
0100
0001
0100
0000
,
1001
0001
0000
1000
,
0000
0010
0000
0100
,
0000
0010
0000
1000
,
0001
0010
0000
0100
,
0000
1000
0000
1100
,
0000
1100
0000
0001
,
0000
0100
0000
0101
,
0000
0101
0000
0001
,
0000
0100
0000
1000
,
0000
0010
0000
0001
,
0000
1000
0000
0001
,
1000
0001
0000
1001
,
0000
0000
1000
0100
,
0001
0010
1000
1001
,
0000
0000
0001
0100
,
1000
0010
0001
1000
,
0100
0010
0001
1000
,
0001
0200
0310
1000
,
0100
1000
0010
0100
,
0001
1000
0001
0000
2002
0000
0000
0000
,
0000
0000
0000
0000
,
0000
0000
3003
0000
,
0000
0000
0000
0000
,
0000
0000
1001
0010
,
0100
1000
1001
0010
,
0100
1000
1001
1001
,
0110
0110
1100
1100
,
0101
0101
0220
0000
,
0000
0000
0000
0000
0000
0000
0000
0000
0000
0000
0000
0000
0000
0000
0000
0000
0330
0000
0000
0000
0000
0000
0000
0000
0000
0000
0000
0000
0000
0000
0000
0000
2002
3003
0000
0000
0000
0000
0000
0000
0000
0000
0000
0000
0000
0000
0000
0000
1000
0000
0000
0000
0000
0000
0000
0000
0000
0000
0000
0000
0000
0000
0000
0000
,
0000
0001
0000
0100
,
0000
0010
0000
1000
,
0000
0001
0000
1000
,
0100
1000
0100
1000
,
1001
0000
0001
0000
,
0010
0000
0100
0000
,
1000
0000
0001
1000
,
0001
0000
0100
0000
,
0000
0110
0000
0000
,
0001
0000
1000
0000
,
0000
1001
0000
0000
,
0001
0000
0010
0000
,
0100
0000
1000
0000
,
0001
0000
0100
0010
,
0100
0000
0001
1000
,
0001
0000
0010
0000
,
0100
0000
1000
0000
,
0010
0000
0100
0000
,
0001
0000
1000
0001
,
1000
0001
1000
1001
,
0000
0001
0000
1000
,
0000
0010
0000
0100
,
0000
0001
0100
0001
,
0000
1001
0000
1000
,
0000
0100
0000
1000
,
0000
1001
0000
0001
,
0000
0100
0000
0001
,
0000
1000
1000
0010
,
1000
0001
0100
0001
,
0000
0010
0010
0001
,
0010
0100
1000
0100
,
0000
0000
0000
0000
,
0000
0000
0000
0000
,
0000
0000
0000
0000
,
2002
0000
0000
0000
,
3003
0000
0000
0000
;

//--------------- dance-single - Fred-104 ----------------
#NOTEDATA:;
#STEPSTYPE:dance-single;
#DESCRIPTION:Fred-104;
#DIFFICULTY:Medium;
#METER:14;
#CREDIT:Fred-104;
#NOTES:
0000
0000
0000
0000
,
0000
0000
0000
0000
,
0000
0000
0000
0000
,
0000
0000
0000
0000
,
0000
0000
0000
0000
,
0000
0000
0000
0000
,
0000
0000
0000
0000
,
0000
0000
0000
0000
,
0000
0000
0000
0000
,
0000
0000
0000
0000
,
0001
0010
0001
0010
,
1000
0100
1000
0100
,
0001
0010
1000
0100
,
0001
1000
0100
0010
,
1001
0000
0000
1000
0000
1000
0100
0000
0000
0010
0000
0010
,
0001
0000
0000
0100
0000
0100
0010
0000
0000
0010
0000
0010
,
1000
0000
1000
0001
0000
0001
0100
0000
0100
0010
0000
0010
,
0100
0100
0110
1001
,
2002
0000
0000
3003
,
1000
1000
1000
1000
,
0001
0100
0001
0200
0300
0000
0001
0000
,
1000
0100
1000
0000
0001
0100
0001
0000
,
1000
0000
0000
0000
0000
0000
0000
0000
0000
0000
0000
0000
0000
0000
0000
0000
0100
0000
0000
0000
0000
0000
0000
0000
0000
0000
0000
0000
0000
0000
0000
0000
0000
0000
0000
0000
0000
0000
0000
0000
0000
0000
0000
0000
0000
0000
0000
0000
0220
0330
0000
0000
0000
0000
0000
0000
0000
0000
0000
0000
0000
0000
0000
0000
,
0001
1000
0001
1000
,
0100
0010
0100
0000
0010
0001
0010
0000
,
0002
2003
0002
0000
,
3003
0001
0100
0001
,
0100
0010
1000
0010
,
1000
0001
1000
0100
,
0010
0001
0010
0100
,
1000
0001
1001
0000
,
1000
0100
0010
0001
,
1000
0010
0100
0010
,
1000
0001
0010
0100
,
1000
0000
0100
0000
1000
0000
0000
0000
0000
0011
0000
0000
,
1000
0010
0100
0001
,
0010
0000
0001
0000
0010
0000
0000
0000
0000
0011
0000
0000
,
1000
0010
0100
0001
,
1000
0100
0010
0100
,
1000
0001
0100
0010
,
0100
0001
1000
0100
,
0010
0001
0010
0001
0010
0000
0000
0000
,
0001
0100
0001
0010
,
0001
1000
0100
1000
,
0010
0100
0010
1000
,
0100
0010
0001
1000
,
0001
0110
0000
1000
,
0100
0010
0001
1000
,
0010
0100
0010
0100
,
0001
0010
0100
1000
,
0001
0000
0000
0100
0000
0000
0010
0000
0000
0100
0000
0001
,
0000
0100
0000
0001
0000
0000
0000
0000
0000
1000
0000
0000
,
0100
0000
0000
0010
0000
0000
0001
0000
0000
1000
0000
0010
,
0000
1000
0000
0010
0000
0000
0000
0000
0000
0100
0000
0000
,
0001
0010
0001
1000
,
0100
1000
0010
0100
,
0000
0100
0000
0001
0000
0000
0000
0001
0000
1000
0000
0000
,
0001
0000
0100
0010
0100
0010
0200
0000
,
0000
0000
0000
0000
0000
0000
0301
0000
0001
1000
0000
1000
,
0100
0000
0100
0010
0000
0010
0001
0000
0001
2000
0000
0000
,
0000
0000
0000
0000
0000
0000
3001
0000
0001
1000
0000
1000
,
0010
0000
0010
0100
0000
0100
0001
0000
0001
1000
0000
1000
,
0100
0000
0100
0010
0000
0010
0001
0000
0001
1000
0000
1000
,
0010
0000
0010
0100
0100
0100
1001
0000
0001
0010
0000
0010
,
0100
0000
0100
0010
0000
0010
0001
0000
0001
1000
0000
1000
,
0010
0100
0010
1000
0100
1000
0002
0000
0000
0000
0000
0000
,
0000
0000
0000
0000
,
0000
0000
0003
0000
,
0000
0000
0000
0000
,
0000
0000
0000
0000
0000
0000
1001
0000
0000
0001
0000
0001
,
0010
0000
0000
0100
0000
0100
1000
0000
0000
0010
0000
0010
,
0100
0000
0000
0100
0000
0100
0001
0000
0001
1000
0000
1000
,
0010
0000
0010
0100
0000
0000
1000
0100
1000
0100
0000
0000
,
0010
0001
0010
0001
0000
0000
1000
0010
1000
0010
0000
0010
,
0100
0000
0000
0000
0000
0000
0000
0000
0000
0000
0000
0000
0000
0000
0000
0000
0001
0000
0000
0000
0000
0000
0000
0000
0000
0000
0000
0000
0000
0000
0000
0000
0100
0000
0000
0000
0000
0000
0000
0000
0000
0000
0000
0000
0000
0000
0000
0000
0001
0000
0000
0000
0000
0000
0000
0000
0000
0000
0000
0000
0000
0000
0000
0000
0000
0000
0000
0000
0000
0000
0000
0000
0000
0000
0000
0000
0000
0000
0000
0000
0001
0000
0000
0000
0000
0000
0000
0000
0000
0000
0000
0000
0000
0000
0000
0000
2000
0000
0000
3000
0000
0000
0000
0000
0000
0000
0000
0000
0000
0000
0000
0000
0000
0000
0000
0000
0000
0000
0000
0000
0000
0000
0000
0000
0000
0000
0000
0000
0000
0000
0000
0000
0000
0000
0000
0000
0000
0000
0000
0000
0000
0000
0000
0000
0001
0000
0000
0000
0000
0000
0000
0000
0000
0000
0000
0000
0000
0000
0000
0000
0000
0000
0000
0000
0000
0000
0000
0000
0000
0000
0000
0000
0000
0000
0000
0000
0000
0000
0000
0000
0000
0000
0000
0000
0000
0000
0000
0000
0000
0000
0000
0000
,
0000
0001
0000
0010
0000
0000
0000
0010
0000
0100
0000
0000
,
0000
0100
0000
1000
0000
0000
0000
1000
0000
0001
0000
0000
,
0000
0001
0000
0100
0000
0000
0000
0100
0000
0010
0000
0000
,
1000
0001
0010
0100
,
1001
0000
0000
0000
0000
0000
0001
0000
0000
0000
0001
0000
,
1000
0000
0000
0000
1000
0000
0010
0000
0000
0000
0010
0000
,
0100
0000
0000
0000
0100
0000
0001
0000
1000
0000
0001
0000
,
1000
0000
0000
0000
0000
0000
0100
0000
0010
0000
0100
0000
,
0000
0011
0001
1000
,
0001
0000
0000
0100
0000
0000
0010
0000
1000
0000
0010
0000
,
0000
1001
1000
0100
,
0010
0000
0000
0001
0000
0000
1000
0000
0000
0000
1000
0000
,
0001
0000
0000
0000
0001
0000
0100
0000
0000
0000
0100
0000
,
0010
0000
0000
0000
0010
0000
1000
0000
0000
0001
0000
0000
,
0010
0000
0100
0000
0010
0001
0010
0001
,
0010
0000
0000
0000
0000
0000
1001
0000
0000
0000
0001
0000
,
0100
0000
0000
0000
0100
0000
0010
0000
0000
0000
0010
0000
,
1000
0000
0000
0000
1000
0000
0100
0000
0000
0000
0100
0000
,
0010
0000
0000
0000
0010
0000
0001
0000
0000
0000
0001
0000
,
1000
0000
0000
0000
1000
0000
0001
0000
0000
1001
0000
0000
,
0000
0000
0000
1100
0000
0000
0000
1000
0000
0100
0000
0000
,
0000
0100
0000
0010
0000
0000
0000
0010
0000
0001
0000
0000
,
0000
0001
0000
1000
0000
0001
0000
1000
0000
0001
0000
0000
,
0000
0000
0000
1001
0000
0000
0000
1000
0000
0100
0000
0000
,
0000
0100
0000
0010
0000
0000
0000
0010
0000
0001
0000
0000
,
0000
0000
0000
1001
0000
0000
0000
0001
0000
0100
0000
0000
,
0000
0100
0000
0010
0000
0000
0000
0010
0000
1000
0000
0000
,
0000
0000
0001
0100
0001
0000
1000
0000
,
0100
0000
1000
0010
1000
0000
0001
0000
,
0100
0000
0010
1000
0010
0000
1000
0100
,
1000
0000
0100
0010
0100
0000
0010
0001
,
0010
0000
0000
0000
,
0000
0000
0000
0000
,
0000
0000
0000
0000
,
0220
0000
0000
0000
,
0330
0000
0000
0000
;

//--------------- dance-single - Fred-104 ----------------
#NOTEDATA:;
#STEPSTYPE:dance-single;
#DESCRIPTION:Fred-104;
#DIFFICULTY:Hard;
#METER:17;
#CREDIT:Fred-104;
#NOTES:
0000
0000
0000
0000
,
0000
0000
0000
0000
,
0000
0000
0000
0000
,
0000
0000
0000
0000
,
0000
0000
0000
0000
,
0000
0000
0000
0000
,
0000
0000
0000
0000
,
0000
0000
0000
0000
,
0000
0000
0000
0000
,
0000
0000
0000
0000
,
0001
0100
0010
1000
,
0001
0010
0100
1000
,
0001
0100
1000
0010
,
0001
1000
0100
0010
,
0110
0000
0010
0001
0000
0001
0100
0000
0100
0010
0000
0010
,
1000
0000
1000
0100
0000
0100
0010
0000
0010
0001
0000
0001
,
0010
0001
0100
0010
1000
0100
0010
0001
0100
0010
1000
0100
,
0001
0100
1000
0001
0010
1000
0001
0100
1000
0001
0010
0100
,
0020
0000
0000
0030
,
0011
0011
1100
1100
,
0001
0000
0000
0000
0000
0000
0000
0000
0100
0000
0000
0000
0000
0000
0000
0000
0010
0000
0000
0000
0000
0000
0000
0000
2000
0000
0000
0000
0000
0000
0000
0000
0000
3000
0000
0000
0000
0000
0000
0000
0000
0000
0000
0000
0000
0000
0000
0000
1001
0000
0000
0000
0000
0000
0000
0000
0000
0000
0000
0000
0000
0000
0000
0000
,
1000
0001
0100
0000
0001
1000
0100
0010
,
0001
0000
0000
0000
0000
0000
0000
0000
1000
0000
0000
0000
0000
0000
0000
0000
0020
0000
0000
0000
0000
0000
0000
0000
0000
0000
0000
0000
0000
0000
0000
0000
0000
0000
0000
0000
0000
0000
0000
0000
0030
0000
0000
0000
0000
0000
0000
0000
0220
0330
0000
0000
0000
0000
0000
0000
0000
0000
0000
0000
0000
0000
0000
0000
,
1000
0000
0010
0000
0100
0000
0001
0000
0100
0000
0010
0000
,
1000
0100
0010
0001
1000
0100
0010
0001
,
2000
0000
0000
0000
3002
0000
0000
0000
1003
0010
0100
0001
1000
0010
0100
0001
,
2000
3000
0000
0000
0000
0000
0000
0000
0000
0000
0000
0000
0000
0000
0000
0000
0001
0000
0000
0000
0000
0000
0000
0000
0000
0000
0000
0000
0000
0000
0000
0000
0100
0000
0000
0000
0000
0000
0000
0000
0000
0000
0000
0000
0000
0000
0000
0000
0001
0000
0000
0000
0000
0000
0000
0000
0000
0000
0000
0000
0000
0000
0000
0000
,
0010
0001
1000
0010
,
0100
0001
1000
0000
0100
0000
0010
0000
,
0001
0000
1000
0100
1000
0010
0100
0001
,
0010
0001
2000
0000
3001
0000
0010
0000
,
0100
0000
1000
0000
0001
0000
0100
0010
,
1000
0000
0001
0010
0100
0000
1000
0000
,
0001
0000
0000
0000
0100
0000
0000
0000
0010
0000
0000
0000
1000
0000
0000
0000
0000
0000
0100
0000
0000
0010
0000
0000
,
0001
0000
0100
0000
0110
0000
0000
0000
0000
1001
0000
0000
,
1000
0001
1000
0010
,
0100
0000
0010
0000
0110
0000
0000
0000
0000
1001
0000
0000
,
0001
0010
0100
1000
,
0001
1000
0100
0000
1000
0010
0100
0000
,
0001
0000
0100
0000
0010
0000
1000
0000
0100
0000
0010
0000
,
0001
0000
1000
0001
0010
0000
0001
1000
,
0001
0100
0001
0100
0010
0100
0010
0100
,
0001
0000
1000
0000
0100
1000
0001
0000
,
0010
0000
0100
0000
1000
0010
0100
0000
,
0001
0000
0010
0100
0010
0100
1000
0000
,
0001
0100
0010
1000
0100
0010
0001
1000
,
0002
0000
1003
0001
0100
0000
0010
1000
,
0001
0000
0010
0100
1000
0000
0100
0010
,
0100
0000
0000
0010
0000
0000
0001
0000
0000
0010
0000
0000
0001
0000
0000
0010
0000
0000
0001
0000
0000
0000
1000
0000
,
0000
0001
0000
0100
0000
0010
0000
1000
0000
0001
0000
0010
,
0000
0100
0000
1000
0000
0001
0000
0100
0000
0010
0000
1000
,
0000
0100
0000
0110
0000
0000
0000
0000
0000
0010
0000
0001
,
0000
1000
0000
0010
0000
0100
0000
0001
0000
0010
0000
0100
,
0000
0000
1000
0000
0000
0000
1001
0000
0000
0000
0000
0000
0000
0000
0000
0000
0000
0000
0001
0000
0000
0100
0000
0000
,
0010
0100
0001
0100
0010
0000
1000
0100
,
0010
0000
0000
0100
0000
0000
1000
0000
0000
0100
0000
0000
0010
0000
0000
0000
0000
0000
0001
0000
0000
0000
0100
0000
,
0000
0000
0010
0000
0000
0000
1000
0000
0000
0000
0100
0000
0000
0000
0010
0000
0000
0000
0001
0000
0000
1000
0000
0000
,
0010
1000
0001
0010
0100
1000
0002
0000
,
0000
0000
0000
0000
0000
0000
1003
0001
0100
0010
1000
0001
,
0010
0100
0010
0001
0100
0010
1000
0001
1000
0002
0000
0000
,
0000
0000
0000
0000
0000
0000
1003
0001
0100
0010
1000
0100
,
0010
0001
0010
0100
1000
0001
0100
0010
1000
0001
0010
0100
,
1000
0100
0010
0001
1000
0010
0100
0001
0100
0010
1000
0001
,
0010
0100
1000
0001
0100
0110
1000
0001
0100
0010
1000
0001
,
0010
0100
1000
0001
0100
0010
1000
0010
0001
1000
0100
0001
,
1000
0010
1000
0010
0100
0001
0100
0001
0200
0000
0000
0000
0000
0000
0000
0000
,
0000
0000
0000
0000
,
0000
0000
0300
0000
,
0000
0000
0000
0000
,
0000
0000
0000
0000
0000
0000
1001
0000
0010
0001
0000
0001
,
0100
0000
0100
0010
0000
0010
1000
0000
1000
0100
0000
0100
,
0010
0000
0010
0001
0000
0001
0010
0001
0100
0010
1000
0100
,
0010
0001
0100
0010
1000
0100
0001
0100
1000
0001
0010
1000
,
0001
0100
1000
0001
0010
0100
1000
0010
0100
0001
0010
0100
,
1000
0000
0000
0000
0000
0000
0000
0000
0000
0000
0000
0000
0001
0000
0000
0000
0000
0000
0000
0000
0000
0000
0000
0000
0010
0000
0000
0000
0000
0000
0000
0000
0000
0000
0000
0000
0100
0000
0000
0000
0000
0000
0000
0000
0000
0000
0000
0000
1000
0000
0000
0000
0000
0000
0000
0000
0000
0000
0000
0000
0001
0000
0000
0000
0000
0000
0000
0000
0000
0000
0000
0000
0010
0000
0000
0000
0000
0000
0000
0000
0000
0000
0000
0000
0100
0000
0000
0000
0000
0000
0000
0000
0000
0000
0000
0000
2000
0000
0000
3000
0000
0000
0000
0000
0000
0000
0000
0000
0000
0000
0000
0000
0000
0000
0000
0000
0000
0000
0000
0000
0000
0000
0000
0000
0000
0000
0000
0000
0000
0000
0000
0000
0000
0000
0000
0000
0000
0000
0000
0000
0000
0000
0000
0000
1000
0000
0000
0000
0000
0000
0000
0000
0000
0000
0000
0000
0000
0000
0000
0000
0000
0000
0000
0000
0000
0000
0000
0000
0000
0000
0000
0000
0000
0000
0000
0000
0100
0000
0000
0000
0000
0000
0000
0000
0000
0000
0000
0000
0000
0000
0000
0000
,
0000
0010
0000
0001
0000
0000
0000
0001
0000
1000
0000
0010
,
0000
0100
0000
0001
0000
0000
1000
0100
1000
0100
0000
0010
,
0000
0000
0001
0000
0000
0000
1000
0000
0000
0000
0001
0000
0000
0000
0100
0000
0000
0000
0010
0000
0000
1000
0000
0000
,
0100
0010
0001
0100
0010
1000
0200
0000
,
0310
0000
0001
0000
1000
0000
0001
0000
0100
0000
0010
0000
,
1000
0000
0001
0000
0010
0000
1000
0000
0001
0000
0100
0000
,
1000
0000
0001
0000
0010
0000
0100
0000
1000
0000
0001
0000
,
0100
0000
0010
0000
1000
0000
0001
0000
0010
0000
0011
0000
,
0000
1001
0001
1000
,
0010
0000
0000
0100
0000
0000
0001
0000
0100
0000
0110
0000
,
0000
0000
1010
0000
1000
0001
0010
0100
,
1000
0000
0000
0001
0000
0000
1000
0000
0010
0000
0001
0000
,
1000
0000
0100
0000
0010
0000
1000
0000
0001
0000
0010
0000
,
1000
0000
0000
0000
0010
0000
0000
0000
0001
0000
0000
0000
1000
0000
0000
0100
0000
0000
0010
0000
0000
0001
0000
0000
,
1000
0010
0100
0001
0100
0010
1000
0001
,
0010
0000
0000
0100
0000
0000
0010
0000
0000
0000
0000
0000
0001
0000
0000
0000
0100
0000
0000
0000
0001
0000
0000
0000
,
1000
0000
0100
0000
0010
0000
0001
0000
1000
0000
0010
0000
,
1000
0000
0001
0000
0100
0000
0010
0000
1000
0000
0001
0000
,
0010
0000
0000
0000
0100
0000
0000
0000
1000
0000
0000
0000
0001
0000
0000
0100
0000
0000
0010
0000
0000
1000
0000
0000
,
0010
0000
0000
0100
0000
0000
0001
0000
0000
1000
0000
0000
0200
0000
0000
0000
0000
0000
1300
0000
0000
0000
0010
0000
,
0000
0100
0000
0001
0000
1000
0000
0100
0000
0010
0000
0001
,
0000
1000
0000
0010
0000
0100
0000
0001
0000
0010
0000
0100
,
0000
1000
0000
0001
0000
0100
0000
0010
0000
1000
0000
0010
,
0000
0100
0000
0001
0000
0010
0000
0100
0000
0001
0000
0100
,
0000
1000
0000
0001
0000
0100
0000
1000
0000
0100
0000
0010
,
0000
1000
0000
0100
0000
0010
0000
1000
0000
0010
0000
0001
,
0000
1000
0000
0010
0000
0001
0000
0010
0000
0100
0000
0001
,
0000
0000
1000
0000
0000
0000
0001
0000
0000
0100
0000
0000
0001
0000
0000
0100
0000
0000
0010
0000
0000
1000
0000
0000
,
0100
0010
0001
0010
0001
0010
0100
1000
,
0010
0100
0010
1000
0100
0010
0001
0100
,
0010
1000
0100
0010
0001
0100
0010
1000
,
0001
0000
0000
0000
,
0000
0000
0000
0000
,
0000
0000
0000
0000
,
2002
0000
0000
0000
,
3003
0000
0000
0000
;

//--------------- dance-double - Fred-104 ----------------
#NOTEDATA:;
#STEPSTYPE:dance-double;
#DESCRIPTION:Fred-104;
#DIFFICULTY:Easy;
#METER:10;
#CREDIT:Fred-104;
#NOTES:
00000000
00000000
00000000
00000000
,
00000000
00000000
00000000
00000000
,
00000000
00000000
00000000
00000000
,
00000000
00000000
00000000
00000000
,
00000000
00000000
00000000
00000000
,
00000000
00000000
00000000
00000000
,
00000000
00000000
00000000
00000000
,
00000000
00000000
00000000
00000000
,
00000000
00000000
00000000
00000000
,
00000000
00000000
00000000
00000000
,
00010000
00000000
00001000
00000000
,
00000100
00000000
00000001
00000010
,
00001000
00000000
00010000
00000000
,
00001000
00000000
00010000
00000010
,
00001000
00000001
00000010
00000100
,
00010000
00001000
00100000
01000000
,
10000000
10000000
01000000
01000000
,
00010000
00001000
00000100
00000001
,
00002002
00000000
00000000
00003003
,
00000001
00001000
00000001
00001000
,
00000100
00000000
00000000
00010000
,
00010000
00001000
00001000
00010000
,
00100000
00000000
00000000
00000000
00000000
00000000
00000000
00000000
00000000
00000000
00000000
00000000
00000000
00000000
00000000
00000000
10000000
00000000
00000000
00000000
00000000
00000000
00000000
00000000
00000000
00000000
00000000
00000000
00000000
00000000
00000000
00000000
00000000
00000000
00000000
00000000
00000000
00000000
00000000
00000000
00000000
00000000
00000000
00000000
00000000
00000000
00000000
00000000
20020000
30030000
00000000
00000000
00000000
00000000
00000000
00000000
00000000
00000000
00000000
00000000
00000000
00000000
00000000
00000000
,
10000000
00000000
01000000
00000000
,
00100000
00001000
00100000
00001000
,
00022000
00000000
00000000
00000000
,
00033000
10000000
00000000
01000000
,
00000000
00010000
00001000
00000100
,
00000010
00001000
00000000
00000001
,
00000000
00000010
00000100
00000010
,
00000100
00000010
00000110
00000000
,
00000001
00000000
00000100
00000000
,
00001000
00000000
00010000
00000000
,
00001000
00010000
00001000
00000000
,
01000000
00000000
00000000
01010000
,
00000000
00000000
10000000
00000000
,
01000000
00000000
00000000
00110000
,
00000000
00000000
00001000
00000000
,
00010000
00001000
00010000
00000000
,
00000010
00001000
00000010
00000000
,
00000100
00000001
00000100
00000100
,
00000010
00001000
00000010
00000000
,
00010000
00000000
00001000
00000000
,
00100000
00000000
00001000
00000000
,
00010000
00000000
00000010
00000000
,
00010000
00001000
00010000
00001000
,
00010000
00011000
00000000
01000000
,
00000000
00010000
00000000
00100000
,
00000000
01000000
00000000
10000000
,
00100000
10000000
00000000
01000000
,
00100000
00010000
00000000
00100000
,
00001000
00010000
00001000
00010000
,
00000010
00001000
00000000
00000001
,
00000010
00001000
00010000
00001000
,
00000000
00000100
00000000
00000001
,
00000000
00000010
00000000
00001000
,
00010000
00100000
10000000
00010000
,
00100000
01000000
10000000
11000000
,
00000000
00000000
10000000
01000000
,
00010000
00001000
00000010
00000011
,
00000000
00000000
00000001
00000100
,
00001000
00010000
00100000
10000000
,
01000000
00100000
00001000
00010000
,
00001000
00020000
00031000
00000100
,
00000001
00001000
00000100
00000010
,
00001000
00010000
00022000
00000000
,
00000000
00000000
00000000
00000000
,
00000000
00000000
00033000
00000000
,
00000000
00000000
00000000
00000000
,
00000000
00000000
00001000
00000001
,
00000010
00000100
00010000
00001000
,
00100000
01000000
10000000
10000000
,
01000000
01000000
00010000
00001000
,
00000100
00000001
00000010
00001000
,
00010000
00000000
00000000
00000000
00000000
00000000
00000000
00000000
00000000
00000000
00000000
00000000
00000000
00000000
00000000
00000000
00100000
00000000
00000000
00000000
00000000
00000000
00000000
00000000
00000000
00000000
00000000
00000000
00000000
00000000
00000000
00000000
20020000
30030000
00000000
00000000
00000000
00000000
00000000
00000000
00000000
00000000
00000000
00000000
00000000
00000000
00000000
00000000
10000000
00000000
00000000
00000000
00000000
00000000
00000000
00000000
00000000
00000000
00000000
00000000
00000000
00000000
00000000
00000000
,
00000000
01000000
00000000
00100000
,
00000000
00001000
00000000
00010000
,
00000000
00000010
00000000
00010000
,
00001000
00010000
00001000
00010000
,
00011000
00000000
00010000
00000000
,
00001000
00000000
00000100
00000000
,
00000001
00000000
00000010
00000100
,
00000010
00000000
00000001
00000000
,
00000000
00000101
00000000
00000000
,
00010000
00000000
00001000
00000000
,
00000000
00011000
00000000
00000000
,
01000000
00000000
00010000
00000000
,
10000000
00000000
01000000
00000000
,
00100000
00000000
00001000
00010000
,
00001000
00010000
00001000
00010000
,
00001000
00000000
00010000
00000000
,
00001000
00000000
00000100
00000000
,
00000010
00000000
00000100
00000000
,
00000001
00000000
00001000
00000100
,
00001000
00000100
00010000
00011000
,
00000000
00001000
00000000
00010000
,
00000000
00100000
00000000
10000000
,
00000000
01000000
00000000
00100000
,
00000000
00001000
00000000
00011000
,
00000000
00010000
00000000
00010010
,
00000000
00001000
00000000
00011000
,
00000000
01000000
00000000
10010000
,
00000000
00010000
00010000
10000000
,
00100000
01000000
00010000
01000000
,
00000000
00001000
00001000
00010000
,
00000010
00001000
00000010
00001000
,
00000000
00000000
00000000
00000000
,
00000000
00000000
00000000
00000000
,
00000000
00000000
00000000
00000000
,
20020000
00000000
00000000
00000000
,
30030000
00000000
00000000
00000000
;

//--------------- dance-double - Fred-104 ----------------
#NOTEDATA:;
#STEPSTYPE:dance-double;
#DESCRIPTION:Fred-104;
#DIFFICULTY:Medium;
#METER:14;
#CREDIT:Fred-104;
#NOTES:
00000000
00000000
00000000
00000000
,
00000000
00000000
00000000
00000000
,
00000000
00000000
00000000
00000000
,
00000000
00000000
00000000
00000000
,
00000000
00000000
00000000
00000000
,
00000000
00000000
00000000
00000000
,
00000000
00000000
00000000
00000000
,
00000000
00000000
00000000
00000000
,
00000000
00000000
00000000
00000000
,
00000000
00000000
00000000
00000000
,
00010000
00001000
00010000
00100000
,
10000000
01000000
00100000
00001000
,
00010000
00000100
00000010
00000001
,
00000100
00001000
00010000
00100000
,
10000000
11000000
00100000
00110000
,
00001000
00011000
00010000
00010100
,
00001000
00000000
00001000
00000010
00000000
00000010
00010000
00000000
00010000
00001000
00000000
00001000
,
00100000
01000000
11000000
00110000
,
20020000
00000000
00000000
30030000
,
00001000
00001000
00001000
00001000
,
00010000
00001000
00010000
00001000
00000000
00000000
00000010
00000000
,
00000100
00000010
00000001
00000100
,
00001000
00000000
00000000
00000000
00000000
00000000
00000000
00000000
00000000
00000000
00000000
00000000
00000000
00000000
00000000
00000000
00020000
00000000
00000000
00000000
00000000
00000000
00000000
00000000
00000000
00000000
00000000
00000000
00000000
00000000
00000000
00000000
00030000
00000000
00000000
00000000
00000000
00000000
00000000
00000000
00000000
00000000
00000000
00000000
00000000
00000000
00000000
00000000
00022000
00033000
00000000
00000000
00000000
00000000
00000000
00000000
00000000
00000000
00000000
00000000
00000000
00000000
00000000
00000000
,
00010000
00001000
00000010
00000001
,
00001000
00000100
00000010
00000001
,
00000200
00002300
00020000
00000000
,
00033000
00001000
00010000
00100000
,
01000000
00100000
00010000
00001000
,
00010000
01000000
10000000
00010000
,
01000000
00100000
10000000
01000000
,
00100000
00001000
00011000
00000000
,
00010000
00001000
00000100
00000001
,
00000100
00001000
00010000
00001000
,
00000010
00000001
00000010
00000100
,
00001000
00000000
00000001
00000000
00001000
00000000
00000000
00000000
00000000
00000101
00000000
00000000
,
00000001
00001000
00000100
00010000
,
00001000
00000000
01000000
00000000
00001000
00000000
00000000
00000000
00000000
01010000
00000000
00000000
,
01000000
00010000
10000000
01000000
,
00100000
00001000
00010000
00001000
,
01000000
00001000
00010000
00000100
,
00000010
00000001
00000100
00001000
,
00010000
00001000
00010000
00001000
00010000
00000000
00000000
00000000
,
00001000
00010000
01000000
00100000
,
01000000
10000000
00010000
01000000
,
00100000
00010000
00001000
00000100
,
00000001
00001000
00000100
00000010
,
00000001
00001001
00000000
00000001
,
00000010
00000100
00000010
00001000
,
00010000
01000000
00100000
00010000
,
10000000
00100000
00010000
00001000
,
00000100
00000000
00000000
00000001
00000000
00000000
00000010
00000000
00000000
00000100
00000000
00001000
,
00000000
00000100
00000000
00010000
00000000
00000000
00000000
00000000
00000000
00001000
00000000
00000000
,
00010000
00000000
00000000
00100000
00000000
00000000
01000000
00000000
00000000
00010000
00000000
10000000
,
00000000
01000000
00000000
10000000
00000000
00000000
00000000
00000000
00000000
00010000
00000000
00000000
,
10000000
01000000
00010000
00001000
,
00000100
00000001
00001000
00000001
,
00000000
00000001
00000000
00000010
00000000
00000000
00000000
00000010
00000000
00000100
00000000
00000000
,
00010000
00000000
00001000
00010000
00001000
00010000
00002000
00000000
,
00000000
00000000
00000000
00000000
00000000
00000000
00013000
00000000
00010000
00001000
00000000
00001000
,
00000010
00000000
00000010
00000001
00000000
00000001
00000100
00000000
00000100
00002000
00000000
00000000
,
00000000
00000000
00000000
00000000
00000000
00000000
00013000
00000000
00010000
01000000
00000000
01000000
,
10000000
00000000
10000000
00100000
00000000
00100000
00010000
00000000
00010000
00001000
00000000
00001000
,
00010000
00000000
00010000
00000010
00000000
00000010
00001000
00000000
00001000
00000001
00000000
00001000
,
00000100
00000000
00010000
00001000
01000000
00010000
10010000
00000000
10000000
01000000
00000000
01000000
,
00100000
00000000
00100000
00001000
00000000
00001000
00010000
00000000
00010000
00000010
00000000
00000010
,
00001000
00000100
00010000
00001000
00010000
00000100
00020000
00000000
00000000
00000000
00000000
00000000
,
00000000
00000000
00000000
00000000
,
00000000
00000000
00030000
00000000
,
00000000
00000000
00000000
00000000
,
00000000
00000000
00000000
00000000
00000000
00000000
10000000
00000000
10000000
01000000
00000000
00000000
,
00100000
00000000
00100000
00001000
00000000
00000000
00001000
00000000
00001000
00010000
00000000
00000000
,
00000010
00000000
00000010
00000100
00000000
00000000
00000001
00000000
00000001
00000100
00000000
00000100
,
00000010
00000000
00000010
00010000
00000000
00010000
00001000
00000000
00001000
00100000
00000000
00100000
,
00010000
00000000
00010000
10000000
00000000
10000000
01000000
00100000
01000000
00100000
00000000
00001000
,
00010000
00000000
00000000
00000000
00000000
00000000
00000000
00000000
00000000
00000000
00000000
00000000
00000000
00000000
00000000
00000000
00001000
00000000
00000000
00000000
00000000
00000000
00000000
00000000
00000000
00000000
00000000
00000000
00000000
00000000
00000000
00000000
00010000
00000000
00000000
00000000
00000000
00000000
00000000
00000000
00000000
00000000
00000000
00000000
00000000
00000000
00000000
00000000
00000100
00000000
00000000
00000000
00000000
00000000
00000000
00000000
00000000
00000000
00000000
00000000
00000000
00000000
00000000
00000000
00000000
00000000
00000000
00000000
00000000
00000000
00000000
00000000
00000000
00000000
00000000
00000000
00000000
00000000
00000000
00000000
00010000
00000000
00000000
00000000
00000000
00000000
00000000
00000000
00000000
00000000
00000000
00000000
00000000
00000000
00000000
00000000
00002000
00000000
00000000
00003000
00000000
00000000
00000000
00000000
00000000
00000000
00000000
00000000
00000000
00000000
00000000
00000000
00000000
00000000
00000000
00000000
00000000
00000000
00000000
00000000
00000000
00000000
00000000
00000000
00000000
00000000
00000000
00000000
00000000
00000000
00000000
00000000
00000000
00000000
00000000
00000000
00000000
00000000
00000000
00000000
00000000
00000000
00000000
00000000
00010000
00000000
00000000
00000000
00000000
00000000
00000000
00000000
00000000
00000000
00000000
00000000
00000000
00000000
00000000
00000000
00000000
00000000
00000000
00000000
00000000
00000000
00000000
00000000
00000000
00000000
00000000
00000000
00000000
00000000
00000000
00000000
00000000
00000000
00000000
00000000
00000000
00000000
00000000
00000000
00000000
00000000
00000000
00000000
00000000
00000000
00000000
00000000
,
00000000
00010000
00000000
00001000
00000000
00000000
00000000
00001000
00000000
00010000
00000000
00000000
,
00000000
00010000
00000000
00000010
00000000
00000000
00000000
00000010
00000000
00001000
00000000
00000000
,
00000000
00001000
00000000
00000001
00000000
00000000
00000000
00000001
00000000
00000100
00000000
00000000
,
00001000
00000000
00010000
00000000
00001000
00010000
00001000
00000000
,
00011000
00000000
00000000
00000000
00000000
00000000
00001000
00000000
00000000
00000000
00001000
00000000
,
01000000
00000000
00000000
00000000
01000000
00000000
00010000
00000000
00000000
00000000
00010000
00000000
,
10000000
00000000
00000000
00000000
10000000
00000000
01000000
00000000
00100000
00000000
01000000
00000000
,
00100000
00000000
00000000
00000000
00001000
00000000
00010000
00000000
00001000
00000000
00010000
00000000
,
00000000
00011000
00010000
00000010
,
00010000
00000000
00000000
00001000
00000000
00000000
00100000
00000000
00010000
00000000
00100000
00000000
,
00000000
10010000
10000000
01000000
,
00100000
00000000
00000000
00001000
00000000
00000000
00010000
00000000
00000000
00000000
00010000
00000000
,
00001000
00000000
00000000
00000000
00001000
00000000
00000100
00000000
00000000
00000000
00000100
00000000
,
00000001
00000000
00000000
00000000
00000001
00000000
00001000
00000000
00000000
00000100
00000000
00000000
,
00000010
00000000
00001000
00000000
00010000
00001000
00010000
00001000
,
00010000
00000000
00000000
00000000
00000000
00000000
00001000
00000000
00000000
00000000
00001000
00000000
,
00100000
00000000
00000000
00000000
00100000
00000000
01000000
00000000
00000000
00000000
01000000
00000000
,
10000000
00000000
00000000
00000000
10000000
00000000
00010000
00000000
00000000
00000000
00010000
00000000
,
01000000
00000000
00000000
00000000
01000000
00000000
00001000
00000000
00000000
00010000
00000000
00000000
,
00000100
00001000
00000100
00001000
00000100
00000000
00001001
00000000
,
00000000
00000000
00000000
00000001
00000000
00000000
00000000
00000001
00000000
00000010
00000000
00000000
,
00000000
00000010
00000000
00000100
00000000
00000000
00000000
00000100
00000000
00010000
00000000
00000000
,
00000000
00010000
00000000
00001000
00000000
00010000
00000000
00001000
00000000
00010000
00000000
00000000
,
00000000
00000000
00000000
00011000
00000000
00000000
00000000
00001000
00000000
01000000
00000000
00000000
,
00000000
01000000
00000000
00001000
00000000
00000000
00000000
00001000
00000000
00010000
00000000
00000000
,
00000000
00000000
00000000
00011000
00000000
00000000
00000000
00010000
00000000
00000100
00000000
00000000
,
00000000
00000100
00000000
00001000
00000000
00000000
00000000
00001000
00000000
00000001
00000000
00000000
,
00000000
00000000
00001000
00000100
00001000
00000000
00000100
00000000
,
00010000
00000000
00001000
00100000
00001000
00000000
00100000
00000000
,
00010000
00000000
10000000
01000000
10000000
00000000
00010000
00100000
,
00010000
00000000
00100000
00001000
00100000
00000000
00001000
00010000
,
00001000
00000000
00000000
00000000
,
00000000
00000000
00000000
00000000
,
00000000
00000000
00000000
00000000
,
00022000
00000000
00000000
00000000
,
00033000
00000000
00000000
00000000
;

//--------------- dance-double - Fred-104 ----------------
#NOTEDATA:;
#STEPSTYPE:dance-double;
#DESCRIPTION:Fred-104;
#DIFFICULTY:Hard;
#METER:17;
#CREDIT:Fred-104;
#NOTES:
00000000
00000000
00000000
00000000
,
00000000
00000000
00000000
00000000
,
00000000
00000000
00000000
00000000
,
00000000
00000000
00000000
00000000
,
00000000
00000000
00000000
00000000
,
00000000
00000000
00000000
00000000
,
00000000
00000000
00000000
00000000
,
00000000
00000000
00000000
00000000
,
00000000
00000000
00000000
00000000
,
00000000
00000000
00000000
00000000
,
00010000
00001000
00010000
00001000
,
00000010
00000100
00000010
00000001
,
00000100
00001000
00010000
00100000
,
10000000
01000000
00100000
00010000
,
10010000
00000000
10000000
00100000
00000000
00100000
01000000
00000000
01000000
00001000
00000000
00001000
,
00010000
00000000
00010000
00000010
00000000
00000010
00000100
00000000
00000100
00000001
00000000
00000001
,
00000010
00000100
00001000
00000010
00000100
00001000
00010000
00001000
00100000
00010000
00100000
01000000
,
10000000
01000000
00010000
00001000
00010000
01000000
10000000
00100000
00010000
00001000
00010000
00100000
,
20000000
00000000
00000000
30000000
,
11000000
01100000
00110000
00101000
,
00001000
00000000
00000000
00000000
00000000
00000000
00000000
00000000
00010000
00000000
00000000
00000000
00000000
00000000
00000000
00000000
00001000
00000000
00000000
00000000
00000000
00000000
00000000
00000000
00020000
00000000
00000000
00000000
00000000
00000000
00000000
00000000
00000000
00030000
00000000
00000000
00000000
00000000
00000000
00000000
00000000
00000000
00000000
00000000
00000000
00000000
00000000
00000000
00000110
00000000
00000000
00000000
00000000
00000000
00000000
00000000
00000000
00000000
00000000
00000000
00000000
00000000
00000000
00000000
,
00001000
00000100
00000010
00000000
00000001
00000100
00000010
00001000
,
00000100
00000000
00000000
00000000
00000000
00000000
00000000
00000000
00010000
00000000
00000000
00000000
00000000
00000000
00000000
00000000
00002000
00000000
00000000
00000000
00000000
00000000
00000000
00000000
00000000
00000000
00000000
00000000
00000000
00000000
00000000
00000000
00000000
00000000
00000000
00000000
00000000
00000000
00000000
00000000
00003000
00000000
00000000
00000000
00000000
00000000
00000000
00000000
00022000
00033000
00000000
00000000
00000000
00000000
00000000
00000000
00000000
00000000
00000000
00000000
00000000
00000000
00000000
00000000
,
00001000
00000000
00010000
00000000
00100000
00000000
10000000
00000000
00010000
00000000
00100000
00000000
,
01000000
10000000
00010000
01000000
00001000
00010000
00000100
00010000
,
00002000
00000000
00000000
00000000
00023000
00000000
00000000
00000000
00031000
00010000
00000010
00010000
00001000
00010000
00000010
00010000
,
00002000
00003000
00000000
00000000
00000000
00000000
00000000
00000000
00000000
00000000
00000000
00000000
00000000
00000000
00000000
00000000
00010000
00000000
00000000
00000000
00000000
00000000
00000000
00000000
00000000
00000000
00000000
00000000
00000000
00000000
00000000
00000000
00001000
00000000
00000000
00000000
00000000
00000000
00000000
00000000
00000000
00000000
00000000
00000000
00000000
00000000
00000000
00000000
00000100
00000000
00000000
00000000
00000000
00000000
00000000
00000000
00000000
00000000
00000000
00000000
00000000
00000000
00000000
00000000
,
00000001
00001000
00000100
00000010
,
00000001
00001000
00000010
00000000
00000100
00000000
00001000
00000000
,
00010000
00000000
01000000
00100000
01000000
00100000
00010000
01000000
,
00100000
10000000
00020000
00000000
00130000
00000000
01000000
00000000
,
00010000
00001000
00010000
00100000
,
00010000
00001000
00000100
00000010
,
00001000
00000000
00000000
00000000
00000001
00000000
00000000
00000000
00000010
00000000
00000000
00000000
00000100
00000000
00000000
00000000
00000000
00000000
00010000
00000000
00000000
00001000
00000000
00000000
,
00010000
00000000
00001000
00000000
00011000
00000000
00000000
00000000
00000000
01001000
00000000
00000000
,
00001000
01000000
00010000
10000000
,
00010000
00000000
00100000
00000000
00110000
00000000
00000000
00000000
00000000
00011000
00000000
00000000
,
00010000
00000010
00001000
00000010
,
00000100
00000001
00001000
00000100
,
00000010
00000000
00000001
00000000
00000100
00000000
00001000
00000000
00010000
00000000
00001000
00000000
,
00010000
00000000
00001000
01000000
00010000
00000000
10000000
00010000
,
00100000
01000000
10000000
01000000
10000000
01000000
00100000
00000000
,
00001000
00000010
00001000
00010000
,
00001000
00000010
00000001
00001000
,
00000010
00000100
00001000
00010000
,
00100000
01000000
00100000
01000000
00010000
10000000
01000000
00100000
,
00002000
00000000
00013000
00001000
00010000
00000000
00000010
00001000
,
00000010
00000000
00000100
00000001
00001000
00000000
00000001
00000010
,
00000001
00000000
00000000
00000010
00000000
00000000
00000100
00000000
00000000
00001000
00000000
00000000
00000100
00000000
00000000
00000000
00000000
00000000
00010000
00000000
00000000
00000000
00001000
00000000
,
00000000
00010000
00000000
00100000
00000000
10000000
00000000
00010000
00000000
00100000
00000000
01000000
,
00000000
10000000
00000000
00010000
00000000
10000000
00000000
00100000
00000000
01000000
00000000
00001000
,
00000000
00010000
00000000
00011000
00000000
00000000
00000000
00000000
00000000
00000010
00000000
00001000
,
00000000
00000100
00000000
00000010
00000000
00000001
00000000
00001000
00000000
00000010
00000000
00000100
,
00000000
00000000
00000001
00000000
00000000
00000000
00001001
00000000
00000000
00000000
00000000
00000000
00000000
00000000
00000000
00000000
00000000
00000000
00000001
00000000
00000000
00000100
00000000
00000000
,
00001000
00000000
00010000
00100000
01000000
00000000
00010000
10000000
,
01000000
00000000
00000000
00000000
00000000
00000000
00010000
00000000
00000000
00001000
00000000
00000000
00000010
00000000
00000000
00000000
00000000
00000000
00000100
00000000
00000000
00000000
00001000
00000000
,
00000000
00000000
00000001
00000000
00000000
00000000
00000010
00000000
00000000
00000000
00000100
00000000
00000000
00000000
00010000
00000000
00000000
00000000
00001000
00000000
00000000
01000000
00000000
00000000
,
00010000
01000000
00100000
10000000
00010000
00100000
00020000
00000000
,
00000000
00000000
00000000
00000000
00000000
00000000
10030000
01000000
00010000
00001000
00010000
01000000
,
10000000
00100000
00010000
00001000
00010000
00100000
10000000
01000000
10000000
02000000
00000000
00000000
,
00000000
00000000
00000000
00000000
00000000
00000000
03100000
00001000
00010000
00001000
00000010
00000001
,
00000010
00001000
00010000
00001000
00000100
00000001
00001000
00000100
00000010
00000001
00000010
00000100
,
00001000
00000010
00000100
00001000
00010000
00000100
00001000
00010000
00100000
00001000
00010000
00100000
,
10000000
00010000
00100000
01000000
00100000
01100000
10000000
00010000
01000000
00100000
00010000
00001000
,
00000100
00000010
00001000
00000100
00000010
00000001
00001000
00000010
00000100
00001000
00010000
00001000
,
01000000
00010000
01000000
00010000
10000000
00100000
10000000
00100000
20000000
00000000
00000000
00000000
00000000
00000000
00000000
00000000
,
00000000
00000000
00000000
00000000
,
00000000
00000000
30000000
00000000
,
00000000
00000000
00000000
00000000
,
00000000
00000000
00000000
00000000
00000000
00000000
10010000
00000000
10000000
01000000
00000000
01000000
,
00100000
00000000
00100000
00001000
00000000
00001000
00010000
00000000
00010000
00000100
00000000
00000100
,
00000010
00000000
00000010
00000001
00000000
00000001
00000100
00000010
00001000
00000100
00000010
00001000
,
00010000
00001000
01000000
00010000
01000000
00100000
10000000
00100000
00010000
00001000
00010000
00100000
,
10000000
01000000
00010000
00001000
00010000
01000000
10000000
01000000
00100000
00001000
00010000
00000010
,
00001000
00000000
00000000
00000000
00000000
00000000
00000000
00000000
00000000
00000000
00000000
00000000
00000100
00000000
00000000
00000000
00000000
00000000
00000000
00000000
00000000
00000000
00000000
00000000
00001000
00000000
00000000
00000000
00000000
00000000
00000000
00000000
00000000
00000000
00000000
00000000
00000100
00000000
00000000
00000000
00000000
00000000
00000000
00000000
00000000
00000000
00000000
00000000
00000010
00000000
00000000
00000000
00000000
00000000
00000000
00000000
00000000
00000000
00000000
00000000
00000001
00000000
00000000
00000000
00000000
00000000
00000000
00000000
00000000
00000000
00000000
00000000
00000010
00000000
00000000
00000000
00000000
00000000
00000000
00000000
00000000
00000000
00000000
00000000
00000001
00000000
00000000
00000000
00000000
00000000
00000000
00000000
00000000
00000000
00000000
00000000
00002000
00000000
00000000
00003000
00000000
00000000
00000000
00000000
00000000
00000000
00000000
00000000
00000000
00000000
00000000
00000000
00000000
00000000
00000000
00000000
00000000
00000000
00000000
00000000
00000000
00000000
00000000
00000000
00000000
00000000
00000000
00000000
00000000
00000000
00000000
00000000
00000000
00000000
00000000
00000000
00000000
00000000
00000000
00000000
00000000
00000000
00000000
00000000
00000001
00000000
00000000
00000000
00000000
00000000
00000000
00000000
00000000
00000000
00000000
00000000
00000000
00000000
00000000
00000000
00000000
00000000
00000000
00000000
00000000
00000000
00000000
00000000
00000000
00000000
00000000
00000000
00000000
00000000
00000000
00000000
00000100
00000000
00000000
00000000
00000000
00000000
00000000
00000000
00000000
00000000
00000000
00000000
00000000
00000000
00000000
00000000
,
00000000
00000010
00000000
00000100
00000000
00000000
00000000
00001000
00000000
00010000
00000000
00100000
,
00000000
01000000
00000000
00010000
00000000
00000000
10000000
00010000
10000000
00010000
00000000
10000000
,
00000000
00000000
01000000
00000000
00000000
00000000
00100000
00000000
00000000
00000000
00000000
00000000
00000000
00000000
00001000
00000000
00000000
00000000
00010000
00000000
00000000
00001000
00000000
00000000
,
00100000
00001000
00010000
00000010
00001000
00000010
00002000
00000000
,
00003001
00000000
00000010
00000000
00000100
00000000
00010000
00000000
00001000
00000000
01000000
00000000
,
00001000
00000000
00000000
00000000
00010000
00000000
00000100
00000000
00000010
00000000
00000001
00000000
,
00001000
00000000
00000000
00000000
00000001
00000000
00000100
00000000
00001000
00000000
00010000
00000000
,
00100000
00000000
10000000
00000000
01000000
00000000
00100000
00000000
00001000
00000000
00011000
00000000
,
00000000
00010010
00010000
00001000
,
00000100
00000000
00000000
00000001
00000000
00000000
00000010
00000000
00000100
00000000
00001100
00000000
,
00000000
00000000
00001001
00000000
00001000
00000100
00000010
00000001
,
00000100
00000000
00000000
00000010
00000000
00000000
00001000
00000000
00000010
00000000
00000100
00000000
,
00001000
00000000
00010000
00000000
00100000
00000000
01000000
00000000
00010000
00000000
10000000
00000000
,
01000000
00000000
00000000
00000000
00100000
00000000
00000000
00000000
00010000
00000000
00000000
00000000
00100000
00000000
00000000
00000000
00000000
00000000
00001000
00000000
00000000
00010000
00000000
00000000
,
00000010
00000000
00001000
00000010
00000100
00000001
00001000
00000100
,
00000010
00000000
00000000
00000100
00000000
00000000
00001000
00000000
00000000
00000000
00000000
00000000
00000001
00000000
00000000
00000000
00000100
00000000
00000000
00000000
00000001
00000000
00000000
00000000
,
00001000
00000000
00000100
00000000
00010000
00000000
00001000
00000000
01000000
00000000
00010000
00000000
,
10000000
00000000
01000000
00000000
00100000
00000000
00001000
00000000
00010000
00000000
00000010
00000000
,
00001000
00000000
00000000
00000000
00000001
00000000
00000000
00000000
00000010
00000000
00000000
00000000
00000100
00000000
00000000
00001000
00000000
00000000
00000100
00000000
00000000
00010000
00000000
00000000
,
00001000
00000000
00000000
01000000
00000000
00000000
00001000
00000000
00000000
00010000
00000000
00000000
00002000
00000000
00000000
00000000
00000000
00000000
00013000
00000000
00000000
00000000
00100000
00000000
,
00000000
10000000
00000000
00010000
00000000
00100000
00000000
01000000
00000000
10000000
00000000
00010000
,
00000000
01000000
00000000
00100000
00000000
10000000
00000000
00010000
00000000
10000000
00000000
01000000
,
00000000
00100000
00000000
00001000
00000000
00010000
00000000
00100000
00000000
01000000
00000000
00100000
,
00000000
10000000
00000000
00100000
00000000
01000000
00000000
00010000
00000000
00100000
00000000
01000000
,
00000000
00010000
00000000
00001000
00000000
00000100
00000000
00000001
00000000
00001000
00000000
00000100
,
00000000
00000010
00000000
00000001
00000000
00001000
00000000
00000001
00000000
00000100
00000000
00001000
,
00000000
00010000
00000000
00100000
00000000
01000000
00000000
00010000
00000000
10000000
00000000
01000000
,
00000000
00000000
00100000
00000000
00000000
00000000
00010000
00000000
00000000
00100000
00000000
00000000
00010000
00000000
00000000
00100000
00000000
00000000
00001000
00000000
00000000
00010000
00000000
00000000
,
00001000
00000000
00010000
00001000
00010000
00001000
00010000
00000010
,
00001000
00000000
00000001
00000100
00000010
00001000
00000100
00010000
,
00001000
00100000
00010000
10000000
01000000
00100000
00010000
01000000
,
00001000
00000000
00000000
00000000
,
00000000
00000000
00000000
00000000
,
00000000
00000000
00000000
00000000
,
00000220
00000000
00000000
00000000
,
00000330
00000000
00000000
00000000
;
