#VERSION:0.83;
#TITLE:天泣;
#ARTIST:BEMANI Sound Team "meteorologists";
#TITLETRANSLIT:Soranaki;
#ARTISTTRANSLIT:meteorologists;
#BANNER:Soranaki.png;
#BACKGROUND:Soranaki-bg.png;
#CDTITLE:./CDTitles/GITADORA NEX+AGE.png;
#MUSIC:Soranaki.ogg;
#SAMPLESTART:19.601;
#SAMPLELENGTH:15;
#DISPLAYBPM:150;
#BPMS:0=150,137=200,143=150;
#SCROLLS:0=1,137=0.75,143=1;
#TIMESIGNATURES:0=7=4,28=4=4,40=6=4,46=3=4,49=7=4,56=4=4,64=7=4,71=4=4,79=7=4,86=4=4,98=7=4,105=4=4,137=6=4,143=4=4,147=6=4,159=3=4,192=4=4,196=7=4,203=8=4,211=7=4,218=4=4,226=3=4,235=4=4,239=7=4,246=4=4,254=7=4,268=4=4,284=7=4,291=4=4,307=7=4,314=4=4;
#BGSTAGE:14;

//--------------- dance-single - Fred-104 ----------------
#NOTEDATA:;
#STEPSTYPE:dance-single;
#DESCRIPTION:Fred-104;
#DIFFICULTY:Beginner;
#METER:4;
#CREDIT:Fred-104;
#NOTES:
0000
0000
0000
0000
,
0000
0000
0000
0000
,
0000
0000
0000
0000
,
0000
0000
0000
0000
,
0000
0000
0000
0000
,
0000
1000
0000
0001
,
0000
1000
0000
0001
,
0001
0000
0100
0000
,
2002
0000
0000
3003
,
1000
0000
0010
0000
,
1000
0000
0001
0000
,
1001
0000
0000
0000
,
0000
0001
0001
0001
,
0001
0000
0000
1000
,
1000
0000
0001
0000
,
1000
0000
0001
0000
,
0100
0100
0100
0100
,
0000
0000
0000
0001
,
0000
1000
0000
0001
,
0000
1000
0000
0001
,
0001
0001
0001
0001
,
2002
3003
1000
0000
,
0010
0000
1000
0000
,
0001
0000
0100
0100
,
0100
0100
0100
0000
,
0001
0000
1000
1000
,
1000
2000
0000
0000
,
0000
0000
0000
0000
,
3000
0002
0000
0000
,
0003
1000
0000
0000
0001
0000
0000
1000
,
0000
0001
0000
0100
,
0000
0001
0000
1000
,
1000
1000
0000
0001
,
0000
1000
0000
0000
0001
0000
0000
1000
,
0000
0001
0000
1000
,
0000
0001
0000
2002
,
0000
0000
3003
0002
,
0000
0000
1003
0010
,
1000
0200
0000
0000
,
1300
0001
0100
0001
,
0000
1000
0001
0000
,
1000
0000
0001
0000
,
1000
1000
1000
0002
,
0000
0103
0200
0000
,
0300
0020
0000
1030
,
2000
0000
3000
0200
,
0000
0000
0310
0000
0001
0000
0000
0100
,
0000
0000
0001
0000
0000
0010
0000
0000
,
0001
0001
1000
2000
,
3001
0000
0000
1000
0000
0000
0000
0000
,
0001
0000
0000
0100
,
0000
0010
0000
0000
0000
0000
0100
0000
,
0000
0010
0000
0000
1000
0000
0001
0000
,
0000
0001
0000
0000
1000
0000
0001
0000
,
0000
0001
0000
0000
0100
0000
0000
0100
,
0000
0000
0010
0000
1000
0000
0000
2002
,
0000
3003
1000
0000
,
0000
0001
0000
0000
,
1000
0000
0000
0001
,
0002
0000
0003
1000
,
1000
1000
1000
0000
,
0001
0000
0001
0000
,
0100
0000
0001
0000
,
1000
0000
0010
0010
,
0010
0010
0000
0001
,
0000
0100
0000
1000
,
0000
0001
0000
1000
,
0001
0000
0001
0000
,
0100
0000
0010
0010
,
0010
0000
1000
0000
,
0001
0000
2000
3000
,
0001
0001
0001
0001
,
0000
1000
0000
0010
,
0000
1000
0000
0002
,
0000
0003
1000
0001
,
0000
1000
0000
2002
,
0000
0000
0000
0000
,
0000
0000
0000
0000
,
3003
2002
3003
0000
;

//--------------- dance-single - Fred-104 ----------------
#NOTEDATA:;
#STEPSTYPE:dance-single;
#DESCRIPTION:Fred-104;
#DIFFICULTY:Easy;
#METER:9;
#CREDIT:Fred-104;
#NOTES:
0000
0000
0000
0000
,
0000
0000
0000
0000
,
0000
0000
0000
0000
,
0000
0000
0000
0000
,
0000
0000
0000
0000
,
0000
1000
0000
0010
,
0000
0100
0001
1000
,
0100
0000
0010
0000
,
2002
0000
0000
3003
,
1000
1000
0010
0010
,
0100
0100
0001
0001
,
1000
0000
0001
0000
1000
0000
0000
1001
0000
0000
0001
0000
0100
0000
0000
0000
,
0010
1001
1001
1001
,
1001
0000
0000
1001
0000
0000
0000
0000
1000
0000
0001
0000
1000
0000
0000
0000
,
0100
1000
0100
0010
,
0100
1000
0001
0100
,
0110
0000
0000
0000
0110
0000
0000
0000
0110
0000
0000
0000
0110
0000
0000
0110
,
0000
0000
1000
0001
1000
0000
0001
0000
,
0010
0000
0001
0100
0001
0000
1000
0000
,
0001
0000
1000
0010
1000
0000
0001
0000
,
0100
0001
0010
0001
,
2002
0000
0000
3003
0001
0000
0100
0000
,
0001
0000
0000
0001
0000
0000
0001
0000
0010
0000
0000
0000
0100
0000
0000
0000
,
1000
0001
2000
0000
3001
0000
0100
0000
,
1000
0010
1000
0100
,
0001
0000
1000
0000
0001
0000
0100
0010
,
0100
0000
1001
0000
0001
0000
0100
0010
,
1000
0000
0010
1000
0100
0000
0010
0001
,
2000
3001
0100
0010
,
1000
0000
1000
0000
0000
1010
0000
0000
0001
0000
0000
0101
0000
0000
1000
0000
,
0000
0001
0000
0000
1000
0000
0010
0000
0100
0000
0000
0000
0010
0000
0000
0000
,
1000
0001
0010
0001
,
1000
0200
1300
0010
,
0100
0000
0001
0000
0000
0011
0000
0000
1000
0000
0000
1100
0000
0000
0001
0000
,
0000
1000
0000
0000
0001
0000
0000
0000
0100
0000
0000
0000
0010
0000
0000
0000
,
1000
0000
0000
0000
0100
0000
0000
0000
0010
0000
0000
0000
0001
0000
0000
1000
,
0000
0001
0000
2002
0000
0000
0000
0000
3003
0000
0000
0000
2000
0000
0000
0000
,
0000
0000
0000
0000
3001
0000
0100
0010
,
0100
0002
0000
0000
,
0013
0000
0100
1000
0100
0000
2000
0000
,
0000
3001
1000
0100
,
0010
0100
0001
0100
,
1000
0010
0200
0301
,
0010
0100
2000
0000
,
3010
1000
0001
0100
,
0020
0000
0130
0001
,
1000
0000
0100
0000
1000
0000
0010
0100
,
0001
2000
0000
3001
,
0100
0100
0010
0010
,
1001
0000
0000
0000
0000
0000
1001
0000
0000
0000
0001
0000
0000
1000
0000
0000
,
0001
0000
0000
1000
0000
0000
0001
0000
1000
0000
0000
0000
0110
0000
0000
0000
,
0000
0000
0110
0000
0000
0000
0100
0000
0000
0010
0000
0000
0100
0000
0000
0010
,
0000
0100
0010
0000
0100
0000
0001
0000
,
0010
0000
0100
1000
0100
0000
1000
0000
,
0010
0000
0100
0001
0100
0000
0001
0000
,
1000
0001
1000
0000
0100
0000
1000
0002
,
0000
1003
0001
0010
,
1000
0001
0100
1000
,
0001
0100
0010
1000
,
2002
0000
3003
1001
,
1001
0000
0000
0000
1001
0000
0000
0000
1001
0000
0000
1001
0000
0000
0000
0000
,
0001
1000
0001
0000
0100
0000
0001
0000
,
0100
0010
1000
0100
,
1000
0010
0100
0000
0110
0000
0110
0000
,
0110
0000
0000
0000
0110
0000
0000
0110
0000
0000
0000
0000
0100
0000
0010
0000
,
0100
0001
1000
0010
,
1000
0000
0001
0010
0100
0000
1000
0000
,
0001
0100
0001
0000
0100
0000
0010
0000
,
1000
0010
1000
0000
0001
0100
0001
0000
,
1000
0100
1000
0100
,
0001
0000
0010
0000
0001
0010
1000
0000
,
1001
0000
0000
0000
1001
0000
0000
0000
1001
0000
0000
0000
1001
0000
0000
1001
,
0000
0000
0001
1000
0001
0000
0100
0000
,
0010
1000
0100
2000
,
0000
3001
0100
0001
,
0000
1000
0000
2002
,
0000
0000
0000
0000
,
0000
0000
0000
0000
,
3003
2002
3003
0000
;

//--------------- dance-single - Fred-104 ----------------
#NOTEDATA:;
#STEPSTYPE:dance-single;
#DESCRIPTION:Fred-104;
#DIFFICULTY:Medium;
#METER:13;
#CREDIT:Fred-104;
#NOTES:
0000
0000
0000
0000
,
0000
0000
0000
0000
,
0000
0000
0000
0000
,
0000
0000
0000
0000
,
0000
0000
0000
0000
,
0000
0000
0001
0100
0001
0010
0001
1000
,
0010
0100
0001
1000
0100
0010
0001
0000
,
0100
0010
0100
0001
0100
0010
1000
0001
,
0020
0001
1030
1001
,
0001
0100
0001
0010
0001
0100
0010
0100
,
0001
0010
0100
1000
0010
0100
0001
1000
,
0100
0000
0010
0000
0001
0000
0000
1001
0000
0000
1000
0000
0100
0000
0001
0000
,
0100
1100
1100
0101
,
0101
0000
0000
1100
0000
0000
0001
0000
1000
0000
0001
0000
0020
0000
0230
0000
,
0310
0001
1000
0001
0100
0010
1000
0000
,
0001
0010
0100
1000
0010
0100
0001
0000
,
0011
0000
0000
0000
0011
0000
0000
0000
1010
0000
0000
0000
1010
0000
0000
0011
,
0000
0000
0001
0000
1000
0000
0001
0000
0000
0100
0000
0000
0020
0000
0000
2030
0000
0000
3100
0000
0000
0010
0000
0000
,
0001
0000
1000
0000
0010
0000
0100
0000
0010
0000
0000
0000
1000
0000
0010
0100
,
0000
0010
1000
0000
0001
0010
0000
0100
0010
0000
0001
0000
1000
0000
0100
0000
,
0001
0000
0000
0000
1000
0000
0010
0000
0001
0000
0000
1000
0000
0000
0100
0000
,
0220
0000
0000
0000
0000
0000
0330
0000
0001
0000
0100
0000
0001
0010
0000
0010
,
0100
0000
0100
1000
0000
1000
0010
0000
0100
0000
0001
0000
0010
0000
0100
0000
,
0010
0000
0000
0001
0000
0000
2000
0000
0000
0000
0000
0000
3001
0000
0000
0000
0001
0000
0010
0000
0000
0000
0010
0000
,
0100
0000
0100
1000
0000
1000
0001
0000
0100
0010
0000
1000
,
0001
0010
0100
0010
1000
0010
0001
1000
,
0001
1000
0001
1000
0001
0000
0000
0010
0001
0000
0100
0000
0010
1000
0000
0010
,
0100
0000
0001
0000
1000
0000
0000
0010
0100
0000
0010
0000
1000
0100
0000
0010
,
0001
0000
1000
0000
0010
0000
0000
0100
0010
0000
1000
0000
0001
0010
0000
0100
,
0010
0000
0000
0000
0011
0000
0000
0000
0000
0000
1001
0000
0000
0000
0000
0000
1100
0000
0000
0000
0000
0000
1001
0000
0000
0000
0000
0000
0001
0000
0000
0100
,
0000
0010
0000
0000
1000
0000
0010
0000
1000
0000
0100
0010
0100
0000
0000
0010
,
0000
0000
0001
0000
1000
0000
0010
0000
0100
0000
0001
0010
0001
0000
1000
0000
,
0010
0100
0120
0000
1030
0100
0010
0001
,
1000
0000
0000
0000
1010
0000
0000
0000
0000
0000
1001
0000
0000
0000
0000
0000
0101
0000
0000
0000
0000
0000
1001
0000
0000
0000
0000
0000
1000
0000
0000
0100
,
0000
0010
0000
0000
0001
0000
0100
0000
0001
0000
0000
0000
1000
0000
0010
0000
,
1000
0000
0000
0000
0001
0000
0100
0000
0010
0000
1000
0000
0001
0000
0000
0010
,
0000
0100
0000
2002
0000
0000
0000
0000
3003
0000
0000
0000
1000
0000
0001
0000
,
0100
0000
0001
0000
2000
0000
0000
0000
3010
1000
0010
0000
0100
0001
0100
0000
,
0001
0010
0100
0010
0001
1000
0020
0000
,
0130
0010
0100
0000
0010
1000
0010
0000
1000
0000
0100
0000
0020
0000
0000
0000
,
0031
0000
1000
0000
0001
0100
0001
0000
1000
0000
0100
0000
0001
0000
0100
0000
,
1000
0010
0100
0001
0010
1000
0010
0001
,
0100
0010
1000
0100
0020
0000
0130
1000
,
0010
1000
0001
0100
2000
0000
0000
0000
,
0000
0000
3100
0001
1000
0100
0010
0001
,
0200
0000
0000
0000
0000
0000
0310
0001
,
0010
1000
0001
0100
0010
1000
0100
0010
,
0001
0100
0020
0000
0100
0000
1030
0010
,
1000
0100
1000
0001
0010
0001
0100
0000
,
0001
0010
0000
0000
0000
0000
0100
1000
0000
0000
0001
0000
0000
0101
0000
0000
,
1000
0000
0000
1010
0000
0000
0001
0000
2002
0000
3003
0000
1000
0010
0000
0000
,
0000
0000
0100
0001
0000
0000
1000
0000
0000
1100
0000
0000
0001
0000
0000
0011
,
0000
1000
0001
0100
0020
0000
1030
0100
,
0100
1000
0010
0010
1000
0100
1000
0010
,
0010
0001
0010
0010
1000
0100
0100
0001
,
0100
0100
1000
0010
0100
0001
0010
0220
,
0000
0000
0000
0330
0000
0000
1000
0000
0000
0000
0000
0000
1001
0000
0000
0000
0001
0000
0100
0000
0000
0000
0100
0000
,
0010
0000
0010
1000
0000
1000
0100
0000
0100
0010
0000
0010
,
0001
0100
0001
0010
0100
0010
0001
0100
,
1000
0001
0010
2000
0000
3000
1010
0000
,
1010
0000
0000
0000
0101
0000
0000
0000
0101
0000
0000
1001
0000
0000
1000
0000
,
0001
0000
0100
0010
0200
0000
0302
0000
1003
0000
0010
0000
0100
0000
0010
0000
,
1000
0001
0010
0100
0001
0100
0001
0100
,
0010
0001
1000
0000
1100
0000
1100
0000
,
0011
0000
0000
0000
0011
0000
0000
0110
0000
0000
0010
0000
0100
0000
1000
0010
,
2000
3002
1003
0100
1000
0100
0010
1000
,
0010
1000
0001
0100
0001
0100
0010
0001
,
1000
0000
0010
1000
0010
0000
0100
0000
0001
0000
1000
0000
0100
0010
0100
0000
,
1000
0000
0001
0100
0001
0100
0010
0000
1000
0000
0100
0000
0001
0000
0100
0000
,
1000
0100
1000
0100
0010
1000
0010
1000
,
0001
0100
0001
0100
0010
0001
0010
0001
,
1001
0000
0000
0000
0110
0000
0000
0000
1001
0000
0000
0000
0110
0000
0000
1001
,
0000
0000
0001
0000
0010
0000
0100
0010
0200
0000
0320
0000
0031
0000
0010
0000
,
0100
0000
1000
0000
0001
0100
0001
0100
0001
0100
0001
0100
0020
0000
0000
0000
,
0000
0000
0000
0000
0000
0000
0130
0000
0001
0000
1000
0000
0010
0000
0100
0010
,
0000
1000
0000
0100
0000
0010
0100
0010
0001
0000
1000
0000
2002
0000
0000
0000
,
0000
0000
0000
0000
,
0000
0000
0000
0000
,
3003
0100
2002
0000
3003
0000
0000
0000
;

//--------------- dance-single - Fred-104 ----------------
#NOTEDATA:;
#STEPSTYPE:dance-single;
#DESCRIPTION:Fred-104;
#DIFFICULTY:Hard;
#METER:17;
#CREDIT:Fred-104;
#NOTES:
0000
0000
0000
0000
,
0000
0000
0000
0000
,
0000
0000
0000
0000
,
0000
0000
0000
0000
,
0000
0000
0000
0000
,
0000
0000
1000
0100
0010
0100
1000
0001
,
0100
0000
0001
0000
0010
0000
0100
0000
1000
0000
0010
1000
0100
0010
0001
0000
,
1000
0000
0001
0000
1000
0000
0010
0000
0001
0000
0010
0100
0001
1000
0001
0000
,
2000
0010
3001
1001
,
1000
0010
1000
0010
0100
0010
1000
0000
0001
0010
0100
1000
0100
0010
0001
0000
,
0100
0010
1000
0000
0100
0000
1000
0010
0100
0001
0100
0010
1000
0001
0010
0100
,
1000
0000
0000
0001
0000
0000
0010
0000
0000
0100
0000
0000
1000
0000
0000
0000
0000
0000
0000
0000
0000
1001
0000
0000
0000
0000
0000
0000
0000
0000
0001
0000
0100
0000
0001
0000
0100
0000
0000
0000
0000
0000
0010
0000
1000
0000
0010
0000
,
1000
0001
1001
0000
0110
0000
1001
0000
,
0110
0000
0000
1010
0000
0000
0001
1000
0001
0000
1000
0010
0200
0000
0320
0000
,
1030
0010
1000
0010
0100
0001
1000
0001
0000
0010
0001
0010
0000
0001
1000
0001
,
0100
0001
0100
0001
0010
0001
0100
0000
0010
1000
0100
1000
0001
0000
1000
0000
,
1100
0000
0000
0000
0101
0000
0000
0000
1100
0000
0000
0000
0101
0000
0000
1100
,
0000
0000
0000
0000
0001
0000
0000
0000
1000
0000
0000
0000
1002
0000
0000
0000
0000
0000
0013
0000
0000
0100
0000
0000
0020
0000
0000
0000
0000
0000
0032
0000
0000
0000
0000
0000
1003
0000
0000
0010
0000
0000
1000
0000
0000
0100
0000
0000
,
0000
0010
0000
0001
0000
0100
0010
0100
0001
1000
0001
0010
0100
0000
1000
0010
,
0000
0010
0100
0000
0001
0010
0000
0010
0100
0010
0001
0100
0010
0000
1000
0100
,
0010
0000
0100
0010
0001
0000
0010
0100
1000
0000
0001
0010
0100
1000
0010
0100
,
0002
0000
0000
0000
0000
0000
0003
0000
1001
0000
0001
0000
0100
0010
0000
1000
,
0010
0000
0100
0010
0000
1000
0010
0100
0001
0010
0001
0100
0010
1000
0100
0010
,
0100
0000
0000
1000
0000
0000
0001
0000
0000
1000
0000
0000
0002
0000
0000
0000
0000
0000
0000
0000
0000
0000
0000
0000
1003
0000
0000
0000
0100
0000
0000
0000
0010
0000
0000
0000
0001
0000
0000
0000
0010
0000
0000
0000
0100
0000
0000
0000
,
1000
0010
0100
0001
0100
0010
1000
0100
0001
1000
0010
0001
,
1000
0010
1000
0001
1000
0100
0010
0001
0010
0001
1000
0010
1000
0100
1000
0001
,
0100
0010
0100
0010
0200
0000
0000
0000
0000
0000
0000
0000
0000
0000
0000
0000
,
0000
0000
0000
0000
,
0320
2030
0000
0000
,
3000
0000
0000
0000
1010
0000
0000
0000
0000
0000
0011
0000
0000
0000
0000
0000
1100
0000
0000
0000
0000
0000
0101
0000
0000
0000
0000
0000
1000
0000
0000
0100
,
0000
0000
0010
0000
0000
0001
0000
0000
1000
0000
0000
0000
0001
0000
0100
0000
0001
0000
1000
0000
0100
0000
1000
0000
0002
0000
0000
0000
0000
0000
2003
0000
,
0000
0000
3010
1000
0010
0100
0010
1000
0001
0010
0001
0100
0000
0001
0010
0001
,
1000
0010
0100
0000
0102
0000
0000
0000
1003
0001
0100
0001
1000
0001
0010
0100
,
1000
0000
0000
0000
1100
0000
0000
0000
0000
0000
0101
0000
0000
0000
0000
0000
1010
0000
0000
0000
0000
0000
0011
0000
0000
0000
0000
0000
1000
0000
0000
0010
,
0000
0000
0100
0000
0000
0001
0000
0000
1000
0000
0000
0000
0100
0000
0000
0000
0001
0000
0000
0000
0100
0000
0000
0000
1000
0000
0000
0000
0010
0000
0000
0000
,
0001
0000
0000
0000
0000
0000
0010
0000
0000
0000
0000
0000
1000
0000
0000
0000
0100
0000
0000
0000
0010
0000
0000
0000
0001
0000
0000
0000
0010
0000
0000
0000
0100
0000
0000
0000
1000
0000
0000
0000
0000
0000
0001
0000
0000
0100
0000
0000
,
0000
0010
0000
2020
0000
0000
0000
0000
3030
0000
0000
0000
1001
0000
0001
0100
,
0001
0000
0010
0100
0010
0000
0001
0000
0010
0001
1000
0100
1000
0001
1000
0000
,
0010
0000
0100
0000
1002
0000
1003
0100
1000
0000
0001
0100
0001
0000
0010
0000
,
0100
1000
0100
0010
0001
1000
0010
0000
1000
0000
0100
0000
0120
0000
0031
0000
,
1000
0000
0010
0000
0100
0001
0100
0001
2000
0000
3020
0000
0032
0000
2003
0000
,
3200
0000
0302
0000
1003
0001
1000
0001
0010
0100
0010
0100
1000
0010
0100
0001
,
1000
0000
0100
0000
0110
0000
0001
0000
2002
0000
0000
3003
1100
0000
1000
0010
,
0100
0001
0100
0000
0001
1000
0001
1000
0002
0000
0000
0000
0000
0000
0000
0000
,
0000
0000
0003
0000
0101
0000
0001
1000
0010
1000
0001
0000
0100
0010
0100
0010
,
0200
0000
0000
0000
0000
0000
0000
0000
0000
0000
0300
0000
1010
0000
0001
1000
,
0100
0001
0100
0000
0010
0100
1000
0001
2000
0000
3020
0000
0032
0000
2003
0000
,
3200
0000
0302
0000
1003
0000
0010
0100
0000
0100
0001
0010
0001
1000
0001
1000
,
0001
0010
0100
0000
1000
0100
0010
0000
0001
1000
0010
1000
0001
0000
0000
0000
,
1000
0100
0000
0000
0000
0000
0001
0100
0000
0000
1010
0000
0000
0011
0000
0000
,
1000
0100
0000
1100
0000
0000
0101
0000
2002
0000
3003
0000
0001
0010
0000
0000
,
0000
0000
1000
0010
0000
0000
0101
0000
0000
1100
0000
0000
0001
0100
0000
0110
,
0000
0000
1000
0001
0100
0001
1000
0010
2000
0000
0000
0000
3001
0100
0001
0100
,
0001
0000
1000
0100
1000
0100
1000
0000
0001
0100
0010
1000
0001
0010
0001
0010
,
0001
0000
1000
0010
1000
0010
1000
0000
0001
0100
0010
1000
0001
0000
1000
0100
,
0010
0001
1000
0000
0001
0100
0010
1000
0010
0100
0001
0010
0100
0000
2200
0000
,
0000
0000
0000
3300
0000
0000
0001
0000
1000
0000
0001
0000
1000
0000
0100
0000
0010
0000
1000
0000
0010
0000
0100
0000
,
1000
0001
0100
0010
0001
0010
0100
0001
1000
0100
0010
0001
,
0100
0001
0100
0010
1000
0010
0100
0001
0010
0100
1000
0100
0010
0001
0100
0010
,
1000
0001
0100
0001
1000
0000
0001
0000
1001
0000
0000
0000
1010
0000
0000
0000
,
0101
0000
0000
0000
1100
0000
0000
0000
0011
0000
0000
1001
0000
0000
1000
0010
,
0100
0000
0001
0010
0200
0000
2300
0000
3010
1000
0010
1000
0010
0100
0010
0100
,
0000
0001
1000
0010
0000
1000
0001
0100
0001
0010
0100
1000
0010
0100
0001
0000
,
1000
0010
0100
0001
0010
0100
0010
0000
0011
0000
0000
0000
1010
0000
0000
0000
,
0101
0000
0000
0000
1100
0000
0000
1001
0000
0000
0100
0000
0110
0000
1000
0001
,
0020
0000
0032
0000
1003
0010
1000
0100
0000
0010
0000
0001
0000
0100
0001
0100
,
0010
0100
0001
0000
1000
0010
1000
0100
1000
0010
0100
0001
1000
0100
0010
0000
,
0001
1000
0010
0100
0001
0000
1000
0001
0100
0001
0010
0001
0100
0000
0010
1000
,
0100
0010
0001
0010
0100
1000
0010
0100
0001
0000
0101
0000
1000
0000
1100
0000
,
0001
0010
0001
1000
0100
0010
0001
0100
0010
0100
0001
0010
0001
1000
0001
0100
,
1000
0100
0010
1000
0100
0010
0001
0100
0010
1000
0010
1000
0010
0000
0100
0000
,
0101
0000
0000
0000
1100
0000
0000
0000
0011
0000
0000
0000
1010
0000
0000
1001
,
0000
0000
0100
0010
1000
0000
0100
0010
0200
0000
2300
0000
3001
0100
0001
0100
,
0010
1000
0010
1000
0100
0010
0001
0100
0010
1000
0010
0100
0002
0000
0000
0000
,
0000
0000
0000
0000
0003
0000
1000
0010
0100
0000
0001
0000
1000
0100
0010
0001
,
0000
0100
0000
0010
0000
1000
0001
0010
0100
0010
0001
1000
0200
0000
0000
0000
,
0000
0000
0000
0000
,
0000
0000
0000
0000
,
0300
0100
2002
0000
3003
0000
0000
0000
;

//--------------- dance-single - Fred-104† ----------------
#NOTEDATA:;
#STEPSTYPE:dance-single;
#DESCRIPTION:Fred-104†;
#DIFFICULTY:Challenge;
#METER:18;
#CREDIT:Fred-104;
#NOTES:
0000
0000
0000
0000
,
0000
0000
0000
0000
,
0000
0000
0000
0000
,
0000
0000
0000
0000
,
0000
0000
0000
0000
,
0000
0000
0001
0010
0001
1000
0001
0100
,
0010
0000
1000
0000
0002
0000
0203
0000
0320
0000
0130
0001
1000
0100
0010
0001
,
1000
0000
0010
0000
0100
0000
0001
0000
0010
0001
1000
0010
0100
0001
1000
0001
,
0200
0000
0000
0000
0010
0000
0000
0000
0301
0000
1000
0001
1001
0000
0000
0000
,
1000
0010
1000
0100
1000
0010
1000
0100
1000
0001
0100
0001
1000
0001
0010
0001
,
1000
0010
0100
0010
0100
0000
0001
1000
0100
0010
0100
0010
0001
1000
0010
0100
,
0001
0000
0010
0000
0100
0000
1000
0000
0100
0000
0010
0000
0001
0000
0000
0000
0000
0000
0000
0000
0000
1001
0000
0000
0000
0000
0000
0000
0000
0000
1000
0000
0010
0000
0100
0000
0010
0000
0000
0000
0000
0000
1000
0000
0100
0000
0010
0000
,
0001
1000
0010
1000
0001
1000
0100
0000
0000
0000
0000
0000
0110
0000
0000
0000
0000
0000
0110
0000
0000
0000
0000
0000
,
0110
0000
0000
0000
0000
0000
0000
0000
0000
1001
0000
0000
0000
0000
0000
0000
0000
0000
0001
0000
0010
0000
0100
0000
1000
0000
0000
0000
0000
0000
0001
0000
0000
1000
0000
0000
0020
0000
0000
0000
0000
0000
2030
0000
0000
0000
0000
0000
,
3001
0010
0100
0001
0100
0010
0001
2000
0000
3010
0100
2000
0000
3100
0010
1000
,
0001
0000
0000
0010
0000
0000
0100
0000
0000
1000
0000
0000
0100
0000
0000
0010
0000
0000
0100
0000
0000
1000
0000
0000
0001
0000
0000
0100
0000
0000
0010
0000
0000
1000
0000
0000
0001
0000
0010
0000
0100
0000
1000
0000
0100
0000
0010
0000
,
0001
0000
0000
0000
1001
0000
0000
0000
1001
0000
0000
0000
1001
0000
0000
1001
,
0000
0000
0000
0000
0100
0000
0000
0000
0100
0000
0000
0000
0110
0000
0000
0000
0000
0000
0001
0000
0000
1000
0000
0000
0200
0000
0000
0000
0000
0000
0320
0000
0000
0000
0000
0000
0031
0000
0000
0100
0000
0000
0010
0000
0000
0002
0000
0000
,
0000
0023
0000
2030
0000
3001
1000
0010
1000
0100
1000
0001
0100
0000
0001
0010
,
0000
0100
1000
0000
0001
0100
0000
0010
1000
0001
1000
0100
1000
0001
0100
1000
,
0100
0000
0010
1000
0001
1000
0100
0010
0100
0001
0100
1000
0000
0001
0100
0010
,
0220
0000
0000
0000
0000
0000
0330
0000
1000
0100
0010
0000
0001
0100
0000
0100
,
1000
0000
0001
0010
0000
0010
1000
0001
1000
0001
0100
0001
0010
0100
0010
0001
,
1000
0000
0000
0100
0000
0000
1000
0000
0010
0000
0100
0000
0001
0000
0000
0000
0000
0000
1000
0000
0000
0000
0000
0000
0001
0000
0010
0000
0100
0000
1000
0000
0001
0000
0000
0000
1000
0000
0010
0000
0100
0000
0001
0000
1000
0000
0000
0000
,
0100
0100
0001
0010
0010
1000
0001
0001
0001
1000
1000
1000
,
0001
0100
0010
1000
0100
0010
1000
0010
0100
0001
0100
0010
0001
0100
0010
1000
,
0001
1000
0100
0010
0001
0000
1000
0001
0010
0000
0110
0000
0100
1000
0000
1000
,
0001
0010
0001
0000
1000
0010
0000
0100
0001
1000
0001
0000
0100
0010
0000
1000
,
0010
0100
0001
1000
0001
0000
0100
0001
1000
0000
1100
0000
0100
0010
0000
0010
,
0001
0000
0000
0000
0102
0000
0000
0000
0003
0000
1200
0000
0000
0000
0300
0000
2010
0000
0000
0000
3000
0000
0021
0000
0000
0000
0030
0000
1002
0000
0000
0103
,
0000
0000
2001
0000
0000
3010
0000
0000
0001
0000
1000
0000
0010
0000
0100
0000
1000
0000
0100
0000
0001
0000
1000
0000
0002
0000
0000
0000
0000
0000
2003
0000
,
0000
0000
3010
0001
0010
0100
0010
1000
0001
1000
0100
0010
0000
0001
1000
0100
,
0010
0001
0100
0010
2000
0000
0000
0000
3001
0100
0010
0001
1000
0100
0010
1000
,
0001
0000
0010
0000
0012
0000
0000
0000
0003
0000
1020
0000
0000
0000
0030
0000
2100
0000
0000
0000
3000
0000
0201
0000
0000
0000
0300
0000
1002
0000
0000
0103
,
0000
0000
2001
0000
0000
3010
0000
0000
0001
0000
0000
0000
0100
0000
0001
0000
0100
0000
0000
0000
0010
0000
1000
0000
0010
0000
0000
0000
1000
0000
0001
0000
,
0100
0010
1000
0100
1000
0001
0100
0010
1000
0001
0010
0100
1000
0000
0010
0100
,
0000
0101
0000
2002
0000
0000
0000
0000
3003
0000
0000
0000
2100
0000
3001
0100
,
0001
0000
0010
0100
1000
0010
1000
0010
1000
0100
1000
0010
0100
0001
0010
0100
,
0020
0000
0032
0003
0210
0000
0301
0000
1000
0001
0100
0010
1000
0001
1000
0001
,
1000
0001
0010
0001
0100
0010
1000
0010
0200
0000
0302
0003
2001
0000
3001
0100
,
0000
0010
0100
0000
0001
0010
0100
0010
0012
0000
0103
0000
2010
0000
3100
0000
,
1002
0000
0013
0000
0001
0100
1000
0100
0010
1000
0100
0010
0001
0100
0010
0001
,
0010
0000
1010
0000
1100
0000
0110
0000
0022
0000
0000
0033
1002
0000
1003
0100
,
0010
0001
1000
0010
0100
0001
1000
0100
0020
0000
0031
1000
0100
0001
0100
0010
,
0001
1000
0010
0001
0020
0000
0130
0010
1000
0001
0010
0100
0001
0100
1000
0010
,
0200
0000
0301
1000
0100
0001
0100
1000
0010
1000
0010
0100
0002
0000
1003
0001
,
0100
1000
0200
0000
0310
1000
0001
1000
2100
0000
3010
0000
0102
0000
0013
0000
,
2001
0000
3100
0000
0110
0000
0010
0001
0000
1000
0001
0100
0010
1000
0001
1000
,
0001
0010
1000
0001
0100
1000
0001
0010
0100
1000
0001
0000
1001
0000
0000
0000
,
0010
0010
0000
0000
0000
0000
0100
0100
0000
0000
0101
0000
0000
0110
0000
0000
,
1000
0100
0000
0110
0000
0000
0011
0000
2002
0000
3003
0000
1000
1000
0000
0000
,
0000
0000
0001
0001
0000
0000
1010
0000
0000
0101
0000
0000
1000
0100
0000
0011
,
0000
0000
1000
0001
0010
0001
0100
0010
1000
0000
0001
1000
0001
0100
0001
0100
,
1000
0000
0001
0010
0001
0010
1000
0000
0001
1000
0100
0010
0001
0010
1000
0010
,
0001
0000
1000
0100
0001
0100
1000
0000
0001
0100
0001
0100
1000
0000
0001
0010
,
0001
0010
1000
0000
0001
1000
0100
0010
0001
0100
1000
0001
0010
0000
2020
0000
,
0000
0000
0000
3030
0000
0000
0001
0000
0010
0000
0100
0000
1000
0000
1000
0000
0100
0000
0001
0000
0001
0000
0100
0000
,
1000
1000
1000
0001
0001
0010
1000
1000
0010
0001
0001
0001
,
1000
0100
0010
0001
0100
0010
0001
0010
0100
1000
0100
0010
1000
0100
0010
0001
,
0100
0000
0000
0010
0000
0000
0001
0000
0000
0010
0000
0000
1000
0000
0001
0000
1000
0000
0100
0000
0010
0000
0001
0000
0010
0000
0100
0000
1000
0000
0010
0000
0100
0000
0001
0000
1000
0000
0000
0000
0000
0000
0000
0000
0000
0000
0000
0000
,
1001
0000
0000
0000
0000
0000
0000
0000
0000
0000
0000
0000
1001
0000
0000
0000
0000
0000
0000
0000
0000
0000
0000
0000
1001
0000
0000
0000
0000
0000
0000
0000
0000
1001
0000
0000
0000
0000
0000
0000
0000
0000
0001
0000
0100
0000
0010
0000
,
1000
0000
0001
0010
0200
0000
0320
0000
0031
0100
0010
0100
0001
0010
0100
1000
,
0000
0001
0010
0100
0000
1000
0010
0100
0001
0100
1000
0100
0010
0100
0001
1000
,
0100
0010
0001
0100
0001
0000
1000
0001
0100
0000
0000
0000
0110
0000
0000
0000
,
0110
0000
0000
0000
0110
0000
0000
1001
0000
0000
0100
0000
0110
0000
0001
1000
,
0020
0000
2030
0000
3001
0010
0100
0010
0000
0001
0000
0100
0000
0010
0001
0010
,
0100
0001
1000
0001
0100
0010
1000
0001
1000
0100
1000
0100
0001
0100
0001
0100
,
0010
0001
1000
0001
1000
0000
0001
1000
0001
0100
0010
1000
0001
0000
0010
0100
,
1000
0000
0000
0010
0000
0000
0100
0000
0000
0001
0000
0000
1000
0000
0100
0000
1000
0000
0001
0000
0100
0000
0001
0000
1000
0000
0000
0000
0000
0000
1100
0000
0000
0000
0000
0000
0110
0000
0000
0000
0000
0000
0011
0000
0000
0000
0000
0000
,
1000
0000
0000
0001
0000
0000
0100
0000
0000
0010
0000
0000
1000
0000
0000
0010
0000
0000
0100
0000
0000
0010
0000
0000
1000
0000
0000
0100
0000
0000
0010
0000
0001
0000
0100
0000
0001
0000
0000
1000
0000
0000
0001
0000
0100
0000
0010
0000
,
1000
0000
0000
0010
0000
0000
0100
0000
0000
0001
0000
0000
0010
0000
0000
0100
0000
0000
0010
0000
0000
0001
0000
0000
0100
0000
0000
0000
0000
0000
0010
0000
1000
0000
0001
0000
0010
0000
0000
0000
0000
0000
0100
0000
1000
0000
0100
0000
,
0010
0000
0000
0000
0110
0000
0000
0000
0110
0000
0000
0000
0110
0000
0000
1001
,
0000
0000
0000
0000
0000
0000
0001
0000
1000
0000
0010
0000
1000
0000
0000
0000
0000
0000
0001
0000
0000
0010
0000
0000
0200
0000
0000
0000
0000
0000
2300
0000
0000
0000
0000
0000
3001
0000
0000
1000
0000
0000
0010
0000
0000
1000
0000
0000
,
0100
0010
0001
0100
0010
0001
0010
0100
0001
0010
0100
1000
0002
0000
0000
0000
,
0000
0000
0000
0000
0003
0000
0010
1000
0010
0000
0100
0000
1000
0001
1000
0010
,
0000
0001
0000
0010
0000
0100
0001
1000
0001
1000
0010
0100
0002
0000
0000
0000
,
0000
0100
0100
0000
0000
1000
1000
0000
,
0000
0010
0010
0000
1000
1000
0000
0100
,
0100
0103
2002
0000
3003
0000
0000
0000
;

//--------------- dance-double - Fred-104 ----------------
#NOTEDATA:;
#STEPSTYPE:dance-double;
#DESCRIPTION:Fred-104;
#DIFFICULTY:Easy;
#METER:10;
#CREDIT:Fred-104;
#NOTES:
00000000
00000000
00000000
00000000
,
00000000
00000000
00000000
00000000
,
00000000
00000000
00000000
00000000
,
00000000
00000000
00000000
00000000
,
00000000
00000000
00000000
00000000
,
00000000
00000001
00000000
00001000
,
00000000
00000001
00001000
00000010
,
00001000
00000000
00000100
00000000
,
00022000
00000000
00000000
00033000
,
00001000
00001000
00010000
00010000
,
01000000
01000000
10000000
10000000
,
00010000
00000000
01000000
00000000
00010000
00000000
00000000
00110000
00000000
00000000
00100000
00000000
00001000
00000000
00000000
00000000
,
00010000
00011000
00011000
00011000
,
00011000
00000000
00000000
00011000
00000000
00000000
00000000
00000000
00001000
00000000
00010000
00000000
00001000
00000000
00000000
00000000
,
00000010
00000001
00001000
00000100
,
00010000
01000000
00001000
00010000
,
00011000
00000000
00000000
00000000
00011000
00000000
00000000
00000000
00011000
00000000
00000000
00000000
00011000
00000000
00000000
00011000
,
00000000
00000000
00001000
00010000
00001000
00000000
00010000
00000000
,
01000000
00000000
10000000
00010000
10000000
00000000
00100000
00000000
,
00010000
00000000
01000000
10000000
01000000
00000000
10000000
00000000
,
01000000
00100000
00010000
00100000
,
00202000
00000000
00000000
00303000
00001000
00000000
00010000
00000000
,
00001000
00000000
00000000
00001000
00000000
00000000
00001000
00000000
00010000
00000000
00000000
00000000
00000100
00000000
00000000
00000000
,
00001000
00000001
00002000
00000000
00003001
00000000
00000100
00000000
,
00000010
00000100
00000001
00000010
,
00001000
00000000
00010000
00000000
01000000
00000000
00100000
00010000
,
00100000
00000000
10010000
00000000
10000000
00000000
00100000
01000000
,
00100000
00000000
01000000
00010000
01000000
00000000
00001000
00010000
,
00002000
00103000
00001000
00010000
,
00001000
00000000
00010000
00000000
00000000
01001000
00000000
00000000
00001000
00000000
00000000
00010100
00000000
00000000
00010000
00000000
,
00000000
00001000
00000000
00000000
00010000
00000000
00000100
00000000
00001000
00000000
00000000
00000000
00000100
00000000
00000000
00000000
,
00000001
00001000
00000100
00000010
,
00000001
00000200
00001300
00010000
,
01000000
00000000
00100000
00000000
00000000
00110000
00000000
00000000
10000000
00000000
00000000
10010000
00000000
00000000
01000000
00000000
,
00000000
00100000
00000000
00000000
10000000
00000000
00000000
00000000
01000000
00000000
00000000
00000000
00010000
00000000
00000000
00000000
,
00001000
00000000
00000000
00000000
00000010
00000000
00000000
00000000
00000001
00000000
00000000
00000000
00001000
00000000
00000000
00000001
,
00000000
00001000
00000000
00002002
00000000
00000000
00000000
00000000
00003003
00000000
00000000
00000000
00000200
00000000
00000000
00000000
,
00000000
00000000
00000000
00000000
00000310
00000000
00000100
00000001
,
00000100
00000020
00000000
00000000
,
00001030
00000000
00010000
00001000
00010000
00000000
00000200
00000000
,
00000000
00000310
00001000
00010000
,
01000000
00100000
00001000
00010000
,
00000100
00000010
00002000
00013000
,
00001000
01000000
00200000
00000000
,
00310000
00100000
10000000
00010000
,
20000000
00000000
31000000
00010000
,
00001000
00000000
00000100
00000000
00000001
00000000
00001000
00000010
,
00001000
00000002
00000000
00000103
,
00000010
00001000
00010000
00001000
,
00011000
00000000
00000000
00000000
00000000
00000000
00011000
00000000
00000000
00000000
00001000
00000000
00000000
00010000
00000000
00000000
,
00001000
00000000
00000000
00010000
00000000
00000000
00001000
00000000
00010000
00000000
00000000
00000000
00011000
00000000
00000000
00000000
,
00000000
00000000
00011000
00000000
00000000
00000000
00010000
00000000
00000000
00001000
00000000
00000000
00010000
00000000
00000000
00001000
,
00000000
00010000
00001000
00000000
00010000
00000000
00001000
00000000
,
00100000
00000000
00010000
10000000
00010000
00000000
01000000
00000000
,
00100000
00000000
10000000
00100000
01000000
00000000
00100000
00000000
,
10000000
00010000
10000000
00000000
00100000
00000000
00010000
00002000
,
00000000
00013000
00001000
00000010
,
00000001
00000100
00001000
00010000
,
00100000
10000000
01000000
00010000
,
00022000
00000000
00033000
00011000
,
00011000
00000000
00000000
00000000
00011000
00000000
00000000
00000000
00011000
00000000
00000000
00011000
00000000
00000000
00000000
00000000
,
00010000
00001000
00010000
00000000
00001000
00000000
00000010
00000000
,
00001000
00000010
00000001
00000100
,
00000001
00000100
00001000
00000000
00011000
00000000
00011000
00000000
,
00011000
00000000
00000000
00000000
00011000
00000000
00000000
00011000
00000000
00000000
00000000
00000000
00001000
00000000
00010000
00000000
,
00001000
00010000
00100000
10000000
,
00010000
00000000
01000000
00100000
01000000
00000000
00010000
00000000
,
10000000
00100000
10000000
00000000
01000000
00000000
00100000
00000000
,
00001000
00010000
00001000
00000000
00100000
00001000
00100000
00000000
,
00001000
00010000
00001000
00000100
,
00000001
00000000
00001000
00000000
00000001
00000100
00000001
00000000
,
00001001
00000000
00000000
00000000
00001001
00000000
00000000
00000000
00001001
00000000
00000000
00000000
00001001
00000000
00000000
00001001
,
00000000
00000000
00001000
00000001
00001000
00000000
00000001
00000000
,
00000010
00000100
00010000
00002000
,
00000000
00013000
00001000
00010000
,
00000000
01000000
00000000
02200000
,
00000000
00000000
00000000
00000000
,
00000000
00000000
00000000
00000000
,
03300000
20020000
30030000
00000000
;

//--------------- dance-double - Fred-104 ----------------
#NOTEDATA:;
#STEPSTYPE:dance-double;
#DESCRIPTION:Fred-104;
#DIFFICULTY:Medium;
#METER:13;
#CREDIT:Fred-104;
#NOTES:
00000000
00000000
00000000
00000000
,
00000000
00000000
00000000
00000000
,
00000000
00000000
00000000
00000000
,
00000000
00000000
00000000
00000000
,
00000000
00000000
00000000
00000000
,
00000000
00000000
00001000
00000010
00001000
00000100
00001000
00000001
,
00000100
00000010
00001000
00000100
00010000
00001000
00010000
00000000
,
00001000
00100000
00010000
10000000
01000000
00100000
00001000
00010000
,
00002000
00100000
00003010
00011000
,
00010000
00001000
00010000
00000100
00001000
00000010
00000100
00000000
,
00000001
00001000
00000001
00000010
00000100
00000010
00000001
00000100
,
00000010
00000000
00001000
00000000
00010000
00000000
00000000
00011000
00000000
00000000
00010000
00000000
01000000
00000000
10000000
00000000
,
00010000
10010000
10010000
01100000
,
01100000
00000000
00000000
10010000
00000000
00000000
00010000
00000000
10000000
00000000
01000000
00000000
00200000
00000000
02300000
00000000
,
13000000
00100000
10000000
00000000
00100000
10000000
00010000
00000000
,
00100000
00001000
00010000
00000000
00000010
00000000
00000001
00000000
,
00000101
00000000
00000000
00000000
00000101
00000000
00000000
00000000
00001100
00000000
00000000
00000000
00001100
00000000
00000000
00000101
,
00000000
00000000
00000001
00000000
00000100
00000000
00000010
00000000
00000000
00001000
00000000
00000000
00000200
00000000
00000000
00000320
00000000
00000000
00000031
00000000
00000000
00000000
00000000
00000000
,
00000010
00000000
00000001
00000000
00000100
00000000
00001000
00000000
00010000
00000000
01000000
00000000
10000000
00000000
00000000
00010000
,
00000000
00000000
00100000
00000000
00010000
10000000
00000000
10000000
01000000
00000000
00100000
00000000
00001000
00000000
00010000
00000000
,
01000000
00000000
00000000
00000000
00010000
00000000
00001000
00000000
00000100
00000000
00000000
00010000
00000000
00000000
00001000
00000000
,
00022000
00000000
00000000
00000000
00000000
00000000
00033000
00000000
00010000
00000000
00000100
00000000
00001000
00000100
00000000
00000010
,
00000001
00000000
00001000
00000001
00000000
00000010
00000001
00000000
00001000
00000000
00000010
00000000
00000100
00000000
00000010
00000000
,
00001000
00000000
00000000
00010000
00000000
00000000
00200000
00000000
00000000
00000000
00000000
00000000
01300000
00000000
00000000
00000000
01000000
00000000
00100000
00000000
00000000
00000000
00100000
00000000
,
00010000
00000000
00010000
00001000
00000000
00001000
00010000
00000000
00000100
00010000
00000000
00001000
,
00010000
00001000
00100000
00010000
10000000
00010000
01000000
00100000
,
10000000
00100000
10000000
00100000
10000000
00000000
00000000
10000000
01000000
00000000
00100000
00000000
00010000
01000000
00000000
00001000
,
00010000
00000000
00001000
00000000
00100000
00000000
00000000
00001000
00000010
00000000
00001000
00000000
00010000
00001000
00000000
00001000
,
00010000
00000000
00000100
00000000
00001000
00000000
00000000
00000100
00000010
00000000
00000001
00000000
00000100
00001000
00000000
00000100
,
00000001
00000000
00000000
00000000
00000011
00000000
00000000
00000000
00000000
00000000
00001010
00000000
00000000
00000000
00000000
00000000
00000101
00000000
00000000
00000000
00000000
00000000
00001100
00000000
00000000
00000000
00000000
00000000
00000001
00000000
00000000
00000100
,
00000000
00000010
00000000
00000000
00000010
00000000
00001000
00000000
00000010
00000000
00000100
00000001
00000100
00000000
00000000
00000001
,
00000000
00000010
00001000
00100000
00010000
00000100
00001000
01000000
,
00010000
00001000
00021000
00000000
00031000
00000100
00000010
00000100
,
00001000
00000000
00000000
00000000
00011000
00000000
00000000
00000000
00000000
00000000
00001100
00000000
00000000
00000000
00000000
00000000
00011000
00000000
00000000
00000000
00000000
00000000
01010000
00000000
00000000
00000000
00000000
00000000
01000000
00000000
00000000
10000000
,
00000000
00010000
00000000
00000000
10000000
00000000
00100000
00000000
00010000
00000000
00000000
00000000
00001000
00000000
00000010
00000000
,
00000100
00000000
00000000
00000000
00001000
00000000
00000001
00000000
00000100
00000000
00000001
00000000
00000010
00000000
00000000
00000001
,
00000000
00001000
00000000
00002020
00000000
00000000
00000000
00000000
00003030
00000000
00000000
00000000
00010000
00000000
00001000
00000000
,
00000010
00000000
00001000
00000000
00020000
00000000
00000000
00000000
00031000
00010000
00001000
00000000
00100000
00010000
00100000
00000000
,
00001000
00010000
01000000
00010000
00001000
00010000
02000000
00000000
,
03010000
00001000
00010000
00000000
00001000
00000100
00001000
00000000
00000010
00000000
00001000
00000000
00000002
00000000
00000000
00000000
,
00000013
00000000
00000100
00000000
00000010
00000001
00000010
00000000
00000001
00000000
00001000
00000000
00000001
00000000
00000100
00000000
,
00001000
00010000
00001000
00000010
00001000
00010000
01000000
00010000
,
00001000
00010000
00100000
00010000
00002000
00000000
00013000
01000000
,
00010000
00001000
00000100
00001000
00020000
00000000
00001000
00000000
,
00031000
00000000
00010000
00001000
00000010
00001000
00010000
00100000
,
00020000
00000000
00001000
00000000
00031000
00000000
00010000
00001000
,
00000100
00001000
00010000
00100000
00010000
00001000
00000010
00001000
,
00010000
01000000
00020000
00000000
00031000
00010000
00001000
00010000
,
00000010
00001000
00000001
00001000
00000100
00000010
00000001
00000000
,
00001000
00000010
00000000
00000000
00000000
00000000
00010000
00001000
00000000
00000000
01000000
00000000
00000000
01100000
00000000
00000000
,
10000000
00000000
00000000
11000000
00000000
00000000
00100000
00000000
00220000
00000000
00330000
00000000
00010000
01000000
00000000
00000000
,
00000000
00000000
00001000
00010000
00000000
00000000
00000010
00000000
00000000
00000110
00000000
00000000
00000001
00000000
00000000
00000011
,
00000000
00000100
00001000
00000001
00000200
00000000
00000301
00000010
,
00001000
00010000
01000000
10000000
00010000
00000000
10000000
00100000
,
00010000
00001000
00000100
00000001
00000010
00000001
00000100
00001000
,
00010000
00100000
10000000
00010000
10000000
01000000
00100000
00220000
,
00000000
00000000
00000000
00330000
00000000
00000000
01000000
00000000
00000000
00000000
00000000
00000000
00011000
00000000
00000000
00000000
00010000
00000000
00000100
00000000
00000000
00000000
00000100
00000000
,
00000001
00000000
00000001
00001000
00000000
00001000
00000010
00000000
00000010
00000100
00000000
00000100
,
00000001
00000010
00000100
00000010
00000001
00000100
00001000
00010000
,
01000000
10000000
00010000
20000000
00000000
30000000
11000000
00000000
,
00110000
00000000
00000000
00000000
11000000
00000000
00000000
00000000
00110000
00000000
00000000
10010000
00000000
00000000
01000000
00000000
,
00100000
10000000
02000000
03200000
00301000
00010000
01000000
00100000
,
00010000
00001000
00010000
00000000
00001000
00000100
00000010
00000001
,
00000100
00000010
00000100
00000000
00000101
00000000
00001010
00000000
,
00000101
00000000
00000000
00000000
00001010
00000000
00000000
00001001
00000000
00000000
00000001
00000000
00000010
00000000
00000100
00000000
,
00020000
00032000
00003100
00000001
00001000
00000001
00000010
00000100
,
00001000
00000100
00010000
00001000
00100000
00010000
00100000
01000000
,
10000000
00000000
00010000
10000000
00100000
00000000
01000000
00000000
00100000
00000000
10000000
00000000
01000000
00100000
00010000
00000000
,
01000000
00000000
00001000
00010000
00001000
00010000
00001000
00000000
00010000
00000000
00000010
00000000
00001000
00000000
00000010
00000000
,
00000100
00000001
00000010
00000100
00001000
00010000
00001000
00010000
,
00100000
01000000
10000000
00010000
01000000
00100000
10000000
01000000
,
01100000
00000000
00000000
00000000
00011000
00000000
00000000
00000000
00000110
00000000
00000000
00000000
00011000
00000000
00000000
01100000
,
00000000
10000000
00010000
00100000
02000000
03200000
00301000
00010000
,
00000100
00000000
00001000
00000000
00000001
00001000
00000001
00001000
00000001
00001000
00000001
00001000
00000002
00000000
00000000
00000000
,
00000000
00000000
00000000
00000000
00000000
00000000
00000103
00000000
00000001
00000000
00001000
00000000
00000010
00000000
00001000
00000010
,
00000000
00000100
00000000
00000001
00000000
00000100
00001000
00000000
00010000
00000000
00001000
00000000
00022000
00000000
00000000
00000000
,
00000000
00000000
00000000
00000000
,
00000000
00000000
00000000
00000000
,
00033000
00010000
00022000
00000000
00033000
00000000
00000000
00000000
;

//--------------- dance-double - Fred-104 ----------------
#NOTEDATA:;
#STEPSTYPE:dance-double;
#DESCRIPTION:Fred-104;
#DIFFICULTY:Hard;
#METER:17;
#CREDIT:Fred-104;
#NOTES:
00000000
00000000
00000000
00000000
,
00000000
00000000
00000000
00000000
,
00000000
00000000
00000000
00000000
,
00000000
00000000
00000000
00000000
,
00000000
00000000
00000000
00000000
,
00000000
00000000
00010000
00100000
00010000
01000000
00001000
00010000
,
00100000
00000000
00010000
00000000
00001000
00000000
00100000
00000000
00001000
00000000
00010000
00001000
00010000
00001000
00010000
00000000
,
00000100
00000000
00000010
00000000
00000100
00000000
00001000
00000000
00000001
00000000
00000010
00000001
00000100
00000010
00001000
00000000
,
00000200
00000000
00000010
00000000
00000301
00000100
00001001
00000000
,
00000001
00000100
00000001
00000100
00000010
00001000
00000010
00000000
00001000
00000100
00001000
00000100
00010000
00000100
00010000
00000000
,
00001000
00010000
00001000
00000000
01000000
00000000
00001000
00010000
00001000
00100000
00001000
00100000
00010000
01000000
00010000
01000000
,
00100000
00000000
00000000
10000000
00000000
00000000
00100000
00000000
00000000
10000000
00000000
00000000
01000000
00000000
00000000
00000000
00000000
00000000
00000000
00000000
00000000
01100000
00000000
00000000
00000000
00000000
00000000
00000000
00000000
00000000
00100000
00000000
00001000
00000000
00100000
00000000
00001000
00000000
00000000
00000000
00000000
00000000
00010000
00000000
00001000
00000000
00010000
00000000
,
00001000
00010000
00011000
00000000
00011000
00000000
00011000
00000000
,
00011000
00000000
00000000
00011000
00000000
00000000
00010000
00000010
00001000
00000000
00000010
00000100
00000020
00000000
00002030
00000000
,
00003001
00000010
00000001
00000010
00000100
00000010
00000100
00000010
00000000
00000001
00000100
00000001
00000000
00000010
00000001
00001000
,
00000010
00001000
00000100
00000000
00010000
00001000
00100000
00000000
00010000
10000000
01000000
00000000
00100000
00000000
00001000
00000000
,
00011000
00000000
00000000
00000000
00011000
00000000
00000000
00000000
00011000
00000000
00000000
00000000
00011000
00000000
00000000
00011000
,
00000000
00000000
00000000
00000000
00010000
00000000
00000000
00000000
00001000
00000000
00000000
00000000
00011000
00000000
00000000
00000000
00000000
00000000
00010000
00000000
00000000
00000010
00000000
00000000
00002000
00000000
00000000
00000000
00000000
00000000
00003200
00000000
00000000
00000000
00000000
00000000
00010300
00000000
00000000
00001000
00000000
00000000
00010000
00000000
00000000
00001000
00000000
00000000
,
00000000
01000000
00000000
00010000
00000000
00100000
00010000
00100000
00010000
10000000
00100000
00000000
01000000
00000000
00010000
00100000
,
00000000
01000000
10000000
00000000
00010000
01000000
00000000
00100000
01000000
00010000
00100000
00001000
00010000
00000000
00000100
00001000
,
00000010
00000000
00010000
00001000
00100000
00000000
00010000
01000000
00001000
00000000
00010000
00000100
00001000
00000010
00010000
00001000
,
00020000
00000000
00000000
00000000
00000000
00000000
00030000
00000000
00011000
00000000
00001000
00000000
00000010
00000001
00000000
00000001
,
00001000
00000000
00000001
00000100
00000000
00000001
00000010
00000001
00000100
00000010
00001000
00000010
00000100
00000001
00000010
00000100
,
00010000
00000000
00000000
00001000
00000000
00000000
00010000
00000000
00000000
00001000
00000000
00000000
00020000
00000000
00000000
00000000
00000000
00000000
00000000
00000000
00000000
00000000
00000000
00000000
00031000
00000000
00000000
00000000
00010000
00000000
00000000
00000000
00100000
00000000
00000000
00000000
01000000
00000000
00000000
00000000
00100000
00000000
00000000
00000000
00010000
00000000
00000000
00000000
,
00001000
00010000
00100000
00010000
00001000
00000010
00001000
00010000
00001000
00000100
00001000
00010000
,
00001000
00010000
00001000
00010000
01000000
00100000
01000000
00100000
00010000
10000000
00010000
10000000
01000000
00100000
00010000
00100000
,
00001000
00010000
00000100
00001000
00000200
00000000
00000000
00000000
00000000
00000000
00000000
00000000
00000000
00000000
00000000
00000000
,
00000000
00000000
00000000
00000000
,
00000302
00002003
00000000
00000000
,
00003000
00000000
00000000
00000000
00011000
00000000
00000000
00000000
00000000
00000000
00010010
00000000
00000000
00000000
00000000
00000000
00011000
00000000
00000000
00000000
00000000
00000000
01001000
00000000
00000000
00000000
00000000
00000000
00010000
00000000
00000000
00001000
,
00000000
00000000
00010000
00000000
00000000
00001000
00000000
00000000
00010000
00000000
00000000
00000000
00001000
00000000
00100000
00000000
00010000
00000000
00000000
00000000
01000000
00000000
00010000
00000000
00200000
00000000
00000000
00000000
00000000
00000000
02300000
00000000
,
00000000
00000000
13000000
01000000
00100000
00010000
01000000
00010000
00100000
00001000
00010000
00001000
00000000
00000010
00000001
00001000
,
00000001
00000100
00000010
00000000
00002010
00000000
00000000
00000000
00003100
00010000
00001000
00100000
00010000
10000000
00010000
00100000
,
01000000
00000000
00000000
00000000
01100000
00000000
00000000
00000000
00000000
00000000
00110000
00000000
00000000
00000000
00000000
00000000
00011000
00000000
00000000
00000000
00000000
00000000
00001100
00000000
00000000
00000000
00000000
00000000
00000100
00000000
00000000
00000010
,
00000000
00000000
00000001
00000000
00000000
00001000
00000000
00000000
00000001
00000000
00000000
00000000
00000100
00000000
00000000
00000000
00001000
00000000
00000000
00000000
00010000
00000000
00000000
00000000
01000000
00000000
00000000
00000000
00100000
00000000
00000000
00000000
,
00010000
00000000
00000000
00000000
00000000
00000000
10000000
00000000
00000000
00000000
00000000
00000000
00010000
00000000
00000000
00000000
01000000
00000000
00000000
00000000
00010000
00000000
00000000
00000000
00100000
00000000
00000000
00000000
01000000
00000000
00000000
00000000
00100000
00000000
00000000
00000000
00010000
00000000
00000000
00000000
00000000
00000000
10000000
00000000
00000000
01000000
00000000
00000000
,
00000000
00100000
00000000
00220000
00000000
00000000
00000000
00000000
00330000
00000000
00000000
00000000
10010000
00000000
00010000
01000000
,
00010000
00000000
10000000
00100000
10000000
00000000
00010000
00000000
10000000
01000000
00100000
00010000
00100000
00001000
00010000
00000100
,
00001000
00000000
00000100
00000000
00000110
00000000
00000010
00000001
00000100
00000000
00000010
00001000
00000001
00000000
00001000
00000000
,
00000001
00000100
00000010
00001000
00000100
00000010
00000001
00000000
00001000
00000000
00000001
00000000
00000201
00000000
00000310
00000000
,
00001000
00000000
00000100
00000000
00010000
00001000
00010000
00001000
00020000
00000000
00030200
00000000
00002300
00000000
02003000
00000000
,
03020000
00000000
00032000
00000000
00013000
00001000
00010000
00001000
00000010
00000100
00000010
00000100
00001000
00000100
00000010
00000001
,
00001000
00000000
00000001
00000000
00000100
00000000
00000010
00000000
00000220
00000000
00000000
00000330
00001001
00000000
00000001
00000010
,
00000100
00010000
00001000
00000000
00010000
00001000
00010000
00001000
00020000
00000000
00000000
00000000
00000000
00000000
00000000
00000000
,
00000000
00000000
00030000
00000000
00011000
00000000
00001000
00100000
00010000
10000000
00010000
00000000
01000000
00100000
01000000
00100000
,
02000000
00000000
00000000
00000000
00000000
00000000
00000000
00000000
00000000
00000000
03000000
00000000
11000000
00000000
10000000
01000000
,
00100000
00010000
01000000
00000000
00010000
00100000
00010000
00000000
20000000
00000000
32000000
00000000
03020000
00000000
00032000
00000000
,
00023000
00000000
00230000
00000000
10300000
00000000
00010000
00100000
00000000
00100000
01000000
00100000
00001000
00010000
00001000
00000000
,
00010000
00000100
00001000
00000000
00000001
00000100
00000010
00000000
00001000
00000100
00000010
00000001
00001000
00000000
00000000
00000000
,
00000001
00000010
00000000
00000000
00000000
00000000
00000100
00010000
00000000
00000000
00011000
00000000
00000000
01001000
00000000
00000000
,
00010000
00100000
00000000
01100000
00000000
00000000
10000000
00000000
20020000
00000000
30030000
00000000
10000000
00100000
00000000
00000000
,
00000000
00000000
01000000
00010000
00000000
00000000
00110000
00000000
00000000
00101000
00000000
00000000
00010000
00001000
00000000
00001100
,
00000000
00000000
00000010
00000001
00000010
00000100
00001000
00000001
00002000
00000000
00000000
00000000
00003001
00000100
00000001
00000100
,
00000001
00000000
00001000
00000100
00001000
00000100
00001000
00000000
00000010
00010000
00000010
00000000
00010000
00001000
00010000
00001000
,
00010000
00000000
00001000
00100000
00001000
00100000
00001000
00000000
01000000
00010000
01000000
00010000
01000000
00000000
00010000
10000000
,
00010000
10000000
00010000
00000000
00100000
01000000
00100000
01000000
00100000
00001000
00010000
00001000
00010000
00000000
00022000
00000000
,
00000000
00000000
00000000
00033000
00000000
00000000
00010000
00000000
00001000
00000000
00010000
00000000
00001000
00000000
00000000
00000000
00001000
00000000
00000010
00000000
00000000
00000000
00000010
00000000
,
00000001
00000100
00000001
00000100
00000000
00000100
00001000
00000000
00001000
00010000
00100000
01000000
,
00010000
10000000
00010000
00000000
10000000
00100000
10000000
00000000
00010000
01000000
00100000
10000000
01000000
00100000
00010000
00100000
,
00001000
00010000
00000100
00001000
00000100
00000000
00000010
00000000
00001001
00000000
00000000
00000000
00000011
00000000
00000000
00000000
,
00001010
00000000
00000000
00000000
00011000
00000000
00000000
00000000
01010000
00000000
00000000
11000000
00000000
00000000
00010000
10000000
,
00100000
00000000
01000000
00010000
00200000
00000000
02300000
00000000
13000000
00100000
10000000
00100000
01000000
00010000
01000000
00010000
,
00000000
00100000
00001000
00010000
00000000
00001000
00000010
00000001
00001000
00000001
00000100
00000010
00001000
00000001
00000010
00000000
,
00000100
00001000
00000100
00000000
00010000
00000000
00001000
00000000
00011000
00000000
00000000
00000000
01001000
00000000
00000000
00000000
,
00010010
00000000
00000000
00000000
00101000
00000000
00000000
00010100
00000000
00000000
00010000
00000000
00011000
00000000
00001000
00010000
,
00000020
00000000
00002030
00000000
00003001
00000100
00000001
00000100
00000000
00000001
00000010
00000001
00000000
00001000
00000010
00000100
,
00000001
00000010
00000100
00000000
00001000
00000100
00010000
00001000
00100000
00010000
00100000
00000000
01000000
10000000
00010000
10000000
,
00010000
01000000
00010000
01000000
00100000
00000000
10000000
00010000
00100000
01000000
00100000
00010000
01000000
00000000
00001000
00010000
,
00000100
00001000
00000001
00000100
00000010
00001000
00000100
00000010
00000001
00000000
00000101
00000000
00001000
00000000
00001010
00000000
,
00000001
00000010
00000001
00000010
00000100
00001000
00000100
00001000
00000100
00010000
00001000
00010000
00001000
00100000
00010000
10000000
,
00010000
00100000
01000000
10000000
00010000
01000000
00100000
10000000
01000000
00100000
00001000
00010000
00100000
00000000
10000000
00000000
,
11000000
00000000
00000000
00000000
01010000
00000000
00000000
00000000
00011000
00000000
00000000
00000000
00001010
00000000
00000000
00000011
,
00000000
00000000
00000001
00001000
00000010
00000000
00000100
00000001
00000020
00000000
00000032
00000000
00001003
00000010
00001000
00000000
,
00000001
00000100
00000001
00000000
00000100
00000010
00001000
00000010
00000100
00000001
00000010
00000100
00000020
00000000
00000000
00000000
,
00000000
00000000
00000000
00000000
00000030
00000000
00000001
00000100
00001000
00000000
00010000
00000000
00100000
01000000
00010000
10000000
,
00000000
00010000
00000000
10000000
00000000
00100000
10000000
00100000
01000000
00010000
00100000
00001000
00020000
00000000
00000000
00000000
,
00000000
00000000
00000000
00000000
,
00000000
00000000
00000000
00000000
,
00030000
00010000
00022000
00000000
00033000
00000000
00000000
00000000
;

//--------------- dance-double - Fred-104† ----------------
#NOTEDATA:;
#STEPSTYPE:dance-double;
#DESCRIPTION:Fred-104†;
#DIFFICULTY:Challenge;
#METER:18;
#CREDIT:Fred-104;
#NOTES:
00000000
00000000
00000000
00000000
,
00000000
00000000
00000000
00000000
,
00000000
00000000
00000000
00000000
,
00000000
00000000
00000000
00000000
,
00000000
00000000
00000000
00000000
,
00000000
00000000
10000000
00100000
00010000
00100000
01000000
00010000
,
01000000
00000000
00001000
00000000
00020000
00000000
00032000
00000000
00003020
00000000
00000031
00000100
00001000
00000100
00000001
00000010
,
00000100
00000000
00000010
00000000
00000001
00000000
00000100
00000000
00000010
00000100
00001000
00010000
00100000
01000000
00010000
10000000
,
02000000
00000000
00100000
00000000
13000000
00010000
10010000
00000000
,
10000000
00010000
01000000
00001000
00010000
00001000
00000010
00000001
00000010
00000100
00001000
00000001
00000100
00000001
00000100
00000010
,
00001000
00000010
00010000
00001000
00010000
00000000
01000000
00100000
00010000
01000000
10000000
01000000
00100000
01000000
00010000
10000000
,
01000000
00000000
00100000
00000000
00010000
00000000
00100000
00000000
00000000
00001000
00000000
00000000
00010000
00000000
00000000
00000000
00000000
00000000
00000000
00000000
00000000
00011000
00000000
00000000
00000000
00000000
00000000
00000000
00000000
00000000
00010000
00000000
00000100
00000000
00001000
00000000
00000100
00000000
00000000
00000000
00000000
00000000
00000010
00000000
00000001
00000000
00001000
00000000
,
00000001
00000100
00000010
00000000
00000110
00000000
00000000
00000000
00011000
00000000
00000000
00000000
01100000
00000000
00000000
00000000
,
00011000
00000000
00000000
00000000
00000000
00000000
00000000
00000000
00000000
00000110
00000000
00000000
00000000
00000000
00000000
00000000
00000000
00000000
00000001
00000000
00000100
00000000
00000001
00000000
00000010
00000000
00000000
00000000
00000000
00000000
00000100
00000000
00000000
00001000
00000000
00000000
00000200
00000000
00000000
00000000
00000000
00000000
00020300
00000000
00000000
00000000
00000000
00000000
,
00031000
00100000
00010000
00100000
01000000
10000000
00100000
02000000
00000000
03010000
01000000
20000000
00000000
31000000
00100000
10000000
,
01000000
00100000
00010000
01000000
00001000
00010000
00000100
00001000
00000100
00000010
00000001
00000100
00001000
00010000
00100000
00000000
,
01100000
00000000
00000000
00000000
00011000
00000000
00000000
00000000
00000110
00000000
00000000
00000000
00011000
00000000
00000000
01100000
,
00000000
00000000
00000000
00000000
10000000
00000000
00000000
00000000
00010000
00000000
00000000
00000000
10010000
00000000
00000000
00000000
00000000
00000000
00010000
00000000
00000000
10000000
00000000
00000000
02000000
00000000
00000000
00000000
00000000
00000000
03200000
00000000
00000000
00000000
00000000
00000000
00310000
00000000
00000000
01000000
00000000
00000000
00001000
00000000
00000000
00020000
00000000
00000000
,
00000000
00030020
00000000
00002030
00000000
00003100
00010000
00001000
00010000
00100000
10000000
00100000
01000000
00000000
00010000
00100000
,
00000000
10000000
00100000
00000000
00010000
10000000
00000000
01000000
10000000
00010000
00100000
00010000
01000000
00001000
00010000
00001000
,
00100000
00000000
00001000
00010000
00001000
00000010
00000100
00001000
00000100
00000010
00000001
00000100
00000000
00001000
00010000
00001000
,
00022000
00000000
00000000
00000000
00000000
00000000
00033000
00000000
10000000
00010000
01000000
00000000
00100000
10000000
00000000
00100000
,
01000000
00000000
00100000
10000000
00000000
00100000
01000000
00010000
00100000
00001000
00010000
00001000
00000010
00000100
00001000
00000001
,
00001000
00000000
00000000
00000010
00000000
00000000
00010000
00000000
00000000
00001000
00000000
00000000
00010000
00000000
00000000
00000000
00000000
00000000
00001000
00000000
00000000
00000000
00000000
00000000
00010000
00000000
00000000
00000000
00100000
00000000
00000000
00000000
10000000
00000000
00000000
00000000
01000000
00000000
00000000
00000000
00010000
00000000
00000000
00000000
00001000
00000000
00000000
00000000
,
00000010
00000001
00000100
00001000
00010000
00100000
10000000
01000000
00010000
00001000
00010000
00100000
,
10000000
00100000
10000000
00100000
01000000
00010000
00100000
00001000
00010000
00001000
01000000
00001000
00010000
00000010
00001000
00000100
,
00010000
00000100
00001000
00000001
00000100
00000000
00000010
00001000
00000001
00000000
00000010
00000000
00000100
00010000
00000000
00001000
,
00010000
00100000
01000000
00000000
00010000
00100000
00000000
01000000
10000000
00010000
01000000
00000000
00001000
00010000
00000000
00001000
,
00000010
00000001
00001000
00000001
00000100
00000000
00000001
00001000
00000100
00000000
00000010
00000000
00000001
00000100
00000000
00000100
,
00001000
00000000
00000000
00000000
00011000
00000000
00000000
00000000
00000000
00000000
01010000
00000000
00000000
00000000
00000000
00000000
00011000
00000000
00000000
00000000
00000000
00000000
00001010
00000000
00000000
00000000
00000000
00000000
00010000
00000000
00000000
00001000
,
00000000
00000000
00010000
00000000
00000000
00001000
00000000
00000000
00010000
00000000
00001000
00000000
00100000
00000000
00010000
00000000
10000000
00000000
00010000
00000000
01000000
00000000
00100000
00000000
02000000
00000000
00000000
00000000
00000000
00000000
03020000
00000000
,
00000000
00000000
10030000
01000000
00100000
00010000
01000000
00100000
00010000
00100000
01000000
00010000
00000000
10000000
00010000
10000000
,
01000000
00100000
01000000
00000000
00200000
00000000
00000000
00000000
00301000
00010000
00000010
00001000
00000100
00010000
00001000
00100000
,
00001000
00000000
01000000
00000000
01010000
00000000
00000000
00000000
00000000
00000000
00011000
00000000
00000000
00000000
00000000
00000000
00001010
00000000
00000000
00000000
00000000
00000000
00011000
00000000
00000000
00000000
00000000
00000000
01000000
00000000
00000000
00010000
,
00000000
00000000
10000000
00000000
00000000
01000000
00000000
00000000
10000000
00000000
00100000
00000000
01000000
00000000
00000000
00000000
00100000
00000000
10000000
00000000
01000000
00000000
00000000
00000000
00100000
00000000
00001000
00000000
00010000
00000000
00000000
00000000
,
00001000
00010000
00000100
00001000
00000010
00000100
00000010
00000100
00000001
00000100
00000010
00001000
00000001
00000000
00001000
00000100
,
00000000
00010000
00000000
00022000
00000000
00000000
00000000
00000000
00033000
00000000
00000000
00000000
02100000
00000000
03010000
10000000
,
00010000
00000000
00100000
01000000
10000000
01000000
00100000
01000000
10000000
01000000
00100000
00010000
00100000
00001000
00010000
00000100
,
00002000
00000000
00003002
00000000
00000013
00000000
00000001
00000000
00001000
00000001
00000100
00000001
00001000
00000100
00010000
00000100
,
00001000
00000010
00010000
00001000
00100000
00010000
10000000
00100000
02000000
00000000
03020000
00000000
10030000
00000000
01000000
00010000
,
00000000
01000000
10000000
00000000
01000000
00100000
00001000
00010000
00012000
00000000
01003000
00000000
00021000
00000000
00030010
00000000
,
00012000
00000000
00103000
00000000
00001000
00010000
00001000
00010000
00000100
00001000
00000100
00001000
00000100
00000001
00000100
00001000
,
00000100
00000000
00000110
00000000
00000011
00000000
00000101
00000000
00002002
00000000
00000000
00003003
00001100
00000000
00000001
00000100
,
00001000
00000100
00000010
00001000
00000100
00000010
00000001
00000100
00000010
00000000
00001000
00000000
00100000
00000000
00010000
00000000
,
00001000
00000000
00010000
00000000
00001000
00000000
00010000
00001000
00100000
00010000
01000000
00010000
00100000
01000000
00100000
00010000
,
10000000
00000000
01000000
00000000
00010000
00000000
00001000
00000000
00000010
00000000
00000100
00000000
00001000
00000000
00000001
00000010
,
00000100
00000010
00000001
00000000
00001000
00000010
00000100
00000001
00000012
00000000
00001003
00000000
00002010
00000000
00003001
00000000
,
00001002
00000000
00001003
00000000
00001100
00000000
00000100
00000010
00000000
00000010
00000001
00000100
00000001
00000010
00000100
00000010
,
00000001
00000100
00001000
00010000
00001000
00010000
00100000
10000000
00010000
01000000
00100000
00000000
10010000
00000000
00000000
00000000
,
00010000
10000000
00000000
00000000
00000000
00000000
00001000
01000000
00000000
00000000
00011000
00000000
00000000
00010010
00000000
00000000
,
00000010
00001000
00000000
00001100
00000000
00000000
00000110
00000000
00000022
00000000
00000033
00000000
00001000
00000001
00000000
00000000
,
00000000
00000000
00010000
00000010
00000000
00000000
00011000
00000000
00000000
01001000
00000000
00000000
01000000
00010000
00000000
00110000
,
00000000
00000000
00100000
01000000
10000000
00100000
10000000
00010000
01000000
00000000
00001000
00010000
00001000
00010000
00100000
00010000
,
00001000
00000000
00010000
00001000
00000010
00001000
00010000
00000000
00001000
00010000
00001000
00010000
00001000
00010000
01000000
00010000
,
00001000
00000000
00010000
00001000
00000100
00001000
00010000
00000000
00001000
00010000
01000000
00010000
00001000
00000000
00010000
00001000
,
00000100
00001000
00010000
00000000
00001000
00010000
00001000
00010000
00000100
00001000
00000010
00000100
00000001
00000000
00000202
00000000
,
00000000
00000000
00000000
00000303
00000000
00000000
00001000
00000000
00000100
00000000
00000010
00000000
00000001
00000000
00000001
00000000
00000001
00000000
00000100
00000000
00000100
00000000
00000100
00000000
,
00001000
00001000
00001000
00010000
00010000
00010000
00100000
00100000
00100000
10000000
10000000
10000000
,
00010000
01000000
00100000
01000000
00010000
00100000
01000000
10000000
00100000
10000000
00010000
00100000
00001000
01000000
00001000
00010000
,
00000100
00000000
00000000
00001000
00000000
00000000
00000010
00000000
00000000
00000100
00000000
00000000
00000001
00000000
00001000
00000000
00000001
00000000
00000100
00000000
00000001
00000000
00001000
00000000
00000100
00000000
00001000
00000000
00000100
00000000
00000010
00000000
00000100
00000000
00000010
00000000
00000100
00000000
00000000
00000000
00000000
00000000
00000000
00000000
00000000
00000000
00000000
00000000
,
00011000
00000000
00000000
00000000
00000000
00000000
00000000
00000000
00000000
00000000
00000000
00000000
01100000
00000000
00000000
00000000
00000000
00000000
00000000
00000000
00000000
00000000
00000000
00000000
00011000
00000000
00000000
00000000
00000000
00000000
00000000
00000000
00000000
00000110
00000000
00000000
00000000
00000000
00000000
00000000
00000000
00000000
00000001
00000000
00000100
00000000
00000010
00000000
,
00001000
00000000
00000100
00000010
00000002
00000000
00002003
00000000
00003010
00000100
00000010
00001000
00000010
00000100
00000001
00001000
,
00000000
00000100
00010000
00001000
00000000
00010000
00000010
00001000
00000100
00010000
00001000
00100000
00010000
01000000
00010000
00100000
,
01000000
00100000
00010000
10000000
00100000
01000000
00100000
00000000
01100000
00000000
00000000
00000000
00011000
00000000
00000000
00000000
,
00000110
00000000
00000000
00000000
00011000
00000000
00000000
01100000
00000000
00000000
10000000
00000000
10020000
00000000
00130000
00010000
,
20000000
00000000
30200000
00000000
01300000
00010000
00100000
01000000
00000000
00010000
01000000
00010000
00000000
01000000
10000000
00010000
,
01000000
00100000
10000000
00100000
00010000
00100000
01000000
00010000
10000000
01000000
00100000
00010000
01000000
00001000
00010000
00001000
,
00000010
00000100
00001000
00000001
00001000
00000000
00000001
00001000
00000010
00000001
00000010
00000100
00000010
00000000
00001000
00000001
,
00001000
00000000
00000000
00000100
00000000
00000000
00010000
00000000
00000000
00000100
00000000
00000000
00001000
00000000
00000100
00000000
00010000
00000000
00001000
00000000
00000000
00100000
00000000
00000000
00010000
00000000
00000000
00000000
00000000
00000000
01010000
00000000
00000000
00000000
00000000
00000000
10010000
00000000
00000000
00000000
00000000
00000000
10100000
00000000
00000000
00000000
00000000
00000000
,
00010000
00100000
01000000
00100000
00010000
01000000
00001000
00010000
00001000
00000010
00000100
00001000
00000100
00010000
00001000
01000000
,
00001000
00010000
00000010
00001000
00000100
00000010
00000001
00000100
00001000
00010000
00100000
01000000
00020000
00000000
00000000
00030000
,
10010000
00000000
00000000
00000000
00011000
00000000
00000000
00000000
00001001
00000000
00000000
00000000
00011000
00000000
00000000
10010000
,
00000000
00000000
00000000
00000000
00000000
00000000
00010000
00000000
10000000
00000000
01000000
00000000
00100000
00000000
00000000
00000000
00000000
00000000
00010000
00000000
00000000
01000000
00000000
00000000
00200000
00000000
00000000
00000000
00000000
00000000
20300000
00000000
00000000
00000000
00000000
00000000
30010000
00000000
00000000
01000000
00000000
00000000
10000000
00000000
00000000
01000000
00000000
00000000
,
00010000
10000000
00100000
00010000
00001000
00000100
00000010
00001000
00000100
00000010
00000001
00001000
00000002
00000000
00000000
00000000
,
00000000
00000000
00000000
00000000
00000003
00000000
00001000
00000001
00001000
00000000
00000010
00000000
00000100
00000001
00001000
00000010
,
00000000
00010000
00000000
00001000
00000000
00100000
00010000
01000000
00010000
00100000
00001000
00010000
00002000
00000000
00000000
00000000
,
00000000
00100000
00100000
00000000
00000000
00000010
00000010
00000000
,
00000000
01000000
01000000
00000000
00000100
00000100
00000000
00010000
,
00010000
00013000
00022000
00000000
00033000
00000000
00000000
00000000
;
