#TITLE:Sol Cosine Job 2;
#ARTIST:DJ TECHNORCH;
#GENRE:FREEFORM HARDCORE;
#BANNER:Sol Cosine Job 2.png;
#BACKGROUND:Sol Cosine Job 2-bg.png;
#CDTITLE:./CDTitles/bm IIDX 20 tricoro.png;
#MUSIC:Sol Cosine Job 2.ogg;
#SAMPLESTART:22.721;
#SAMPLELENGTH:15;
#BPMS:0=190,236=195,252=200;
#STAGE:28;

//--------------- dance-single - ----------------
#NOTES:
     dance-single:
     Fred-104:
     Beginner:
     5:
     :
0000
0000
0000
0000
,
0000
0000
0000
0000
,
0010
0000
0010
0000
,
0100
0100
0100
0000
,
0010
0000
0010
0000
,
0001
0000
1000
0000
,
1000
0000
0001
0000
,
1000
0000
1000
0000
,
0001
0000
1000
0000
,
0001
0001
0001
0001
,
2002
0000
0000
3003
,
0000
0000
0000
0000
,
0100
0000
0000
0100
,
0100
0000
0000
0010
,
0010
0000
0000
1000
,
1000
0000
0000
0001
,
0001
0000
1000
0000
,
2002
0000
3003
0000
,
1000
0000
1000
0000
,
0010
0000
0100
0100
,
0100
0000
0001
0000
,
0001
0001
0001
0001
,
0001
0000
1000
0000
,
0001
0000
0100
0100
,
0100
0000
0001
0000
,
1000
0000
0010
0010
,
0010
0000
1000
0000
,
0001
0000
1000
1000
,
1000
0000
0010
0000
,
0100
0100
0100
0100
,
0100
0000
0001
0000
,
1000
0000
0001
0001
,
0001
0000
1000
0000
,
0001
0001
0001
0001
,
2002
0000
0000
3003
,
0001
0000
1000
0000
,
0010
0010
0010
0010
,
0010
0000
1000
0000
,
0001
0001
0001
0001
,
0001
0000
1000
0000
,
0001
0001
0001
0001
,
0001
0000
1000
0000
,
0100
0100
0100
0100
,
0100
0000
1000
0000
,
0010
0000
1000
1000
,
1000
0000
0001
0000
,
0100
0000
0010
0010
,
0010
0000
0100
0000
,
0010
0000
1000
1000
,
1000
0000
0001
0000
,
1000
1000
1000
1000
,
1001
0000
0000
0000
,
0000
0000
0000
0000
,
0000
0000
0000
0000
,
0000
0000
0000
0000
,
1000
0000
0001
0000
,
1000
0000
0001
0000
,
1000
0000
0001
0000
,
1000
0000
0001
0000
,
0100
0000
0010
0000
,
0100
0000
0010
0000
,
0100
0000
0010
0000
,
0100
0000
0010
0000
,
1000
0000
0001
0000
,
1000
0000
0001
0000
,
1000
0000
0001
0000
,
1001
0000
0000
0000
,
0010
0010
0010
0010
,
0010
0010
0010
0000
,
1001
0000
0000
0000
,
0000
0000
0000
0000
,
0001
0000
0000
0000
,
0000
0000
0000
0000
,
1000
0000
0000
0000
,
0001
0000
0000
0000
,
1000
0000
0001
0000
,
2002
0000
0000
3003
,
1000
0000
0010
0000
,
1000
0000
0001
0001
,
0001
0000
1000
0000
,
0100
0100
0100
0100
,
0100
0000
1000
0000
,
0010
0000
1000
1000
,
1000
0000
0001
0000
,
0010
0010
0020
0030
,
0010
0000
0001
0000
,
1000
1000
1000
0000
,
0001
0000
0100
0000
,
0010
0010
0010
0010
,
0010
0000
1000
0000
,
0001
0001
0001
0000
,
0100
0000
1000
0000
,
1000
1000
1000
1000
,
1001
0000
0001
0001
,
0000
1000
0001
1000
,
2002
0000
0000
0000
,
0000
0000
0000
0000
,
3003
0000
0000
0000
;

//--------------- dance-single - ----------------
#NOTES:
     dance-single:
     Fred-104:
     Easy:
     9:
     :
0000
0000
0000
0000
,
0000
0000
0000
0000
,
0010
0010
0010
0010
,
0100
0010
0100
0000
0001
0000
0001
0000
,
1000
0100
0100
0100
,
1000
0001
0100
0010
,
1000
0100
0100
0010
,
0001
1000
0010
1000
,
0100
1000
0100
0001
,
0001
0100
1000
0001
,
2002
0000
0000
3003
,
1000
0010
0100
0001
,
1000
0000
0000
1000
0000
0000
0100
0000
,
0010
0000
0000
0010
0000
0000
0001
0000
,
0100
0000
0000
0010
0000
0000
0100
0000
,
0001
0000
0000
1000
0000
0000
0010
0000
,
0100
0000
0000
0001
0000
0000
1000
0000
,
2002
0000
3003
0000
,
0100
0000
0000
1000
0000
0000
0010
0000
,
0100
0000
0000
0001
0000
0000
1000
0010
,
1000
0000
0000
0100
0000
0000
0010
0100
,
0010
0001
1000
0001
,
0100
0000
0000
0010
0000
0000
1000
0000
,
0001
0000
0000
0100
0000
0000
1000
0100
,
1000
0000
0000
0100
0000
0000
0001
1000
,
0001
0100
0010
2000
,
3001
0100
0001
0000
0100
0000
0010
0000
,
1000
0001
0100
0000
0010
0000
0010
0000
,
1000
0100
0010
0000
0001
0000
1000
0001
,
1000
0010
0100
0001
,
1000
0000
0000
0100
0000
0000
1000
0000
,
0001
0000
0000
0100
0000
0000
0010
0100
,
0010
0000
0000
1000
0000
0000
0100
0010
,
0100
0001
1000
0010
,
0220
0000
0000
0330
,
1001
0000
0000
0010
0000
0000
1000
0000
,
0100
0010
0001
0100
,
0110
0000
0000
0010
0000
0000
1000
0000
,
0001
0100
1000
0100
,
0101
0000
0000
0010
0000
0000
0100
0000
,
1000
0010
0100
0010
,
1010
0000
0000
0010
0000
0000
0100
0000
,
0001
0010
1000
0010
,
0011
0000
0000
0001
0000
0000
0100
0000
,
0010
0000
1000
0000
0001
1000
0001
0000
,
1100
0000
0000
0010
0000
0000
0001
0000
,
1000
0000
0100
0000
0010
0100
0010
0000
,
0110
0000
0000
1000
0000
0000
0001
0000
,
0100
0000
0010
0000
1000
0010
1000
0000
,
1001
0000
0000
0001
0000
0000
0100
0000
,
0010
1000
0010
0000
0100
0001
0100
0000
,
1001
0000
0000
0000
,
0000
0000
0000
0000
,
0000
0000
0000
0000
,
0000
0000
0000
0000
,
2000
3100
0010
0001
,
0200
0310
1000
0001
,
0020
0130
1000
0001
,
0100
0000
0001
0100
0000
0010
1000
0000
,
0002
0013
1000
0010
,
0200
1300
0100
0010
,
2000
3010
0001
1000
,
0002
0103
1000
0001
,
0200
0310
1000
0010
,
0200
0301
1000
0001
,
0020
0130
1000
0001
,
0200
0301
2002
3003
,
1000
0000
1000
0000
,
1000
0000
2000
3000
,
1001
0000
0000
0000
,
0000
0000
0000
0000
,
0100
0000
0000
0000
,
0000
0000
0000
0000
0010
0100
0010
0100
,
0010
0000
0000
0000
,
0001
0000
1000
0000
,
0010
0000
0100
0010
0100
0000
0001
0000
,
2002
0000
0000
3003
,
1000
0000
0000
0100
0000
0000
0010
0000
,
0100
0000
0000
0001
0000
0000
0100
0010
,
0100
0000
0000
0001
0000
0000
0010
0001
,
1000
0010
0100
0100
,
0001
0000
0000
0100
0000
0000
1000
0000
,
0100
0000
0000
0001
0000
0000
0100
0010
,
1000
0000
0000
0001
0000
0000
0100
0010
,
1000
0000
0001
0010
0200
0000
0000
0000
,
0310
0000
0000
0001
0000
0000
1000
0000
,
0010
0000
0000
0100
0000
0000
0010
0000
,
1000
0000
0000
0100
0000
0000
0010
0000
,
0002
0203
0320
2030
,
3001
0000
0000
0010
0000
0000
0100
0000
,
1000
0000
0000
0010
0000
0000
0001
0000
,
0010
0000
0000
1000
0000
0000
0001
0000
,
0100
0000
0010
0000
0100
0010
0100
0000
,
1001
0000
0100
1100
,
0000
0010
0011
0100
,
0220
0000
0000
0000
,
0000
0000
0000
0000
,
0330
0000
0000
0000
;

//--------------- dance-single - ----------------
#NOTES:
     dance-single:
     Fred-104:
     Medium:
     14:
     :
0000
0000
0000
0000
,
0000
0000
0000
0000
,
0010
0010
0010
0010
,
1000
0000
1000
0000
0001
0000
0000
0000
0100
0000
0000
0100
0010
0000
1000
0000
,
0001
0001
0010
0010
,
1000
0000
1000
0000
0001
0000
0100
0010
,
1000
0100
0010
0000
0001
1000
0010
0000
,
0100
0001
1000
0100
0010
0001
1000
0000
,
0001
0100
0001
0100
0010
1000
0010
0100
,
0001
0010
0100
1000
0001
0100
0010
0000
,
2002
0000
0000
3003
,
1000
0100
0010
1000
0001
0100
2000
0000
,
3001
0100
0100
0001
0100
0100
0001
0000
,
1000
0100
0100
1000
0100
0100
1000
0010
,
0100
0010
0010
0100
0010
0010
0100
0000
,
0001
1000
1000
0001
1000
1000
0100
0010
,
0001
0100
0100
0010
0100
0100
1000
0100
,
0020
0000
0200
0330
,
1000
0010
0100
0001
0010
0100
1000
0000
,
0001
0100
0010
1000
0100
0010
0001
1000
,
0010
1000
0100
0010
0001
0100
0010
0010
,
1000
0001
0100
0010
2000
0000
3020
0000
,
0031
1000
0010
0100
1000
0001
0100
0000
,
1000
0100
0001
1000
0100
0010
0100
0100
,
1000
0001
0010
0100
0001
0100
1000
0001
,
0200
0320
0032
2003
,
3001
1000
0001
1000
0100
0010
0100
0000
,
0010
1000
0010
0100
0010
1000
0001
0001
,
1000
0100
0010
1000
0010
0100
0001
1000
,
0002
0203
2300
3002
,
0103
0010
1000
0100
0010
0001
1000
0000
,
0010
1000
0100
0010
0001
1000
0001
0100
,
0010
0100
1000
0100
0010
1000
0001
0100
,
0001
1000
0010
0000
0100
0000
0001
0000
,
2002
0000
0000
3003
,
1010
0000
0100
0001
0000
1000
0000
0100
,
0000
0010
0000
0001
0000
1000
0000
0001
,
0101
0000
0010
0100
0000
1000
0000
0010
,
0000
0100
0000
0001
0000
1000
0000
0100
,
0110
0000
0010
0001
0000
1000
0000
0010
,
0000
0001
0000
1000
0000
0100
0000
0001
,
0101
0000
0100
1000
0000
0010
0000
0100
,
0000
0010
0000
1000
0000
0100
0000
0010
,
0001
1000
0010
0100
0000
0010
0000
1000
,
0000
0100
0010
0001
0000
1000
0001
0100
,
0001
1000
0100
0010
0001
0100
0000
0100
,
1000
0100
0001
0100
0000
0100
0010
1000
,
0001
0010
0100
0010
0000
1000
0010
0100
,
0000
1000
0100
0010
0000
1000
0001
0010
,
0100
0001
0100
1000
0000
0001
1000
0010
,
0100
0001
1000
0001
0100
0010
1000
0000
,
1001
0000
0000
0000
,
0000
0000
0000
0000
,
0000
0000
0000
0000
,
0000
0000
0000
0000
,
0001
0010
0001
0100
0001
0010
0001
1000
,
0010
1000
0100
1000
0001
1000
0100
1000
,
0001
0100
0001
0010
0001
1000
0010
0100
,
0001
0100
0100
1000
0100
0100
0001
0000
,
2100
3010
0102
0013
,
1200
0310
0201
0310
,
2010
3100
0012
0103
,
1020
0130
0021
0130
,
0001
0000
1001
0000
0100
0010
1000
0000
,
0100
0000
1100
0000
0010
1000
0001
0000
,
1000
0000
1010
0000
0010
0100
0001
0000
,
1000
0001
0100
0010
0200
0000
0300
0000
,
1000
0000
0000
1000
0000
0000
1000
0000
1000
0000
0000
1000
0000
0000
1000
0000
,
1000
0000
0000
1000
0000
0000
1000
0000
2000
0000
0000
0000
3000
0000
0000
0000
,
1001
0000
0000
0000
,
0000
0000
0000
0000
0100
0100
0100
0100
,
0100
0000
0000
0000
,
0000
0000
0000
0000
0010
0010
0010
0010
,
0010
0000
0000
0000
0000
0100
0000
0000
,
0010
0000
0000
1000
0000
0100
0000
0000
,
1000
0000
0000
0000
0001
0000
0100
0000
0010
0000
1000
0000
0100
0000
0010
0100
,
0020
0000
0000
0030
,
0100
1000
1000
0001
1000
1000
1001
0000
,
0100
0010
0010
1000
0010
0010
0100
0001
,
1000
0100
0100
0010
0100
0100
1000
0200
,
0010
1000
0310
1001
,
0001
0010
0010
0100
1000
1000
1001
0000
,
1000
0100
0100
0001
0100
0100
0010
1000
,
0001
0010
0010
0100
0010
0010
0001
1000
,
0001
0100
0010
0010
0200
0000
0000
0000
,
0310
1000
0100
0010
0001
1000
0010
0000
,
1000
0100
0001
0100
1000
0010
0100
0001
,
0010
1000
0001
0100
1000
0001
0100
0010
,
2000
0000
3100
0010
0010
0001
1000
0000
,
0001
0100
0100
1000
0001
0010
0110
0000
,
1000
0100
0100
0001
1000
0100
0010
0010
,
0100
1000
1000
0001
0100
0100
0010
1000
,
0001
0010
0100
1000
0010
0100
0001
1000
,
1001
0000
1010
0011
,
0000
1100
0101
0110
,
2002
0000
0000
0000
,
0000
0000
0000
0000
,
3003
0000
0000
0000
;

//--------------- dance-single - ----------------
#NOTES:
     dance-single:
     Fred-104:
     Hard:
     17:
     :
0000
0000
0000
0000
,
0000
0000
0000
0000
,
0010
0010
0010
0010
,
0100
0000
0100
0000
0100
0000
0000
0000
1001
0000
0000
1000
0001
0000
0010
0000
,
0100
0100
0100
0100
,
0001
0000
0001
0000
1000
0000
0001
1000
,
0100
1000
0100
1000
0010
0100
0010
0001
,
0010
0100
1000
0001
0100
1000
0100
0001
,
1000
0010
0100
0010
1000
0100
0010
0001
,
1100
0100
0010
0101
0100
0010
1001
1000
,
0200
0000
0000
0300
,
0001
0100
0001
0100
0010
1000
0010
1000
0001
0010
0100
1000
0001
0000
0000
0000
,
1000
0000
0001
0100
0001
0000
1000
0000
0001
0010
0001
0000
0100
0000
0000
0000
,
0001
0000
0100
0010
0100
0000
1000
0000
0100
0010
0100
0000
0001
0000
1000
0000
,
0010
0000
0100
1000
0100
0000
0010
0000
0100
0001
0100
0000
0001
0000
0000
0000
,
1000
0000
0010
0100
0010
0000
1000
0000
0100
0010
0100
0000
1000
0000
0001
0000
,
0100
0000
0001
0010
0001
0000
1000
0000
0001
0100
0001
0000
1000
0100
1000
0100
,
0020
0000
0200
0330
,
0001
0000
1000
0010
0100
0000
0001
0000
1000
0100
0010
0000
0001
0000
1000
0000
,
0010
0000
1000
0010
0100
0000
0010
0000
1000
0100
0010
0000
0100
0000
1000
0000
,
0001
0000
0100
0001
0010
0000
0100
0000
1000
0010
0100
0010
1000
0000
0001
0000
,
0100
0000
0001
0100
0001
0000
0100
0010
0100
0010
0100
0000
0010
0000
1000
0000
,
0001
0000
0100
0010
1000
0000
0001
0000
0010
0100
1000
0000
0001
0000
0001
0000
,
1000
0000
0010
0100
0001
0000
1000
0000
0100
0010
0001
0000
1000
0000
1000
0000
,
0001
0000
1000
0010
0100
0000
0001
0000
1000
0100
0010
0000
0100
0000
0100
0000
,
0002
0000
0000
0000
1003
0000
0100
0010
0001
0000
1000
0000
0001
0100
0001
0100
,
0001
0000
0100
0000
0100
0000
0001
0000
1000
0010
0100
0001
2000
0000
0000
0000
,
3001
0000
1000
0010
1000
0000
0001
0000
0100
0010
1000
0010
0100
0000
0001
0000
,
1000
0001
0100
0000
0010
0000
1000
0100
1000
0000
1000
0100
1000
0000
0002
0000
,
0203
1000
0010
0301
,
1000
0000
0010
0100
0010
0000
1000
0000
0001
0100
0010
0000
0200
0000
0000
0000
,
0301
0000
1000
0001
0100
0000
0010
0000
0100
1000
0001
0000
0200
0000
0000
0000
,
0310
0000
1000
0100
0010
0000
0100
0000
0001
0100
0010
0000
0100
0000
1000
0000
,
0001
1000
0001
1000
0001
0000
0100
0000
0010
0000
0100
0000
1000
0000
0000
0000
,
2002
0000
0000
3003
,
1100
0000
0010
0010
1000
0001
0010
0001
,
1000
0100
0001
1000
0010
0001
1000
0100
,
0110
0000
0010
0010
0001
1000
0100
0001
,
1000
0000
0020
0000
0000
0000
0230
0000
0301
0010
0100
1000
0001
0100
0001
0000
,
1001
0000
0100
0100
1000
0010
0001
0010
,
1000
0200
0000
0302
0000
0203
0000
0310
,
1010
0000
0100
0100
0001
1000
0100
0010
,
0002
0203
2300
3200
0302
0023
2030
3010
,
0001
0000
1000
0001
0100
0000
0110
0000
0000
0010
1000
0000
0001
0000
0100
0000
,
0002
0023
0230
2300
3002
0203
0320
2030
,
3001
0000
0100
0000
0110
0000
0010
1000
0001
0010
0100
0000
0010
0000
1000
0000
,
0002
0023
2030
3200
0320
0032
0203
2300
,
3001
0000
1000
0001
0100
0000
0110
0000
0000
0010
0100
0000
0010
0000
0010
0000
,
1000
0000
0100
0000
1000
0000
0001
0000
0100
0010
0100
1000
0100
1000
0100
0000
,
0001
0000
1000
0001
0100
0000
0101
0000
0000
0100
0010
0000
1000
0000
0010
0000
,
0100
0000
0001
0000
1000
0000
0100
0010
0001
1000
0010
0000
1000
0001
0100
0000
,
1001
0000
0000
0000
,
0000
0000
0000
0000
,
0000
0000
0000
0000
,
0000
0000
0000
0000
0000
0000
0000
0001
,
1000
0010
0100
0000
0010
0000
1000
0000
0100
0010
0001
0000
1000
0000
0001
0000
,
0010
0100
0010
0000
0001
0000
0100
0000
0010
1000
0100
0000
0010
0000
0001
0000
,
1000
0001
0100
0000
0010
0000
1000
0000
0100
0010
0100
0000
1000
0000
0001
0000
,
1000
0010
1000
0010
0100
0000
0001
0010
0100
1000
0010
0000
0100
0000
0001
0000
,
1001
0000
1100
0000
0110
0010
0001
1000
,
1010
0010
1000
0100
0010
0001
0101
0000
,
0110
0000
1001
0000
1100
0100
0010
0001
,
0011
0010
1000
0010
0100
0001
1001
0000
,
1020
0000
0230
0000
0301
0100
1000
0100
,
0001
0010
0100
1000
0010
0100
0001
0000
,
2010
0000
0001
0000
3100
0010
1000
0100
,
0010
0001
1000
0010
0220
0000
0330
0000
,
1000
0000
0000
0100
0000
0000
0001
0000
1000
0000
0000
0100
0000
0000
0010
0000
,
1000
0000
0000
0001
0000
0000
0010
0000
0200
0000
0000
0000
0300
0000
0000
0000
,
0110
0000
0000
0000
,
0000
0000
0000
0000
0000
0000
0000
0000
0100
0010
0100
0010
0100
0010
0100
0010
,
0100
0000
0000
0000
,
0000
0000
0000
0000
1000
0010
0100
0001
,
1000
0000
0000
0000
0000
0001
0000
0000
,
0100
0000
0000
0001
0000
1000
0000
0010
,
0010
0000
0000
0000
0001
0100
0000
0010
1000
0000
0001
0000
0010
0000
0100
1000
,
0002
0000
0000
0003
,
1000
0000
0010
1000
0001
0000
1000
0000
0100
0010
0001
0000
2001
0000
0000
0000
,
3001
0000
0100
0010
1000
0000
0001
0000
0010
0100
0010
0100
1000
0000
0010
0000
,
0100
0000
0001
1000
0100
0000
1000
0000
0010
0100
0001
0000
1000
0100
1000
0100
,
0010
0000
0001
0100
0001
0000
0100
0010
0100
0000
0000
0000
0001
1000
0001
1000
,
0001
0000
1000
0010
0100
0000
0010
0000
1000
0010
0100
0000
0102
0000
0000
0000
,
1003
0000
0001
0100
0010
0000
1000
0000
0001
0100
0001
0000
0001
0100
0001
0000
,
0100
0000
0010
1000
0100
0000
0010
0000
0001
0010
0100
0000
1000
0000
1000
0000
,
0001
0000
1000
0000
0001
0100
0000
1000
0200
0000
0000
0000
0000
0000
0000
0000
,
0301
0000
0100
0010
0100
0000
1000
0000
0100
0010
0100
0000
1002
0000
0000
0000
,
1003
0000
0010
1000
0010
0000
0100
0000
0001
0100
0001
0000
0100
0000
0100
0000
,
0001
1000
0001
1000
0100
0010
0000
0010
0001
1000
0010
0000
0100
0001
0010
0000
,
0012
0000
0000
0000
0103
0000
0010
1000
0010
0000
1000
0100
1000
0000
0001
0100
,
0010
0000
1000
0001
0100
0000
0010
0000
1000
0100
0010
0000
0021
0000
0000
0000
,
0031
0000
1000
0001
1000
0010
0100
0000
0001
0100
0001
0000
0100
0000
0100
0000
,
0010
1000
0010
1000
0010
0000
0100
0001
0100
0001
0100
0000
0001
0000
1000
0000
,
0001
0100
0001
0100
0010
1000
0010
1000
0001
0010
0001
0010
0100
1000
0100
1000
,
0001
0000
0101
1100
,
0000
0011
1010
0110
,
2002
0000
0000
0000
,
0000
0000
0000
0000
,
3003
0000
0000
0000
;

//--------------- dance-double - ----------------
#NOTES:
     dance-double:
     Fred-104:
     Easy:
     10:
     :
00000000
00000000
00000000
00000000
,
00000000
00000000
00000000
00000000
,
00000010
00000010
00000010
00000010
,
00000100
00000001
00000100
00000000
00000010
00000000
00010000
00000000
,
00001000
00001000
00001000
00001000
,
00100000
00100000
00100000
00100000
,
01000000
00001000
00100000
00010000
,
01000000
00001000
00100000
00010000
,
01000000
00001000
00010000
00000100
,
00001000
00000010
00000100
00000001
,
00002002
00000000
00000000
00003003
,
00000001
00000100
00001000
00010000
,
00001000
00000000
00000000
00010000
00000000
00000000
01000000
00000000
,
10000000
00000000
00000000
00010000
00000000
00000000
01000000
00000000
,
00100000
00000000
00000000
10000000
00000000
00000000
01000000
00000000
,
00100000
00000000
00000000
00001000
00000000
00000000
00010000
00000000
,
00000010
00000000
00000000
00001000
00000000
00000000
00000100
00000000
,
00000220
00000000
00000330
00000000
,
00000001
00000000
00000000
00000010
00000000
00000000
00000100
00000000
,
00000010
00000000
00000000
00000010
00000000
00000000
00000001
00000100
,
00000001
00000000
00000000
00000100
00000000
00000000
00001000
00010000
,
00001000
00010000
01000000
00100000
,
00100000
00000000
00000000
10000000
00000000
00000000
01000000
00000000
,
00100000
00000000
00000000
00001000
00000000
00000000
00010000
00001000
,
00010000
00000000
00000000
00000100
00000000
00000000
00000010
00000100
,
00000010
00001000
00000001
00000200
,
00000301
00000010
00000001
00000000
00001000
00000000
00000100
00000000
,
00000010
00000100
00000010
00000000
00010000
00000000
00001000
00000000
,
00100000
00010000
00100000
00000000
00001000
00000000
00010000
00001000
,
00010000
00001000
01000000
00010000
,
01000000
00000000
00000000
00100000
00000000
00000000
10000000
00000000
,
01000000
00000000
00000000
00100000
00000000
00000000
00001000
00010000
,
00001000
00000000
00000000
00010000
00000000
00000000
00000010
00001000
,
00000100
00000000
00000001
00000000
00000100
00001000
00010000
00000000
,
00022000
00000000
00000000
00033000
,
10010000
00000000
00000000
01000000
00000000
00000000
00100000
00000000
,
10000000
00000000
01000000
00000000
00100000
00010000
00100000
00000000
,
00011000
00000000
00000000
00000100
00000000
00000000
00000010
00000000
,
00000001
00000000
00001000
00000000
00000010
00000100
00000010
00000000
,
00001001
00000000
00000000
00000100
00000000
00000000
00000010
00000000
,
00010000
00000000
00001000
00000000
00100000
00001000
00010000
00000000
,
00011000
00000000
00000000
00001000
00000000
00000000
00100000
00000000
,
01000000
00000000
10000000
00000000
00010000
01000000
00100000
00000000
,
10100000
00000000
00000000
01000000
00000000
00000000
00010000
00000000
,
10000000
00000000
01000000
00000000
00100000
01000000
00010000
00000000
,
00101000
00000000
00000000
00001000
00000000
00000000
00010000
00000000
,
00000010
00000000
00001000
00000000
00000100
00000010
00000001
00000000
,
00000101
00000000
00000000
00001000
00000000
00000000
00000100
00000000
,
00000001
00000000
00000100
00000000
00000010
00001000
00000001
00000000
,
00001001
00000000
00000000
00000100
00000000
00000000
00010000
00000000
,
00001000
00100000
00010000
00000000
01000000
00100000
10000000
00000000
,
10010000
00000000
00000000
00000000
,
00000000
00000000
00000000
00000000
,
00000000
00000000
00000000
00000000
,
00000000
00000000
00000000
00000000
,
00200000
10300000
01000000
00100000
,
00002000
00013000
00001000
00100000
,
00002000
00013000
00000010
00010000
,
00001000
00000000
00010000
00001000
00000000
00000100
00000001
00000000
,
00000200
00001300
00000001
00000100
,
00000020
00001030
00000010
00001000
,
00000002
00000103
00001000
00010000
,
00200000
10300000
00010000
01000000
,
00200000
10300000
01000000
00100000
,
02000000
13000000
01000000
00010000
,
00002000
00003100
00000001
00000100
,
00001000
00010000
20020000
30030000
,
10000000
00000000
10000000
00000000
,
10000000
00000000
20000000
30000000
,
10010000
00000000
00000000
00000000
,
00000000
00000000
00000000
00000000
,
00010000
00000000
00000000
00000000
,
00000000
00000000
00000000
00000000
00001000
00000001
00001000
00000001
,
00001000
00000000
00000000
00000000
,
00000010
00000000
00010000
00000000
,
00001000
00000000
00100000
00001000
00010000
00000000
00001000
00000000
,
00022000
00000000
00000000
00033000
,
01000000
00000000
00000000
10000000
00000000
00000000
00010000
00000000
,
10000000
00000000
00000000
01000000
00000000
00000000
00100000
00001000
,
00001000
00000000
00000000
00010000
00000000
00000000
00000100
00001000
,
00000001
00000010
00001000
00000010
,
00000001
00000000
00000000
00000100
00000000
00000000
00000010
00000000
,
00001000
00000000
00000000
00000100
00000000
00000000
00010000
00001000
,
00001000
00000000
00000000
00100000
00000000
00000000
00010000
10000000
,
01000000
00000000
00100000
01000000
02000000
00000000
00000000
00000000
,
13000000
00000000
00000000
00100000
00000000
00000000
01000000
00000000
,
00010000
00000000
00000000
00100000
00000000
00000000
01000000
00000000
,
00100000
00000000
00000000
00001000
00000000
00000000
00000010
00000000
,
00002000
00003002
00000203
00000320
,
00001030
00000000
00000000
00000100
00000000
00000000
00000010
00000000
,
00000100
00000000
00000000
00000001
00000000
00000000
00000100
00000000
,
00001000
00000000
00000000
00000001
00000000
00000000
00001000
00000000
,
00000010
00000000
00010000
00000000
00001000
00001000
00010000
00000000
,
00011000
00000000
00100000
01010000
,
00000000
00100000
10100000
01000000
,
20020000
00000000
00000000
00000000
,
00000000
00000000
00000000
00000000
,
30030000
00000000
00000000
00000000
;

//--------------- dance-double - ----------------
#NOTES:
     dance-double:
     Fred-104:
     Medium:
     14:
     :
00000000
00000000
00000000
00000000
,
00000000
00000000
00000000
00000000
,
01000000
01000000
01000000
01000000
,
00100000
00000000
10000000
00000000
00010000
00000000
00000000
00000000
00100000
00000000
00000000
00100000
01000000
00000000
00100000
00000000
,
00001000
00001000
00001000
00001000
,
00010000
00000000
00010000
00000000
00010000
00000000
00001000
00010000
,
00000010
00001000
00000000
00000100
00000000
00000010
00000000
00000010
,
00000001
00000100
00000000
00001000
00000000
00010000
00000000
00001000
,
00010000
00001000
00000000
00010000
00100000
01000000
00000000
10000000
,
00100000
01000000
00100000
10000000
01000000
00100000
00001000
00010000
,
00002000
00000000
00000000
00003000
,
00001000
00000100
00000010
00000001
00000100
00000001
00000200
00000000
,
00000310
00001000
00001000
00000001
00000100
00001000
00020000
00000000
,
00031000
00010000
00010000
00100000
10000000
00010000
01000000
00100000
,
10000000
01000000
01000000
00100000
00001000
00010000
00002000
00000000
,
00013000
00001000
00000100
00000001
00001000
00000100
00000010
00000001
,
00000100
00000001
00001000
00000001
00000100
00000010
00001000
00000010
,
00002000
00000000
00000002
00003003
,
00000001
00000100
00001000
00010000
01000000
10000000
00010000
00000000
,
10000000
01000000
00010000
00001000
00000100
00000001
00001000
00001000
,
00000001
00000010
00001000
00010000
00100000
10000000
00010000
01000000
,
00100000
00000000
10000000
01000000
00200000
00000000
00301000
00010000
,
00001000
00010000
00010000
00000010
00001000
00001000
00010000
00000000
,
00001000
00010000
00010000
00100000
00001000
00001000
00010000
00000010
,
00001000
00000100
00000100
00000010
00000100
00000100
00001000
00000001
,
00000200
00002300
00023000
02030000
,
03100000
10000000
10000000
01000000
00100000
00100000
00001000
00000000
,
00010000
00001000
00000100
00000001
00001000
00000100
00000010
00000001
,
00001000
00000010
00000100
00000010
00000100
00001000
00010000
00100000
,
02000000
03020000
00032000
00003200
,
00000310
00001000
00010000
00001000
00010000
00100000
01000000
00000000
,
00010000
00001000
00000100
00000001
00000001
00001000
00000100
00000010
,
00000100
00000100
00001000
00010000
00001000
00001000
00010000
01000000
,
00100000
10000000
10000000
00000000
00010000
00000000
00001000
00000000
,
00022000
00000000
00000000
00033000
,
00010010
00000000
00001000
00000100
00000000
00000010
00000001
00001000
,
00000000
00000001
00000000
00000100
00000000
00001000
00000000
00010000
,
00011000
00000000
00001000
00100000
00000000
00010000
10000000
00100000
,
00000000
10000000
00000000
01000000
00000000
00100000
00000000
00001000
,
00011000
00000000
00010000
00001000
00000000
00000100
00000010
00000001
,
00000000
00000100
00000000
00000100
00000000
00001000
00010000
00001000
,
00011000
00000000
00100000
00010000
00000000
10000000
00100000
01000000
,
00010000
10000000
01000000
00100000
00001000
00010000
00002000
00000000
,
00013000
00001000
00000100
00000010
00000000
00000100
00000010
00000100
,
00000000
00001000
00000010
00000100
00000001
00000010
00001000
00010000
,
00001000
00010000
00100000
10000000
00000000
00100000
10000000
00100000
,
00000000
01000000
00100000
10000000
01000000
10000000
01000000
00010000
,
00001000
00010000
00001000
00000100
00000000
00000010
00000001
00001000
,
00000000
00000001
00000100
00001000
00000000
00010000
00001000
00010000
,
00100000
10000000
00010000
01000000
00000000
00100000
10000000
01000000
,
00100000
00001000
00010000
00000010
00001000
00000100
00000010
00000000
,
00001001
00000000
00000000
00000000
,
00000000
00000000
00000000
00000000
,
00000000
00000000
00000000
00000000
,
00000000
00000000
00000000
00000000
,
00000001
00000100
00000001
00000000
00000100
00001000
00000100
00000000
,
00001000
00010000
00001000
00000000
00010000
01000000
00010000
00000000
,
00100000
10000000
00100000
00000000
10000000
01000000
00100000
00000000
,
00001000
00010000
00000010
00000000
00001000
00000001
00000100
00000000
,
00000101
00001100
00011000
01010000
,
11000000
01010000
00011000
00001100
,
00000011
00001010
00011000
00110000
,
10100000
00110000
00011000
00001010
,
00001001
00001010
00010010
00011000
,
00101000
00110000
10010000
10100000
,
10010000
00110000
00101000
00011000
,
00001000
00010000
01000000
00000000
00200000
00000000
00300000
00000000
,
10000000
00000000
00000000
10000000
00000000
00000000
10000000
00000000
00010000
00000000
00000000
00010000
00000000
00000000
00010000
00000000
,
01000000
00000000
00000000
01000000
00000000
00000000
01000000
00000000
02000000
00000000
00000000
00000000
03000000
00000000
00000000
00000000
,
10010000
00000000
00000000
00000000
,
00000000
00000000
00000000
00000000
00001000
00001000
00001000
00001000
,
00001000
00000000
00000000
00000000
,
00000000
00000000
00000000
00000000
00001000
00000100
00000010
00000001
,
00001000
00000000
00000000
00000000
00000000
00000001
00000000
00000000
,
00000100
00000000
00000000
00001000
00000000
00010000
00000000
00000000
,
01000000
00000000
00100000
10000000
00010000
01000000
10000000
01000000
,
00200000
00000000
00000000
00300000
,
00010000
10000000
01000000
10000000
01000000
00010000
00002000
00000000
,
00013000
00001000
00000100
00000001
00001000
00000100
00000010
00000010
,
00000100
00001000
00000001
00000100
00000001
00000100
00001000
00010000
,
00002000
00100000
00003010
00010000
,
00001000
00100000
00100000
00001000
00010000
00010000
00002000
00000000
,
00013000
00100000
00100000
10000000
00100000
00100000
00010000
01000000
,
00100000
10000000
01000000
00100000
00001000
00010000
00000010
00001000
,
00000100
00000010
00000001
00001000
00002000
00000000
00000000
00000000
,
00003001
00000100
00001000
00010000
01000000
10000000
00020000
00000000
,
10030000
01000000
00010000
00001000
00000100
00000001
00001000
00001000
,
00000001
00000010
00001000
00010000
00100000
10000000
00010000
01000000
,
00200000
20300000
32000000
03200000
,
00301000
00010000
00010000
00001000
00000100
00000100
00000010
00000000
,
00000001
00000100
00000100
00001000
00000100
00000100
00000001
00000010
,
00000100
00010000
00001000
00100000
01000000
10000000
00010000
01000000
,
00200000
20300000
32000000
03010000
,
00011000
00000000
00001010
00000011
,
00000000
00000101
00001100
00011000
,
02020000
00000000
00000000
00000000
,
00000000
00000000
00000000
00000000
,
03030000
00000000
00000000
00000000
;

//--------------- dance-double - ----------------
#NOTES:
     dance-double:
     Fred-104:
     Hard:
     17:
     :
00000000
00000000
00000000
00000000
,
00000000
00000000
00000000
00000000
,
00011000
00001000
00001000
00001000
,
00100000
00000000
00100000
00000000
00010000
00000000
00000000
00000000
10010000
00000000
00000000
01000000
00100000
00000000
10000000
00000000
,
01000000
01000000
00100000
00100000
,
00001000
00000000
00001000
00000000
00000010
00000000
00000010
00000100
,
00000001
00000100
00000000
00000100
00000000
00001000
00010000
00100000
,
10000000
00100000
00000000
00001000
00000000
00010000
00000100
00001000
,
00000010
00001000
00000000
00000100
00000010
00000001
00000000
00000100
,
00000001
00000010
00001000
00010000
01000000
10000000
00010000
01000000
,
02200000
00000000
00000000
03300000
,
00010000
01000000
00010000
01000000
00001000
00010000
00001000
00010000
00000010
00001000
00000010
00001000
00000100
00000000
00000000
00000000
,
00000010
00000000
00000001
00001000
00000001
00000000
00000100
00000000
00000010
00001000
00000010
00000000
00000200
00000000
00000000
00000000
,
00010300
00000000
00001000
00100000
00001000
00000000
00010000
00000000
00001000
00010000
00001000
00000000
00100000
00000000
00010000
00000000
,
10000000
00000000
00100000
01000000
00100000
00000000
10000000
00000000
01000000
00100000
01000000
00000000
00020000
00000000
00000000
00000000
,
01030000
00000000
10000000
00010000
10000000
00000000
00100000
00000000
01000000
00010000
01000000
00000000
00010000
00000000
00001000
00000000
,
00000100
00000000
00000010
00000100
00000010
00000000
00001000
00000000
00000001
00000100
00000001
00000000
00000100
00000010
00000100
00000010
,
00000200
00000000
00000020
00000330
,
00000001
00000000
00000100
00000001
00000100
00000000
00000010
00000000
00001000
00000010
00001000
00000000
00000100
00000000
00000010
00000000
,
00000001
00000000
00000100
00000010
00000100
00000000
00001000
00000000
00010000
00001000
00010000
00000000
00001000
00000000
00100000
00000000
,
01000000
00000000
00100000
01000000
00100000
00000000
10000000
00000000
00100000
10000000
00010000
10000000
01000000
00000000
00100000
00000000
,
00001000
00000000
00010000
00001000
00010000
00000000
00000010
00010000
00001000
00010000
00000010
00000000
00001000
00000000
00000010
00000000
,
00000100
00000000
00000001
00001000
00000100
00000000
00000010
00000000
00000100
00001000
00000001
00000000
00000200
00000000
00000000
00000000
,
00000310
00000000
00010000
00001000
00100000
00000000
00001000
00000000
00010000
00000100
00001000
00000000
00000010
00000000
00000100
00000000
,
00000010
00000000
00001000
00000001
00000100
00000000
00000010
00000000
00001000
00000100
00010000
00000000
00001000
00000000
00001000
00000000
,
00200000
00000000
00000000
00000000
00310000
00000000
10000000
00100000
01000000
00000000
00010000
00000000
10000000
01000000
10000000
01000000
,
00100000
00000000
00001000
00000000
00001000
00000000
00001000
00000000
00010000
00000010
00001000
00000010
00002000
00000000
00000000
00000000
,
00003010
00000000
00001000
00000100
00010000
00000000
00000100
00000000
00010000
00001000
00100000
00001000
00010000
00000000
00001000
00000000
,
01000000
00100000
01000000
00000000
00100000
00000000
00010000
00001000
00010000
00000000
00001000
00010000
00001000
00000000
00020000
00000000
,
00032000
00100000
00000010
00103000
,
00001000
00000000
00100000
00001000
00010000
00000000
00000100
00000000
00001000
00000010
00000100
00000000
00000020
00000000
00000000
00000000
,
00001030
00000000
00000100
00010000
00001000
00000000
00100000
00000000
01000000
00100000
00010000
00000000
00002000
00000000
00000000
00000000
,
00013000
00000000
00000010
00001000
00000100
00000000
00010000
00000000
00000010
00001000
00000100
00000000
00010000
00000000
00000010
00000000
,
00001000
00000100
00001000
00000100
00001000
00000000
00000010
00000000
00010000
00000000
00001000
00000000
00100000
00000000
00000000
00000000
,
00022000
00000000
00000000
00033000
,
00101000
00001000
00010000
00100000
00000000
10000000
00100000
00010000
,
00000000
00001000
00010000
00001000
00000010
00000100
00000001
00001000
,
00001001
00000001
00000100
00001000
00000000
00010000
00000100
00010000
,
00000000
00000000
00001000
00000000
01000000
00000000
00001000
00000000
00100000
00010000
10000000
00000000
00100000
01000000
00010000
00000000
,
10010000
10000000
01000000
00100000
00000000
01000000
00100000
00001000
,
00000000
00010000
00000100
00010000
00001000
01000000
00001000
00010000
,
00011000
00001000
00000100
00000010
00000000
00000001
00000010
00001000
,
00000002
00000023
00000230
00020300
00032000
00203000
02300000
13000000
,
00010000
00000000
10000000
00010000
10000000
00000000
00100000
00000000
00000000
01000000
00100000
00000000
10000000
00000000
01000000
00000000
,
20000000
32000000
03200000
00302000
00023000
00030200
00000320
00000032
,
00001003
00000000
00000001
00000000
00000100
00000000
00000001
00000100
00000010
00001000
00000100
00000000
00000010
00000000
00000100
00000000
,
00000020
00000230
00002300
00023000
00230000
02300000
03020000
00032000
,
00003100
00000000
00000010
00000100
00000010
00000000
00001000
00000000
00000000
00000100
00010000
00000000
00001000
00000000
00010000
00000000
,
00100000
00000000
01000000
00000000
00010000
00000000
00100000
00000000
00001000
00000000
00010000
00000100
00010000
00000000
00000100
00000000
,
00000010
00000000
00001000
00000001
00001000
00000000
00000001
00000000
00000000
00000010
00000100
00000000
00000010
00000000
00000001
00000000
,
00000100
00000000
00000010
00000000
00001000
00000000
00000100
00010000
00000100
00010000
00000100
00000000
00010000
00001000
00010000
00000000
,
00011000
00000000
00000000
00000000
,
00000000
00000000
00000000
00000000
,
00000000
00000000
00000000
00000000
,
00000000
00000000
00000000
00000000
00000000
00000000
00000000
00010000
,
00100000
10000000
00100000
00001000
00010000
00000010
00000001
00000010
,
00010000
00001000
00100000
10000000
00100000
00001000
00010000
00000100
,
00000001
00000100
00010000
00001000
01000000
10000000
01000000
00001000
,
00010000
00000100
00010000
00000000
00000010
00000000
00010000
00001000
00010000
00000000
00001000
00000000
00000100
00000000
00000010
00000000
,
00000011
00000000
00001010
00000000
00000010
00000001
00001000
00000010
,
00000100
00000001
00000100
00001000
00010000
01000000
10000000
00000000
,
10100000
00000000
01010000
00000000
01000000
10000000
00100000
01000000
,
00100000
10000000
00100000
00010000
00001000
00000010
00000001
00000000
,
00001001
00000000
00000110
00000000
00001001
00001000
00000100
00000010
,
00000001
00001000
00000100
00010000
00001000
00100000
00010000
00000000
,
01100000
00000000
11000000
00000000
01000000
00010000
10000000
01000000
,
00100000
01000000
00100000
00001000
00022000
00000000
00033000
00000000
,
00001000
00000000
00000000
00000100
00000000
00000000
00000001
00000000
00000010
00000000
00000000
00001000
00000000
00000000
00010000
00000000
,
01000000
00000000
00000000
10000000
00000000
00000000
00100000
00000000
00020000
00000000
00000000
00000000
00030000
00000000
00000000
00000000
,
00011000
00000000
00000000
00000000
,
00000000
00000000
00000000
00000000
00000000
00000000
00000000
00000000
00000001
00001000
00000001
00001000
00000001
00001000
00000001
00001000
,
00000001
00000000
00000000
00000000
,
00000000
00000000
00000000
00000000
00010000
00001000
01000000
00010000
,
00100000
00000000
00000000
00000000
00000000
01000000
00000000
00000000
,
00100000
00000000
00000000
11000000
00000000
01010000
00000000
00100000
,
00001000
00000000
00000000
00000000
00010000
00001000
00000000
00010000
00001000
00000000
00000100
00000000
00000010
00000000
00000100
00000010
,
00000200
00000000
00000000
00000300
,
00010000
00000000
00001000
00010000
00001000
00000000
00100000
00000000
00001000
00010000
00001000
00000000
02000000
00000000
00000000
00000000
,
03001000
00000000
00010000
00000100
00010000
00000000
00001000
00000000
00000100
00000010
00000100
00000010
00000100
00000000
00000010
00000000
,
00001000
00000000
00000100
00010000
00000100
00000000
00010000
00000000
00001000
00100000
00001000
00000000
01000000
00010000
01000000
00010000
,
01000000
00000000
00100000
10000000
00100000
00000000
10000000
00000000
02000000
00000000
00000000
00000000
03100000
00010000
00100000
00000000
,
00001000
00000000
00010000
00000010
00001000
00000000
00000100
00000000
00010000
00000010
00001000
00000000
00000200
00000000
00000000
00000000
,
00010300
00000000
00001000
00100000
00010000
00000000
01000000
00000000
00001000
00100000
00001000
00000000
00100000
00001000
00100000
00000000
,
00001000
00000000
00100000
00010000
01000000
00000000
00001000
00000000
00100000
00010000
01000000
00000000
00100000
00000000
00100000
00000000
,
10000000
00000000
00100000
00000000
10000000
01000000
00000000
00100000
00002000
00000000
00000000
00000000
00000000
00000000
00000000
00000000
,
00013000
00000000
00000100
00001000
00000100
00000000
00010000
00000000
00000010
00001000
00000010
00000000
00000200
00000000
00000000
00000000
,
00000301
00000000
00001000
00000010
00000100
00000000
00000001
00000000
00001000
00000100
00000010
00000000
00000001
00000000
00000001
00000000
,
00000100
00000010
00000100
00000010
00000100
00000010
00000000
00000010
00001000
00000001
00000100
00000000
00000010
00001000
00000001
00000000
,
00000200
00000000
00000000
00000000
00001300
00000000
00010000
00001000
00010000
00000000
00100000
00010000
00100000
00000000
00010000
00000000
,
10000000
00000000
00010000
01000000
00100000
00000000
10000000
00000000
01000000
00100000
00001000
00000000
00020000
00000000
00000000
00000000
,
00030010
00000000
00001000
00000000
00000001
00000100
00000001
00000000
00000100
00000010
00000100
00000000
00000010
00000000
00000010
00000000
,
00000100
00000001
00000100
00000001
00001000
00000000
00000010
00000100
00000010
00000100
00000010
00000000
00001000
00000000
00000100
00000000
,
00010000
00000100
00010000
00000100
00010000
00001000
00010000
00001000
00100000
00001000
00100000
00001000
00100000
00010000
00100000
01000000
,
10000000
00000000
11000000
01010000
,
00000000
00011000
00001010
00000011
,
00002002
00000000
00000000
00000000
,
00000000
00000000
00000000
00000000
,
00003003
00000000
00000000
00000000
;
