#TITLE:Snowy India;
#ARTIST:Mutsuhiko Izumi;
#BANNER:Snowy India.png;
#BACKGROUND:Snowy India-bg.png;
#CDTITLE:./CDTitles/GFDM XG3.png;
#MUSIC:Snowy India.ogg;
#SAMPLESTART:19.029;
#SAMPLELENGTH:15;
#BPMS:0=175;
#TIMESIGNATURES:0=4=4,124=6=4,148=4=4,308=6=4,320=4=4;
#BGSTAGE:16;

//--------------- dance-single - Fred-104 ----------------
#NOTES:
     dance-single:
     Fred-104:
     Beginner:
     3:
     :
0000
0000
0000
0000
,
0000
0000
0000
0000
,
0000
0000
0000
0000
,
1000
0000
0001
0000
,
2000
3000
0002
0003
,
0200
0300
0020
0030
,
1000
0000
0000
0001
,
0001
0000
0100
0000
,
0002
0000
0003
0000
,
1000
0000
0001
0001
,
0001
0000
0100
0000
,
0010
0000
1000
0000
,
0001
0000
0010
0000
,
0100
0000
1000
0000
,
0001
0000
1000
0000
,
0002
0000
0003
0000
,
0100
0000
0010
0000
,
0200
0000
0300
0000
,
0010
0000
1000
0000
,
0200
0000
0300
0000
,
1000
0000
0001
0000
,
2000
3000
0002
0003
,
1000
0000
0010
0000
,
1000
0000
0100
0000
,
1000
0000
0010
0000
,
0100
0000
0001
0000
,
1000
0000
0100
0000
,
1000
0000
0001
0001
,
0002
0003
2000
3000
,
0001
0000
1000
1000
,
1000
0000
0001
0000
,
1000
0000
0001
0000
,
1000
0000
1001
0000
,
0000
0000
0000
0000
,
0002
0000
0000
0000
,
0000
0003
1000
0000
,
1000
0000
1000
0000
,
0001
0000
1000
0000
,
0002
0000
0003
0000
,
1000
0000
0010
0000
,
1000
0000
0100
0000
,
1000
0000
0001
0001
,
0001
0000
1000
0000
,
0001
0000
0010
0000
,
0001
0000
1000
0000
,
0001
0000
0001
0000
,
0001
0000
1000
0000
,
0100
0000
0010
0000
,
0001
0000
0100
0000
,
0010
0000
1000
0000
,
0002
0000
0000
0003
,
2000
0000
0000
3000
,
0001
0000
1000
0000
,
0001
0000
1000
0000
,
1001
0000
0000
0000
,
0000
0000
0000
0000
,
0000
0000
0000
0000
,
0000
0000
0000
0000
,
1000
0000
0010
0000
,
1000
0000
0001
0000
,
1000
0000
0001
0000
,
1000
0000
0000
0000
,
0001
0000
0000
0000
,
2000
0000
3000
0000
,
0002
0000
0003
0000
,
1000
0000
0010
0000
,
1000
0000
0100
0000
,
1000
0000
0001
0000
,
0100
0000
0001
0000
,
1000
0000
0001
0000
,
2000
0000
3000
0000
,
0010
0000
1000
0000
,
0002
0000
0003
0000
,
1000
0000
0100
0000
,
0020
0000
0030
0000
,
0001
0000
1000
0000
,
0002
0000
0000
0003
,
2000
0000
0000
0000
,
0000
3000
0001
0000
,
1000
0000
0001
0000
,
1000
0000
0001
0000
,
0000
0000
1001
0000
;

//--------------- dance-single - Fred-104 ----------------
#NOTES:
     dance-single:
     Fred-104:
     Easy:
     8:
     :
0000
0000
0000
0000
,
0000
0000
0000
0000
,
0000
0000
0000
0000
,
1000
0100
1000
0000
0010
0000
0100
0000
,
0002
0103
2000
3100
,
0002
0013
2000
3010
,
0002
0000
0103
0010
,
0100
0010
0100
0000
0001
0000
1000
0000
,
0002
0000
2003
0000
,
3002
0000
0000
0000
1003
0001
1000
0000
,
0001
0010
1000
0010
,
0001
0010
0100
1000
,
0001
0100
1000
0100
,
0001
0000
1000
0000
0001
0100
0001
0000
,
2000
0000
3100
0010
,
0002
0000
0103
0010
,
0200
0000
0301
1000
,
0001
0000
0100
0000
0010
0000
1000
0100
,
2000
0000
3100
0010
,
0002
0000
0013
0001
,
0200
0000
0310
1000
,
0001
1000
0001
0000
0100
0010
0100
0000
,
0001
0000
0010
0000
0100
0000
1000
1000
,
1000
0000
0010
0000
0100
0000
0010
0010
,
0010
0000
1000
0000
0010
0000
0100
0100
,
0100
0000
0001
0000
1000
0001
1000
0000
,
0001
0000
0010
0000
0100
0000
0010
0010
,
0010
0000
0100
0000
0010
0001
0010
0000
,
0002
0000
2003
0000
,
3002
0000
0103
0010
,
2000
0000
3200
0000
,
0310
0001
1000
0001
,
1000
0001
1000
0000
2002
0000
0000
0000
,
0000
0000
0000
3003
,
2000
0000
3002
0000
,
2003
0000
3001
1001
,
1000
0010
0100
0001
,
2000
0000
0002
3003
,
1000
0010
0200
0000
,
0301
0000
0000
0010
0000
0000
0001
0000
,
0100
0010
0100
0001
,
1000
0001
1001
0000
,
0002
0000
0013
0100
,
0010
0001
2000
3000
,
0010
1000
0200
0000
,
1300
1000
0001
0001
,
2000
3100
0001
0000
,
2000
3010
0001
0000
,
2000
3010
1000
0100
,
0010
0100
0110
0000
,
0001
1000
0001
0100
,
0001
0010
0100
1000
,
0001
0100
0001
0000
1000
0010
1000
0000
,
0001
0010
0100
1000
,
1001
0000
0000
0000
,
2000
0000
3000
0000
,
0020
0000
0030
0000
,
2000
3002
0023
0230
,
1300
0100
1000
0000
0010
0000
0100
0000
,
0002
0013
2000
3010
,
0002
0103
2000
3100
,
0002
0000
1003
0010
,
0100
0010
0100
0000
0001
1000
0001
0000
,
2002
0000
3003
1000
,
0020
0000
0000
0000
0130
0010
0100
0000
,
0001
0010
1000
0010
,
0001
0010
0100
1000
,
0001
0100
1000
0100
,
0001
0000
1000
0000
0100
0010
0100
0000
,
2000
0000
3010
0100
,
0020
0000
1030
0100
,
0020
0000
0031
1000
,
0001
0100
0110
0000
,
2000
0000
3010
1000
,
0002
0000
1003
0001
,
0100
0010
0200
0000
,
0301
1000
0001
0100
,
0002
0000
2003
0000
,
3020
0000
0130
0110
,
1000
0001
0100
0010
,
1000
0001
1000
0001
,
0000
0000
0000
0000
1000
0000
1001
0000
0000
0000
0000
0000
;

//--------------- dance-single - Fred-104 ----------------
#NOTES:
     dance-single:
     Fred-104:
     Medium:
     13:
     :
0000
0000
0000
0000
,
0000
0000
0000
0000
,
0000
0000
0000
0000
,
0001
0001
0010
0100
1000
1000
0001
1000
,
0200
0000
1300
0010
0002
0000
1003
0100
,
0002
0000
1003
0100
0010
0001
0100
0010
,
0200
0000
0000
0000
0000
0301
1000
0001
,
0010
0010
0001
1000
0100
0100
1000
0001
,
0200
0000
0010
0000
1000
0000
0310
0100
,
0002
0000
1003
0100
0010
0001
0100
0010
,
1010
0000
1100
0000
1010
0000
1000
0100
,
0110
0000
0101
0000
0110
0000
0010
0001
,
0101
0000
0011
0000
0101
0000
0001
0100
,
0110
0000
1001
0000
0010
0100
0001
1000
,
0200
0000
2300
0000
3002
0000
0103
0010
,
1000
0010
0200
0000
0301
0000
1000
0100
,
0020
0000
0000
0000
0031
0000
1000
0000
0001
0000
0000
0100
0000
0000
0010
0000
,
0100
0010
0100
0001
1000
0000
1001
0000
,
0002
0000
0000
0000
0023
0000
0000
0000
0031
0000
0000
1000
0000
0000
0010
0000
,
0100
0001
2000
0000
3200
0000
0310
0001
,
1000
0000
0000
0000
0010
0000
0100
0000
0002
0000
0000
0203
0000
0000
0320
0000
,
0130
0100
0001
0010
0100
0100
1000
0001
,
1001
0000
1100
0000
1001
0000
1000
0100
,
0110
0000
1100
0000
0110
0000
0010
0001
,
0101
0000
0011
0000
0101
0000
0001
0100
,
0110
0000
1010
0000
0100
0010
1000
0100
,
1100
0000
0101
0000
1000
0010
0100
0001
,
0011
0000
1001
0000
1000
0100
0010
0001
,
2000
3100
0002
0013
,
2000
0000
3010
1000
0100
1000
0001
0010
,
0200
0310
0002
1003
,
0002
0000
0203
0000
0310
1000
1001
0000
,
0001
0100
0010
1000
0002
0000
0000
0000
,
0000
0000
0000
0003
,
1000
0010
0001
0100
,
1000
0001
1000
1001
,
0001
0010
0001
1000
0010
1000
0001
0100
,
0002
0023
0230
2300
,
3002
0000
0100
0000
0100
0000
0103
0010
,
0100
0001
1000
0100
0000
1000
0010
0100
,
0001
0010
0001
1000
0001
0100
0001
0000
,
0110
0000
1001
0000
1010
0000
1000
0100
,
2000
0000
3010
0000
0200
0000
0310
1000
,
0001
0010
0100
0010
0001
1000
0001
0000
,
0200
0010
1000
0310
,
0100
0000
0010
0000
1001
0000
0001
0100
,
0001
0010
0100
0000
1000
0010
0100
0000
,
0001
1000
0100
0000
1000
0010
0100
0000
,
0001
0100
0010
1000
0100
1000
0002
0000
,
0103
0000
0110
0000
1000
0001
0100
0001
,
2000
3200
0320
2030
,
3020
0000
0032
0000
2003
0000
3001
1000
,
0001
0100
0010
1000
0001
0010
0100
1000
,
0001
1001
0100
0110
,
1001
0000
0000
0000
,
0002
0000
0003
0000
,
2000
0000
3000
0000
,
0002
2003
3200
0320
,
0031
0100
0001
0010
0100
1000
0010
0100
,
0002
0000
1003
0010
0002
0000
1003
0100
,
0002
0000
1003
0100
0010
0001
0100
0010
,
2000
0000
0000
0000
0000
3010
1000
0010
,
0100
0001
0010
0001
1000
0010
0100
0001
,
2002
0000
0000
0000
3003
0000
0001
1000
,
0002
0000
0000
0000
1003
0100
0010
0001
,
1001
0000
0110
0000
1001
0000
1000
0100
,
1100
0000
1010
0000
1100
0000
0100
0010
,
0011
0000
0101
0000
0011
0000
0001
0100
,
0110
0000
1001
0000
0001
0100
0010
1000
,
0002
0000
0000
0100
0000
0000
0103
0000
0001
0000
1000
0000
,
0001
0000
0100
0000
0010
0000
1000
0100
,
0020
0000
0000
0000
0000
0000
0031
0000
0000
1000
0000
0000
0010
0000
0000
0000
1000
0000
0000
0000
0100
0000
0000
0000
,
1000
0000
1001
0000
0001
0100
0001
0010
,
0002
0000
0000
0000
0000
0000
0103
0000
0000
0010
0000
0000
0100
0000
0000
0000
0001
0000
0000
0000
0010
0000
0000
0000
,
0100
1000
0020
0000
0130
0001
1000
0100
,
2000
0000
0000
0000
0000
0000
3010
0000
0000
1000
0000
0000
0100
0000
0000
0000
0010
0000
0000
0000
0100
0000
0000
0000
,
1000
0100
1000
0100
0010
0001
0010
0001
,
1000
0010
0001
0100
,
1000
0001
1000
1001
,
0001
0100
0001
0010
0001
1000
0001
0100
,
0010
0000
1000
0000
0001
0000
0100
0000
0001
1000
0001
1000
0001
1000
0001
1000
,
0001
0000
0000
0000
1000
0000
1001
0000
0000
0000
0000
0000
;

//--------------- dance-single - Fred-104 ----------------
#NOTES:
     dance-single:
     Fred-104:
     Hard:
     16:
     :
0000
0000
0000
0000
,
0000
0000
0000
0000
,
0000
0000
0000
0000
,
1000
0010
1000
0000
0100
0000
0010
0000
0001
0100
0001
0000
1000
0000
0001
0000
,
0200
0000
0000
0000
0301
1000
0001
0000
0020
0000
0000
0000
0130
1000
0100
0000
,
2000
0000
0000
0000
3100
0010
0100
0000
0010
0000
0001
0000
1000
0000
0001
0000
,
1000
0020
0000
0000
0000
0000
0000
0000
0000
0000
1030
0000
0001
0000
1000
0000
,
0001
1000
0001
0000
0100
0000
0010
0000
1000
0001
1000
0000
0100
0000
0010
0000
,
0002
0000
0100
0000
0010
0003
0100
0010
,
0200
0000
0000
0000
0310
0000
0100
0001
1000
0100
1000
0100
0010
0001
0010
0001
,
1000
0000
0000
1000
0100
0000
0000
0100
0010
0000
0000
1000
0010
0000
0001
0000
,
1000
0000
0000
1000
0001
0000
0000
0001
0100
0000
0000
1000
0100
0000
0010
0000
,
1000
0000
0000
1000
0010
0000
0000
0010
0001
0000
0000
0010
0100
0000
0001
0000
,
1000
0000
0000
0100
0010
0000
0000
0001
1000
0001
1000
0001
2000
0000
3200
0000
,
0320
0000
0032
0000
1003
1000
0001
0100
,
2000
0000
3200
0000
0320
0000
1030
0000
0001
0000
1000
0000
0010
0100
0001
1000
,
0200
0000
0000
0000
0320
0000
0000
0000
0031
0000
0000
0100
0000
0000
0010
0000
,
0002
0000
0000
0000
0023
0000
2030
0000
3002
0000
0000
0000
1003
0010
0100
0001
,
2000
0000
0000
0000
3200
0000
0000
0000
0310
0000
0000
0100
0000
0000
1000
0000
,
0001
0000
0010
0000
2000
0000
0000
0000
3020
0000
0000
0000
0130
1000
0100
1000
,
0002
0000
0000
0000
0203
0000
0320
0000
1030
0000
0000
0100
0000
0000
0010
0000
,
0001
0100
0001
0100
0001
0000
0010
0000
0100
1000
0100
1000
0001
0000
1000
0000
,
0001
0000
1000
0100
1000
0000
0001
0010
0001
0000
1000
0000
0010
0100
0010
0000
,
1000
0000
0001
0100
0001
0000
1000
0010
1000
0000
0100
0000
0010
0001
0010
0000
,
0001
0000
0010
0100
0010
0000
0001
1000
0001
0000
0100
0000
0010
1000
0010
0000
,
1000
0000
0001
0010
0001
0000
1000
0010
0100
0001
1000
0010
0100
0001
1000
0010
,
0100
0000
0001
0010
0100
0000
1000
0010
0100
0000
0001
0000
1000
0100
0010
0000
,
0001
0000
1000
0100
0010
0000
0001
0010
0100
1000
0100
1000
0001
1000
0001
0000
,
0200
0000
0010
0300
0002
0000
0100
0003
,
0020
0000
0230
2300
3002
0203
0320
2030
,
3002
0000
0000
0000
0010
0000
0003
0000
2000
0000
0000
0000
3001
0000
1000
0010
,
0200
0000
0302
0000
1003
0001
1001
0000
,
1000
0100
0010
0001
1000
0100
0010
0002
2000
0000
0000
0000
0000
0000
0000
0000
,
0000
0000
0000
3003
,
1000
0010
0000
0100
0000
0001
0000
1000
0000
0100
0000
0010
0000
0001
0000
0010
,
0000
0100
0000
1000
0000
0001
0000
0100
0010
0000
0000
0000
1001
0000
0000
0000
,
1000
0100
1000
0100
1000
0000
0001
0100
0001
0100
0001
0000
1000
0001
1000
0000
,
0001
0010
0001
0010
0100
1000
0100
1000
0001
0100
0010
1000
0001
0010
0100
1000
,
0020
0000
0000
0000
1000
0000
0000
0000
0100
0000
0000
0000
1030
0000
0100
0010
,
0001
0100
0001
2001
0000
3010
1000
0100
,
1000
0000
0010
0100
0010
0000
1000
0000
0200
0000
0302
0000
0203
0000
0300
0000
,
1100
0000
0000
0000
0101
0000
0000
0000
1001
0000
0000
0000
0001
0010
0100
1000
,
0002
0000
0010
0003
0200
0000
0320
0230
,
0301
0000
1000
0010
0100
0000
0010
0000
1000
0100
0010
0001
1000
0000
0000
0000
,
0001
0010
0100
1000
0010
0100
0001
0100
1000
0100
0001
0010
,
0001
0000
0101
0000
1001
0000
1000
0100
,
1000
0010
1000
0010
0100
0000
0001
0000
0010
0001
0010
0001
0010
0000
0100
0000
,
1000
0010
0100
0001
1000
0000
0100
0000
0010
0001
1000
0010
0100
0000
0001
0000
,
0010
0001
1000
0001
0100
0000
0010
0000
1000
0000
0001
1000
0200
0000
0320
0000
,
0031
0000
0000
0000
0110
0000
0000
0000
1001
0000
0000
0000
1000
0001
0100
0001
,
1000
0100
0010
0001
0010
0100
1000
0010
0100
0010
1000
0100
,
1000
0000
0010
0000
0001
0000
1000
0000
0100
0000
0001
0000
1000
0000
0100
0000
0010
0000
0001
0000
0000
1000
0000
0000
,
0001
0000
0100
0000
0010
0000
1000
0000
0100
1000
0100
1000
0001
0010
0001
0010
,
0001
0000
1001
0000
0100
0010
0110
0000
,
2001
0000
3020
0000
,
0230
0000
0302
0000
,
2003
0000
0000
0000
0000
0000
0000
0000
3100
0000
0010
0000
0001
0010
0001
0010
,
0002
0203
0320
2030
,
3001
0010
0001
0000
1000
0000
0001
0000
0100
0001
0100
0001
0010
0000
0100
0000
,
0020
0000
0000
0000
0130
1000
0010
0000
0200
0000
0000
0000
0301
1000
0010
0000
,
2000
0000
0000
0000
3100
0010
0001
0000
0100
0000
0010
0000
0100
0000
0010
0000
,
1000
0002
0000
0000
0000
0000
0000
0000
0000
0000
0103
0000
1000
0000
0100
0000
,
0001
0100
0001
0000
0010
0000
0100
0000
1000
0010
0100
0010
1000
0000
0001
0000
,
2002
0000
0000
0000
3003
0000
1000
0010
,
0200
0000
0000
0000
0000
0000
0000
0000
0301
1000
0100
0010
0001
1000
0100
0010
,
0001
0000
0000
0001
0100
0000
0000
0100
1000
0000
0000
0100
0001
0000
0010
0000
,
0100
0000
0000
0100
0001
0000
0000
0001
0100
0000
0000
1000
0010
0000
0100
0000
,
0001
0000
0000
0001
1000
0000
0000
1000
0100
0000
0000
0010
1000
0000
0010
0000
,
0100
0000
0000
1000
0001
0000
1000
0001
0100
0001
1000
0001
0010
0000
0100
0000
,
2000
0000
0000
0100
0000
0000
3100
0000
1000
0000
0001
0000
,
0010
0000
0100
0000
0020
0000
0000
0000
0031
1000
0100
0000
1000
0000
0001
1000
,
0020
0000
0000
0000
0000
0000
1030
0000
0000
0001
0000
0000
0010
0000
0000
0000
0100
0000
0000
0000
1000
0000
0000
0000
,
0001
0100
0010
0000
0110
0000
0000
0000
2100
0000
0100
0000
0100
0000
3100
0000
,
2000
0000
0000
0000
0000
0000
3010
0000
0000
1000
0000
0000
0001
0000
0000
0000
0100
0000
0000
0000
0010
0000
0000
0000
,
0100
0000
0001
0000
2000
0000
0000
0000
3100
0000
1000
0000
0001
1000
0001
1000
,
0002
0000
0000
0000
0000
0000
2003
0000
0000
3020
0000
0000
0130
0000
0000
0000
0001
0000
0000
0000
1000
0000
0000
0000
,
0001
0010
0001
0010
0100
1000
0100
1000
0001
0010
0100
1000
0001
0000
1000
0000
,
0001
0010
0000
0100
0000
1000
0000
0001
0000
1000
0000
0010
0000
0100
0000
0001
,
0000
1000
0000
0100
0000
0001
0000
0100
1000
0000
0000
0000
1001
0000
0000
0001
,
1000
0001
0100
0001
1000
0010
0100
0010
1000
0100
0010
0100
1000
0001
0010
0100
,
1000
0010
1000
0010
0100
0001
0100
0001
1000
0001
1000
0001
0010
0100
0010
0100
,
1000
0000
0000
0000
0110
0000
1001
0000
0000
0000
0000
0000
;

//--------------- dance-double - Fred-104 ----------------
#NOTES:
     dance-double:
     Fred-104:
     Easy:
     8:
     :
00000000
00000000
00000000
00000000
,
00000000
00000000
00000000
00000000
,
00000000
00000000
00000000
00000000
,
00001000
00010000
00001000
00000000
01000000
00000000
00001000
00000000
,
00200000
00310000
00000020
00001030
,
02000000
03010000
00000200
00001300
,
00020000
00000000
00031000
00010000
,
00001000
00010000
00001000
00000000
00000010
00000000
00001000
00000000
,
00020000
00000000
00032000
00000000
,
00023000
00000000
00000000
00000000
01030000
00010000
01000000
00000000
,
00001000
00010000
00100000
01000000
,
00010000
00001000
00000100
00000010
,
00001000
00010000
00100000
01000000
,
00010000
00000000
00001000
00000000
00010000
00001000
00010000
00000000
,
02000000
00000000
03001000
00010000
,
00002000
00000000
00103000
00001000
,
00020000
00000000
00030010
00001000
,
00000010
00000000
00000100
00000000
00000010
00000000
00001000
00000001
,
00002000
00000000
00003010
00010000
,
00002000
00000000
00013000
00001000
,
02000000
00000000
03001000
00010000
,
00001000
00100000
00001000
00000000
00010000
00001000
00010000
00000000
,
00001000
00010000
01000000
10000000
,
00100000
00010000
00001000
00000010
,
00000001
00000100
00001000
00010000
,
01000000
00000000
10000000
00000000
00010000
10000000
00010000
00000000
,
10000000
00000000
00100000
00000000
00010000
00000000
00001000
00010000
,
00001000
00000000
00000010
00000000
00000001
00001000
00000001
00000000
,
00000200
00000000
00000320
00000000
,
00002030
00000000
00003100
00010000
,
00002000
00000000
00023000
00000000
,
00031000
00010000
00100000
10000000
,
00010000
10000000
00010000
00000000
20020000
00000000
00000000
00000000
,
00000000
00000000
00000000
30030000
,
02000000
00000000
03200000
00000000
,
02300000
00000000
03010000
00011000
,
00010000
00000100
00001000
00000100
,
00000020
00000000
00000200
00000330
,
00001000
00000001
00002000
00000000
,
00003100
00000000
00000000
00000010
00000000
00000000
00000100
00000000
,
00000010
00010000
00001000
00010000
,
00100000
01000000
01100000
00000000
,
00020000
00000000
10030000
00100000
,
10000000
01000000
20000000
30000000
,
00010000
00100000
02000000
00000000
,
03100000
00100000
00001000
00001000
,
00020000
00031000
00000010
00000000
,
00002000
00013000
01000000
00000000
,
00020000
00031000
00000100
00001000
,
00010000
00001000
00011000
00000000
,
00001000
00100000
00010000
10000000
,
00100000
01000000
00010000
10000000
,
01000000
00100000
01000000
00000000
00100000
00001000
00100000
00000000
,
00001000
00010000
01000000
10000000
,
10010000
00000000
00000000
00000000
,
02000000
00000000
03000000
00000000
,
00200000
00000000
00300000
00000000
,
00002000
00023000
00030200
00020300
,
00031000
00010000
00001000
00000000
01000000
00000000
00010000
00000000
,
00002000
00013000
00200000
00310000
,
00002000
00003010
00002000
00013000
,
02000000
00000000
03010000
00001000
,
00010000
00001000
00010000
00000000
00001000
00000000
00000100
00000000
,
00000220
00000000
00000330
00000001
,
00002000
00000000
00000000
00000000
00013000
00001000
00010000
00000000
,
00001000
00010000
00100000
01000000
,
00010000
00001000
00000100
00000010
,
00001000
00010000
00100000
01000000
,
00001000
00000000
00010000
00000000
00001000
00010000
00001000
00000000
,
00200000
00000000
00301000
00010000
,
00002000
00000000
00013000
00001000
,
00000020
00000000
00001030
00010000
,
00001000
00000100
00001100
00000000
,
00002000
00000000
00013000
01000000
,
00020000
00000000
00031000
00010000
,
00100000
00010000
00002000
00000000
,
00013000
00001000
00000010
00001000
,
00020000
00000000
00032000
00000000
,
00023000
00000000
01030000
01000000
,
00100000
10000000
01000000
00100000
,
00001000
00010000
00000100
00000010
,
00000000
00000000
00000000
00000000
00000001
00000000
00001001
00000000
00000000
00000000
00000000
00000000
;

//--------------- dance-double - Fred-104 ----------------
#NOTES:
     dance-double:
     Fred-104:
     Medium:
     13:
     :
00000000
00000000
00000000
00000000
,
00000000
00000000
00000000
00000000
,
00000000
00000000
00000000
00000000
,
00001000
00001000
00100000
00010000
01000000
01000000
00001000
00010000
,
00002000
00000000
00103000
00001000
00000020
00000000
00000130
00001000
,
02000000
00000000
03100000
00010000
00000010
00010000
00001000
00010000
,
02000000
00000000
00000000
00000000
00000000
03100000
10000000
00100000
,
01000000
01000000
00010000
00001000
00000100
00000100
00000001
00001000
,
00000200
00000000
00001000
00000000
00000010
00000000
00001300
00000001
,
00000100
00000000
00000010
00001000
00000100
00010000
00001000
00010000
,
00011000
00000000
00010010
00000000
00011000
00000000
00001000
00010000
,
00011000
00000000
01001000
00000000
00011000
00000000
00001000
00010000
,
00011000
00000000
00010100
00000000
00011000
00000000
00001000
00010000
,
00011000
00000000
00101000
00000000
00001000
00010000
00100000
10000000
,
00020000
00000000
02030000
00000000
03200000
00000000
10300000
01000000
,
00010000
00001000
00020000
00000000
00130000
00000000
10000000
00010000
,
20000000
00000000
00000000
00000000
31000000
00000000
00100000
00000000
00001000
00000000
00000000
00010000
00000000
00000000
00000100
00000000
,
00010000
00001000
00010000
00000010
00001000
00000000
00001100
00000000
,
00000200
00000000
00000000
00000000
00000320
00000000
00000000
00000000
00000031
00000000
00000000
00000010
00000000
00000000
00000100
00000000
,
00010000
00001000
00000200
00000000
00000302
00000000
00001003
00000001
,
00000100
00000000
00000000
00000000
00000010
00000000
00001000
00000000
00000200
00000000
00000000
00020300
00000000
00000000
00032000
00000000
,
00013000
00010000
01000000
00001000
00010000
00010000
00000010
00001000
,
00011000
00000000
01001000
00000000
00010100
00000000
00010000
00001000
,
00011000
00000000
00101000
00000000
00010010
00000000
00001000
00010000
,
00011000
00000000
00010100
00000000
01001000
00000000
00001000
00010000
,
00011000
00000000
00010010
00000000
00001000
00100000
00010000
01000000
,
01100000
00000000
10100000
00000000
10000000
01000000
00010000
00001000
,
00011000
00000000
00001010
00000000
00000010
00000001
00001000
00000001
,
00000200
00000301
00000020
00000130
,
00020000
00000000
00031000
00010000
00001000
01000000
00001000
00010000
,
00200000
10300000
02000000
03010000
,
00002000
00000000
00023000
00000000
00031000
00010000
00011000
00000000
,
00001000
00010000
00000100
00001000
00000002
00000000
00000000
00000000
,
00000000
00000000
00000000
00000003
,
00000001
00000010
00001000
00010000
,
01000000
10000000
00010000
10010000
,
10000000
01000000
00010000
00001000
00010000
00100000
00010000
00001000
,
00020000
02030000
03020000
00032000
,
00023000
00000000
00001000
00000000
00100000
00000000
00031000
00010000
,
00001000
00010000
00000010
00001000
00000000
00000100
00010000
00001000
,
00100000
00010000
10000000
00010000
00100000
01000000
00100000
00000000
,
00110000
00000000
10010000
00000000
11000000
00000000
10000000
01000000
,
00020000
00000000
00130000
00000000
20000000
00000000
30010000
10000000
,
00010000
01000000
00100000
00010000
00001000
00000100
00000010
00000000
,
00020000
00000100
01000000
00030100
,
00010000
00000000
00001000
00000000
00011000
00000000
00001000
00010000
,
00000100
00001000
00000001
00000000
00000100
00000010
00001000
00000000
,
00000001
00000010
00001000
00000000
00010000
01000000
10000000
00000000
,
01000000
00010000
00001000
00010000
00100000
00010000
00002000
00000000
,
00013000
00000000
00011000
00000000
00010000
00001000
00000010
00001000
,
00020000
00032000
00003200
00002300
,
00023000
00000000
02030000
00000000
03020000
00000000
00031000
00010000
,
00001000
00010000
00100000
00010000
00001000
00000010
00001000
00010000
,
00001000
00001100
00000010
00000011
,
00001001
00000000
00000000
00000000
,
00002000
00000000
00003000
00000000
,
00020000
00000000
00030000
00000000
,
02000000
03020000
00032000
00023000
,
00130000
00010000
00001000
00010000
01000000
00010000
00001000
00010000
,
00200000
00000000
00310000
00001000
00000020
00000000
00001030
00010000
,
02000000
00000000
03010000
00001000
00000100
00001000
00010000
00001000
,
00000020
00000000
00000000
00000000
00000000
00001030
00010000
00100000
,
00010000
00001000
00010000
01000000
00010000
00001000
00000100
00001000
,
00022000
00000000
00000000
00000000
00033000
00000000
00010000
00000100
,
00002000
00000000
00000000
00000000
00003001
00000100
00000010
00001000
,
00000001
00000000
00000000
00000001
00000100
00000000
00000000
00000100
00001000
00000000
00000000
00001000
00010000
00000000
00100000
00000000
,
10000000
00000000
00000000
10000000
01000000
00000000
00000000
01000000
00010000
00000000
00000000
00010000
00001000
00000000
00000010
00000000
,
00000001
00000000
00000000
00000001
00000100
00000000
00000000
00000100
00001000
00000000
00000000
00001000
00010000
00000000
00100000
00000000
,
10000000
00000000
00000000
10000000
00010000
00000000
00000000
00010000
01000000
00000000
00100000
00000000
10000000
00000000
01000000
00000000
,
00200000
00000000
00000000
00001000
00000000
00000000
00301000
00000000
00010000
00000000
00010000
00000000
,
00000100
00000000
00001000
00000000
00000100
00000000
00000010
00000001
,
00002000
00000000
00000000
00000000
00000000
00000000
00003001
00000000
00000000
00000100
00000000
00000000
00001000
00000000
00000000
00000000
00010000
00000000
00000000
00000000
00000100
00000000
00000000
00000000
,
00000010
00000000
00001001
00000000
00000001
00001000
00000010
00010000
,
00002000
00000000
00000000
00000000
00000000
00000000
00103000
00000000
00000000
00010000
00000000
00000000
10000000
00000000
00000000
00000000
00100000
00000000
00000000
00000000
01000000
00000000
00000000
00000000
,
00010000
10000000
02000000
00000000
03100000
00010000
10000000
00100000
,
02000000
00000000
00000000
00000000
00000000
00000000
03010000
00000000
00000000
00100000
00000000
00000000
01000000
00000000
00000000
00000000
00100000
00000000
00000000
00000000
00001000
00000000
00000000
00000000
,
00010000
00001000
00100000
00001000
00010000
00000010
00010000
00000000
,
00001000
00000010
00000001
00000100
,
00001000
00010000
00100000
10010000
,
10000000
01000000
00010000
00001000
00000010
00000001
00000100
00001000
,
00010000
00000000
00100000
00000000
10000000
00000000
00010000
00000000
10000000
00010000
10000000
00010000
10000000
00010000
10000000
00010000
,
10000000
00000000
00000000
00000000
01000000
00000000
01100000
00000000
00000000
00000000
00000000
00000000
;

//--------------- dance-double - Fred-104 ----------------
#NOTES:
     dance-double:
     Fred-104:
     Hard:
     16:
     :
00000000
00000000
00000000
00000000
,
00000000
00000000
00000000
00000000
,
00000000
00000000
00000000
00000000
,
00000001
00000010
00000001
00000000
00000100
00000000
00000010
00000000
00001000
00000100
00001000
00000000
00000010
00000000
00010000
00000000
,
00002000
00000000
00000000
00000000
00103000
00001000
00100000
00000000
00020000
00000000
00000000
00000000
01030000
00100000
01000000
00000000
,
00020000
00000000
00000000
00000000
10030000
01000000
10000000
00000000
01000000
00000000
00100000
00000000
00001000
00000000
00010000
00000000
,
00001000
00020000
00000000
00000000
00000000
00000000
00000000
00000000
00000000
00000000
00031000
00000000
00010000
00000000
00000010
00000000
,
00001000
00000100
00000010
00000001
00000100
00001000
00010000
00001000
,
00020000
00000000
01000000
00000000
00030100
00000000
00010000
00001000
,
00020000
00000000
00000000
00000000
00031000
00000000
00100000
00010000
10000000
00010000
10000000
00010000
00100000
00000000
00010000
00000000
,
10000000
01000000
00010000
01000000
10000000
01000000
00010000
00001000
,
00010000
00001000
00000010
00000001
00000010
00001000
00010000
00001000
,
00000100
00001000
00010000
01000000
00010000
00001000
00010000
00100000
,
00010000
00000000
00001000
00000000
00000010
00000000
00000001
00001000
00000001
00001000
00000001
00001000
00000001
00000000
00000100
00000000
,
00000020
00000000
00002030
00000000
00003001
00000010
00000100
00010000
,
00001000
00000000
00000100
00000000
00000001
00000000
00000000
00000000
00001000
00000000
00000010
00000000
00010000
00000000
00001000
00010000
,
00002000
00000000
00000000
00000000
00100000
00000000
00000000
00000000
00003010
00000000
00000000
00010000
00000000
00000000
00001000
00000000
,
00020000
00000000
00000000
00000000
00032000
00000000
00203000
00000000
00320000
00000000
00000000
00000000
10030000
01000000
00100000
00010000
,
00200000
00000000
00000000
00000000
00302000
00000000
00000000
00000000
00013000
00000000
00000000
00000100
00000000
00000000
00001000
00000000
,
00000100
00000000
00000001
00000000
00000200
00000000
00000000
00000000
00020300
00000000
00000000
00000000
00031000
00010000
00001000
00010000
,
00002000
00000000
00000000
00000000
00203000
00000000
00320000
00000000
10030000
00000000
00000000
00100000
00000000
00000000
01000000
00000000
,
00010000
01000000
00010000
01000000
00010000
00000000
00100000
00000000
00001000
00010000
00001000
00010000
00001000
00000000
00010000
00000000
,
00000010
00000000
00001000
00000100
00001000
00000000
00000001
00000010
00000001
00000000
00000100
00000000
00000001
00001000
00000001
00000000
,
00000010
00000000
00000100
00001000
00000100
00000000
00010000
00001000
00010000
00000000
00000010
00000000
00001000
00000100
00001000
00000000
,
00000100
00000000
00010000
00001000
00010000
00000000
01000000
00100000
01000000
00000000
00010000
00000000
10000000
01000000
10000000
00000000
,
00100000
00000000
01000000
00010000
01000000
00000000
00001000
00010000
00000100
00001000
00000100
00001000
00000001
00000100
00000001
00000000
,
00001000
00000000
00000100
00000010
00000100
00000000
00001000
00000010
00001000
00000000
00000001
00000000
00000100
00000010
00001000
00000000
,
00000100
00000000
00010000
00001000
00010000
00000000
00001000
00100000
00001000
00100000
00010000
00100000
01000000
10000000
01000000
00000000
,
20000000
00000000
30100000
00010000
20000000
00000000
31000000
00010000
,
20000000
00000000
30200000
00320000
00032000
00003200
00000302
00002003
,
00003002
00000000
00000000
00000000
00000103
00000000
00000001
00000000
00000020
00000000
00000000
00000000
00000130
00000000
00001000
00000100
,
00020000
00000000
00032000
00000000
00013000
00001000
00011000
00000000
,
00010000
00001000
00010000
00001000
00010000
00001000
00010000
00002000
00020000
00000000
00000000
00000000
00000000
00000000
00000000
00000000
,
00000000
00000000
00000000
00033000
,
00001000
00010000
00000000
00100000
00000000
00010000
00000000
00001000
00000000
00000010
00000000
00001000
00000000
00010000
00000000
01000000
,
00000000
00010000
00000000
00001000
00000000
00000100
00000000
00001000
00010000
00000000
00000000
00000000
00011000
00000000
00000000
00000000
,
00001000
00100000
00001000
00000000
00010000
00000000
00001000
01000000
00001000
00000000
00010000
00000000
00000100
00001000
00000100
00000000
,
00001000
00000010
00001000
00000010
00000100
00000001
00000100
00000001
00001000
00000100
00000010
00000001
00001000
00000000
00000001
00000000
,
00000200
00000000
00000000
00000000
00000001
00000000
00000000
00000000
00000010
00000000
00000000
00000000
00000301
00000000
00001000
00000010
,
00001000
00000100
00010000
00012000
00000000
00013000
00001000
01000000
,
00010000
00000000
00100000
01000000
00100000
00000000
00001000
00000000
00020000
00000000
00032000
00000000
00003020
00000000
00000030
00000000
,
00000011
00000000
00000000
00000000
00001001
00000000
00000000
00000000
00001010
00000000
00000000
00000000
00000010
00010000
00001000
00010000
,
00200000
00000000
10300000
00000000
00020000
00000000
01030000
00100000
,
10000000
00000000
00010000
10000000
00100000
00000000
01000000
00000000
00010000
00100000
00010000
00100000
00010000
00000000
00000000
00000000
,
10000000
01000000
00010000
00001000
00010000
00100000
00010000
00001000
00000010
00001000
00010000
00001000
,
00000100
00000000
00000011
00000000
00001001
00000000
00000001
00000100
,
00000001
00000010
00000100
00000000
00000010
00000000
00000001
00000000
00001000
00000010
00000100
00000000
00000010
00000000
00010000
00000000
,
00001000
00100000
00010000
00000000
10000000
00000000
00100000
00000000
01000000
00010000
00100000
00000000
01000000
00000000
10000000
00000000
,
00100000
10000000
01000000
00000000
00100000
00000000
00001000
00000000
00010000
00000000
00000100
00000010
00000001
00000000
00002000
00000000
,
00003001
00000000
00000000
00000000
00000110
00000000
00000000
00000000
00001001
00000000
00000000
00000000
00000001
00000100
00000010
00001000
,
00000001
00000010
00000100
00010000
00001000
00000100
00000001
00000010
00000100
00010000
00001000
00000100
,
00000001
00000000
00000010
00000000
00000100
00000000
00010000
00000000
00001000
00000000
00000100
00000000
00000001
00000000
00001000
00000000
00000001
00000000
00000100
00000000
00000000
00000001
00000000
00000000
,
00000010
00000000
00000100
00000000
00001000
00000000
00000100
00000000
00010000
00001000
00010000
00001000
00100000
00010000
00100000
01000000
,
10000000
00000000
10010000
00000000
01000000
00100000
01100000
00000000
,
00021000
00000000
00030200
00000000
,
00002300
00000000
00003002
00000000
,
00000203
00000000
00000000
00000000
00000000
00000000
00000000
00000000
00000310
00000000
00001000
00000000
00000100
00010000
00000100
00010000
,
00002000
00203000
02300000
23000000
,
30010000
10000000
00010000
00000000
01000000
00000000
00100000
00000000
10000000
00100000
10000000
00100000
01000000
00000000
00100000
00000000
,
20000000
00000000
00000000
00000000
31000000
00100000
01000000
00000000
00200000
00000000
00000000
00000000
00301000
00010000
00001000
00000000
,
00020000
00000000
00000000
00000000
00030010
00001000
00000010
00000000
00000100
00000000
00000001
00000000
00001000
00000000
00000001
00000000
,
00000010
00000200
00000000
00000000
00000000
00000000
00000000
00000000
00000000
00000000
00010300
00000000
00001000
00000000
00010000
00000000
,
01000000
10000000
01000000
00000000
10000000
00000000
00010000
00000000
01000000
00100000
01000000
00100000
01000000
00000000
00010000
00000000
,
00220000
00000000
00000000
00000000
00330000
00000000
00100000
00001000
,
00020000
00000000
00000000
00000000
00000000
00000000
00000000
00000000
00031000
00010000
00001000
00010000
00000010
00001000
00000010
00001000
,
00000001
00000010
00001000
00010000
00001000
00000100
00001000
00010000
,
01000000
00010000
00001000
00010000
00100000
00010000
00001000
00000010
,
00001000
00010000
01000000
00010000
00001000
00000100
00001000
00010000
,
00100000
00000000
10000000
00000000
00010000
00000000
10000000
00010000
10000000
01000000
10000000
01000000
00100000
00000000
00001000
00000000
,
00020000
00000000
00000000
00000000
00000000
00000000
00030100
00000000
00000000
00001000
00000000
00000000
00000001
00000000
00000000
00000000
00000010
00000000
00000000
00000000
00000100
00000000
00000000
00000000
,
00000001
00000000
00000100
00000000
00002000
00000000
00000000
00000000
00003001
00000000
00000100
00000000
00000010
00000000
00001000
00000100
,
00002000
00000000
00000000
00000000
00000000
00000000
00003100
00000000
00000000
00010000
00000000
00000000
00001000
00000000
00000000
00000000
00010000
00000000
00000000
00000000
00100000
00000000
00000000
00000000
,
10000000
00010000
10000000
00000000
11000000
00000000
00000000
00000000
01000000
00000000
00100000
00000000
00001000
00000000
00010000
00000000
,
00021000
00000000
00000000
00000000
00000000
00000000
00030010
00000000
00000000
00010000
00000000
00000000
00001000
00000000
00000000
00000000
00010000
00000000
00000000
00000000
00000100
00000000
00000000
00000000
,
00001000
00000000
00000100
00000000
00000020
00000000
00000000
00000000
00000031
00000000
00000100
00000000
00000001
00001000
00000001
00001000
,
00000002
00000000
00000000
00000000
00000000
00000000
00000103
00000000
00000000
00000010
00000000
00000000
00001000
00000000
00000000
00000000
00010000
00000000
00000000
00000000
01000000
00000000
00000000
00000000
,
00100000
01000000
00100000
01000000
00010000
10000000
00010000
10000000
01000000
00100000
01000000
00100000
00001000
00000000
00010000
00000000
,
00001000
00010000
00000000
00001000
00000000
00000010
00000000
00001000
00000000
00010000
00000000
00100000
00000000
00010000
00000000
00001000
,
00000000
00000100
00000000
00001000
00000000
00010000
00000000
01000000
00010000
00000000
00000000
00000000
00011000
00000000
00000000
00010000
,
00000100
00001000
00000100
00001000
00000001
00000100
00000001
00000100
00000010
00001000
00000010
00001000
00000100
00010000
00000100
00010000
,
00001000
00100000
00001000
00100000
00010000
10000000
00010000
10000000
01000000
00100000
01000000
00100000
00010000
10000000
01000000
00100000
,
00010000
00000000
00000000
00000000
00010010
00000000
00011000
00000000
00000000
00000000
00000000
00000000
;
