#TITLE:Sinus Iridum;
#ARTIST:神楽改;
#ARTISTTRANSLIT:Kagura Kai;
#GENRE:KAMIKURA;
#BANNER:Sinus Iridum.png;
#BACKGROUND:Sinus Iridum-bg.png;
#CDTITLE:./CDTitles/bm IIDX 28 BISTROVER.png;
#MUSIC:Sinus Iridum.ogg;
#SAMPLESTART:63.751;
#SAMPLELENGTH:15;
#BPMS:0=128,40=256,168=128,200=256,392=128;

//--------------- dance-single - Fred-104 ----------------
#NOTES:
     dance-single:
     Fred-104:
     Beginner:
     6:
     :
0000
0000
0000
0000
,
0000
0000
0000
0000
,
0000
0000
0000
0000
,
0000
0000
0000
0000
,
0000
0000
0000
0000
,
0000
0000
0000
0000
,
0000
0000
0000
0000
,
0000
0000
0000
0000
,
2002
0000
0000
0000
,
0000
0000
0000
3003
,
1000
0000
1000
0000
,
1000
0000
0000
0000
,
0100
0000
0100
0000
,
0100
0000
0000
0000
,
0001
0000
0001
0000
,
0001
0000
0000
0000
,
0010
0000
0010
0000
,
0010
0000
0000
0000
,
0100
0000
0100
0000
,
0100
0000
0000
0000
,
0010
0000
0010
0000
,
0010
0000
0000
0000
,
1000
0000
1000
0000
,
1000
0000
0000
0000
,
0001
0000
0001
0000
,
2002
0000
3003
0000
,
1000
0000
1000
0000
,
0001
0000
0001
0000
,
0100
0000
0100
0000
,
0010
0000
0010
0000
,
0100
0000
0100
0000
,
0001
0000
0001
0000
,
1000
0000
0001
0000
,
1000
0000
0000
0000
,
0001
0000
0001
0000
,
0010
0000
0010
0000
,
0100
0000
0100
0000
,
1000
0000
1000
0000
,
0001
0000
0001
0000
,
1000
0000
1000
0000
,
0001
0000
0100
0000
,
0010
0000
0000
0000
,
1001
0000
0000
0000
,
1000
0100
0010
0001
,
2000
0000
0000
3000
,
0001
0100
0010
1000
,
0002
0000
0000
0003
,
0010
0100
1000
0001
,
2002
0000
0000
0000
,
0000
0000
0000
3003
,
1000
0000
1000
0000
,
0001
0000
0100
0000
,
0010
0000
0010
0000
,
0100
0000
0100
0000
,
0001
0000
1000
0000
,
0100
0000
0100
0000
,
0010
0000
0010
0000
,
0001
0000
0001
0000
,
1000
0000
1000
0000
,
0010
0000
0010
0000
,
0001
0000
0001
0000
,
0010
0000
0010
0000
,
0100
0000
0100
0000
,
0001
0000
0001
0000
,
1000
0000
0001
0000
,
2000
0000
3000
0000
,
0001
0000
0001
0000
,
0010
0000
0010
0000
,
0100
0000
0100
0000
,
0010
0000
0010
0000
,
0001
0000
1000
0000
,
0001
0000
0100
0000
,
0010
0000
0010
0000
,
0100
0000
0100
0000
,
0001
0000
0001
0000
,
1000
0000
1000
0000
,
0100
0000
0100
0000
,
0010
0000
0010
0000
,
0001
0000
1000
0000
,
0010
0000
0100
0000
,
0001
0000
1000
0000
,
1001
0000
0000
0000
,
1000
0000
1000
0000
,
0100
0000
0010
0000
,
0001
0000
1000
0000
,
0001
0000
0100
0000
,
0010
0000
0000
0000
,
0100
0000
0100
0000
,
0001
0000
1000
0000
,
0001
0000
0010
0000
,
0100
0000
0100
0000
,
1000
0000
0001
0000
,
1000
0000
0000
0000
,
0001
0000
1000
0000
,
0010
0000
0000
0000
,
0100
0000
0100
0000
,
0001
0000
1000
0000
,
0001
0000
0001
0000
,
1001
0000
0000
0000
,
1000
0100
0001
0010
,
1000
0000
0000
0000
,
0001
0100
1000
0010
,
0002
0000
0000
0003
,
1000
0010
0001
0100
,
2002
0000
0000
0000
,
0000
0000
0000
0000
0000
0000
0000
0000
0000
0000
0000
0000
0000
0000
0000
3003
;

//--------------- dance-single - Fred-104 ----------------
#NOTES:
     dance-single:
     Fred-104:
     Easy:
     11:
     :
0000
0000
0000
0000
,
0000
0000
0000
0000
,
0000
0000
0000
0000
,
0000
0000
0000
0000
,
0000
0000
0000
0000
,
0000
0000
0000
0000
,
0000
0000
0000
0000
,
0000
0000
0000
0000
,
2002
0000
0000
0000
,
0000
0000
0000
3003
,
1000
0000
0100
0000
,
1000
0100
0010
0001
,
1000
0000
0001
0000
,
0100
0010
1000
0001
,
0010
0000
0100
0000
,
0010
0001
1000
0001
,
0100
0000
0010
0000
,
0100
0001
0100
0010
,
0100
0000
0001
0000
,
0010
0100
1000
0001
,
1000
0000
0010
0000
,
0100
0010
1000
0100
,
0010
0000
0001
0000
,
0100
0001
1000
0001
,
0010
0000
0100
0000
,
2002
0000
3003
0000
,
1100
0000
1000
0001
,
0100
0000
0010
0100
,
0010
0000
1000
0001
,
0010
0000
0100
0010
,
0001
0000
0110
0000
,
1001
0000
0001
0100
,
0010
0000
1000
0010
,
0100
0010
0100
0010
,
1000
0000
0001
0010
,
0100
0000
0010
0001
,
0100
0000
0010
1000
,
0001
0000
0010
0100
,
1000
0000
0001
1000
,
0010
0000
0110
0000
,
0100
0001
0100
0001
,
1000
0100
0010
0001
,
2000
0000
3001
0001
,
1000
1000
0010
0100
0001
0001
0010
0100
,
0020
0000
0031
1000
,
0001
0001
0100
0010
1000
1000
0001
0010
,
0200
0000
0000
0000
0310
0000
0001
0001
,
1000
1000
0010
0100
0010
0010
1000
0001
,
2002
0000
0000
0000
,
0000
0000
0000
3003
,
0110
0000
0000
1000
0000
0000
0001
0000
,
0100
0010
1000
0001
,
0010
0000
0000
0010
0000
0000
0010
0000
,
0100
0010
0001
1000
,
0001
0000
0000
0001
0000
0000
0001
0000
,
0100
0010
1000
0001
,
0010
0000
0000
0010
0000
0000
0010
0000
,
0100
0010
0001
1000
,
0001
0000
0000
0001
0000
0000
0001
0000
,
0100
0010
0100
0001
,
1000
0000
0000
1000
0000
0000
1000
0000
,
0100
0010
0100
1000
,
0001
0000
0000
0001
0000
0000
0001
0000
,
0100
0010
1000
0001
,
0010
0000
0000
0100
0000
0000
0010
0000
,
2002
0000
3003
0000
,
0101
0000
0100
0010
,
1000
0001
0010
0010
,
0100
0000
0000
0010
0000
0000
0001
0000
,
0011
0000
0001
1000
,
0110
0000
1001
0000
,
0001
0100
1000
0100
,
0001
0000
0000
0001
0000
0000
0001
0000
,
1000
0100
0010
0001
,
1001
0000
0001
0100
,
0010
1000
0010
0100
,
0001
0000
0000
0001
0000
0000
0001
0000
,
1000
0100
1000
0001
,
0101
0000
1000
0000
,
0011
0000
1001
0000
,
1000
0010
0100
0001
,
1000
0100
0010
0001
,
1000
0000
0001
0100
,
0010
0100
0001
0100
,
0010
1000
0001
1000
,
0100
0010
0100
1000
,
1001
0000
0110
0000
,
0001
1000
0010
0100
,
0001
1000
0100
0010
,
0001
0010
0100
0000
,
1000
0010
1000
0100
,
1000
0001
0100
0010
,
1000
0000
0000
1000
0000
0000
1000
0000
,
0001
0010
0100
0000
,
1100
0000
0001
0000
,
1010
0000
1001
0000
,
0001
0100
0010
1000
,
0100
0010
0001
1000
,
0002
0000
1003
1000
,
0001
0001
0100
0010
1000
1000
0001
0010
,
0200
0000
0310
0001
,
0100
0010
1000
0001
0010
0100
1000
0001
,
0200
0000
0000
0000
0000
0000
0310
1000
,
0200
0000
0310
0001
0200
0000
0320
0030
,
2002
0000
0000
0000
,
0000
0000
0000
0000
0000
0000
0000
0000
0000
0000
0000
0000
0000
0000
0000
3003
;

//--------------- dance-single - Fred-104 ----------------
#NOTES:
     dance-single:
     Fred-104:
     Medium:
     16:
     :
0000
0000
0000
0000
,
0000
0000
0000
0000
,
0000
0000
0000
0000
,
0000
0000
0000
0000
,
0000
0000
0000
0000
,
0000
0000
0000
0000
,
0000
0000
0000
0000
,
0000
0000
0000
0000
,
2002
0000
0000
0000
,
0000
0000
0000
3003
,
1000
0100
1000
0100
0010
0001
0010
0001
,
1000
0010
0100
0010
1000
0010
0100
0000
,
0001
0010
0001
0010
0100
1000
0100
1000
,
0001
0100
0010
0100
0001
0100
0010
0000
,
1000
0100
0010
0100
1000
0100
0010
0001
,
1000
0010
0100
0010
1000
0001
0010
0000
,
0100
0010
0001
0010
0100
0010
0001
0100
,
0010
1000
0001
0010
0100
1000
0001
0000
,
0100
0010
1000
0010
0100
0010
1000
0001
,
0010
0100
1000
0100
0010
0001
1000
0000
,
0001
0010
0100
0010
0001
0010
0100
1000
,
0010
0100
0010
1000
0100
0010
0001
0000
,
1000
0100
1000
0001
0100
0010
1000
0001
,
0010
0100
1000
0010
0100
0001
1000
0000
,
0100
0010
0001
0100
0010
1000
0100
0010
,
0200
0000
0000
0000
1300
0100
1000
0000
,
1001
0001
0100
0010
,
1010
0000
1000
0001
0010
0000
0100
0000
,
0110
0000
0010
0000
0001
1000
0001
0100
,
0001
0100
0010
1010
,
0002
0013
2000
3010
,
0011
0000
1000
0001
0100
0000
0010
0000
,
1000
0000
0100
0010
0001
0000
1000
0000
,
1010
0110
0101
1001
,
1000
0000
0100
0000
0010
0000
0001
1000
,
0001
0000
0100
0010
1000
0000
0001
0000
,
0010
0100
0010
0000
0001
1000
0001
0000
,
0100
0010
1000
0000
0010
0100
0001
0000
,
1100
0000
0010
0001
0010
0000
0000
0000
,
0101
0000
0010
1000
0010
0000
0000
0000
,
1001
0000
1000
0000
0100
0000
0010
0001
,
1000
0001
1000
0001
0100
0010
1000
0001
,
0020
0000
0000
0000
0130
0100
1000
1000
,
0001
0100
0001
0100
0010
0000
1010
0000
1000
0001
0010
0100
1000
0010
0100
0001
,
0200
0000
0000
0000
0010
0000
0310
0000
0110
0000
1000
0001
1000
0000
0001
0000
,
0010
0100
1000
0001
0100
0010
1000
0001
0010
0100
1000
0100
0010
0001
0100
0010
,
1000
0000
0001
0010
0001
0000
0100
0000
0120
0000
2030
0000
3002
0000
2003
0000
,
3100
0010
0001
1000
0010
0100
0001
1000
0100
0010
0001
0010
0100
1000
0010
0100
,
0020
0000
0000
0000
,
0200
0000
0000
0330
,
1001
0000
0001
0100
0000
1000
0100
0001
,
1000
0000
0000
0000
0000
0000
0100
0000
0000
0010
0000
0000
0001
0000
0000
0000
0000
0000
1000
0000
0010
0000
1000
0000
,
0010
0000
0100
0010
0000
0001
0010
0000
,
1000
0000
0001
0010
0100
0000
0010
0001
,
0100
0000
0010
0100
0000
1000
0100
0001
,
1000
0000
0000
0000
0000
0000
0100
0000
0000
0010
0000
0000
0001
0000
0000
0000
0000
0000
0100
0000
0010
0000
0100
0000
,
0010
0000
0001
0010
0000
0100
0010
1000
,
0001
0000
0010
0100
1000
0010
0100
0001
,
1000
0000
0001
0010
0000
0100
1000
0000
,
1001
0000
0000
0000
0000
0000
0001
0000
0000
0100
0000
0000
0010
0000
0000
0000
0000
0000
1000
0000
0100
0000
1000
0000
,
0001
0000
1000
0010
0000
0100
0001
0000
,
1001
0000
0001
0100
1000
0000
0001
0010
,
1000
0000
0001
0010
0000
0100
0010
0001
,
1000
0000
0000
0010
0000
0000
1000
0000
0000
0001
0000
0000
0100
0000
0000
0010
0000
0000
1000
0000
0001
0000
0010
0000
,
0100
1000
0010
0100
0001
1000
0100
0000
,
0220
0000
0330
0000
,
1001
0000
0001
0100
0010
0000
1000
0000
,
0110
0000
0001
0010
0100
1000
0010
0100
,
0001
0000
1000
0100
0000
0001
0100
0010
,
0100
0000
1000
0001
0100
0010
1000
0001
,
2000
0100
3002
0010
,
2003
0000
3010
0100
0001
0000
1001
0000
,
0110
0000
0001
0100
0000
0010
1000
0000
,
1001
0000
0001
0010
0100
1000
0010
1000
,
0001
0000
0100
0001
0010
0000
0100
0000
,
1100
0000
0001
1000
0010
1000
0010
1000
,
0001
0000
0010
0100
0010
0000
0011
0000
,
1001
0000
1000
0010
0001
0000
1000
0100
,
0001
0000
0010
0100
1000
0000
0001
0000
,
0110
0000
1000
0010
0100
0000
0001
1000
,
0001
0000
0010
0100
1000
0000
1001
0000
,
0101
0000
0110
0000
1010
0000
0001
1000
,
0001
0000
0100
0010
1000
0000
0100
0000
,
0110
0000
0001
1000
0010
0100
0010
0100
,
0010
0000
1000
0001
0010
0000
0100
0000
,
1100
0000
0001
0100
1000
0100
1000
0100
,
0002
0010
2003
0100
,
3001
0000
0010
0100
1000
0000
0001
1000
,
0001
0000
0100
0010
0000
1000
0100
0000
,
0110
0000
0001
0010
1000
0010
0001
1000
,
0001
0000
0100
0001
0010
0000
0100
0000
,
0110
0000
1000
0010
0100
0010
1000
0100
,
0010
0000
0001
1000
0010
0000
0110
0000
,
0101
0000
0001
0010
0100
1000
0010
0100
,
0001
0000
0010
0100
1000
0000
0110
0000
,
1000
0000
0100
0010
0001
0000
0110
0000
,
1001
0000
0001
0100
0000
0010
1000
0001
,
0010
1000
0001
0100
1000
0010
0001
1000
,
0200
0000
0000
0000
0301
0100
0010
1000
,
0001
0010
0100
1000
0100
0010
0001
1000
0010
0100
0010
1000
0100
0010
0001
1000
,
0020
0000
0000
0000
0000
0031
0010
1000
,
0001
0010
0100
1000
0010
0100
0001
1000
0100
0001
0100
1000
0001
0100
1000
0100
,
0002
0000
0000
0000
0000
0000
0023
0230
,
2300
0000
3020
0230
0302
0000
2003
0000
,
0002
0000
0000
0000
,
0000
0000
0000
0000
0000
0000
3003
0000
1000
0100
0010
0001
0100
0010
1000
1001
;

//--------------- dance-single - Fred-104 ----------------
#NOTES:
     dance-single:
     Fred-104:
     Hard:
     18:
     :
0000
0000
0000
0000
,
0000
0000
0000
0000
,
0000
0000
0000
0000
,
0000
0000
0000
0000
,
0000
0000
0000
0000
,
0000
0000
0000
0000
,
0000
0000
0000
0000
,
0000
0000
0000
0000
,
2002
0000
0000
0000
,
0000
0000
0000
3003
,
0001
1000
0100
1000
0010
0100
0010
1000
,
1001
0001
0010
0100
1000
0100
0010
0001
,
0100
0010
1000
0001
0010
0100
0010
0001
,
0011
0000
0000
0010
0000
0000
0100
0000
0000
1000
0000
0000
0001
0000
0100
0000
0010
0000
1000
0000
0100
0000
0010
0000
,
0001
0010
0100
1000
0001
1000
0010
0100
,
1100
1000
0100
0001
1000
0100
0010
0001
,
1000
0001
0100
0010
1000
0001
0010
0100
,
0110
0000
0000
0010
0000
0000
1000
0000
0000
0010
0000
0000
0001
0000
1000
0000
0001
0000
0100
0000
0010
0000
0100
0000
,
0010
1000
0100
0001
0100
1000
0001
0100
,
0110
0010
1000
0001
0010
0100
1000
0001
,
0100
1000
0100
0010
0100
0001
1000
0100
,
0110
0000
0000
0010
0000
0000
0100
0000
0000
1000
0000
0000
0010
0000
0100
0000
0010
0000
1000
0000
0100
0000
0010
0000
,
0001
0010
1000
0010
0001
0100
1000
0100
,
0101
0001
0010
0100
1000
0001
0100
0010
,
0001
0000
0000
0010
0000
0000
1000
0000
0000
0100
0000
0000
0010
0000
0100
0000
1000
0000
0010
0000
0100
0000
0001
0000
,
0200
0000
0000
0000
0310
0100
0010
0000
,
1010
0101
1100
0011
,
1001
0000
0001
0100
1000
0100
1000
0100
,
0101
0000
0011
0000
1000
0100
0010
0001
,
1000
0010
0100
1000
0100
0010
0110
0000
,
0102
1003
0012
1003
,
0110
0000
0001
0100
0010
0000
1001
0000
,
0001
0010
1000
0000
0001
0100
1000
0000
,
1010
0011
0101
1100
,
1002
0000
0023
0000
0230
0000
0301
1000
,
0010
0001
1000
0010
0100
0001
1000
0100
,
0010
0000
1000
0010
0001
0010
0100
0010
,
0110
0000
1000
0000
0110
0000
0002
0003
,
1001
0000
0001
0100
0010
0000
1000
0100
,
0110
0000
0001
1000
0010
0100
0001
1000
,
0100
0010
0001
0100
0010
1000
0100
0010
,
1000
0001
1000
0001
0100
1000
0100
1000
,
1002
0000
0000
0000
1000
0000
0000
0000
0013
0000
0100
1000
0001
0000
0101
0000
,
0100
0000
0010
0000
0100
0000
0010
0000
0100
0000
0000
0000
1100
0000
0000
0000
1000
0000
0100
0000
0001
0000
1000
0000
0100
0010
0100
0000
1000
0000
0020
0000
,
0001
0000
0000
0000
0130
0000
0010
1000
0001
0000
0010
1000
0010
0001
0010
0000
,
0100
0000
0100
0000
1000
0000
0001
0000
0100
0010
0100
0000
0010
0000
1000
0000
0100
0000
0100
0000
0010
0000
0001
0000
0100
0010
0100
0000
0010
0000
1000
0000
,
0001
0000
0010
0100
1000
0000
0110
0000
0002
0000
0203
0000
0320
0000
2030
0000
,
3001
1000
0001
0000
0010
0000
0100
0000
1000
0001
1000
0000
0010
0000
0100
0000
0001
0010
0001
0000
0100
0000
0010
0000
1000
0100
1000
0000
0010
0000
0100
0000
,
0002
0000
0000
0000
,
2000
0000
0000
3003
,
1100
1000
0001
0101
0100
0010
1000
0001
,
1001
0000
0000
0000
0000
0000
0000
0000
0000
0000
0000
0000
1000
0000
0000
0000
0000
0000
0000
0000
0000
0000
0000
0000
0100
0000
0000
0010
0000
0000
0100
0000
0000
0010
0000
0000
0100
0000
0000
0000
1000
0000
0000
0000
0001
0000
0000
0000
,
1000
0001
0100
0110
0010
1000
0100
0010
,
0011
0000
0000
0000
1000
0000
0001
0000
0100
0010
0100
0000
0001
0000
0010
0000
,
0110
0100
1000
1010
0010
0100
0001
1000
,
1001
0000
0000
0000
0000
0000
0000
0000
0000
0000
0000
0000
0011
0000
0000
0000
0000
0000
0000
0000
0000
0000
0000
0000
0010
0000
0000
0100
0000
0000
0010
0000
0000
0100
0000
0000
0010
0000
0000
0000
0100
0000
0000
0000
1000
0000
0000
0000
,
0001
0100
0010
1010
1000
0001
0010
0100
,
0110
0000
0000
0000
0011
0000
0000
0000
0001
1000
0001
0000
1000
0000
0010
0000
,
0110
0100
0001
1001
1000
0010
0100
0010
,
1010
0000
0000
0000
0000
0000
0000
0000
0000
0000
0000
0000
1001
0000
0000
0000
0000
0000
0000
0000
0000
0000
0000
0000
0001
0000
0000
1000
0000
0000
0001
0000
0000
1000
0000
0000
0100
0000
0000
0000
0010
0000
0000
0000
0001
0000
0000
0000
,
1000
0001
0100
0110
0010
1000
0001
0010
,
0012
0000
1003
0010
0002
0000
1003
0100
,
0101
0001
0010
0110
0100
1000
0010
0100
,
0101
0000
0000
0000
0000
0000
0000
0000
0000
0000
0000
0000
0001
0000
0000
1000
0000
0000
0001
0000
0000
1000
0000
0000
0001
0000
0000
0000
0000
0000
0000
0000
0000
0000
0000
0000
1000
0000
0000
0000
0100
0000
0000
0000
0010
0000
0000
0000
,
0001
0100
0010
1010
1000
0001
0010
0100
,
0220
0000
0300
0030
,
1001
1000
0010
0100
1000
0001
0010
0100
,
0001
1000
0100
0001
1000
0001
0100
1000
,
0010
0100
1000
0100
0010
0001
1000
0100
,
0001
1000
0100
0001
1000
0001
0100
0010
,
0001
1000
0010
0100
0010
0001
1000
0100
,
0010
1000
0100
0010
0100
0001
1000
0010
,
0001
0010
1000
0001
0100
1000
0010
0100
,
0001
0000
0000
1000
0000
0000
0100
0000
0000
0010
0000
0000
0001
0000
0100
0000
0010
0000
1000
0000
0100
0000
0010
0000
,
0100
1000
0001
0010
1000
0010
0100
0001
,
1000
0000
0010
0000
0001
0100
0001
0100
0010
0000
1000
0000
0001
0000
0010
0000
,
0001
0100
0010
0001
1000
0100
0001
0010
,
0110
0000
0100
0000
1000
0000
0001
0000
0100
0010
0100
0000
0001
0000
1000
0000
,
1100
0100
0010
0011
0001
1000
0001
0100
,
0210
0000
0310
1000
0200
0000
0310
0001
,
0100
0010
1000
0100
0001
1000
0010
0001
,
0011
0000
0000
0000
1100
0000
0000
0000
0101
0000
0000
0000
1000
0001
1000
0001
,
1000
0000
0001
0010
1000
0010
1000
0010
,
0001
0100
0010
0001
1000
0100
0001
0100
,
0010
1000
0100
0010
0001
0100
0010
1000
,
1001
0000
1000
0100
0001
1000
0010
0001
,
2000
0000
3001
0010
2000
0000
3001
0100
,
1000
0010
0100
0001
1000
0100
0001
0100
,
1000
0010
0001
1000
0100
0010
1000
0100
,
0010
0000
0000
0000
0000
0000
0011
0000
0000
0001
0000
0000
1000
0000
0010
0000
0100
0000
0001
0000
0100
0000
0010
0000
,
1000
0001
0010
0100
0001
0100
0010
0001
,
0100
0000
0010
0000
0100
0000
0010
0000
1000
0001
1000
0000
0100
0000
0010
0000
,
0100
0001
1000
0010
0100
1000
0001
0100
,
0110
0000
0000
0000
0010
1000
0010
0000
0100
0000
0000
0000
0001
1000
0100
0000
,
1000
0010
0100
1000
0100
0001
1000
0100
,
0010
0001
0100
0010
1000
0100
0010
0100
,
1100
1000
0001
0101
0100
0010
1000
0001
,
1000
0000
0100
0000
0001
0000
0100
0000
1000
0000
0010
0000
0100
0001
0100
0001
,
0200
0000
0010
0010
1000
1000
0001
0301
,
1000
0000
0100
0000
1000
0000
0100
0000
0010
0000
0000
0000
0011
0000
0000
0000
0001
0000
0100
0000
0010
0000
1000
0000
0100
0010
0100
0000
1000
0000
0001
0000
,
0200
0000
1000
0000
0010
0000
0310
0000
0210
0000
0310
1000
0200
0000
0320
0000
,
0031
1000
0001
0000
0100
0000
0010
0000
1000
0001
1000
0000
0100
0000
0010
0000
0001
0000
0100
0000
1000
0000
0001
0000
0020
0000
0000
0000
2030
0000
0000
0000
,
3200
0000
0000
0000
0000
0000
0302
0203
,
2300
0000
3020
0230
2300
0000
3002
0000
,
0023
0000
0000
0000
,
0000
0000
0000
0000
0000
0000
0000
0000
1030
1000
0100
0100
0010
0010
0001
1001
;

//--------------- dance-single - Fred-104改 ----------------
#NOTES:
     dance-single:
     Fred-104改:
     Challenge:
     19:
     :
0000
0000
0000
0000
,
0000
0000
0000
0000
,
0000
0000
0000
0000
,
2000
0000
0000
0000
,
3002
0000
0000
0000
,
0023
0000
0000
0000
0000
0230
0320
0230
,
2300
0000
0000
0000
0000
0000
3002
2003
,
3020
0000
0032
0023
2030
0000
3200
0310
,
2002
0000
0000
0000
,
0000
0000
0000
3003
,
0001
0010
0100
1000
0100
0010
0001
1000
0010
0100
0010
1000
,
1001
1000
0100
0010
0001
0010
0100
1000
0001
0100
0010
1000
,
0001
0010
0100
1000
0100
0010
0001
1000
0100
1000
0001
0100
,
0110
0100
0010
1000
0010
0100
0001
1000
0100
0010
0001
1000
,
0001
0100
0010
1000
0100
1000
0001
0100
0010
0100
0001
1000
,
1010
1000
0010
0100
0001
1000
0001
0100
1000
0100
0001
1000
,
0100
1000
0010
0100
0001
1000
0100
0010
0001
1000
0010
0100
,
0101
0100
0001
1000
0010
1000
0001
0010
0100
0010
0100
1000
,
0001
0100
0010
1000
0100
1000
0010
0100
0001
0010
0100
1000
,
1100
1000
0001
0100
0010
1000
0010
0100
0001
1000
0100
0010
,
0001
0100
0001
0010
0100
1000
0001
0100
0010
1000
0100
0010
,
0011
0010
0100
1000
0001
0100
0010
1000
0001
1000
0100
0010
,
0001
1000
0010
1000
0001
0100
0001
1000
0100
1000
0001
0010
,
0110
0010
0001
1000
0010
1000
0001
1000
0100
0010
0100
1000
,
0010
0100
0001
0010
0100
1000
0100
0010
0001
0100
0010
1000
,
2002
0000
0000
3003
1000
1000
1000
0000
,
0011
1010
1100
0101
,
1001
0001
0100
0010
1000
0100
0010
0100
,
1100
0000
1001
0000
0001
0100
0010
0100
,
0102
0000
1003
0000
0012
0000
1003
0100
,
2100
0000
3001
0000
2010
0000
3001
0100
,
0101
0000
0000
0001
0000
0000
1000
0000
0000
0100
0000
0000
0010
0000
0001
0000
0010
0000
0100
0000
0010
0000
0100
0000
,
1100
0000
0001
0100
0110
0000
1001
0000
,
0101
1100
1010
0011
,
1001
0000
1100
0000
0101
0000
1010
0010
,
0110
0000
0000
0100
0000
0000
0001
0000
0000
0010
0000
0000
0110
0000
0000
0100
0000
0000
1000
0000
0001
0000
1000
0000
,
1001
0001
0100
1000
0100
1000
0100
0001
,
0011
0010
0100
1000
1001
0001
0200
0310
,
0110
0000
1010
1000
0001
1000
1100
0000
,
1001
0000
1200
0301
1000
0000
0201
1300
,
1001
0001
1000
0001
0010
1000
0010
0001
,
1000
0000
0000
0000
0100
0000
0000
0000
1000
0000
0000
0000
0010
0000
0000
0000
0100
0000
0000
0000
0001
0000
0000
0000
0010
0000
0000
0000
0100
0000
0000
0000
0010
0000
0000
0000
0001
0000
0000
0100
0000
0000
0010
0000
0000
1000
0000
0000
,
0002
0000
0000
0000
0100
0000
0000
0000
2003
0000
3010
0001
0020
0000
1030
0001
,
0010
0000
1000
0000
0010
0000
0001
0000
0200
0000
0000
0000
0302
0000
0000
0000
1003
0000
0010
0000
0100
0000
0001
0000
1000
0100
1000
0000
0001
0000
0100
0000
,
0020
0000
1030
0001
0020
0000
1030
0010
0012
0000
1003
0010
0001
0010
2010
0000
,
3001
0010
0001
0010
0100
0000
1000
0000
0001
0100
0010
1000
0001
0000
0010
0000
0200
0000
0000
0000
2300
0000
0000
0000
3001
1000
0010
0100
0001
0000
1000
0000
,
1002
0000
1003
0100
0001
0100
1000
0000
0011
0000
1010
0000
0101
0000
1001
0000
,
1000
0100
0010
0100
1000
0000
0001
0000
1000
0010
0100
0010
1000
0000
0001
0000
0010
0100
1000
0100
0010
0000
0001
0000
1000
0001
0010
0100
1000
0000
0010
0000
,
0220
0000
0000
0000
,
0030
0000
0000
0300
,
0001
0010
0100
1000
0010
0100
0001
0100
0010
1000
0001
1000
,
0100
0000
0000
0000
1000
0000
0000
0000
0010
0000
0000
0000
0100
0000
0000
0000
0001
0000
0000
0000
1000
0000
0000
0000
0100
0000
0000
0010
0000
0000
0100
0000
0000
0010
0000
0000
0001
0000
0000
0000
1000
0000
0000
0000
0001
0000
0000
0000
,
0100
0010
1000
0010
0100
0001
1000
0100
0001
0100
1000
0001
,
0100
0000
0000
0000
0010
0000
0000
0000
1000
0000
0000
0000
0001
0000
0000
0010
0000
0000
0001
0000
0000
0010
0000
0000
0001
0000
0000
0000
0100
0000
0000
0000
0010
0000
0000
0000
1000
0000
0000
0000
0001
0000
0000
0000
0010
0000
0000
0000
,
0100
1000
0010
1000
0100
0010
0001
0100
0010
1000
0001
0010
,
0100
0000
0000
0000
1000
0000
0000
0000
0001
0000
0000
0000
0100
0000
0000
0010
0000
0000
0100
0000
0000
0010
0000
0000
0100
0000
0000
0000
0001
0000
0000
0000
0010
0000
0000
0000
0100
0000
0000
0000
1000
0000
0000
0000
0001
0000
0000
0000
,
1000
0010
0100
0001
0010
1000
0010
0001
1000
0010
0100
0001
,
0010
0000
0000
0000
0100
0000
0000
0000
1000
0000
0000
0000
0001
0000
0000
0000
0100
0000
0000
0000
0010
0000
0000
0000
0100
0000
0000
0001
0000
0000
0100
0000
0000
0001
0000
0000
0100
0000
0000
0000
0010
0000
0000
0000
1000
0000
0000
0000
,
0001
0010
0100
0010
0001
0100
0010
0100
0001
0010
0100
1000
,
0001
0000
0000
0000
0100
0000
0000
0000
0010
0000
0000
0000
0001
0000
0000
0000
0010
0000
0000
0000
0100
0000
0000
0000
0010
0000
0000
1000
0000
0000
0010
0000
0000
1000
0000
0000
0001
0000
0000
0000
0010
0000
0000
0000
0100
0000
0000
0000
,
1000
0000
0000
0000
0001
0000
0000
0000
0100
0000
0000
0000
1000
0000
0000
0000
0100
0000
0000
0000
0010
0000
0000
0000
0100
0000
0000
0000
0001
0000
0000
0000
1000
0000
0000
0000
0010
0000
0000
0100
0000
0000
0010
0000
0000
0100
0000
0000
,
0010
0000
0000
0000
1000
0000
0000
0000
0001
0000
0000
0000
0010
0000
0000
0100
0000
0000
0010
0000
0000
0100
0000
0000
0010
0000
0000
0000
0001
0000
0000
0000
1000
0000
0000
0000
0001
0000
0000
0000
0100
0000
0000
0000
0010
0000
0000
0000
,
1000
0100
0010
1000
0010
0100
1000
0010
0100
1000
0100
0010
,
1000
0000
0000
0000
0100
0000
0000
0000
0010
0000
0000
0000
0001
0000
0000
1000
0000
0000
0001
0000
0000
1000
0000
0000
0001
0000
0000
0000
0100
0000
0000
0000
0010
0000
0000
0000
0001
0000
0000
0000
0010
0000
0000
0000
0100
0000
0000
0000
,
0001
1000
0100
0001
1000
0010
0001
1000
0010
0001
1000
0100
,
0202
0000
0000
0000
0000
0000
0303
0000
0001
1000
0100
0010
0001
0000
0000
0000
,
1000
0010
0001
1000
0100
0010
0100
0010
,
1010
0000
1000
0000
0001
0000
0010
0000
0100
1000
0001
1000
0010
0000
0100
0000
,
0101
0001
1000
1100
0100
0010
0001
1000
,
1001
0000
0001
0000
0100
0010
1000
0001
0010
0000
0100
0000
0010
0000
0100
0000
,
0110
0010
0001
1000
1001
0001
0100
0010
,
1010
0000
1000
0000
0001
0010
0100
0010
0001
0000
1000
0000
0010
0000
0100
0000
,
0101
0001
1000
1010
0010
1000
0001
0010
,
0110
0000
0000
0100
0000
0000
1000
0000
0000
0001
0000
0000
1000
0000
0100
0000
0001
0000
1000
0000
0010
0000
0001
0000
,
1001
0000
1000
0000
0001
0000
0100
0000
0010
1000
0010
1000
0010
0000
0100
0000
,
0110
0000
0010
0000
1000
0000
0001
0000
0010
0100
1000
0100
0010
0000
0100
0000
,
1100
1000
0010
0110
0100
1000
0001
0010
,
1010
0000
1000
0000
0001
0100
0010
1000
0100
0000
0010
0000
0001
0000
1000
0000
,
1001
0001
0100
0101
0001
0010
0100
0010
,
0011
0000
0001
0000
1000
0000
0010
0000
0110
0000
0100
0000
0001
1000
0100
0010
,
0001
0100
0010
1000
1010
0010
0100
0001
,
1000
0100
0010
0000
0001
0000
1000
0000
0010
0100
0001
0000
0010
0100
0010
0001
,
1000
0001
1000
0010
0110
0100
0001
1000
,
1001
0001
0010
1000
0010
1000
0010
0001
,
1001
1000
0100
0110
0010
1000
0010
0001
,
1001
0000
0001
0100
1000
0001
0010
1000
,
1001
0001
0100
0010
0011
0001
1000
0100
,
0101
0000
0001
0000
1000
0000
0001
0000
0010
0000
0100
0000
1000
0100
0010
0100
,
1000
0000
0001
0000
0100
0000
0101
0000
0001
0000
1000
0000
0100
0010
0001
0010
,
0100
0000
0000
1000
0000
0000
0001
0000
0000
0100
0000
0000
0010
0000
1000
0000
0100
0000
0001
0000
1000
0000
0010
0000
,
0011
0001
1000
1010
0010
0100
0001
1000
,
1100
0000
0100
0000
0010
0001
1000
0010
0100
0000
0001
0000
1000
0000
0001
0000
,
0101
0000
0100
0000
0010
0000
1010
0000
1000
0000
0001
0000
0100
0001
1000
0001
,
0010
0000
0100
0000
0010
0001
1000
0010
0100
0000
0001
0000
0100
0000
0010
0000
,
0110
0100
0001
0100
0110
0010
1000
0001
,
0011
0000
0010
0000
0100
1000
0010
0100
0001
0000
1000
0000
0001
0000
0100
0000
,
0110
1000
0001
0101
1000
0100
0110
0010
,
0001
0000
0000
0000
0100
0000
0000
0000
1000
0000
0000
0000
0001
0000
0000
0000
0010
0000
0000
0000
1000
0000
0000
0000
0100
0000
0000
0000
0010
0000
0000
0000
0001
0000
0000
0000
0100
0000
0000
0010
0000
0000
1000
0000
0000
0001
0000
0000
,
2000
3002
0203
2300
3002
0023
2030
3200
,
0301
0000
1000
0000
0010
0000
0100
0000
2000
0000
0000
0000
3002
0000
0000
0000
1003
0000
0010
0000
0100
0000
0001
0000
0010
0100
0010
0100
1000
0000
0001
0000
,
2001
0000
3002
0000
0203
0000
2300
0000
3002
0000
1003
0100
0010
1000
0002
0000
,
0013
0100
1000
0001
0100
0000
0010
0000
1000
0001
0010
0100
1000
0000
0001
0000
0100
0010
1000
0001
0010
0000
0100
0000
0010
0000
0001
0000
0100
0000
0010
0000
,
0200
0000
0000
0000
0000
0000
2300
3200
,
0301
0000
0010
0000
1000
0000
0010
0000
0002
0000
0000
0000
0203
0000
0000
0000
0310
0000
1000
0000
0010
0000
0001
0000
0010
1000
0010
1000
0010
0000
0100
0001
,
2000
0000
0000
0000
,
0000
0000
0000
0000
0000
0000
0000
0000
0000
0000
0000
0000
0000
0000
0000
0000
3001
0000
0010
0000
0100
1000
0001
1000
0010
0100
0001
0000
1000
0000
0220
0000
,
0330
0000
0000
0000
;

//--------------- dance-double - Fred-104 ----------------
#NOTES:
     dance-double:
     Fred-104:
     Easy:
     11:
     :
00000000
00000000
00000000
00000000
,
00000000
00000000
00000000
00000000
,
00000000
00000000
00000000
00000000
,
00000000
00000000
00000000
00000000
,
00000000
00000000
00000000
00000000
,
00000000
00000000
00000000
00000000
,
00000000
00000000
00000000
00000000
,
00000000
00000000
00000000
00000000
,
00002002
00000000
00000000
00000000
,
00000000
00000000
00000000
00003003
,
00000001
00001000
00000001
00000000
,
00000100
00001000
00010000
00000000
,
00001000
00010000
00001000
00000000
,
00010000
01000000
10000000
00000000
,
00010000
10000000
00010000
00000000
,
10000000
00100000
00010000
00000000
,
00001000
00010000
00001000
00000000
,
00000010
00000001
00001000
00000000
,
00000001
00001000
00000001
00000000
,
00000100
00001000
00010000
00000000
,
00001000
00010000
01000000
00000000
,
10000000
00010000
10000000
00000000
,
00100000
00010000
00001000
00000000
,
00010000
00001000
00000010
00000000
,
00000001
00001000
00000001
00000100
,
00000220
00000000
00000330
00000000
,
00001001
00000000
00000001
00000100
,
00000010
00000010
00000100
00001000
,
00010000
00000000
00001000
00010000
,
01000000
00000000
10000000
00100000
,
00010000
00000000
00011000
00000000
,
00001000
00010000
00000100
00001000
,
00000001
00000100
00000010
00000100
,
00001000
00010000
00001000
00000000
,
00100000
00001000
00100000
00001000
,
00010000
00001000
00000010
00001000
,
00010000
00001000
01000000
00100000
,
01000000
00010000
10010000
00000000
,
11000000
00000000
00100000
00000000
,
00101000
00000000
00011000
00000000
,
00010000
00001000
00000100
00000001
,
00000010
00001000
00010000
00001000
,
00020000
00000000
00031000
00001000
,
00010000
00010000
00001000
00100000
01000000
01000000
10000000
00100000
,
00020000
00000000
00031000
00010000
,
00000100
00000100
00000010
00000001
00001000
00001000
00000010
00000100
,
00002000
00000000
00000000
00000000
00000000
00000000
00013000
00001000
,
00100000
00100000
01000000
10000000
00100000
00010000
00001000
00000000
,
00022000
00000000
00000000
00000000
,
00000000
00000000
00000000
00033000
,
00001000
00010000
00001000
01000000
,
00100000
10000000
00010000
00100000
,
01000000
10000000
00100000
00010000
,
00001000
00010000
00000100
00000000
,
00001000
00000010
00000100
00000010
,
00001000
00000001
00000010
00000100
,
00001000
00000100
00010000
00001000
,
01000000
00010000
01000000
00000000
,
00100000
10000000
00100000
01000000
,
00100000
00010000
00001000
00010000
,
00000100
00000010
00000001
00000100
,
00001000
00010000
00001000
00000000
,
00100000
00010000
00001000
00000100
,
00010000
00001000
00000100
00000001
,
00000010
00000100
00010000
00001000
,
00022000
00000000
00033000
00000000
,
00011000
00000000
00001000
00100000
,
00010000
10000000
00010000
01000000
,
00100000
00000000
00000000
00100000
00000000
00000000
00100000
00000000
,
10000000
01000000
00010000
00001000
,
00011000
00000000
00010010
00000000
,
00000010
00001000
00000100
00000010
,
00000001
00000000
00000000
00000001
00000000
00000000
00000001
00000000
,
00001000
00000010
00000100
00000000
,
00001000
00010000
00001000
00100000
,
00010000
00100000
00001000
00010000
,
00000100
00000000
00000000
00000100
00000000
00000000
00000100
00000000
,
00000010
00000100
00001000
00000100
,
00010100
00000000
00010000
00000000
,
00101000
00000000
10010000
00000000
,
00010000
01000000
00100000
00010000
,
00001000
00000100
00001000
00010000
,
00011000
00000000
00001000
00100000
,
00010000
10000000
00100000
01000000
,
00010000
00000000
00000000
00010000
00000000
00000000
00010000
00000000
,
10000000
01000000
00010000
00001000
,
00010000
00000000
00011000
00000000
,
00001000
00010000
00000100
00001000
,
00000001
00000100
00000010
00001000
,
00000001
00000010
00000100
00000000
,
00000010
00000001
00000010
00000001
,
00000100
00001000
00010000
01000000
,
10000000
00000000
00000000
00010000
00000000
00000000
01000000
00000000
,
00100000
00010000
00001000
00010000
,
00011000
00000000
00001000
00000000
,
00101000
00000000
00010010
00000000
,
00010000
00001000
00000100
00000001
,
00000010
00001000
00010000
00001000
,
00020000
00000000
00031000
00001000
,
01000000
01000000
00010000
00001000
00000010
00000010
00010000
00001000
,
00200000
00000000
00310000
10000000
,
00010000
00010000
01000000
00100000
00010000
00010000
00001000
00000100
,
00000002
00000000
00000000
00000000
00000000
00000000
00000013
00000100
,
00020000
00000000
00031000
00010000
00000020
00000000
00000230
00000300
,
00002002
00000000
00000000
00000000
,
00000000
00000000
00000000
00000000
00000000
00000000
00000000
00000000
00000000
00000000
00000000
00000000
00000000
00000000
00000000
00003003
;

//--------------- dance-double - Fred-104 ----------------
#NOTES:
     dance-double:
     Fred-104:
     Medium:
     16:
     :
00000000
00000000
00000000
00000000
,
00000000
00000000
00000000
00000000
,
00000000
00000000
00000000
00000000
,
00000000
00000000
00000000
00000000
,
00000000
00000000
00000000
00000000
,
00000000
00000000
00000000
00000000
,
00000000
00000000
00000000
00000000
,
00000000
00000000
00000000
00000000
,
20020000
00000000
00000000
00000000
,
00000000
00000000
00000000
30030000
,
10000000
01000000
00010000
00000000
00001000
00010000
00001000
00000000
,
00000100
00000001
00001000
00000000
00000001
00001000
00000001
00000000
,
00000010
00001000
00010000
00000000
00001000
00010000
00001000
00000000
,
00010000
00100000
10000000
00000000
00010000
10000000
00010000
00000000
,
10000000
00100000
00010000
00000000
00001000
00010000
00001000
00000000
,
00000010
00000001
00001000
00000000
00000001
00001000
00000001
00000000
,
00000100
00001000
00010000
00000000
00001000
00010000
00001000
00000000
,
00010000
01000000
10000000
00000000
00010000
10000000
00010000
00000000
,
10000000
01000000
00010000
00000000
00001000
00010000
00001000
00000000
,
00000100
00000001
00001000
00000000
00000001
00001000
00000001
00000000
,
00000010
00001000
00010000
00000000
00001000
00010000
00001000
00000000
,
00010000
00100000
10000000
00000000
00010000
10000000
00010000
00000000
,
10000000
00100000
00010000
00000000
00001000
00010000
00001000
00000000
,
00000010
00000001
00001000
00000000
00000001
00001000
00000001
00000000
,
00000100
00001000
00010000
00001000
00010000
01000000
10000000
00010000
,
20000000
00000000
00000000
00000000
30010000
10000000
00010000
00000000
,
01100000
00010000
10000000
01000000
,
00101000
00000000
00001000
00010000
00000100
00000000
00000110
00000000
,
00000011
00000000
00000001
00000000
00001000
00000010
00000100
00000010
,
00000100
00001000
00010000
00011000
,
00002000
00103000
20000000
30100000
,
00101000
00000000
00001000
00010000
00000010
00000000
00001000
00000000
,
00000100
00000000
00010000
00001000
00010000
00000000
00100000
00000000
,
10100000
00010000
11000000
00010000
,
10010000
00000000
10000000
00000000
01000000
00000000
00010000
00001000
,
00010000
00000000
00000100
00000010
00000001
00000000
00000100
00000000
,
00001000
00010000
00001000
00000000
00010000
00000010
00010000
00000000
,
00012000
01003000
00021000
00030100
,
00011000
00000000
00000010
00010000
00000010
00000000
00000000
00000000
,
00011000
00000000
00100000
00010000
00100000
00000000
00000000
00000000
,
00011000
00000000
00001000
00000000
00010000
00000000
00100000
10000000
,
01000000
00100000
00001000
00010000
00000100
00000010
00000001
00000100
,
00002000
00000000
00000000
00000000
00013000
00010000
00001000
00001000
,
00100000
00010000
10000000
00100000
01000000
00000000
01100000
00000000
00100000
00010000
00001000
00000000
00010000
00001000
00000010
00000001
,
00000200
00000000
00000000
00000000
00001000
00000000
00001300
00000000
00011000
00000000
00010000
00001000
01000000
00000000
00100000
00000000
,
10000000
01000000
00010000
00000000
00001000
00000010
00000001
00000000
00001000
00000001
00000100
00001000
00010000
00100000
10000000
01000000
,
00100000
00000000
00001000
00010000
00001000
00000000
00010000
00000000
00012000
00000000
00203000
00000000
02300000
00000000
03020000
00000000
,
00031000
00010000
00100000
00000000
10000000
01000000
00010000
00000000
00001000
00000010
00000001
00001000
00000001
00000100
00001000
00000000
,
00022000
00000000
00000000
00000000
,
00003000
00000000
00000000
00030000
,
00001000
00010000
00000100
00000010
00000001
00001000
00000010
00000100
,
00001000
00010000
00001000
01000000
00100000
10000000
00010000
00000000
,
10000000
01000000
10000000
00010000
01000000
00100000
00010000
00001000
,
00010000
00000100
00001000
00000010
00000100
00000001
00001000
00000000
,
00000100
00000010
00001000
00010000
00001000
01000000
00100000
00010000
,
00001000
00010000
00001000
01000000
00100000
10000000
00010000
00000000
,
00100000
01000000
00010000
00001000
00000010
00000100
00001000
00000001
,
00000100
00000010
00000100
00001000
00010000
00001000
01000000
00000000
,
00010000
00100000
01000000
10000000
00100000
01000000
00010000
00100000
,
00001000
00010000
00000100
00001000
00000010
00000100
00000001
00000000
,
00001000
00000100
00000010
00000001
00000100
00000010
00010000
00001000
,
01000000
00100000
10000000
00010000
00100000
01000000
00010000
00000000
,
00001000
00010000
00100000
10000000
00010000
00100000
01000000
00010000
,
00001000
00000010
00000001
00000010
00000100
00001000
00000010
00000100
,
00001000
00010000
00100000
10000000
01000000
00100000
00001000
00000000
,
00022000
00000000
00033000
00000000
,
00011000
00000000
00001000
00010000
01000000
00000000
00100000
00000000
,
00110000
00000000
00010000
01000000
00100000
00010000
00001000
00010000
,
00001000
00000000
00100000
01000000
00000000
01000000
00010000
00000000
,
00011000
00000000
00001000
00010000
01000000
00100000
01000000
00010000
,
00002000
01000000
00023000
00000010
,
00031000
00000000
00010000
00000100
00001000
00000000
00001010
00000000
,
00010010
00000000
00010000
00001000
00000000
00000010
00000100
00000000
,
00010100
00000000
00010000
00001000
00010000
00000010
00001000
00000010
,
00010000
00000000
00001000
01000000
00100000
00000000
00010000
00000000
,
00011000
00000000
00010000
00001000
00000100
00001000
00000100
00001000
,
00010000
00000000
00001000
01000000
00000000
00100000
00010000
00000000
,
00011000
00000000
00010000
00001000
00000100
00000000
00000100
00001000
,
00010000
00000000
00001000
00010000
00000010
00000000
00010000
00000000
,
00011000
00000000
00001000
00010000
00100000
00000000
01000000
00001000
,
00010000
00000000
00001000
00010000
00000000
00000100
00000010
00000000
,
00000110
00010100
00011000
01001000
,
00011000
00000000
00001000
00010000
00000000
00100000
10000000
00010000
,
10000000
00000000
01000000
00100000
00001000
00010000
00001000
00010000
,
00001000
00000000
00010000
00000100
00000000
00000010
00000001
00000000
,
00001001
00000000
00000001
00000100
00000001
00000100
00001000
00010000
,
00002000
01000000
00023000
00000010
,
00031000
00000000
00010000
00100000
10000000
00000000
01000000
00100000
,
00001000
00000000
00010000
00000100
00000000
00000001
00000100
00000000
,
00000010
00000000
00000001
00000100
00000010
00000100
00001000
00010000
,
00001000
00100000
00010000
00000000
01000000
00100000
10000000
00000000
,
01000000
00100000
00001000
00000000
00010000
00000100
00000010
00000000
,
00000011
00000000
00000001
00000100
00000000
00001000
00010000
00000000
,
00011000
00000000
00001000
00010000
00100000
00000000
10000000
01000000
,
00200000
00001000
02300000
00010000
,
13000000
01000000
00010000
00001000
00000100
00000001
00001000
00000000
,
00000001
00000010
00000100
00000010
00001000
00010000
01000000
00100000
,
01000000
10000000
00100000
00010000
00001000
00000100
00000001
00000010
,
00000200
00000000
00000000
00000000
00010300
00001000
01000000
00100000
,
10000000
01000000
10000000
00100000
01000000
00010000
00100000
00001000
00010000
00000010
00001000
00000100
00000010
00000001
00000100
00001000
,
00020000
00000000
00000000
00000000
00000000
00130000
10000000
01000000
,
00100000
00001000
00010000
00001000
00000100
00000010
00001000
00000100
00000010
00000001
00000100
00000010
00000100
00001000
00010000
00100000
,
20000000
00000000
00000000
00000000
00000000
00000000
32000000
03020000
,
00032000
00000000
00003020
00000032
00000203
00000000
00002300
00000000
,
00020000
00000000
00000000
00000000
,
00000000
00000000
00000000
00000000
00000000
00000000
00033000
00000000
00001000
00010000
00100000
10000000
01000000
00010000
00001000
00011000
;

//--------------- dance-double - Fred-104 ----------------
#NOTES:
     dance-double:
     Fred-104:
     Hard:
     18:
     :
00000000
00000000
00000000
00000000
,
00000000
00000000
00000000
00000000
,
00000000
00000000
00000000
00000000
,
00000000
00000000
00000000
00000000
,
00000000
00000000
00000000
00000000
,
00000000
00000000
00000000
00000000
,
00000000
00000000
00000000
00000000
,
00000000
00000000
00000000
00000000
,
00022000
00000000
00000000
00000000
,
00000000
00000000
00000000
00033000
,
00001000
00010000
00100000
10000000
00010000
00100000
01000000
00010000
,
00001000
00010000
00000100
00000010
00000100
00001000
00000010
00010000
,
00001000
00010000
00000100
00000010
00000100
00000001
00000100
00001000
,
00000001
00000000
00000000
00000100
00000000
00000000
00001000
00000000
00000000
00010000
00000000
00000000
00100000
00000000
10000000
00000000
00100000
00000000
10000000
00000000
00100000
00000000
01000000
00000000
,
00010000
10000000
01000000
00100000
00010000
00001000
00010000
00100000
,
00001000
00010000
00000010
00000100
00000010
00001000
00000100
00010000
,
00001000
00010000
00100000
01000000
10000000
01000000
00100000
10000000
,
01000000
00000000
00000000
00010000
00000000
00000000
00001000
00000000
00000000
00000010
00000000
00000000
00000001
00000000
00000010
00000000
00000100
00000000
00001000
00000000
00000100
00000000
00010000
00000000
,
00001000
00010000
01000000
00100000
10000000
00100000
00010000
10000000
,
00100000
00010000
00001000
00010000
00000100
00010000
00001000
00000100
,
00000010
00001000
00000100
00000010
00000001
00001000
00000010
00010000
,
00100000
00000000
00000000
10000000
00000000
00000000
00010000
00000000
00000000
00100000
00000000
00000000
01000000
00000000
00100000
00000000
00010000
00000000
00100000
00000000
00001000
00000000
00010000
00000000
,
00000100
00001000
00000010
00000100
00000010
00010000
00001000
00100000
,
01000000
10000000
00100000
00010000
00001000
00000100
00000001
00001000
,
00000100
00000000
00000000
00000010
00000000
00000000
00000001
00000000
00000000
00001000
00000000
00000000
00000010
00000000
00001000
00000000
00000010
00000000
00010000
00000000
00001000
00000000
00010000
00000000
,
00002000
00000000
00000000
00000000
00013000
00001000
00010000
00000000
,
00011000
00001000
00000100
00001000
,
00011000
00000000
00001000
00010000
01000000
00010000
01000000
00010000
,
00011000
00000000
00010100
00000000
00000100
00000010
00001000
00000010
,
00000001
00000100
00001000
00000000
00010000
00100000
20000000
30000000
,
00120000
10030000
02010000
03001000
,
00120000
00000000
10030000
01000000
00010000
00000000
00001000
00000000
,
00010000
00000010
00000001
00000000
00001000
00000100
00000001
00000000
,
00000011
00001100
00110000
11000000
,
00020000
00000000
20030000
00000000
30200000
00000000
00310000
00001000
,
00010000
00000100
00000010
00001000
00010000
00001000
00000100
00000010
,
00010000
00000000
00001000
00000010
00000001
00001000
00000010
00010000
,
00012000
00003100
00021000
01030000
,
00012000
00000000
00013000
00001000
01000000
00000000
00100000
10000000
,
10010000
00000000
00010000
10000000
00100000
00010000
00001000
00000100
,
00000001
00000010
00001000
00000001
00000100
00001000
00010000
00100000
,
00001000
00010000
00100000
10000000
01000000
00010000
00001000
00000000
,
00021000
00000000
00000000
00000000
00000010
00000000
00000000
00000000
00130000
00000000
00010000
00001000
01000000
00000000
00100000
00000000
,
00010000
00001000
00100000
01000000
00200000
00000000
00320000
00000000
00031000
00010000
00100000
00001000
00010000
00000010
00000100
00002000
,
00010000
00000000
00000000
00000000
00003100
00000000
00000010
00001000
00000100
00000000
00000010
00001000
00010000
01000000
00010000
00000000
,
00001000
00010000
00001000
00000000
00010000
00000000
00100000
00000000
01000000
00000000
00001000
00000000
00100000
00000000
01000000
00000000
00010000
00001000
00010000
00000000
00001000
00000000
00000010
00000000
00000100
00000000
00010000
00000000
00000010
00000000
00000100
00000000
,
00001000
00000000
00010000
00001000
00100000
00000000
01100000
00000000
02000000
00000000
03020000
00000000
00032000
00000000
00023000
00000000
,
00031000
00010000
00001000
00000000
01000000
00000000
00010000
00000000
00100000
00001000
00100000
00000000
00001000
00000000
00010000
00000000
00000010
00001000
00000010
00000000
00001000
00000000
00000100
00000000
00010000
00001000
00010000
00000000
00001000
00000000
00100000
00000000
,
00002000
00000000
00000000
00000000
,
00020000
00000000
00000000
00033000
,
00011000
00001000
01000000
01010000
00010000
10000000
01000000
00100000
,
00101000
00000000
00000000
00000000
00000000
00000000
00000000
00000000
00000000
00000000
00000000
00000000
00001000
00000000
00000000
00000000
00000000
00000000
00000000
00000000
00000000
00000000
00000000
00000000
00010000
00000000
00000000
00001000
00000000
00000000
00010000
00000000
00000000
00001000
00000000
00000000
00010000
00000000
00000000
00000000
00000100
00000000
00000000
00000000
00000010
00000000
00000000
00000000
,
00000100
00000010
00000001
00001001
00001000
00000010
00000100
00001000
,
00011000
00000000
00000000
00000000
00001000
00000000
01000000
00000000
00100000
01000000
00100000
00000000
01000000
00000000
00010000
00000000
,
10010000
10000000
01000000
01100000
00100000
00001000
00010000
00001000
,
00011000
00000000
00000000
00000000
00000000
00000000
00000000
00000000
00000000
00000000
00000000
00000000
00010100
00000000
00000000
00000000
00000000
00000000
00000000
00000000
00000000
00000000
00000000
00000000
00000100
00000000
00000000
00001000
00000000
00000000
00000100
00000000
00000000
00001000
00000000
00000000
00000100
00000000
00000000
00000000
00000010
00000000
00000000
00000000
00000001
00000000
00000000
00000000
,
00001000
00000010
00000100
00001100
00001000
00010000
00001000
00100000
,
00110000
00000000
00000000
00000000
10010000
00000000
00000000
00000000
10000000
00100000
10000000
00000000
00010000
00000000
00100000
00000000
,
00101000
00001000
00010000
00010010
00000010
00001000
00000001
00000010
,
00000110
00000000
00000000
00000000
00000000
00000000
00000000
00000000
00000000
00000000
00000000
00000000
00001100
00000000
00000000
00000000
00000000
00000000
00000000
00000000
00000000
00000000
00000000
00000000
00000100
00000000
00000000
00010000
00000000
00000000
00000100
00000000
00000000
00010000
00000000
00000000
00001000
00000000
00000000
00000000
00010000
00000000
00000000
00000000
00001000
00000000
00000000
00000000
,
00100000
00010000
10000000
10010000
00010000
00100000
01000000
00010000
,
00011000
01001000
00011000
00010100
,
00011000
00010000
00000010
00001010
00001000
00000100
00000010
00000100
,
00010100
00000000
00000000
00000000
00000000
00000000
00000000
00000000
00000000
00000000
00000000
00000000
00010000
00000000
00000000
00001000
00000000
00000000
00010000
00000000
00000000
00001000
00000000
00000000
00010000
00000000
00000000
00000000
00000000
00000000
00000000
00000000
00000000
00000000
00000000
00000000
00001000
00000000
00000000
00000000
01000000
00000000
00000000
00000000
00010000
00000000
00000000
00000000
,
00100000
01000000
10000000
10100000
00100000
00010000
00001000
00010000
,
00022000
00000000
00030000
00003000
,
00011000
00010000
00001000
00000010
00000100
00000001
00001000
00000010
,
00000001
00000100
00001000
01000000
00010000
10000000
01000000
00100000
,
00001000
00010000
01000000
00100000
10000000
00010000
01000000
10000000
,
00010000
01000000
00100000
00010000
00001000
00000100
00000010
00010000
,
00001000
00010000
01000000
10000000
00010000
01000000
00100000
00010000
,
00001000
00000100
00000010
00010000
00001000
00000100
00000001
00001000
,
00000100
00000010
00000100
00000010
00001000
00010000
00001000
01000000
,
00100000
00000000
00000000
00010000
00000000
00000000
00001000
00000000
00000000
00010000
00000000
00000000
00001000
00000000
00100000
00000000
00010000
00000000
10000000
00000000
00100000
00000000
01000000
00000000
,
00010000
10000000
01000000
00010000
00001000
00010000
00000010
00010000
,
00001000
00000000
00010000
00000000
00000100
00001000
00000100
00001000
00000100
00000000
00000010
00000000
00000001
00000000
00001000
00000000
,
00000001
00000100
00000010
00000100
00001000
00010000
00100000
10000000
,
11000000
00000000
01000000
00000000
00100000
00000000
00001000
00000000
00010000
00001000
00010000
00000000
00001000
00000000
00010000
00000000
,
00011000
00010000
00000100
00001100
00001000
00000010
00010000
00001000
,
01001000
00011000
00010100
00011000
,
00010000
00001000
00000010
00000001
00000100
00001000
00010000
00000000
,
00011000
00000000
00000000
00000000
01010000
00000000
00000000
00000000
11000000
00000000
00000000
00000000
00010000
10000000
00010000
10000000
,
00010000
00000000
10000000
00100000
01000000
00100000
00010000
00001000
,
00010000
00001000
01000000
00010000
00001000
00000010
00010000
00001000
,
00010000
00000100
00000001
00001000
00000010
00000001
00000100
00001000
,
00011000
00000000
00010000
00001000
00000010
00001000
00000010
00001000
,
00021000
00000000
00031000
00100000
00020000
00000000
00130000
00001000
,
00010000
00001000
00100000
01000000
00100000
00010000
10000000
00100000
,
00010000
00001000
00000100
00001000
00000001
00000010
00001000
00000010
,
00010000
00000000
00000000
00011000
00000000
00000000
00001000
01000000
00010000
00100000
01000000
10000000
,
00010000
01000000
00001000
00010000
00100000
01000000
00001000
00010000
,
00000100
00000000
00001000
00000000
00010000
00000000
00100000
00000000
00001000
00010000
00001000
00000000
00010000
00000000
00001000
00000000
,
01000000
00010000
00001000
00000010
00010000
00001000
00010000
00000100
,
00000110
00000000
00000000
00000000
00000001
00001000
00000001
00000000
00000100
00000000
00000000
00000000
00000010
00001000
00000010
00000000
,
00010000
00001000
00100000
01000000
10000000
00010000
01000000
00001000
,
00010000
00000010
00000100
00001000
00000001
00000010
00001000
00000000
,
00001001
00000001
00000010
00000110
00000100
00010000
00001000
00100000
,
00010000
00000000
10000000
00000000
00100000
00000000
01000000
00000000
00100000
00000000
00010000
00000000
00001000
00010000
00001000
00010000
,
00002000
00000000
01000000
00010000
00010000
00000010
00013000
00001000
,
01000000
00100000
00010000
00001000
00020000
00000000
02030000
00000000
03100000
00001000
00010000
00000100
00000010
00001000
00010000
01000000
,
00020000
00000000
00001000
00000000
00000010
00000000
00031000
00000000
00021000
00000000
00031000
00010000
02000000
00000000
03200000
00000000
,
00301000
00010000
00001000
00000000
01000000
00000000
00100000
00000000
00010000
00001000
00010000
00000000
00000010
00000000
00000100
00000000
00001000
00000000
00010000
00000000
00100000
00000000
01000000
00000000
00002000
00000000
00000000
00000000
00023000
00000000
00000000
00000000
,
00032000
00000000
00000000
00000000
00000000
00000000
00203000
00302000
,
00023000
00000000
00230000
02300000
03002000
00000000
00203000
02300000
,
03020000
00000000
00000000
00000000
,
00000000
00000000
00000000
00000000
00000000
00000000
00000000
00000000
00031000
00001000
00010000
00010000
00001000
00010000
00001000
00011000
;

//--------------- dance-double - Fred-104改 ----------------
#NOTES:
     dance-double:
     Fred-104改:
     Challenge:
     19:
     :
00000000
00000000
00000000
00000000
,
00000000
00000000
00000000
00000000
,
00000000
00000000
00000000
00000000
,
00002000
00000000
00000000
00000000
,
00023000
00000000
00000000
00000000
,
00030200
00000000
00000000
00000000
00000000
00000320
00000032
00000203
,
00002300
00000000
00000000
00000000
00000000
00000000
00023000
00230000
,
20300000
00000000
32000000
03020000
00032000
00000000
00020000
00033000
,
00022000
00000000
00000000
00000000
,
00000000
00000000
00000000
00033000
,
00010000
00000100
00001000
00000100
00001000
00000100
00000010
00000001
00000010
00000001
00001000
00000001
,
00000100
00000010
00000100
00000010
00001000
00000010
00010000
00001000
00010000
00001000
01000000
00010000
,
01000000
00100000
10000000
00010000
00100000
00010000
00100000
01000000
00100000
00010000
00100000
00001000
,
00010000
00000010
00001000
00000010
00000100
00000010
00001000
00000001
00000100
00000001
00001000
00000010
,
00010000
00001000
00100000
00010000
00100000
01000000
10000000
01000000
00100000
01000000
00100000
00001000
,
00010000
00000010
00001000
00000010
00000100
00000010
00001000
00000001
00000100
00000001
00001000
00000010
,
00000100
00000001
00001000
00000100
00000010
00000100
00010000
00001000
00100000
01000000
10000000
00010000
,
01000000
00100000
10000000
00010000
01000000
00001000
00010000
00000010
00001000
00000010
00010000
00001000
,
00010000
00000100
00001000
00000100
00000010
00000001
00001000
00000100
00010000
00001000
00100000
00010000
,
10000000
00010000
01000000
00001000
00010000
00001000
01000000
00010000
01000000
00001000
00010000
00000010
,
00001000
00000001
00001000
00000100
00000010
00000001
00000010
00000100
00010000
00001000
00100000
01000000
,
00100000
00010000
10000000
00100000
01000000
00010000
10000000
00010000
01000000
00001000
00010000
00001000
,
00100000
00010000
00100000
00001000
00010000
00000100
00001000
00000100
00010000
00001000
00100000
00001000
,
00010000
00000010
00001000
00000010
00010000
00001000
01000000
00010000
01000000
00001000
00010000
00000010
,
00001000
00000100
00000010
00000001
00000100
00000010
00001000
00000100
00010000
00001000
01000000
00100000
,
20000000
00000000
00000000
00000000
30010000
00010000
00010000
00000000
,
11000000
01000000
00010000
00001000
,
00011000
00010000
00000100
00001000
00000001
00000100
00000010
00001000
,
00001001
00000000
00010100
00000000
00010000
00001000
01000000
00100000
,
20100000
00000000
30010000
00000000
21000000
00000000
30010000
01000000
,
01200000
10300000
01020000
10030000
,
01000000
00000000
00000000
00100000
00000000
00000000
00001000
00000000
00000000
00010000
00000000
00000000
00000100
00000000
00000010
00000000
00000100
00000000
00000010
00000000
00000001
00000000
00000010
00000000
,
00000001
00000000
00000100
00000010
00000110
00000000
00000100
00000000
,
00001100
00011000
00110000
10100000
,
00020000
01000000
20030000
00100000
,
30010000
00000000
00000000
10000000
00000000
00000000
01000000
00000000
00000000
00010000
00000000
00000000
00001000
00000000
00000000
00010000
00000000
00000000
00000100
00000000
00001000
00000000
00000100
00000000
,
00000010
00000001
00000100
00001000
00000100
00001000
00010000
00001000
,
01000000
00010000
00001000
00000010
00010000
00001000
00000200
00000310
,
00010010
00000000
00001000
00010000
00100000
10000000
11000000
00000000
,
00120000
10030000
01020000
10030000
,
00010000
10000000
01000000
00010000
00001000
00010000
00100000
00010000
,
00001000
00000000
00000000
00000000
00010000
00000000
00000000
00000000
00000100
00000000
00000000
00000000
00001000
00000000
00000000
00000000
00000100
00000000
00000000
00000000
00000010
00000000
00000000
00000000
00000001
00000000
00000000
00000000
00001000
00000000
00000000
00000000
00000010
00000000
00000000
00000000
00000100
00000000
00000000
00000001
00000000
00000000
00000100
00000000
00000000
00000001
00000000
00000000
,
00000200
00000000
00000000
00000000
00010000
00000000
00000000
00000000
00000310
00000000
00001000
00000001
00000010
00000000
00001000
00010000
,
01000000
00000000
10000000
00000000
00100000
00000000
00010000
00000000
00002000
00000000
00000000
00000000
00023000
00000000
00000000
00000000
00031000
00000000
00100000
00000000
01000000
00000000
10000000
00000000
00010000
01000000
00100000
00000000
10000000
00000000
00010000
00000000
,
00100000
00000000
00001000
00000010
00000001
00000000
00000100
00000010
00002010
00000000
00003001
00000010
00001000
00010000
00012000
00000000
,
00013000
00001000
00010000
00001000
00010000
00000000
00100000
00000000
01000000
00100000
01000000
00100000
01000000
00000000
00010000
00000000
20000000
00000000
00000000
00000000
32000000
00000000
00000000
00000000
03010000
00001000
00010000
00001000
00010000
00000000
00001000
00000000
,
00011000
00000000
00001000
01000000
10000000
01000000
00010000
00000000
11000000
00000000
00101000
00000000
00010010
00000000
00000101
00000000
,
00001000
00000001
00001000
00000001
00000010
00000000
00000100
00000000
00010000
00001000
00010000
00001000
00100000
00000000
01000000
00000000
10000000
00100000
10000000
00100000
01000000
00000000
00100000
00000000
00010000
00001000
00010000
00001000
00010000
00000000
00001000
00000000
,
00022000
00000000
00000000
00000000
,
00003000
00000000
00000000
00030000
,
00001000
00100000
10000000
00010000
01000000
00100000
00001000
00010000
,
00001000
00000000
00000000
00000000
00000000
00000000
00000100
00000000
00000000
00000000
00000000
00000000
00000010
00000000
00000000
00000000
00000000
00000000
00001000
00000000
00000000
00000000
00000000
00000000
00000100
00000000
00000000
00000010
00000000
00000000
00000100
00000000
00000000
00000010
00000000
00000000
00000001
00000000
00000000
00000000
00001000
00000000
00000000
00000000
00000010
00000000
00000000
00000000
,
00010000
00000010
00000100
00001000
00000001
00000010
00010000
00001000
,
01000000
00000000
00100000
00000000
00010000
00001000
00010000
00001000
00010000
00000000
00001000
00000000
01000000
00000000
00010000
00000000
,
10000000
01000000
00010000
00001000
00000010
00001000
00000001
00000100
,
00010000
00000000
00000000
00000000
00000000
00000000
00001000
00000000
00000000
00000000
00000000
00000000
00100000
00000000
00000000
00010000
00000000
00000000
00100000
00000000
00000000
00010000
00000000
00000000
00100000
00000000
00000000
00000000
00000000
00000000
00001000
00000000
00000000
00000000
00000000
00000000
00010000
00000000
00000000
00000000
00001000
00000000
00000000
00000000
00000100
00000000
00000000
00000000
,
00000001
00000010
00001000
00010000
01000000
00010000
10000000
00100000
,
00001000
00000000
00010000
00000000
00100000
00000000
10000000
00000000
01000000
00100000
01000000
00100000
00001000
00000000
00010000
00000000
,
00000100
00000010
00001000
00000001
00000100
00010000
00001000
01000000
,
00100000
00000000
00000000
00000000
00000000
00000000
00010000
00000000
00000000
00000000
00000000
00000000
00001000
00000000
00000000
00000000
00000000
00000000
00010000
00000000
00000000
00000000
00000000
00000000
00100000
00000000
00000000
01000000
00000000
00000000
00100000
00000000
00000000
01000000
00000000
00000000
00100000
00000000
00000000
00000000
10000000
00000000
00000000
00000000
01000000
00000000
00000000
00000000
,
00100000
00000000
10000000
00000000
00010000
00000000
01000000
00000000
00100000
00000000
00001000
00000000
00010000
00001000
00010000
00001000
,
00010000
00000000
00000100
00000000
00000010
00000001
00000010
00000001
00000010
00000000
00000001
00000000
00000100
00000000
00000010
00000000
,
00001000
00000001
00000010
00010000
00001000
01000000
10000000
00010000
,
10000000
00000000
00000000
00100000
00000000
00000000
00001000
00000000
00000000
00010000
00000000
00000000
00000100
00000000
00000000
00000001
00000000
00000000
00000010
00000000
00000100
00000000
00001000
00000000
,
00000001
00000010
00001000
00010000
01000000
10000000
00100000
00010000
,
00022000
00000000
00000000
00000000
00000000
00000000
00033000
00000000
00010000
00001000
00010000
00001000
00010000
00000000
00000000
00000000
,
00001000
00100000
10000000
00010000
01000000
10000000
00100000
00010000
,
00011000
00000000
00001000
00000000
00010000
00000000
00000010
00000000
00000100
00000001
00000100
00000001
00000100
00000000
00000010
00000000
,
00001010
00001000
00000001
00000011
00000010
00000100
00010000
00001000
,
00011000
00000000
00010000
00000000
00001000
00100000
00001000
00100000
00010000
00000000
01000000
00000000
00100000
00000000
10000000
00000000
,
10010000
00010000
00100000
01000000
11000000
10000000
00100000
00010000
,
00011000
00000000
00001000
00000000
01000000
00001000
01000000
00001000
00010000
00000000
00001000
00000000
00000100
00000000
00000001
00000000
,
00001001
00001000
00000100
00000110
00000010
00001000
00010000
00001000
,
00011000
00000000
00000000
00010000
00000000
00000000
00100000
00000000
00000000
01000000
00000000
00000000
10000000
00000000
00010000
00000000
00100000
00000000
01000000
00000000
00010000
00000000
00100000
00000000
,
01100000
00000000
01000000
00000000
10000000
00000000
00010000
00000000
01000000
00001000
01000000
00001000
00010000
00000000
00001000
00000000
,
00011000
00000000
00010000
00000000
00001000
00000000
00000100
00000000
00000010
00000100
00000010
00000100
00001000
00000000
00010000
00000000
,
00011000
00001000
00000100
00000101
00000001
00000010
00001000
00010000
,
00011000
00000000
00001000
00000000
00100000
01000000
00100000
01000000
10000000
00000000
00010000
00000000
10000000
00000000
00100000
00000000
,
01100000
01000000
10000000
11000000
01000000
00001000
00010000
00000100
,
00001100
00000000
00000000
00000000
00001001
00000000
00000000
00000000
00001010
00000000
00000010
00000000
00000100
00000001
00000100
00000001
,
00001000
00000001
00000010
00000110
00000100
00010000
00001000
00100000
,
01000000
00100000
00010000
00000000
10000000
00000000
00010000
00000000
01000000
00001000
01000000
00000000
00001000
00010000
00001000
00010000
,
00001000
00100000
01000000
00010000
10000000
00100000
01000000
00010000
,
00011000
00001000
00010000
00000100
00001000
00000100
00010000
00000100
,
00001100
00001000
00000001
00000101
00000100
00001000
00010000
00001000
,
00011000
00000000
00010000
00001000
00000100
00000001
00000010
00001000
,
00011000
00010000
00001000
00100000
00110000
00010000
10000000
00010000
,
01010000
00000000
01000000
00000000
00100000
00000000
00010000
00000000
00001000
00000000
00000100
00000000
00000001
00001000
00000001
00001000
,
00000100
00000000
00000010
00000000
00000100
00000000
00010100
00000000
00010000
00000000
00001000
00000000
00100000
00010000
00100000
00010000
,
00100000
00000000
00000000
00001000
00000000
00000000
00010000
00000000
00000000
00100000
00000000
00000000
01000000
00000000
10000000
00000000
01000000
00000000
00010000
00000000
10000000
00000000
01000000
00000000
,
01100000
00100000
00010000
00110000
00100000
00001000
00010000
00000010
,
00000110
00000000
00000100
00000000
00000010
00001000
00000010
00001000
00000001
00000000
00000010
00000000
00000100
00000000
00001000
00000000
,
00001001
00000000
00000001
00000000
00000010
00000000
00001010
00000000
00001000
00000000
00010000
00000000
01000000
00100000
01000000
00100000
,
01000000
00000000
10000000
00000000
00100000
01000000
00010000
01000000
00010000
00000000
10000000
00000000
01000000
00000000
00010000
00000000
,
00011000
00001000
00010000
00000010
00000110
00000100
00000001
00001000
,
00001001
00000000
00000001
00000000
00001000
00000100
00001000
00000100
00010000
00000000
00001000
00000000
00010000
00000000
00001000
00000000
,
00011000
00010000
00100000
01100000
01000000
00010000
10010000
10000000
,
01000000
00000000
00000000
00000000
00100000
00000000
00000000
00000000
00010000
00000000
00000000
00000000
01000000
00000000
00000000
00000000
00100000
00000000
00000000
00000000
00010000
00000000
00000000
00000000
00001000
00000000
00000000
00000000
00000100
00000000
00000000
00000000
00000010
00000000
00000000
00000000
00001000
00000000
00000000
00000001
00000000
00000000
00001000
00000000
00000000
00000001
00000000
00000000
,
00000020
00000001
00001000
00010000
00001000
00000100
00001000
00000031
,
00001000
00000000
00000010
00000000
00001000
00000000
00000010
00000000
00000200
00000000
00000000
00000000
00002300
00000000
00000000
00000000
00013000
00000000
00001000
00000000
00100000
00000000
00010000
00000000
01000000
00100000
01000000
00100000
10000000
00000000
00010000
00000000
,
00200000
00000000
10000000
00000000
01000000
00000000
00001000
00000000
02300000
00000000
03100000
00010000
00001000
00000100
00000020
00000000
,
00000031
00001000
00000001
00001000
00000010
00000000
00000100
00000000
00001000
00010000
00001000
00010000
00100000
00000000
01000000
00000000
00010000
00100000
01000000
10000000
00100000
00000000
00010000
00000000
00001000
00000000
00000100
00000000
00000001
00000000
00000010
00000000
,
00002000
00000000
00000000
00000000
00000000
00000000
00023000
02030000
,
13000000
00000000
00100000
00000000
00010000
00000000
00100000
00000000
20000000
00000000
00000000
00000000
32000000
00000000
00000000
00000000
03010000
00000000
00001000
00000000
00000010
00000000
00000001
00000000
00000100
00000010
00000100
00000010
00010000
00000000
00001000
00010000
,
00002000
00000000
00000000
00000000
,
00000000
00000000
00000000
00000000
00000000
00000000
00000000
00000000
00000000
00000000
00000000
00000000
00000000
00000000
00000000
00000000
00013000
00000000
00001000
00000000
01000000
00010000
01000000
00000000
00100000
10000000
01000000
00000000
00100000
00000000
02200000
00000000
,
03300000
00000000
00000000
00000000
;
