#VERSION:0.83;
#TITLE:Sigmund;
#ARTIST:Gram;
#GENRE:REQUIEM PSY;
#BANNER:Sigmund.png;
#BACKGROUND:Sigmund-bg.png;
#CDTITLE:./CDTitles/bm IIDX 21 SPADA.png;
#MUSIC:Sigmund.ogg;
#SAMPLESTART:98.4;
#SAMPLELENGTH:15;
#BPMS:0=100,20=200,52=400,172=200,176=400,296=200,300=100,316=200,404=100,408=400,536=200;
#BGSTAGE:29;

//--------------- dance-single - Fred-104 ----------------
#NOTEDATA:;
#STEPSTYPE:dance-single;
#DESCRIPTION:Fred-104;
#DIFFICULTY:Beginner;
#METER:8;
#CREDIT:Fred-104;
#NOTES:
0000
0000
0000
0000
,
0000
0000
0000
0000
,
0000
0000
0000
0000
,
0000
0000
0000
0000
,
0000
0000
0000
0000
,
1000
0000
0010
0000
,
1000
0000
0001
0001
,
0001
0000
1000
0000
,
0001
0000
0100
0100
,
0100
0000
0010
0000
,
1000
0000
0001
0001
,
0001
0000
1000
0000
,
2002
0000
0000
3003
,
0001
0000
0000
0000
,
1000
0000
0000
0000
,
0010
0000
0000
0000
,
1000
0000
1000
0000
,
1000
0000
0000
0000
,
0001
0000
0000
0000
,
0100
0000
0000
0000
,
0001
0000
0010
0000
,
0001
0000
0000
0000
,
1000
0000
0000
0000
,
0001
0000
0000
0000
,
1000
0000
0100
0000
,
0010
0000
0000
0000
,
0001
0000
0000
0000
,
1000
0000
1000
0000
,
0001
0000
0000
0000
,
1000
0000
1000
0000
,
0010
0000
1000
0000
,
0100
0000
0010
0000
,
0001
0000
1000
0000
,
0001
0000
0001
0000
,
0100
0000
0010
0000
,
0100
0000
0100
0000
,
0001
0000
1000
0000
,
0001
0000
0010
0000
,
0100
0000
1000
0000
,
0010
0000
1000
0000
,
0100
0000
1000
0000
,
0001
0000
0001
0000
,
1000
0000
0001
0000
,
2002
0000
0000
3003
,
1000
0000
1000
0000
,
0010
0000
1000
0000
,
0100
0000
0010
0000
,
0001
0000
0001
0000
,
0100
0000
0001
0000
,
0010
0000
0001
0000
,
0001
0000
1000
0000
,
0001
0000
1000
0000
,
1000
0000
0010
0000
,
1000
0000
0100
0000
,
0010
0000
0001
0000
,
1000
0000
0001
0000
,
1000
0000
0000
0010
,
0000
0000
1000
0000
,
0001
0000
0000
0100
,
0000
0000
0001
0000
,
0100
0000
0100
0000
,
0010
0000
0100
0000
,
0001
0000
0001
0000
,
0010
0000
0100
0000
,
1000
0000
0010
0000
,
1000
0000
0100
0000
,
1000
0000
1000
0000
,
0001
0000
0100
0000
,
0001
0000
0001
0000
,
0010
0000
0010
0000
,
0100
0000
0100
0000
,
1000
0000
1000
0000
,
0001
0000
0001
0000
,
1000
0000
0001
0000
,
2002
0000
0000
3003
,
2000
0000
3200
0000
0320
0000
0031
1000
,
0002
0000
0203
0000
0320
0000
0130
0001
,
0200
0320
2030
3002
,
1003
1000
0100
0100
0010
0010
0001
0001
,
2000
0000
3020
0000
,
0230
0000
0302
0000
,
0023
0000
0230
0000
,
2300
0000
3002
0003
,
1001
0000
0110
0000
,
1001
0000
0110
0000
,
1001
0000
0110
0000
,
2002
0000
0000
3003
,
1000
0000
0010
0000
,
1000
0000
0100
0010
,
0001
0000
0100
0000
,
0001
0000
0010
0100
,
1000
0000
0001
0000
,
1000
0000
0001
1000
,
0010
0000
1000
0000
,
0001
0000
1000
0000
,
0001
0000
0100
0000
,
1000
0000
0010
0010
,
0001
0000
0010
0000
,
1000
0000
0100
0100
,
0001
0000
1000
0000
,
0001
0000
0100
0010
,
1000
0000
0010
0000
0100
0100
0001
1000
,
0001
0000
0010
0000
,
0100
0000
0000
1000
,
0000
0000
0010
0000
,
1000
0000
1000
0000
,
0100
0000
0010
0000
,
0001
0000
0000
0100
,
0000
0000
0010
0000
,
0100
0000
0001
0000
,
0010
0000
0001
0000
,
1000
0000
0000
0001
,
0000
0000
1000
0000
,
0010
0000
1000
0000
,
0001
0000
0001
0000
,
1000
0000
1000
0000
,
0001
0000
0100
0000
,
0010
0000
1000
0000
,
0001
0000
0010
0000
,
0100
0000
0000
1000
,
0000
0000
0010
0000
,
1000
0000
0001
0000
,
0100
0000
0001
0000
,
0010
0000
0000
0001
,
0000
0000
1000
0000
,
0001
0000
1000
0000
,
0010
0000
0010
0000
,
1000
0000
1000
0000
,
0001
0000
0001
0000
,
0100
0000
0100
0000
,
0001
0000
0010
0000
,
0100
0000
1000
0000
,
0001
0000
1000
0000
,
0001
0000
1000
0000
,
2002
0000
0000
0000
,
3003
0000
0000
0000
;

//--------------- dance-single - Fred-104 ----------------
#NOTEDATA:;
#STEPSTYPE:dance-single;
#DESCRIPTION:Fred-104;
#DIFFICULTY:Easy;
#METER:11;
#CREDIT:Fred-104;
#NOTES:
0000
0000
0000
0000
,
0000
0000
0000
0000
,
0000
0000
0000
0000
,
0000
0000
0000
0000
,
0000
0000
0000
0000
,
1000
0000
0100
0000
,
0010
0000
0001
0000
1000
0000
0001
0100
,
0001
0000
0100
0000
,
0010
0000
1000
0000
0100
0000
0010
0001
,
1000
1000
0010
0010
,
0100
0100
0001
0001
,
1000
0010
1000
0000
0001
0100
0001
0000
,
2002
0000
0000
3003
,
1000
0000
1000
0000
,
0010
0000
0010
0000
,
1000
0000
0100
0000
,
0010
0000
0001
0100
,
0001
0000
0001
0000
,
1000
0000
0001
0000
,
0100
0000
0010
0000
,
1000
0000
0001
0100
,
0001
0000
0001
0000
,
0010
0000
0100
0000
,
1000
0000
0010
0000
,
1000
0000
0100
1000
,
0100
0000
0010
0000
,
0001
0000
1000
0000
,
0001
0000
0000
0001
0000
0000
0001
0000
,
1000
0001
0100
0000
,
0001
0000
0001
0000
,
0010
0000
0010
0000
,
0100
0000
0100
0000
,
1000
0000
1000
0010
,
0100
0000
0100
0000
,
0001
0000
1000
0000
,
0001
1000
0001
0000
,
0100
0000
0010
1000
,
0010
0000
1000
0000
,
0100
0000
0010
0000
,
0001
0000
1000
0000
,
0001
0010
0001
0010
,
0001
0000
0000
1000
0000
0000
0001
0000
,
0100
0010
0100
0000
,
0002
0000
2000
3003
,
0001
0000
0010
0000
,
0100
0000
1000
0000
,
0010
0000
1000
0000
,
0100
0000
1000
0001
,
1000
0000
0001
0000
,
0100
0000
0010
0000
,
1000
0000
0100
0000
,
1000
0000
0001
0010
,
0100
0000
1000
0000
,
0010
0000
1000
0000
,
0100
0000
1000
0000
,
0001
0000
1000
0000
,
0010
0010
0000
1000
,
1000
0000
0001
0000
,
0100
0100
0000
0010
,
0010
0000
0100
0000
,
0001
0000
0010
0000
,
0100
0000
0010
0000
,
0001
0000
1000
0000
,
0001
0000
0100
0010
,
0100
0000
0001
0000
,
0010
0000
0100
0000
,
1000
0100
1000
0000
,
0001
0000
0100
0010
,
0100
0000
0001
0000
,
0010
0000
0100
0000
,
1000
0000
0001
0000
,
1000
0000
0001
0000
,
1000
0000
0000
1000
0000
0000
1000
0000
,
0001
0000
0100
0000
,
0020
0000
0000
0230
0000
0000
0302
0000
,
1003
0000
0100
0000
0010
0000
0001
0000
1000
0010
1000
0000
0001
0100
0010
0000
,
0100
0000
0001
0000
0010
0000
0100
0000
1000
0010
0100
0000
0010
1000
0100
0000
,
0010
0000
0001
0000
1000
0000
0001
0000
0010
0100
1000
0000
0001
0100
0010
0000
,
0100
0000
0100
0000
0010
0000
0010
0010
1000
0001
1000
0001
1000
0001
2000
0000
,
3001
0001
0100
0010
,
1000
1000
0100
0010
,
0001
0100
0010
0010
,
1000
0100
0010
0001
,
0001
0100
1000
0100
,
0001
0010
1000
0010
,
0001
0100
0010
1000
,
2002
0000
0000
3003
,
0001
0001
0100
0100
,
0010
0010
1000
0100
,
0001
0100
1000
0010
,
1000
1000
0010
0001
,
0100
1000
1000
0001
,
0001
1000
1000
0010
,
0001
0100
1000
1000
,
0001
0000
0001
0000
0001
0000
0100
0000
0000
0010
0000
0000
,
1000
0100
0010
0001
,
1000
0010
1000
0100
,
0100
1000
0010
0100
,
0001
0001
1000
1000
,
0001
0100
0100
0010
,
1000
0001
0100
0100
,
0020
0000
0000
0000
2030
0000
0000
0000
3001
0000
0010
0000
0100
1000
0001
0100
,
0010
0000
1000
0000
,
0010
0000
1000
0100
,
0000
0010
0001
0000
,
1000
0000
0001
0000
,
0100
0000
0010
0000
,
0100
0000
0001
0010
,
0000
0100
0010
0000
,
0001
0000
1000
0000
,
0010
0000
1000
0000
,
0100
0000
1000
0100
,
0000
0010
0001
0000
,
1000
0000
0001
0000
,
1000
0010
1000
0000
,
0001
0100
0001
0000
,
1000
0100
1000
0000
,
0001
0010
0001
0000
,
1000
0000
0100
0000
,
0010
0000
0001
0010
,
0000
0100
0010
0000
,
0001
0000
0100
0000
,
0010
0000
0100
0000
,
0001
0000
1000
0100
,
0010
0001
0010
0000
,
0001
0000
1000
0001
,
1000
0100
1000
0010
,
0100
0001
0100
0001
,
0010
0001
0010
0001
,
0001
1000
0001
1000
,
1000
0000
0000
0010
0000
0000
1000
0000
,
0001
0100
0010
0000
,
0100
0010
1000
0000
,
0001
0010
0100
0000
,
1000
0000
0000
0001
0000
0000
1000
0000
,
1001
0000
0000
0000
;

//--------------- dance-single - Fred-104 ----------------
#NOTEDATA:;
#STEPSTYPE:dance-single;
#DESCRIPTION:Fred-104;
#DIFFICULTY:Medium;
#METER:15;
#CREDIT:Fred-104;
#NOTES:
0000
0000
0000
0000
,
0000
0000
0000
0000
,
0000
0000
0000
0000
,
0000
0000
0000
0000
,
0000
0000
0000
0000
,
0001
0000
1000
0000
,
0010
0000
1000
0000
0100
0010
0001
0100
,
1000
0000
0100
0000
,
0001
0000
0010
0000
0100
1000
0010
1000
,
0100
0100
0010
0010
,
0001
0001
1000
1000
,
0001
0100
0001
0100
0010
1000
0100
0010
,
0002
0000
2000
3003
,
1000
0100
1000
0010
,
1000
0100
0010
0001
,
0100
0001
0010
0001
,
0100
0001
0010
0100
,
1000
0001
1000
0100
,
1000
0010
1000
0100
,
0010
0001
0100
0001
,
0010
0100
0010
0010
,
0010
0001
1000
0001
,
0100
0001
0010
0001
,
0100
0001
0010
0100
,
1000
0001
0100
0010
,
1000
0100
0010
0001
,
0100
0010
0100
0001
,
1000
0000
0000
0010
0000
0000
1000
0000
,
0001
0000
0100
0010
0100
0000
0001
0000
,
1000
0001
0100
0100
,
1000
0001
0010
0010
,
1000
0100
0010
0001
,
1000
0001
0100
0010
,
1000
0001
0100
0100
,
1000
0001
0010
0010
,
0001
1000
0001
0000
,
1001
0000
0000
0000
1000
0100
1000
0100
,
1000
0100
0010
0001
,
0100
0010
0100
0001
,
0010
0100
1000
0010
,
0100
1000
0100
0001
,
1000
0000
0000
1000
0000
0000
0001
0000
,
0100
0000
0010
0000
0100
0010
0100
0010
,
0200
0000
0020
0330
,
1000
0100
0010
0001
,
0000
0100
0010
0001
,
0000
0010
1000
0001
,
0000
0010
0100
1000
,
0001
0010
0100
1000
,
0000
0010
0100
1000
,
0000
0100
0001
1000
,
0000
0001
0100
0010
,
1000
0010
0100
1000
,
0000
0100
0001
1000
,
0000
0001
0010
0100
,
0000
1000
0010
0100
,
0001
0010
0100
1000
,
0001
0000
0101
0000
,
0100
0010
1000
0010
,
0100
0000
1001
0000
,
0001
0100
0010
0001
,
0000
0010
1000
0001
,
0000
1000
0100
0010
,
0000
0001
0100
0010
,
1000
0100
0010
1000
,
0000
0010
0001
1000
,
0001
0100
0001
0100
0001
0000
0000
0000
,
1001
0000
0000
0000
1000
0100
1000
0100
,
1000
0010
1000
0010
,
1000
0100
1000
0100
,
0010
0001
0010
0001
,
0100
0001
0100
0001
,
0100
0000
0000
0010
0000
0000
1000
0000
,
0001
0000
0100
0000
0010
1000
0010
1000
,
0002
0000
0000
2003
3020
0000
0230
0000
,
0301
0000
0010
0000
0100
0000
1000
0010
0100
0010
1000
0000
0001
0010
0100
0000
,
1000
0000
0001
0000
0100
0000
0010
1000
0100
1000
0010
0000
0100
0001
0010
0000
,
0100
0000
1000
0000
0001
0000
0100
0001
0010
0001
1000
0000
0001
0100
0010
0000
,
1000
0000
0100
0000
1000
0000
0100
0000
0010
0000
0001
0000
1000
0000
0001
0000
0100
0000
0010
0000
1000
0000
0010
0000
1000
0001
1000
0001
2000
0000
0000
0000
,
3001
0000
0000
0100
0000
0000
0010
1000
0010
1000
0000
0000
,
0100
0000
0000
0010
0000
0000
0001
0010
0001
0010
0000
0000
,
0100
0000
0000
1000
0000
0000
0001
0100
0001
0100
0000
0000
,
0010
0000
0000
1000
0000
0000
0001
1000
0001
1000
0000
0000
,
1000
1100
0001
0101
,
1000
1010
0001
0011
,
1000
0000
1000
0100
0000
0100
0010
0000
0010
0001
0000
0001
,
2000
0000
0000
3000
,
0001
0000
0001
0010
0000
0010
0100
0000
0100
1000
0000
1000
,
0010
0000
0010
0100
0000
0100
0001
0000
0010
0001
0000
0100
,
0001
0000
0001
0010
0000
0010
0100
0000
0100
1000
0000
1000
,
0010
0000
0010
0100
0000
0100
0001
0000
1000
0001
0000
0100
,
0010
0000
0010
1000
0000
1000
0100
0000
0100
0010
0000
0010
,
0001
0000
0001
1000
0000
1000
0010
0000
0100
0010
0000
1000
,
0100
0000
0100
0010
0000
0010
0001
0000
0001
1000
0000
1000
,
0010
0000
0010
0000
0010
0000
0100
0000
0001
2000
0000
0000
,
3010
0101
0010
1100
,
0010
0101
0010
1100
,
0001
0011
1000
1010
,
0001
0000
1000
0001
0000
0001
0100
0010
1000
0010
0000
0000
,
1000
0000
0000
0100
0000
0000
0010
0001
1000
0001
0000
0000
,
0001
0000
0001
0100
0000
0100
0010
1000
0010
0100
0000
0000
,
0002
0000
0000
0000
2003
0000
0000
0000
3001
0010
0100
1000
0010
0100
0001
1000
,
0001
0010
0001
1000
,
0001
0000
0100
0010
,
0000
1000
0100
0000
,
0010
0001
0010
0000
0001
0000
1000
0000
,
0001
0100
0010
0100
,
0001
0000
1000
0100
,
0000
0010
0100
0000
,
1000
0010
1000
0000
0010
0000
0100
0000
,
0010
1000
0100
0010
,
0001
0000
0100
0010
,
0000
0100
0001
0000
,
0100
0001
0100
0000
0001
0000
0010
0000
,
0001
0100
0100
1000
,
0100
0100
0001
1000
,
0001
0010
0010
1000
,
0010
0010
0001
1000
,
0001
0010
0100
1000
,
0010
1000
0100
0010
,
0000
0010
0001
0000
,
1000
0010
1000
0000
0001
0000
0100
0000
,
0010
1000
0100
1000
,
0010
0100
0001
0010
,
0100
0010
0100
0010
0100
0000
0000
0000
,
1001
0000
0000
0000
1000
0100
1000
0100
,
1000
0100
1000
0100
,
1000
0010
1000
0010
,
0100
0001
0100
0001
,
0010
0001
0010
0001
,
0100
0000
0000
0001
0000
0000
0100
0000
,
0010
1000
0001
0010
,
0100
1000
0001
0100
,
0001
1000
0001
1000
0001
0000
0000
0000
,
1001
0000
0000
0001
0100
1000
0010
0000
,
0011
0000
0000
0000
;

//--------------- dance-single - Fred-104 ----------------
#NOTEDATA:;
#STEPSTYPE:dance-single;
#DESCRIPTION:Fred-104;
#DIFFICULTY:Hard;
#METER:18;
#CREDIT:Fred-104;
#NOTES:
0000
0000
0000
0000
,
0000
0000
0000
0000
,
0000
0000
0000
0000
,
0000
0000
0000
0000
,
0000
0000
0000
0000
,
1000
0000
0010
1000
,
0100
0010
0001
1000
,
0001
0000
0100
0001
,
0010
0100
1000
0001
,
1000
0000
0001
0100
,
1000
0100
0001
0100
,
0010
0000
0010
1000
0000
1000
0001
0000
0001
0100
0000
0100
,
0001
0010
0100
1000
0010
0100
0001
0010
0100
2000
0000
0000
,
3001
0000
0010
0000
0100
0000
1000
0100
,
1000
0000
0010
0000
0100
0001
0100
0001
,
0100
0000
0010
0000
1000
0000
0100
0010
,
0100
0000
0010
0000
0001
0010
0001
0010
,
0001
0000
1000
0000
0001
0000
0100
0010
,
0100
0000
0001
0000
1000
0010
1000
0010
,
1000
0000
0100
0000
0010
0000
0001
0100
,
0001
0000
0100
0000
0010
0100
0010
0100
,
0010
0000
1000
0000
0001
0000
0100
0001
,
0100
0000
0001
0000
1000
0001
1000
0001
,
1000
0000
0100
0000
0010
0000
0100
0010
,
0100
0000
0010
0000
0001
0100
0001
0100
,
0001
0000
0010
0000
0001
0000
1000
0010
,
1000
0000
0010
0000
1000
0100
1000
0100
,
1000
0000
0000
1010
0000
0000
1001
0000
,
0001
0000
0100
0001
0010
0001
0010
0100
,
1000
0000
0010
0000
1000
0100
1000
0100
,
0010
0000
0001
0000
0100
0001
0100
0001
,
0100
0000
0001
0000
0010
0001
0010
0001
,
1000
0000
0001
0000
1000
0010
1000
0010
,
0100
0000
0001
0000
0010
0100
1000
0100
,
0010
0000
0001
0000
1000
0001
0100
0001
,
1000
0100
1000
0100
1000
0000
0000
0000
,
1001
0000
0000
0000
0001
0010
0100
1000
,
0001
0000
0010
0000
0100
0010
0100
0010
,
0100
0000
0010
0000
0001
0100
0001
0100
,
0010
0000
1000
0000
0100
0010
0001
0010
,
0100
0000
1000
0000
0001
0100
0010
1000
,
0001
0000
0000
0011
0000
0000
1001
0000
,
1000
0000
0100
0000
1000
0001
0100
0010
,
2000
0000
0002
3003
,
1000
0100
0010
0001
,
0100
0010
0001
0010
,
1000
0001
0010
1000
,
0010
0100
1000
0010
,
0100
0001
1000
0001
,
0010
0001
1000
0001
,
1000
0100
0010
0001
,
1000
0000
0010
0000
0100
0001
0100
0001
,
0100
0001
0010
0100
,
1000
0010
1000
0100
,
0001
0100
1000
0010
,
0100
0001
0010
0100
,
1000
0010
0000
1000
,
0100
0000
0110
0000
,
0010
0001
0000
1000
,
0001
0000
0000
0000
0100
0001
1000
0001
,
0010
0000
0001
1000
0001
0000
0010
0000
,
0100
0000
1000
0100
1000
0000
0010
0000
,
0100
0000
0001
0100
0001
0000
0010
0000
,
0100
0000
0010
0100
0010
0000
0001
0000
,
1000
0000
0010
1000
0100
0000
0010
0000
,
0001
0000
0100
0001
0010
0000
0001
0000
,
1000
0100
0010
0001
1000
0000
0000
0000
,
1001
0000
0000
0000
0001
0100
0001
0100
,
0010
0000
1000
0100
1000
0000
0100
0000
,
0010
0000
0001
0100
0001
0000
0010
0000
,
0100
0000
1000
0010
0100
0000
0010
0000
,
1000
0000
0100
0010
0001
0000
0010
0000
,
0011
0000
0000
1010
0000
0000
0011
0000
,
0001
0000
1000
0000
0001
0100
0010
1000
,
0002
0000
0000
2003
3200
0000
0320
0000
,
0031
0000
0100
0000
0110
0000
0010
1000
0001
1000
0100
0000
0010
0001
0100
1000
,
0100
0000
0001
0000
0011
0000
0010
0100
1000
0001
1000
0000
0100
1000
0001
0100
,
0010
0000
1000
0100
0110
0000
0010
0001
1000
0010
0100
0001
0010
0100
1000
0001
,
0100
0000
0010
0000
1000
0000
0100
0000
0001
0000
0100
0000
1000
0000
0001
0000
1000
0010
1000
0010
0100
0001
0100
0001
1000
0001
1000
0001
2000
0000
0000
0000
,
3001
0000
0001
0010
0000
0010
0100
1000
0010
0100
0001
1000
,
0001
0000
0001
0100
0000
0100
0010
1000
0010
0200
0302
2003
,
3100
0000
0100
0010
0000
0010
0001
0010
1000
0010
0001
0100
,
0001
0000
0001
0010
0000
0010
0100
1000
0010
0200
0302
0203
,
0301
0010
0001
0200
0302
0203
0310
1000
0010
2000
3200
2300
,
3001
1000
0001
0020
0230
0320
0031
1000
0001
0200
0320
0230
,
0301
0010
1000
0001
0100
1000
0001
0100
1000
0001
0010
1000
,
0002
0000
0000
0003
,
1000
0010
1000
0100
0000
0100
0010
0001
0100
0001
0000
0001
,
0100
0010
1000
0010
0000
0010
0100
0001
1000
0001
0100
0001
,
0010
0100
1000
0100
0000
0100
0010
0001
1000
0100
0000
0100
,
1000
0010
0100
0010
0000
0010
1000
0100
0010
0001
0010
1000
,
0010
0001
1000
0001
0000
0001
0010
0100
1000
0010
0000
0010
,
1000
0100
0010
0001
0000
0001
0100
0010
1000
0100
0001
0100
,
1000
0010
1000
0100
0000
0100
0010
0001
1000
0001
0000
0001
,
0100
0000
0110
0000
1010
0000
1000
0100
0010
0002
0000
0000
,
1003
0010
1000
0100
1000
0100
0010
0001
0100
0001
0010
0001
,
0100
0001
0010
0100
1000
0010
0100
0001
1000
0001
0000
0001
,
0100
0001
0010
0001
0100
0001
0010
0100
1000
0010
1000
0001
,
1000
0000
0010
0001
0000
0010
1000
0100
0100
0001
0010
0010
,
1000
0000
1000
0100
0000
0100
0010
0001
1000
0001
0010
0100
,
1000
0000
0001
0100
0010
1000
0100
0001
0100
1000
0001
0010
,
0001
0000
0000
0000
0100
0000
0000
0000
0010
0000
0000
0000
1000
0000
0000
0000
0000
0000
0000
0000
0100
0000
0000
0000
0010
0000
0000
0000
0001
0000
0000
0000
1000
0000
0000
0000
0001
0000
0000
0000
0000
0000
0000
0000
0100
0000
0000
0000
0010
0000
0000
1000
0000
0000
0010
0000
0000
0000
0000
0000
0100
0000
0000
0001
0000
0000
0100
0000
0000
0000
0000
0000
0001
0000
0000
1000
0000
0000
0001
0000
0000
1000
0000
0000
0100
0000
0000
0010
0000
0000
0001
0000
0000
0000
0000
0000
,
1000
0010
1000
0100
,
0110
0000
0010
0011
,
0000
0000
0001
1000
0001
0000
0000
0000
,
1000
0010
1000
0000
0001
0100
0001
0000
,
1000
0100
0010
0001
,
0011
0000
0001
0101
,
0000
0000
0100
0010
0100
0000
0000
0000
,
0010
1000
0001
0000
1000
0100
1000
0000
,
0001
1000
0010
0100
,
0110
0000
0100
0101
,
0000
0000
0001
1000
0001
0000
0000
0000
,
0100
0010
0100
0000
0001
1000
0010
1000
,
0001
0000
1000
0100
0010
0000
0001
0000
,
1000
0010
0100
0000
0001
0000
0100
0001
,
1000
0000
0001
0010
0100
0000
1000
0000
,
0100
0000
0010
0000
0001
1000
0010
0100
,
0001
0000
0100
0010
1000
0000
0100
0000
,
0010
0100
1000
0000
0010
0000
0110
0000
,
0000
0000
0100
0001
1000
0000
0001
0000
,
1000
0100
0010
0001
0100
0010
1000
0010
,
0100
0000
0001
0010
0100
0000
0010
0000
,
0001
0100
0010
0000
0100
0000
0001
0000
,
1000
0100
0010
0001
1000
0000
0000
0000
,
0001
0100
0010
1000
0100
0010
0001
0100
,
0001
0010
0001
0100
,
0010
0100
0001
0100
,
0010
0000
1000
0100
0010
0001
1000
0000
,
0001
0100
0010
0100
0001
1000
0010
0000
,
1100
0000
0000
0110
0000
0000
0011
0000
,
0001
0000
1000
0000
0001
0100
0001
0100
,
0010
1000
0001
0010
0100
1000
0001
0100
,
0010
1000
0001
0010
0100
0010
0001
0000
,
1001
0000
0000
0000
0000
0000
1000
0010
0100
0000
0001
0000
1000
0000
0001
0000
,
1001
0000
0000
0000
;

//--------------- dance-single - Fred-104† ----------------
#NOTEDATA:;
#STEPSTYPE:dance-single;
#DESCRIPTION:Fred-104†;
#DIFFICULTY:Challenge;
#METER:19;
#CREDIT:Fred-104†;
#NOTES:
0000
0000
0000
0000
,
0000
0000
0000
0000
,
0000
0000
0000
0000
,
0000
0000
0000
0000
,
0000
0000
0000
0000
,
1000
0000
1000
0010
0000
0010
0001
0000
0001
1000
0000
1000
,
0100
0000
0000
0000
0100
0000
0001
0000
0000
0000
0001
0000
1000
0000
0010
0000
1000
0000
0010
0000
0000
0100
0000
0000
,
0001
0000
0010
0001
0000
0010
0100
0000
0010
0100
0000
1000
,
0100
0000
0000
0000
1000
0000
0100
0000
0000
0000
0010
0000
0100
0000
0010
0000
0100
0000
0010
0000
0000
0001
0000
0000
,
1000
0100
0010
0001
0000
0000
0001
0100
0010
1000
0000
0000
,
0100
0000
1000
0000
0010
0000
0100
0000
0000
0000
0000
0000
0001
0000
0010
0000
0100
0000
1000
0000
0000
0001
0000
0000
,
1000
0100
1000
0010
1000
0100
1000
0100
0010
0001
0100
0010
,
1000
0100
0100
0001
0010
0010
1000
0001
1000
1001
0000
0000
,
1000
0100
1000
0010
0100
0010
1000
0010
,
0100
0001
1000
0001
0010
0001
1000
0001
,
0100
0010
1000
0001
1000
0100
1000
0100
,
0010
0001
1000
0001
0100
0000
0001
0000
,
0100
0001
0010
0001
1000
0001
0010
0001
,
1000
0001
0100
0001
0010
0001
0010
0100
,
1000
0010
1000
0100
1000
0010
1000
0001
,
0100
0001
0010
0100
1000
0000
0001
0100
,
0010
0000
1000
0100
0010
0001
1000
0001
,
0010
0001
0100
0001
0100
0001
0100
0010
,
1000
0010
1000
0100
1000
0100
0010
0001
,
1000
0001
1000
0001
0100
0000
0010
1000
,
0100
0010
0001
0100
0001
0010
0001
1000
,
0001
0010
0100
1000
0010
0100
0001
0010
,
0100
0000
0000
1100
0000
0000
1001
0000
,
1000
0000
0000
0000
0000
0000
0001
0000
1000
0000
0001
0000
1000
0000
0000
0100
0000
0000
0010
0000
0000
0001
0000
0000
,
1000
0000
0010
0000
1000
0100
1000
0010
,
0100
0000
0001
0000
0010
0100
1000
0001
,
0100
0000
0010
0000
1000
0100
0010
0001
,
1000
0010
0100
0001
1000
0001
0100
0010
,
1000
0000
0100
0000
0010
0001
0010
0100
,
1000
0000
0001
0000
0100
0010
1000
0001
,
1000
0100
0001
0100
1000
0000
0001
1000
,
0010
0000
0100
0000
0001
0010
0100
1000
,
0001
0000
0010
0000
0100
1000
0001
0100
,
0010
0000
1000
0000
0100
1000
0100
0010
,
0100
0000
0001
0000
0010
0001
1000
0001
,
0100
0000
0010
0000
1000
0100
0010
0001
,
1000
0000
0000
1010
0000
0000
0101
0000
,
0001
0000
1000
0000
0001
1000
0001
1000
,
0002
0203
2300
3020
0032
0000
2000
3003
,
1100
1000
0010
0110
,
0000
0101
0001
0011
,
0000
1001
0001
0101
,
0000
0000
1010
0000
1000
0000
0100
0010
,
0001
0100
0010
1010
,
0000
1100
0100
0101
,
0000
1100
0100
0101
,
0000
0000
1100
0000
1000
0001
1000
0010
,
0100
0001
1000
1001
,
0000
1100
0100
0110
,
0000
0101
0100
0110
,
0000
1010
0010
0100
,
0001
1000
0100
0000
0010
0000
0100
1000
,
0001
0000
1000
0000
0001
1000
0100
0000
,
1000
0001
0010
0000
0100
0000
0010
0001
,
1000
0000
0000
0000
0000
0000
0001
0000
1000
0000
0001
0000
1000
0000
0000
0001
0000
0000
0010
0000
0000
0001
0000
0000
,
1000
0000
0100
0010
0001
0000
1000
0000
,
0010
0000
0100
0001
0010
0000
0100
0000
,
1000
0010
1000
0100
0010
0000
0001
0000
,
0100
0001
0010
0001
1000
0010
0100
0000
,
0001
0000
0010
0001
1000
0000
0100
0000
,
0010
0000
0100
1000
0010
0000
0100
0000
,
0001
0100
1000
0100
0001
0000
0000
0000
,
1001
0000
0000
0000
1000
0010
0001
0010
,
1000
0000
0010
0100
1000
0000
0100
0000
,
0001
0000
0010
0100
0001
0000
0100
0000
,
1000
0000
0100
0010
1000
0000
0010
0000
,
0001
0000
0100
0010
0001
0000
0010
0000
,
1010
0000
0000
0110
0000
0000
0101
0000
,
1001
0000
0001
0000
0100
0001
0010
0001
,
2000
0000
0000
3020
0230
0000
0302
0000
,
1003
0100
0010
0001
0100
0010
0001
0010
1000
0001
1000
0000
0001
0100
0010
1000
,
0001
0100
1000
0100
0010
1000
0100
0010
0001
0100
0010
0000
1000
0100
1000
0010
,
0100
0001
0010
1000
0010
0001
0100
0001
0010
0100
1000
0000
0001
1000
0100
1000
,
0001
0100
0001
0100
0010
0000
1000
0000
0100
0010
0100
0010
0001
0000
1000
0000
0001
0100
0010
1000
0100
0010
0001
0100
0010
1000
0100
0010
0002
0000
0000
0000
,
1003
0000
1000
1100
0000
0001
0101
0100
0010
1000
0010
0100
,
0001
0000
0000
0000
0001
0000
0011
0000
0000
0000
1000
0000
1010
0000
0010
0000
0100
0000
0001
0100
0001
0100
0001
0000
,
1000
0000
1000
1100
0000
0001
0101
0100
0010
1000
0001
1000
,
0010
0000
0000
0000
1000
0000
1010
0000
0000
0000
0001
0000
0101
0000
0100
0000
0010
0000
1000
0100
1000
0100
1000
0000
,
0001
0000
0010
0000
0100
0000
1000
0010
0100
0010
0100
0000
0001
0000
0100
0000
0010
0000
1000
0100
0010
0100
0010
0000
,
0001
0000
0010
0000
0100
0000
1000
0100
0010
0001
1000
0000
0001
0000
0100
0000
0010
0000
1000
0010
0100
0001
1000
0000
,
0001
0001
0100
0100
0010
0010
1000
1000
0100
0100
0010
0010
,
0001
0100
1000
0001
0010
1000
0001
0100
1000
1001
0000
0000
,
1000
0010
0100
1000
0100
0001
1000
0100
0010
1000
0010
0001
,
1000
0001
0100
1000
0100
0001
1000
0001
0010
1000
0010
0001
,
1000
0100
0010
1000
0100
0010
1000
0010
0001
1000
0010
0001
,
1000
0010
0100
1000
0010
0100
1000
0100
0001
1000
0100
0001
,
1000
0100
0010
0001
0100
0010
0001
0010
1000
0001
0100
0010
,
1000
0010
0100
0001
0010
0100
0001
0100
1000
0001
0010
0001
,
1000
0100
0001
1000
0010
0001
1000
0010
0001
1000
0100
0001
,
1001
0000
0110
0000
1001
0000
0001
0010
0100
1000
1000
1000
,
0001
0100
0010
0001
0010
1000
0001
0010
0100
0001
0100
1000
,
0001
1000
0100
0001
0100
1000
0001
1000
0010
0001
0010
1000
,
0001
0010
0100
1000
0010
0100
0001
1000
0100
0010
0001
1000
,
0001
0000
0001
0101
0000
1000
1100
0100
0010
0001
0010
0010
,
1000
0000
1000
0010
0000
0010
0100
0001
0010
0100
0010
0001
,
1000
0000
1000
0100
0010
0100
0001
0100
1000
0010
0100
0001
,
1000
0000
0000
0000
0010
0000
0000
0000
0100
0000
0000
0000
0001
0000
0000
0000
0000
0000
0000
0000
0001
0000
0000
0000
0010
0000
0000
0000
0100
0000
0000
0000
1000
0000
0000
0000
0001
0000
0000
0000
0000
0000
0000
0000
0001
0000
0000
0000
1000
0000
0000
0001
0000
0000
0100
0000
0000
0000
0000
0000
0001
0000
0000
1000
0000
0000
0100
0000
0000
0000
0000
0000
1000
0000
0000
0100
0000
0000
0010
0000
0000
0001
0000
0000
1000
0000
0000
0001
0000
0000
0100
0000
0000
0010
0000
0000
,
1000
0100
0010
0001
,
1001
0000
1000
1100
,
0000
0000
0001
0100
0010
1000
0001
0000
,
1000
0010
0100
1000
0100
0001
1000
0001
,
0100
0010
1000
0100
,
0110
0000
0010
0011
,
0000
0000
0001
0100
0010
1000
0001
0000
,
1000
0100
0010
1000
0010
0001
0100
0010
,
1000
0001
0100
0010
,
1010
0000
1000
1100
,
0000
0000
0100
0010
0001
1000
0001
0000
,
0100
0001
0010
0001
1000
0100
0001
0100
,
1000
0000
0001
0010
0100
1000
0010
0000
,
1000
0100
0010
0001
0100
0000
0010
1000
,
0001
0000
1000
0010
0100
0001
1000
0000
,
0001
0010
0100
1000
0001
0100
0010
1000
,
0001
0000
0010
0001
1000
0000
0100
0000
,
0010
0100
1000
0000
0001
0000
0100
0010
,
1000
0000
0001
0100
0010
1000
0001
0000
,
1000
0100
0001
0100
0010
0001
0100
0010
,
1000
0000
0001
0010
0100
0000
1000
0000
,
0010
1000
0100
0000
1000
0000
0001
0100
,
0010
1000
0100
0010
0001
0000
0000
0000
,
0001
0100
1000
0100
0010
1000
0100
0010
,
0001
0000
0010
0001
1000
0000
0100
0000
,
0010
0001
0100
0000
0010
0000
1000
0010
,
0100
0000
0001
0100
0100
1000
0001
0000
,
1000
0100
0010
0001
0100
0010
0001
0010
,
1000
0000
0000
1010
0000
0000
0101
0000
,
0110
0000
1001
0000
0001
0010
0100
1000
,
0001
0100
0010
1000
0100
0010
0001
0100
,
0010
1000
0100
0010
0001
0100
0010
0000
,
1001
0000
0000
0000
0000
0000
0001
0100
0010
1000
0001
0010
0100
0000
0000
0000
,
1100
0000
0000
0000
;

//--------------- dance-double - Fred-104 ----------------
#NOTEDATA:;
#STEPSTYPE:dance-double;
#DESCRIPTION:Fred-104;
#DIFFICULTY:Easy;
#METER:11;
#CREDIT:Fred-104;
#NOTES:
00000000
00000000
00000000
00000000
,
00000000
00000000
00000000
00000000
,
00000000
00000000
00000000
00000000
,
00000000
00000000
00000000
00000000
,
00000000
00000000
00000000
00000000
,
00000001
00000000
00000100
00000000
,
00000001
00000000
00000010
00000000
00001000
00000000
00010000
00100000
,
10000000
00000000
00010000
00000000
,
01000000
00000000
00010000
00000000
10000000
00000000
01000000
00100000
,
00001000
00001000
00010000
00010000
,
00000100
00000100
00010000
00010000
,
00001000
00010000
00001000
00000000
01000000
00010000
01000000
00000000
,
02200000
00000000
00000000
03300000
,
10000000
00000000
01000000
00000000
,
00100000
00000000
00010000
00000000
,
01000000
00000000
00100000
00000000
,
01000000
00000000
00001000
00010000
,
00001000
00000000
00100000
00000000
,
00001000
00000000
00010000
00000000
,
00000100
00000000
00010000
00000000
,
00000010
00000000
00001000
00000100
,
00010000
00000000
00000010
00000000
,
00001000
00000000
00000100
00000000
,
00000010
00000000
00000001
00000000
,
00000100
00000000
00001000
00010000
,
01000000
00000000
10000000
00000000
,
00010000
00000000
01000000
00000000
,
00100000
00000000
00000000
10000000
00000000
00000000
00010000
00000000
,
10000000
01000000
00100000
00000000
,
00001000
00000000
00001000
00000000
,
00010000
00000000
00010000
00000000
,
00000010
00000000
00000010
00000000
,
00000100
00000000
00000100
00000001
,
00000010
00000000
00000010
00000000
,
00000100
00000000
00000100
00000000
,
00010000
00001000
00100000
00000000
,
00010000
00000000
10000000
01000000
,
00100000
00000000
10000000
00000000
,
00100000
00000000
01000000
00000000
,
10000000
00000000
00010000
00000000
,
01000000
00010000
01000000
00001000
,
00010000
00000000
00000000
00001000
00000000
00000000
00010000
00000000
,
00000100
00010000
00001000
00000000
,
00020000
00000000
00002000
00033000
,
00010000
00000000
00001000
00000000
,
00010000
00000000
00000010
00000000
,
00001000
00000000
00000010
00000000
,
00000100
00000000
00000001
00000010
,
00001000
00000000
00000010
00000000
,
00000001
00000000
00001000
00000000
,
00000001
00000000
00000100
00000000
,
00000010
00000000
00010000
00001000
,
00010000
00000000
00000100
00000000
,
00010000
00000000
00001000
00000000
,
00100000
00000000
00001000
00000000
,
00100000
00000000
01000000
00000000
,
10000000
10000000
00000000
00010000
,
00010000
00000000
01000000
00000000
,
00001000
00001000
00000000
00010000
,
00010000
00000000
00000010
00000000
,
00001000
00000000
00000100
00000000
,
00000010
00000000
00000001
00000000
,
00000100
00000000
00000010
00000000
,
00010000
00000000
00001000
00010000
,
00001000
00000000
00100000
00000000
,
01000000
00000000
10000000
00000000
,
00010000
01000000
00010000
00000000
,
10000000
00000000
01000000
00100000
,
01000000
00000000
00100000
00000000
,
00001000
00000000
00010000
00000000
,
00001000
00000000
01000000
00000000
,
00001000
00000000
00010000
00000000
,
00000010
00000000
00000000
00001000
00000000
00000000
00000100
00000000
,
00010000
00000000
00001000
00000000
,
00020000
00000000
00000000
00030020
00000000
00000000
00002030
00000000
,
00003001
00000000
00000010
00000000
00000100
00000000
00001000
00000000
00000001
00000100
00000010
00000000
00000001
00000010
00001000
00000000
,
00000001
00000000
00000100
00000000
00001000
00000000
00010000
00000000
01000000
10000000
00010000
00000000
01000000
00100000
10000000
00000000
,
00010000
00000000
00100000
00000000
01000000
00000000
00100000
00000000
00010000
00100000
01000000
00000000
00010000
01000000
10000000
00000000
,
00100000
00000000
01000000
00000000
00001000
00000000
00010000
00001000
00010000
00000100
00001000
00000010
00010000
00001000
00200000
00000000
,
00301000
00001000
00010000
00010000
,
00001000
00001000
00100000
00100000
,
00001000
00001000
00010000
00010000
,
00000010
00000010
00001000
00001000
,
00000100
00010000
00001000
01000000
,
00010000
00100000
00001000
00010000
,
00000010
00001000
00000100
00010000
,
00022000
00000000
00000000
00033000
,
00001000
00100000
01000000
10000000
,
01000000
00010000
00001000
00010000
,
00100000
10000000
00010000
01000000
,
00100000
10000000
01000000
00100000
,
00001000
00010000
00000100
00000010
,
00000001
00000100
00000001
00000100
,
00001000
00010000
01000000
10000000
,
00010000
00000000
01000000
00000000
01000000
00000000
00100000
00000000
00000000
10000000
00000000
00000000
,
00010000
01000000
00100000
10000000
,
01000000
00100000
00001000
00010000
,
00010000
00000100
00001000
00000100
,
00000010
00000001
00000100
00001000
,
00000100
00000001
00000010
00001000
,
00000010
00000001
00000100
00001000
,
00020000
00000000
00000000
00000000
02030000
00000000
00000000
00000000
13000000
00000000
00100000
00000000
01000000
00010000
01000000
00010000
,
10000000
00000000
01000000
00000000
,
00100000
00000000
00001000
00010000
,
00000000
01000000
00100000
00000000
,
00010000
00000000
00001000
00000000
,
00000100
00000000
00000010
00000000
,
00010000
00000000
00001000
00100000
,
00000000
01000000
00100000
00000000
,
00001000
00000000
00010000
00000000
,
00000100
00000000
00001000
00000000
,
00000010
00000000
00010000
00001000
,
00000000
00010000
00000100
00000000
,
00010000
00000000
00001000
00000000
,
01000000
00100000
01000000
00000000
,
00001000
00010000
00001000
00000000
,
00000010
00000100
00000010
00000000
,
00010000
00001000
00010000
00000000
,
00001000
00000000
01000000
00000000
,
00100000
00000000
10000000
00100000
,
00000000
10000000
01000000
00000000
,
00100000
00000000
00001000
00000000
,
00010000
00000000
00001000
00000000
,
00100000
00000000
00010000
00100000
,
00001000
00010000
00000010
00000000
,
00010000
00000000
00001000
00100000
,
00001000
00100000
00010000
01000000
,
00100000
01000000
00100000
10000000
,
00100000
10000000
00100000
01000000
,
00010000
01000000
00010000
00100000
,
00001000
00000000
00000000
00010000
00000000
00000000
00000100
00000000
,
00001000
00000100
00000010
00000000
,
00000001
00000010
00001000
00000000
,
00010000
01000000
10000000
00000000
,
10000000
00000000
00000000
00010000
00000000
00000000
00001000
00000000
,
00011000
00000000
00000000
00000000
;

//--------------- dance-double - Fred-104 ----------------
#NOTEDATA:;
#STEPSTYPE:dance-double;
#DESCRIPTION:Fred-104;
#DIFFICULTY:Medium;
#METER:15;
#CREDIT:Fred-104;
#NOTES:
00000000
00000000
00000000
00000000
,
00000000
00000000
00000000
00000000
,
00000000
00000000
00000000
00000000
,
00000000
00000000
00000000
00000000
,
00000000
00000000
00000000
00000000
,
00010000
01000000
10000000
01000000
,
00010000
10000000
01000000
00000000
,
00100000
00001000
00010000
00001000
,
00000010
00000001
00001000
00000000
,
00000001
00000100
00001000
00000100
,
00000010
00001000
00000001
00000000
,
00000001
00000010
00000100
00010000
,
00002000
00000000
00020000
00033000
,
00001000
00100000
00001000
00100000
,
00010000
10000000
00010000
10000000
,
01000000
00100000
01000000
00100000
,
00001000
00010000
00001000
00010000
,
00000100
00010000
00000100
00010000
,
00000100
00001000
00000100
00001000
,
00000100
00000010
00000100
00000010
,
00000001
00000000
00001000
00000000
00000001
00000100
00000001
00000100
,
00000001
00000010
00000001
00000010
,
00000100
00000010
00000100
00001000
,
00000100
00001000
00000001
00001000
,
00000001
00000010
00001000
00000010
,
00001000
00010000
00001000
00010000
,
01000000
10000000
01000000
10000000
,
00010000
00000000
00000000
01000000
00000000
00000000
00100000
00000000
,
01000000
00000000
00001000
00010000
00001000
00000000
00000000
00000000
,
00010000
00000100
00001000
00000100
,
00010000
00000100
00001000
00000100
,
00010000
00000010
00001000
00000100
,
00010000
00001000
00100000
00010000
,
01000000
00001000
00010000
00001000
,
01000000
00010000
00100000
00001000
,
00010000
00001000
00010000
00000000
00001000
00000000
00000000
00000000
,
00011000
00000000
00000000
00000000
00010000
00001000
00010000
00001000
,
00010000
00000010
00001000
00000100
,
00010000
00001000
00000100
00000001
,
00001000
00000100
00000010
00000001
,
00000100
00001000
00010000
00100000
,
10000000
00000000
00000000
00010000
00000000
00000000
01000000
00000000
,
00100000
00000000
10000000
00000000
00010000
10000000
00010000
10000000
,
00020000
00000000
20000000
30030000
,
00010000
01000000
00010000
01000000
,
00100000
01000000
00100000
10000000
,
01000000
00100000
00001000
00010000
,
00100000
10000000
00010000
00000000
,
10000000
01000000
00010000
00001000
,
00000100
00000001
00001000
00000001
,
00000010
00000100
00000010
00000001
,
00001000
00000001
00000100
00000000
,
00000001
00000010
00000100
00001000
,
00000100
00000010
00000001
00000100
,
00000010
00001000
00000100
00010000
,
00001000
01000000
00001000
00000000
,
00010000
00010000
00000000
00001000
,
00001000
00000000
00101000
00000000
,
00100000
00100000
00000000
00001000
,
00001000
00000000
00010000
00001000
00010000
00000000
00000000
00000000
,
00000010
00001000
00000100
00001000
,
00000010
00000100
00000010
00001000
,
00000001
00000010
00000100
00001000
,
00000010
00000100
00000001
00001000
,
00000010
00010000
00001000
00100000
,
00010000
10000000
00010000
01000000
,
00100000
10000000
00100000
10000000
00100000
00000000
00000000
00000000
,
10000000
00000000
00000000
00000000
00010000
10000000
00010000
10000000
,
00010000
10000000
00010000
01000000
,
00100000
01000000
00001000
00010000
,
00001000
00000010
00000100
00000001
,
00001000
00000001
00000100
00000010
,
00001000
00000000
00000000
00000010
00000000
00000000
00000100
00000000
,
00000010
00000000
00001000
00000000
00000100
00010000
00000100
00010000
,
00000200
00000000
00000000
00020300
00032000
00000000
00023000
00000000
,
00031000
00010000
00100000
00000000
00010000
00001000
00000010
00000000
00001000
00010000
01000000
00000000
00010000
00001000
00000100
00000000
,
00001000
00010000
01000000
00000000
00010000
00001000
00000100
00000000
00001000
00010000
00100000
00000000
00010000
00001000
00000010
00000000
,
00001000
00000100
00000010
00000001
00000100
00000010
00001000
00000000
00000001
00000010
00000100
00000010
00000001
00000100
00001000
00000000
,
00010000
00000000
00001000
00000000
00010000
00000000
00001000
00000000
00100000
00000000
00010000
00000000
10000000
00000000
00100000
00000000
01000000
00000000
00010000
00000000
00100000
00000000
00001000
00000000
00010000
00001000
00010000
00001000
00020000
00000000
00000000
00000000
,
00031000
00000000
00000000
00011000
00000000
00000000
00010000
00000100
00001000
00000100
00000000
00000000
,
00000010
00000000
00000000
00000011
00000000
00000000
00000001
00000100
00001000
00000100
00000000
00000000
,
00000001
00000000
00000000
00000110
00000000
00000000
00001000
00000010
00010000
00001000
00000000
00000000
,
00010000
00000000
00000000
00101000
00000000
00000000
00010000
10000000
00100000
01000000
00000000
00000000
,
00010000
01000000
00010000
01000000
00000000
00000000
10000000
01000000
10000000
01000000
00000000
00000000
,
00010000
00100000
00010000
00100000
00000000
00000000
10000000
00100000
10000000
00100000
00000000
00000000
,
00001000
00010000
00001000
00010000
00000000
00000000
00000100
00001000
00000001
00000100
00000000
00000000
,
00000220
00000000
00000000
00000330
,
00000001
00000000
00000001
00000100
00000000
00000100
00000010
00000000
00000010
00001000
00000000
00001000
,
00010000
00000000
00010000
00100000
00000000
00100000
01000000
00000000
01000000
10000000
00000000
00000000
,
00100000
00000000
00100000
10000000
00000000
10000000
01000000
00000000
01000000
00100000
00000000
00100000
,
00001000
00000000
00001000
00010000
00000000
00010000
00000100
00000000
00000100
00001000
00000000
00000000
,
00000001
00000000
00000001
00000100
00000000
00000100
00000010
00000000
00000010
00001000
00000000
00001000
,
00000100
00000000
00000100
00000010
00000000
00000010
00010000
00000000
00010000
00001000
00000000
00000000
,
00100000
00000000
00100000
00010000
00000000
00010000
01000000
00000000
01000000
00100000
00000000
00100000
,
10000000
00000000
10000000
00000000
10000000
00000000
00010000
00000000
00000000
02000000
00000000
00000000
,
03100000
01100000
10000000
11000000
,
01000000
01100000
00100000
00101000
,
00001000
00011000
00010000
00010010
,
00000010
00000110
00000100
00000101
,
00000001
00000000
00000100
00000010
00000000
00000000
00001000
00000100
00010000
00001000
00000000
00000000
,
00100000
00000000
00001000
00010000
00000000
00000000
00001000
01000000
00100000
01000000
00000000
00000000
,
00020000
00000000
00000000
00000000
20030000
00000000
00000000
00000000
30010000
01000000
00010000
00000000
00100000
00001000
00100000
00000000
,
00001000
00010000
00001000
00010000
,
00001000
00000000
00010000
00000100
,
00000000
00001000
00000010
00000000
,
00000100
00000010
00000100
00000000
,
00000001
00000010
00000100
00000010
,
00000001
00000000
00001000
00000001
,
00000000
00000100
00000010
00000000
,
00001000
00000100
00010000
00000000
,
00000100
00010000
00001000
00010000
,
00001000
00000000
00010000
00000010
,
00000000
00001000
00000100
00000000
,
00010000
00001000
00100000
00000000
,
00010000
00100000
01000000
10000000
,
00100000
01000000
00010000
10000000
,
01000000
00100000
00010000
01000000
,
00001000
00010000
00001000
00000000
,
00010000
00000100
00001000
00000001
,
00000100
00000010
00001000
00000100
,
00000000
00000010
00000100
00000000
,
00001000
00000010
00000100
00000010
,
00001000
00000100
00000010
00000001
,
00000010
00000100
00010000
00001000
,
00010000
00001000
00010000
00001000
00010000
00000000
00000000
00000000
,
00011000
00000000
00000000
00000000
00001000
00010000
00001000
00010000
,
00001000
00100000
00001000
00100000
,
00010000
01000000
00010000
01000000
,
00100000
01000000
00100000
01000000
,
00100000
10000000
00100000
10000000
,
00010000
00000000
00000000
10000000
00000000
00000000
00010000
00000000
,
01000000
00100000
10000000
01000000
,
00010000
00001000
00000010
00000001
,
00001000
00000001
00001000
00000001
00001000
00000000
00000000
00000000
,
00001001
00000000
00000000
00000100
00001000
00010000
01000000
00000000
,
01100000
00000000
00000000
00000000
;

//--------------- dance-double - Fred-104 ----------------
#NOTEDATA:;
#STEPSTYPE:dance-double;
#DESCRIPTION:Fred-104;
#DIFFICULTY:Hard;
#METER:18;
#CREDIT:Fred-104;
#NOTES:
00000000
00000000
00000000
00000000
,
00000000
00000000
00000000
00000000
,
00000000
00000000
00000000
00000000
,
00000000
00000000
00000000
00000000
,
00000000
00000000
00000000
00000000
,
00010000
00001000
00100000
00010000
,
10000000
00010000
01000000
00000000
,
00001000
00000100
00000001
00001000
,
00000001
00000010
00000100
00000000
,
00000001
00000100
00001000
00010000
,
00100000
10000000
00010000
01000000
,
00010000
00000000
00010000
01000000
00000000
01000000
00100000
00000000
00100000
10000000
00000000
10000000
,
01000000
00100000
00001000
00010000
00000100
00000010
00000001
00001000
00000001
00000200
00000000
00000000
,
00000301
00000010
00001000
00010000
,
00100000
10000000
01000000
00010000
,
00001000
00000100
00000001
00000010
,
00001000
00010000
10000000
00000000
,
00010000
10000000
01000000
00010000
,
00001000
00000100
00000001
00000010
,
00001000
00010000
00100000
10000000
,
01000000
00010000
00001000
00000001
,
00000100
00000001
00000010
00000100
,
00000010
00000100
00010000
00001000
,
00100000
00001000
00010000
01000000
,
10000000
01000000
00100000
10000000
,
00010000
10000000
01000000
00010000
,
00001000
00000010
00000001
00001000
,
00001001
00000000
00000000
00000110
00000000
00000000
00001001
00000000
,
00000001
00000000
00000100
00000010
00001000
00000010
00000100
00000001
,
00001000
00000000
00000100
00000000
00000010
00000001
00000010
00000001
,
00001000
00000000
00000010
00000000
00010000
00001000
00010000
00001000
,
00010000
00000000
00000100
00000000
00010000
00001000
00010000
00001000
,
00100000
00000000
00010000
00000000
10000000
00010000
01000000
00010000
,
01000000
00000000
00100000
00000000
10000000
01000000
10000000
01000000
,
00100000
00000000
00001000
00000000
00010000
00000100
00010000
00000100
,
00001000
00000100
00000010
00000001
00001000
00000000
00000000
00000000
,
00001001
00000000
00000000
00000000
00000001
00000010
00000100
00001000
,
00000001
00000000
00001000
00000000
00000001
00001000
00000010
00001000
,
00000100
00000000
00010000
00000000
00001000
00010000
00000010
00001000
,
00000100
00000000
00010000
00000000
00001000
00100000
00010000
10000000
,
00010000
00000000
01000000
00000000
10000000
01000000
00010000
10000000
,
00010000
00000000
00000000
01100000
00000000
00000000
10010000
00000000
,
00010000
00000000
01000000
00000000
00010000
00100000
01000000
00100000
,
00020000
00000000
00002000
00033000
,
00010000
00001000
00000010
00000001
,
00000000
00000100
00001000
00010000
,
00000000
00100000
10000000
00010000
,
10000000
01000000
00010000
01000000
,
10000000
00100000
00010000
00001000
,
00000000
00000010
00000001
00000100
,
00000000
00001000
00010000
00100000
,
10000000
00000000
00010000
00000000
01000000
00100000
10000000
00010000
,
10000000
01000000
00010000
00001000
,
00000000
00010000
01000000
10000000
,
00100000
00010000
00001000
00000010
,
00000001
00001000
00010000
00001000
,
00000001
00000100
00000000
00001000
,
00010000
00000000
00011000
00000000
,
00100000
10000000
00000000
00010000
,
10000000
00000000
10010000
00000000
,
00010000
00000000
01000000
00100000
01000000
00000000
00010000
00000000
,
10000000
00000000
01000000
00100000
01000000
00000000
00100000
00000000
,
00001000
00000000
00010000
00000100
00010000
00000000
00001000
00000000
,
00000100
00000000
00000010
00000001
00000010
00000000
00000001
00000000
,
00000100
00000000
00001000
00000100
00001000
00000000
00000100
00000000
,
00000001
00000000
00000010
00000100
00000010
00000000
00000100
00000000
,
00010000
00001000
00010000
00001000
00010000
00000000
00000000
00000000
,
00011000
00000000
00000000
00000000
00010000
00001000
00100000
00010000
,
00100000
00001000
00010000
00001000
,
00000010
00001000
00010000
00001000
,
01000000
00010000
00001000
00010000
,
00000100
00010000
00001000
00010000
,
00011000
00000000
00000000
00101000
00000000
00000000
00011000
00000000
,
00010000
00000000
00000010
00000000
00001000
00000100
00000010
00000001
,
00002000
00000000
00000000
00003002
00000203
00000000
00000320
00000000
,
00001030
00000010
00000001
00000010
00001000
00000010
00000001
00000000
00000010
00001000
00010000
00100000
00010000
00001000
00010000
00000000
,
01000000
10000000
01000000
00010000
01000000
10000000
01000000
00000000
00010000
00001000
00000100
00001000
00010000
00001000
00000100
00000000
,
00000001
00000100
00010000
00000100
00000001
00000100
00001000
00000000
00010000
00000100
00000001
00000100
00010000
00001000
00010000
00000000
,
00001000
00000000
00100000
00000000
01000000
00000000
00100000
00000000
00010000
00000000
01000000
00000000
00100000
00000000
01000000
00000000
00010000
00100000
00010000
00100000
01000000
10000000
01000000
10000000
00010000
00100000
01000000
10000000
00020000
00000000
00000000
00000000
,
01030000
00000000
01000000
00001000
00000000
00001000
00010000
00000100
00001000
00000100
00010000
00001000
,
00010000
00000000
00010000
00000010
00000000
00000010
00001000
00000100
00000010
00000001
00000100
00000010
,
00000001
00000000
00000001
00000010
00000000
00000010
00001000
00000001
00000100
00000001
00000010
00000100
,
00000010
00000000
00000010
00000001
00000000
00000001
00000100
00001000
00010000
01000000
10000000
00010000
,
10000000
01000000
00100000
00010000
01000000
01000000
10000000
00100000
01000000
00010000
00100000
00100000
,
10000000
01000000
00010000
00001000
00010000
01000000
10000000
00100000
00010000
00001000
00010000
00100000
,
10000000
01000000
00010000
00001000
00000010
00000001
00000100
00001000
00010000
00100000
10000000
00010000
,
20000000
00000000
00000000
30000000
,
00010000
01000000
00100000
01000000
00000000
00100000
10000000
01000000
00100000
00010000
00000000
01000000
,
00001000
00010000
00001000
00100000
00000000
00001000
00010000
00000100
00001000
00000100
00001000
00000001
,
00000100
00000010
00001000
00000010
00000000
00000100
00000001
00000010
00000100
00000010
00000000
00000001
,
00000100
00001000
00010000
00001000
00000000
00000100
00000001
00000010
00000100
00010000
00001000
00000100
,
00000001
00000010
00000100
00000010
00000000
00000001
00000100
00001000
00010000
00001000
00000000
00010000
,
01000000
10000000
00010000
10000000
00000000
00100000
01000000
00100000
10000000
01000000
00100000
01000000
,
10000000
00010000
10000000
01000000
00000000
01000000
00100000
00010000
00100000
01000000
00000000
01000000
,
00001000
00000000
00011000
00000000
00010100
00000000
00000100
00001000
00000001
00000200
00000000
00000000
,
00000301
00000010
00000100
00001000
00000100
00000010
00000001
00001000
00000001
00000100
00000000
00000000
,
00000010
00001000
00000100
00010000
00001000
00100000
00010000
01000000
00001000
00010000
00000000
00000000
,
00001000
00100000
00010000
10000000
00010000
01000000
00100000
10000000
01000000
00100000
00000000
00000000
,
00001000
00000000
00001000
00010000
00000000
00000100
00001000
00000010
00000010
00000100
00000010
00000010
,
00001000
00000000
00000100
00000010
00000000
00000001
00000100
00000001
00000010
00000100
00000010
00000001
,
00001000
00000000
00000001
00000010
00000100
00000001
00000100
00000010
00000001
00001000
00000001
00000100
,
00000001
00000000
00000000
00000000
00000010
00000000
00000000
00000000
00000001
00000000
00000000
00000000
00000100
00000000
00000000
00000000
00000000
00000000
00000000
00000000
00000100
00000000
00000000
00000000
00000010
00000000
00000000
00000000
00001000
00000000
00000000
00000000
00000100
00000000
00000000
00000000
00010000
00000000
00000000
00000000
00000000
00000000
00000000
00000000
00010000
00000000
00000000
00000000
00001000
00000000
00000000
00100000
00000000
00000000
00001000
00000000
00000000
00000000
00000000
00000000
00100000
00000000
00000000
00010000
00000000
00000000
00100000
00000000
00000000
00000000
00000000
00000000
00010000
00000000
00000000
10000000
00000000
00000000
01000000
00000000
00000000
00000000
00000000
00000000
00100000
00000000
00000000
00010000
00000000
00000000
10000000
00000000
00000000
00000000
00000000
00000000
,
10010000
00010000
01000000
10000000
,
01000000
00010000
10000000
01000000
,
00000000
00000000
00100000
00001000
00100000
00000000
00001000
00000000
,
00010000
00000100
00001000
00000010
00000100
00000001
00000010
00000000
,
00000001
00000100
00001000
00000100
,
00000001
00000010
00000100
00010000
,
00000000
00000000
00001000
00010000
00000010
00010000
00001000
00000000
,
00100000
00001000
00010000
00001000
01000000
00010000
00100000
00000000
,
00001000
00010000
00100000
10000000
,
01000000
00010000
00001000
00010000
,
00000000
00000000
00001000
00010000
00000100
00010000
00001000
00000000
,
00010000
00000010
00001000
00000001
00000010
00000100
00000010
00000000
,
00000001
00000000
00000100
00000010
00000100
00000000
00000001
00000000
,
00000010
00000100
00000010
00000000
00000001
00000000
00000100
00001000
,
00000100
00000000
00001000
00000000
00010000
00100000
00010000
00000000
,
00100000
00000000
10000000
00000000
00010000
10000000
00010000
10000000
,
00010000
01000000
00100000
01000000
,
00010000
00000000
10000000
00000000
01000000
00010000
01000000
00000000
,
00000000
00000000
00010000
00001000
00010000
00000100
00001000
00000000
,
00000001
00000010
00000100
00001000
00000100
00000010
00000001
00001000
,
00000001
00000100
00001000
00000100
,
00000010
00000000
00001000
00000000
00000100
00000010
00000001
00000000
,
00001000
00000010
00001000
00000010
00001000
00000000
00000000
00000000
,
00001100
00000000
00000000
00000000
00000100
00010000
00001000
00010000
,
00001000
00100000
00010000
00100000
,
01000000
00010000
10000000
00010000
,
10000000
01000000
00100000
00001000
,
00010000
00000100
00001000
00000100
00010000
00000010
00001000
00000100
,
00001000
00000000
00000000
00001100
00000000
00000000
00000110
00000000
,
00000011
00000000
00000001
00000000
00001000
00000001
00000100
00000000
,
00000001
00000100
00000010
00001000
00000100
00010000
00001000
00100000
,
00010000
01000000
00100000
10000000
00010000
00000000
00000000
00000000
,
10010000
00000000
00000000
00000000
00000000
00000000
10000000
01000000
00010000
00000000
00001000
00000000
00000010
00000000
00000001
00000000
,
00001001
00000000
00000000
00000000
;

//--------------- dance-double - Fred-104† ----------------
#NOTEDATA:;
#STEPSTYPE:dance-double;
#DESCRIPTION:Fred-104†;
#DIFFICULTY:Challenge;
#METER:19;
#CREDIT:Fred-104†;
#NOTES:
00000000
00000000
00000000
00000000
,
00000000
00000000
00000000
00000000
,
00000000
00000000
00000000
00000000
,
00000000
00000000
00000000
00000000
,
00000000
00000000
00000000
00000000
,
00000001
00001000
00000001
00000010
,
00000100
00000000
00000010
00000000
00000001
00000000
00000100
00001000
,
00010000
00100000
10000000
01000000
,
00010000
00000000
10000000
00000000
00010000
00000000
01000000
00100000
,
10000000
01000000
00100000
00001000
,
00010000
00000000
00000100
00000000
00000010
00000001
00001000
00000001
,
00000100
00000010
00001000
00000001
,
00000100
00000001
00000010
00000001
00001000
00000010
00010000
00001000
00010000
00000100
00000000
00000000
,
00010000
00001000
00100000
00001000
00010000
00001000
00100000
00010000
,
01000000
00100000
10000000
00100000
01000000
00000000
00010000
00000000
,
10000000
01000000
00100000
00010000
10000000
01000000
00100000
00010000
,
10000000
01000000
00100000
00010000
01000000
00000000
00001000
00000000
,
00010000
00000100
00001000
00000100
00010000
00000100
00001000
00000100
,
00010000
00000100
00001000
00000100
00010000
00000000
00000010
00000000
,
00001000
00000001
00000100
00000001
00001000
00000001
00000100
00000001
,
00001000
00000001
00000100
00000001
00001000
00000000
00000001
00000000
,
00000100
00000010
00001000
00000010
00000100
00000010
00001000
00000010
,
00000100
00000010
00001000
00000010
00000100
00000000
00000010
00000000
,
00001000
00000100
00010000
00001000
00010000
00000100
00001000
00000100
,
00010000
00001000
00010000
00000100
00001000
00000000
00000100
00000000
,
00010000
00001000
00100000
00010000
01000000
00010000
00100000
00001000
,
00010000
00001000
00100000
00010000
01000000
00000000
00100000
00000000
,
10100000
00000000
00000000
01010000
00000000
00000000
11000000
00000000
,
01000000
00000000
00100000
00010000
10000000
00010000
01000000
00010000
,
10000000
00000000
01000000
00000000
00100000
01000000
00100000
00010000
,
00100000
00000000
00001000
00000000
00010000
00000100
00001000
00000100
,
00010000
00000000
00001000
00000000
00000100
00000001
00000100
00000001
,
00000010
00000000
00000100
00000000
00010000
00001000
00010000
00000010
,
00010000
00000000
00001000
00000000
00100000
00010000
10000000
00010000
,
01000000
00000000
00010000
00000000
00100000
01000000
10000000
00010000
,
01000000
00100000
10000000
00100000
01000000
00000000
00000000
00000000
,
10010000
00000000
00010000
00000000
10000000
01000000
00100000
00010000
,
00100000
00000000
00001000
00000000
01000000
00001000
00010000
00001000
,
01000000
00000000
00001000
00000000
00010000
00000100
00001000
00000100
,
00000010
00000000
00000001
00000000
00000100
00001000
00010000
00100000
,
10000000
00000000
00010000
00000000
01000000
00100000
10000000
00100000
,
01100000
00000000
00000000
01010000
00000000
00000000
00011000
00000000
,
00001000
00000000
00010000
00000000
00001000
00010000
00001000
00010000
,
00002000
00023000
00030020
00002030
00003002
00000003
00001001
00000000
,
00000011
00000001
00000100
00000110
,
00000000
00010000
00001000
00011000
,
00000000
00001000
00100000
00110000
,
00000000
00000000
00010000
00000000
10000000
00000000
00010000
01000000
,
00010000
00100000
01000000
11000000
,
00000000
10100000
00100000
01100000
,
00000000
01010000
01000000
00001000
,
00010000
00000000
00000100
00000000
00001000
00000001
00000100
00000010
,
00001000
00000100
00000010
00000011
,
00000000
00000101
00000100
00000110
,
00000000
00001010
00001000
00000100
,
00000000
00011000
00001000
00100000
,
00010000
00100000
00100000
10000000
,
01000000
01000000
00010000
00000000
,
01000000
00001000
00001000
00010000
,
00001000
00000000
00010000
00001000
00010000
00000100
00001000
00000100
,
00010000
00000000
00000100
00001000
00000001
00000000
00000100
00000000
,
00000000
00000000
00000001
00000010
00000100
00000000
00010000
00000000
,
00000000
00000000
00001000
00100000
00010000
00000000
01000000
00000000
,
00000000
00000000
00010000
00100000
10000000
00000000
00100000
00000000
,
00010000
00000000
01000000
10000000
01000000
00000000
00010000
00000000
,
00000000
00000000
00001000
00010000
00001000
00000000
00000100
00000000
,
00000001
00001000
00000001
00001000
00000001
00000000
00000000
00000000
,
00001001
00000000
00000000
00000000
00000001
00000010
00000100
00010000
,
00001000
00100000
00001000
00010000
,
00000100
00010000
01000000
10000000
,
00010000
01000000
00100000
10000000
,
00100000
00001000
00100000
10000000
,
10010000
00000000
00000000
01100000
00000000
00000000
10010000
00000000
,
10000000
00000000
01000000
00000000
00100000
01000000
00100000
00001000
,
00020000
00000000
00000000
00030200
00002300
00000000
00003020
00000000
,
00001030
00000010
00001000
00000100
00010000
00001000
00100000
00010000
01000000
00010000
00100000
10000000
00100000
00000000
00010000
00000000
,
10000000
01000000
00100000
00010000
01000000
00100000
00010000
00001000
00100000
00010000
00001000
00000100
00010000
00000000
00001000
00000000
,
00010000
00000100
00001000
00000010
00000100
00000010
00001000
00000001
00000010
00000100
00000001
00000100
00000010
00000001
00001000
00000001
,
00000100
00001000
00000100
00001000
00010000
00000000
01000000
00000000
10000000
00010000
10000000
00010000
10000000
00000000
00010000
00000000
01000000
00100000
01000000
00100000
10000000
00100000
10000000
00100000
01000000
00100000
01000000
00100000
02000000
00000000
00000000
00000000
,
03010000
00000000
01000000
10000000
00000000
01000000
00010000
10000000
00010000
01000000
00010000
00100000
,
01000000
00000000
00000000
00000000
00100000
00000000
00001000
00000000
00000000
00000000
00010000
00000000
00000010
00000000
00001000
00000000
00000100
00000000
00010000
00001000
00010000
00000000
00000100
00000000
,
00001000
00000000
00000100
00000010
00000000
00000001
00000100
00001000
00000100
00000001
00000010
00000100
,
00010000
00000000
00000000
00000000
00001000
00000000
00100000
00000000
00000000
00000000
00010000
00000000
01000000
00000000
10000000
00000000
01000000
00000000
00010000
01000000
00010000
00000000
00100000
00000000
,
01000000
00000000
10000000
00000000
00100000
00000000
10000000
00100000
01000000
00000000
00100000
00000000
10000000
00000000
01000000
00000000
00100000
00000000
00001000
00010000
00001000
00000000
00010000
00000000
,
00000100
00000000
00001000
00000000
00000100
00000000
00000010
00000001
00000100
00000000
00000001
00000000
00000100
00000000
00000001
00000000
00000010
00000000
00001000
00000010
00001000
00000000
00000010
00000000
,
00000001
00000100
00001000
00010000
00100000
10000000
01000000
00010000
00001000
00000010
00000001
00000100
,
00001000
00010000
00100000
00010000
00001000
00000010
00001000
00010000
00001000
00011000
00000000
00000000
,
00001000
00100000
00010000
10000000
00010000
00100000
01000000
00010000
01000000
10000000
00010000
10000000
,
01000000
00100000
00010000
01000000
00100000
00010000
00100000
10000000
00010000
01000000
00010000
00100000
,
01000000
00100000
00001000
00010000
00001000
01000000
00001000
00010000
00000100
00001000
00000100
00000010
,
00000001
00000100
00001000
00000100
00000001
00000010
00000100
00000010
00000001
00001000
00000000
00000000
,
00000001
00000010
00000001
00001000
00000010
00001000
00000001
00000100
00001000
00010000
00100000
10000000
,
00010000
01000000
00010000
10000000
00100000
10000000
01000000
00100000
00010000
01000000
00100000
10000000
,
00010000
00100000
01000000
00010000
01000000
10000000
00010000
10000000
01000000
00100000
00010000
00001000
,
00010000
00000000
00011000
00000000
00011000
00000000
00001000
00010000
00000010
00001000
00000000
00000000
,
00000001
00000100
00000001
00000100
00001000
00000100
00001000
00010000
00001000
00010000
01000000
10000000
,
01000000
10000000
01000000
00010000
00001000
00010000
00001000
00000100
00000001
00000100
00000001
00000100
,
00000001
00000010
00000001
00000010
00001000
00000010
00001000
00010000
00001000
00010000
00100000
10000000
,
00010000
00000000
00010000
01000000
00000000
01000000
00100000
10000000
01000000
00100000
01000000
10000000
,
00010000
00000000
10000000
01000000
00000000
00100000
00010000
01000000
00001000
00010000
00001000
00000100
,
00000010
00000000
00000010
00000001
00001000
00000001
00000100
00001000
00010000
00100000
10000000
00010000
,
02000000
00000000
00000000
00000000
00000000
00000000
00000000
00000000
03002000
00000000
00000000
00000000
00000000
00000000
00000000
00000000
00013000
00001000
00010000
00000000
00000100
00001000
00000100
00000000
00001000
00000010
00001000
00000010
00000100
00000010
00000100
00000000
,
00000001
00000100
00010000
00000100
,
00000001
00000010
00000100
00010000
,
00001000
00000000
00100000
00010000
00100000
00010000
00100000
00000000
,
00010000
01000000
00010000
01000000
00100000
01000000
00100000
01000000
,
00010000
00100000
10000000
00100000
,
00010000
10000000
01000000
00100000
,
00001000
00000000
00010000
00000100
00001000
00000100
00010000
00000000
,
00000100
00001000
00000100
00001000
00000010
00001000
00000010
00001000
,
00000100
00000010
00000001
00001000
,
00000001
00000010
00010000
00100000
,
10000000
00000000
00010000
10000000
00100000
10000000
00010000
00000000
,
10000000
00100000
10000000
00100000
01000000
00100000
01000000
00100000
,
10000000
00000000
00100000
10000000
00100000
00000000
01000000
00000000
,
00010000
00100000
00010000
00000000
01000000
00001000
01000000
00000000
,
00001000
00010000
00000100
00000000
00001000
00000010
00000100
00000000
,
00000001
00000010
00000100
00001000
00000100
00000010
00000001
00000000
,
00001001
00001000
00000100
00000010
,
00000011
00000000
00000101
00001100
,
00000000
00000000
00000100
00000001
00000010
00000001
00001000
00000000
,
00000010
00001000
00000001
00001000
00000100
00010000
00001000
00010000
,
00000010
00010000
00001000
01000000
,
01100000
00000000
00010000
10000000
,
00010000
00100000
01000000
00100000
00010000
00000000
00000000
00000000
,
01000000
00100000
10000000
00100000
01000000
00010000
10000000
01000000
,
10000000
01000000
00100000
00010000
,
01000000
00001000
00010000
00001000
,
00100000
00000000
00001000
00010000
00000010
00010000
00001000
00000000
,
00010000
00000100
00001000
00000010
00010000
00001000
01000000
00001000
,
00010000
00000000
00000000
00011000
00000000
00000000
00001100
00000000
,
00000110
00000000
00000010
00000000
00000001
00000100
00000001
00000100
,
00000010
00001000
00000001
00000010
00000100
00010000
00001000
00100000
,
01000000
10000000
00010000
01000000
10000000
01000000
00100000
00000000
,
11000000
00000000
00000000
00000000
00000000
00000000
10000000
01000000
00100000
00010000
01000000
00100000
01000000
00000000
00000000
00000000
,
10010000
00000000
00000000
00000000
;
