#TITLE:終末を追う者;
#ARTIST:S-C-U×PON;
#TITLETRANSLIT:Shuumatsu wo ou mono;
#GENRE:JUDGMENT;
#BANNER:Shuumatsu wo ou mono.png;
#BACKGROUND:Shuumatsu wo ou mono-bg.png;
#CDTITLE:./CDTitles/Mimi, Nyami & Kotaro no flying catch!.png;
#MUSIC:Shuumatsu wo ou mono.ogg;
#SAMPLESTART:54.473;
#SAMPLELENGTH:15;
#BPMS:0=185;
#TIMESIGNATURES:0=4=4,232=7=4,260=4=4;
#BGSTAGE:30;

//--------------- dance-single - Fred-104 ----------------
#NOTES:
     dance-single:
     Fred-104:
     Beginner:
     5:
     :
0000
0000
0000
0000
,
0000
0000
0000
0000
,
0000
0000
0000
0000
,
0000
0000
0000
0000
,
0000
0000
0000
0000
,
0000
0000
0000
0000
,
0000
0000
0000
0000
,
0000
0000
0000
0000
,
0000
0000
0000
0000
,
0001
0000
0000
0001
0000
0000
0001
0000
,
0000
0001
0000
0000
2000
0000
3000
0000
,
0100
0000
0000
0200
0000
0000
0000
0000
,
0310
0000
0000
0020
0000
0000
0030
0000
,
0001
0000
1000
0000
,
0010
0000
0100
0000
,
0001
0001
1000
1000
,
0001
1000
2002
3003
,
1000
0000
0000
1000
0000
0000
0000
0000
,
0001
0000
0000
0001
0000
0000
0000
0000
,
1000
0000
0000
1000
0000
0000
0000
0000
,
0001
1000
0001
1000
,
0100
0000
0000
0100
0000
0000
0000
0000
,
0010
0000
0000
0010
0000
0000
0000
0000
,
0001
0000
0000
0001
0000
0000
0000
0000
,
1000
0010
0010
1000
,
2002
0000
0000
3003
,
0002
0000
0000
0000
,
2003
0000
3000
0000
,
0002
0000
0000
0000
,
0203
0000
0300
0000
,
0010
0000
0000
0010
0000
0000
0100
0000
,
0100
0000
0001
1000
,
0001
0000
0000
0010
0000
0000
0010
0000
,
0100
1000
0001
0000
,
1000
0000
0010
0010
,
0001
0010
1000
0000
,
0001
0000
0001
0010
,
0100
1000
0001
0000
,
1000
0000
0000
0001
0000
0000
1000
0000
,
0001
0000
1000
0000
,
0001
0001
0100
0100
,
0010
1000
0002
0003
,
1000
0000
0000
1000
0000
0000
1000
0000
,
0000
0100
0000
0000
0020
0000
0030
0000
,
0001
0000
0000
1000
0000
0000
0001
0000
,
0100
0000
0100
0000
,
0001
0000
0000
0001
0000
0000
1000
0000
,
0000
0100
0000
0000
0020
0000
0030
0000
,
0100
0000
0000
1000
0000
0000
0001
0000
,
1000
0000
2000
3000
,
0001
0000
0000
0010
0000
0000
0100
0000
,
0000
1000
0000
0000
0002
0000
0003
0000
,
1000
0000
0010
0010
,
1000
0001
0010
0100
,
1000
0000
0000
0001
0000
0000
0100
0000
,
0000
0010
0000
0000
0200
0000
0300
0000
,
0001
0001
1000
1000
,
0001
1000
2002
3003
,
1000
0000
1000
0000
,
0100
0000
0001
0001
,
0000
0001
0000
0010
,
0000
1000
1000
0000
,
0001
0000
0100
0000
,
1000
1000
0000
0010
,
0000
0001
0000
1000
,
1000
0000
0010
0000
,
1000
0000
0001
0000
,
1000
0000
0100
0000
,
0010
0000
0001
0000
,
0001
1000
0001
0000
,
0100
0010
0100
0000
,
0001
0001
1000
1000
,
0001
1000
2002
3003
,
0001
0000
0000
0001
0000
0000
0001
0000
,
1000
0000
0000
1000
0000
0000
1000
0000
,
0001
0000
0000
0001
0000
0000
0001
0000
,
0010
0100
1000
0001
,
0100
0000
0000
0100
0000
0000
0100
0000
,
0010
0000
0000
0010
0000
0000
0010
0000
,
1000
0000
0000
1000
0000
0000
1000
0000
,
0001
1000
0100
0010
,
0000
2002
0000
0000
,
0000
0000
0000
0000
,
3003
0000
0000
0000
;

//--------------- dance-single - Fred-104 ----------------
#NOTES:
     dance-single:
     Fred-104:
     Easy:
     8:
     :
0000
0000
0000
0000
,
0000
0000
0000
0000
,
0000
0000
0000
0000
,
0000
0000
0000
0000
,
0000
0000
0000
0000
,
0000
0000
0000
0000
,
0000
0000
0000
0000
,
0000
0000
0000
0000
,
0000
0000
0000
0000
,
1000
0000
0000
0100
0000
0000
0010
0000
,
0000
0001
1000
0000
0001
0000
0100
0000
,
0010
0000
0000
0100
0000
0000
0010
0000
,
1000
0000
0000
0100
0000
0000
0010
0000
,
0010
0001
0010
0001
,
1000
0100
1000
0001
,
1000
0010
1000
0000
0001
0100
0001
0000
,
1000
0001
1000
0001
2000
0000
3000
0000
,
0001
0000
0000
0001
0000
0000
0010
0000
0000
0000
0100
0000
0100
0000
0000
0000
,
1000
0000
0000
1000
0000
0000
1000
0000
0000
0000
0001
0000
0001
0000
0000
0000
,
0100
0000
0000
0100
0000
0000
0010
0000
0000
0000
0100
0000
0100
0000
0000
0000
,
0001
1000
0001
0000
0010
0100
0010
0000
,
0001
0000
0000
0001
0000
0000
0001
0000
0000
0000
1000
0000
1000
0000
0000
0000
,
0010
0000
0000
0010
0000
0000
0100
0000
0000
0000
0010
0000
0010
0000
0000
0000
,
1000
0000
0000
1000
0000
0000
0001
0000
0000
0000
0010
0000
0010
0000
0000
0000
,
0100
1000
0100
0000
0010
0001
0010
0000
,
2002
0000
0000
3003
,
2000
0000
0000
3002
,
0203
0000
0302
0000
,
2003
0000
0000
3200
,
0320
0001
0031
0000
,
1000
0100
0010
0010
,
0100
1000
0001
0000
,
0100
0010
0100
0100
,
0001
1000
0001
0000
,
1000
0000
0000
0100
0000
0100
0000
0010
,
0000
0001
1000
0001
,
0100
0000
0000
0010
0000
0010
0000
0100
,
0000
0001
1000
0001
,
1000
0000
0000
0010
0000
0000
0001
0000
,
0001
0010
1000
0001
,
1000
0100
1000
0000
0001
1000
0001
0000
,
0100
0010
0100
0000
0010
1000
0010
0000
,
1000
0000
0000
0001
0000
0000
0010
0000
,
0000
0100
0000
0000
0010
0000
0010
0000
,
0001
1000
0001
0100
,
0010
0100
0100
0001
,
1000
0000
0000
0100
0000
0000
0010
0000
,
0000
0001
0000
0000
1000
0000
1000
0000
,
0001
0100
0010
0100
,
0001
1000
0100
0010
,
0100
0000
0000
1000
0000
0000
0001
0000
,
0000
1000
0000
0000
0010
0000
0010
0000
,
0100
0001
1000
0100
,
0010
0001
1000
1000
,
0001
0000
0000
0100
0000
0000
0010
0000
,
0000
1000
0000
0000
0001
0000
1000
0000
,
0100
0100
0010
0010
,
0001
1000
0001
0000
2002
0000
3003
0000
,
1000
0000
0000
0100
0000
0000
0001
0000
,
0000
0010
0000
0000
1000
0000
1000
0000
,
0000
0001
0000
0000
0010
0000
0000
1000
,
0000
0000
0100
0000
0100
0000
0000
0001
,
0000
0000
1000
0000
0000
0100
0000
0000
,
0010
0000
0001
0000
0000
1000
0000
0000
,
0001
0000
0000
0100
0000
0000
0010
0000
,
1000
1000
0001
0001
,
0010
0100
1100
0000
,
1000
1000
0100
0100
,
0010
0001
1001
0000
,
1000
0010
1000
0010
,
0100
0001
0100
0001
,
1000
0010
1000
0000
0001
0100
0001
0000
,
1000
0100
1000
0000
0001
0010
0001
0000
,
1000
0000
0000
1000
0000
0000
0010
0000
0000
0000
0100
0000
0100
0000
0000
0000
,
0001
0000
0000
0001
0000
0000
0001
0000
0000
0000
1000
0000
1000
0000
0000
0000
,
0100
0000
0000
0100
0000
0000
0010
0000
0000
0000
0100
0000
0100
0000
0000
0000
,
1000
0001
1000
0000
0010
0100
0010
0000
,
1000
0000
0000
1000
0000
0000
1000
0000
0000
0000
0001
0000
0001
0000
0000
0000
,
0010
0000
0000
0010
0000
0000
0100
0000
0000
0000
0010
0000
0010
0000
0000
0000
,
0001
0000
0000
0001
0000
0000
1000
0000
0000
0000
0010
0000
0010
0000
0000
0000
,
1000
0001
1000
0001
1000
0001
1000
0001
,
0000
2002
0000
0000
,
0000
0000
0000
0000
,
3003
0000
0000
0000
;

//--------------- dance-single - Fred-104 ----------------
#NOTES:
     dance-single:
     Fred-104:
     Medium:
     15:
     :
0000
0000
0000
0000
,
0000
0000
0000
0000
,
0000
0000
0000
0000
,
0000
0000
0000
0000
,
0000
0000
0000
0000
,
0000
0000
0000
0000
,
0000
0000
0000
0000
,
0000
0000
0000
0000
,
0000
0000
0000
0000
0000
0000
0000
0000
0000
0000
0000
0000
0000
0000
0001
1000
,
0001
0010
0001
0020
0000
0130
2000
0000
,
3000
0000
0001
1000
0001
0000
0100
0000
0010
0000
0000
1000
0000
0000
0001
0000
,
0010
0100
0010
0100
0000
1000
0001
1000
,
0010
0000
0100
0000
0010
0000
1000
0000
0001
0000
0010
0000
0100
0000
1000
0001
,
1000
0010
1000
0010
0100
0001
0100
0001
,
1000
0100
0010
0001
0010
0100
1000
0001
,
0100
0010
0100
0000
0001
0000
1000
0000
0100
0010
0100
0000
0010
0000
0001
0000
,
1000
0010
1000
0000
0001
0100
0001
0000
2002
0000
0000
0000
3003
0000
0000
0000
,
1001
0000
0001
0010
0000
0001
0010
0000
0000
0000
0100
0000
1000
0000
0001
0000
,
0101
0000
0100
0010
0000
0100
0010
0000
0000
0000
0100
0000
0001
0000
1000
0000
,
1100
0000
0100
0010
0000
0100
0010
0000
0000
0000
0001
0000
1000
0000
0001
0000
,
0010
0100
0010
0000
0001
0000
1000
0000
0010
0100
0010
0000
1000
0000
0100
0000
,
0110
0000
0010
0001
0000
1000
0001
0000
0000
0000
0100
0000
0010
0000
1000
0000
,
1001
0000
0001
0010
0000
0100
1000
0000
0000
0000
0010
0000
1000
0000
0001
0000
,
0011
0000
0010
0100
0000
0010
0001
0000
0000
0000
1000
0000
0001
0000
0100
0000
,
0010
1000
0010
0000
0100
0001
0100
0000
0001
0010
0001
0000
1000
0100
1000
0000
,
0001
0000
0000
0101
0000
0000
1010
0000
0000
0000
0110
0000
1001
0000
0000
0000
,
0002
0000
0000
0023
,
0230
0000
2300
0000
3001
1000
0020
0000
,
0230
0000
0000
0320
,
2030
0000
3002
0000
0013
0100
2000
0000
,
3001
0100
0010
1000
0000
1000
0001
0010
,
0100
0010
0100
0010
0001
0100
0010
1000
,
0001
0010
1000
0010
0000
0010
0100
0010
,
0001
0100
0001
0100
0010
1000
0001
1000
,
0100
0010
0001
1000
0010
1000
0001
0010
,
0100
0000
0010
0000
0001
0000
1000
0000
0010
0000
0100
0000
0001
0000
1000
0100
,
1000
0100
0010
0001
1000
0010
1000
0001
,
0010
0100
0010
0001
1000
0001
0100
0010
,
0100
0001
1000
0001
0010
0100
1000
0001
,
1000
0010
0100
0010
1000
0100
0010
0001
,
1000
0100
1000
0000
0001
0000
0100
0000
0010
1000
0010
0000
0100
0000
0001
0000
,
1000
0100
1000
0000
0001
0010
0001
0000
1000
0010
1000
0000
0001
0100
0001
0000
,
1000
0001
0100
0110
0000
0010
1010
0000
,
1000
0000
0001
0010
0001
0000
1000
0000
0100
0000
0000
0100
0000
0000
0100
0000
,
0010
0000
0001
0000
1000
0000
0001
0000
0100
0000
0010
1000
0010
0000
0100
0000
,
0001
0010
0001
0000
0100
0000
0010
1000
0010
0000
0100
0000
0001
1000
0001
1000
,
0001
0010
0100
1100
0000
1000
1001
0000
,
1000
0000
0001
0100
0001
0000
1000
0000
0010
0000
0000
0010
0000
0000
0010
0000
,
0100
0000
0001
0000
1000
0000
0100
0000
0010
0000
0001
1000
0001
0000
0100
0000
,
0010
1000
0010
0000
0100
0000
0001
0010
0001
0000
1000
0000
0001
1000
0001
1000
,
0001
1000
0010
0110
0000
0100
0101
0000
,
1000
0000
0001
0010
0001
0000
0010
0000
0100
0000
0000
0100
0000
0000
0100
0000
,
1000
0000
0001
0000
0100
0010
0100
0000
0001
0000
0010
0100
0010
0000
0001
0000
,
1000
0010
1000
0000
0100
0000
0010
0001
0010
0000
0001
0000
1000
0001
1000
0001
,
1000
0001
0100
0110
0000
0010
1010
0000
,
0001
0000
1000
0100
1000
0000
0100
0000
0010
0000
0000
0010
0000
0000
0010
0000
,
0001
1000
0001
0000
0100
0000
0010
0000
1000
0001
1000
0000
0100
0000
0010
0000
,
0001
1000
0001
0000
1000
0010
0200
0002
0000
0000
0300
0000
0003
0000
0000
0000
,
1000
0100
0010
0001
0000
0001
1000
0010
,
1000
0000
0001
0000
0000
0000
0001
0000
0100
0010
0100
0010
0100
0000
0001
0000
,
1000
0001
0000
0001
0010
0100
1000
0001
,
0000
0000
0001
0000
1000
0100
1000
0100
0010
0000
0100
0000
1000
0000
0010
0000
,
0000
0010
0100
1000
0100
0001
0000
0001
,
0010
0100
0010
0100
0010
0000
0001
0000
1000
0000
0010
0000
0000
0000
0010
0000
,
0001
0000
0010
0000
0100
0000
0001
0000
0000
0000
0001
0000
0100
0010
0100
0010
,
0100
0101
0001
1001
,
1000
0000
0000
0000
1100
0000
0000
0000
0100
0010
0001
0000
1000
0010
0100
0000
,
0001
0011
1000
1100
,
0001
0000
0000
0000
0101
0000
0000
0000
0100
0010
1000
0000
0001
0010
0100
0000
,
1000
0001
1000
0010
1000
0001
1000
0100
,
0010
0000
0001
0000
1000
0000
0001
0000
0100
0010
1000
0000
0100
0010
0001
0000
,
0010
0100
0010
0000
0001
0000
1000
0000
0001
0100
0001
0000
0010
0000
0100
0000
,
1000
0100
1000
0000
0001
0010
0001
0000
1000
0000
0010
0000
1000
0001
1000
0001
,
1000
0000
0001
0010
0000
0100
1000
0000
0000
0000
1001
0000
0001
0000
0100
0000
,
0110
0000
0010
1000
0000
0001
1000
0000
0000
0000
1100
0000
1000
0000
0001
0000
,
0101
0000
0100
0010
0000
0100
0001
0000
0000
0000
1001
0000
0001
0000
1000
0000
,
0100
0010
0001
0000
1000
0000
0001
0000
0100
0010
1000
0000
0001
0000
0010
0000
,
0110
0000
0100
1000
0000
0001
1000
0000
0010
0000
1000
0000
0001
0000
0010
0000
,
0110
0000
0010
0001
0000
1000
0001
0000
0100
0000
0010
0000
1000
0000
0001
0000
,
0011
0000
0010
0100
0000
1000
0001
0000
0100
0000
0010
0000
1000
0000
0001
0000
,
0010
0100
0010
0000
0001
1000
0001
0000
0100
0000
0010
0000
1000
0010
0100
0001
,
0000
2002
0000
0000
,
0000
0000
0000
0000
,
3003
0000
0000
0000
;

//--------------- dance-single - Fred-104 ----------------
#NOTES:
     dance-single:
     Fred-104:
     Hard:
     18:
     :
0000
0000
0000
0000
,
0000
0000
0000
0000
,
0000
0000
0000
0000
,
0000
0000
0000
0000
,
0000
0000
0000
0000
,
0000
0000
0000
0000
,
0000
0000
0000
0000
,
0000
0000
0000
0000
,
0000
0000
0000
0000
0000
0000
0000
0000
0000
0000
0000
0000
0000
0000
1000
0001
,
1000
0100
0010
0001
0010
0100
1000
0001
,
0100
0000
0010
1000
0010
0000
0100
0000
0001
0000
0010
0100
0000
0100
1000
0000
,
0001
0000
0100
0000
1000
0000
0001
0000
0010
0000
1000
0000
0100
0010
0001
0000
,
1000
0000
0010
0000
0001
0000
1000
0000
0100
0000
0001
0000
0010
0100
1000
0001
,
1000
0010
1000
0100
0010
0001
0100
0001
,
0010
0001
0100
0010
1000
0100
1000
0001
,
1000
0100
0010
0001
1000
0010
0100
0001
1000
0100
0010
0001
1000
0010
0100
0001
,
1000
0100
0010
0001
0010
0100
1000
0001
0100
0010
0100
1000
0100
0010
0100
0001
,
1000
0000
0001
0010
0000
0100
1000
0000
0000
0000
1010
0000
0110
0000
0101
0000
,
1001
0000
0001
0010
0000
0100
1000
0000
0000
0000
0011
0000
1100
0000
0110
0000
,
1001
0000
0001
0100
0000
0010
1000
0000
0000
0000
1001
0000
0110
0000
1001
0000
,
0001
0010
0001
0100
0010
1000
0001
0010
0100
0010
0001
0100
0010
1000
0100
1000
,
0001
0000
1000
0100
0000
0010
0001
0000
0000
0000
1010
0000
0101
0000
1100
0000
,
1001
0000
0001
0010
0000
0100
1000
0000
0000
0000
0101
0000
1010
0000
0110
0000
,
1001
0000
1000
0010
0000
0100
0001
0000
0000
0000
0011
0000
1100
0000
0110
0000
,
0001
0100
0010
1000
0100
1000
0010
0100
0001
0100
0010
1000
0100
0010
0001
1000
,
0001
0000
0100
0010
0000
0010
0100
0000
0001
1000
0100
0000
0110
0000
0001
1000
,
0002
0000
0000
2003
,
3020
0001
0100
1030
,
0200
0000
0000
0320
,
0032
0100
1000
0013
,
0001
0000
0010
0000
0110
0000
0100
0000
1000
0000
0001
0100
0010
0000
1000
0000
,
0002
0203
2300
3002
2003
3200
0302
0023
,
0130
0000
1000
0000
1001
0000
0001
0000
0100
0000
0010
1000
0001
0000
1000
0000
,
0002
0100
2003
0010
3002
0203
0320
2030
,
3002
0023
2030
3020
0130
0020
0032
2003
,
3200
0000
0000
0000
0000
0000
0000
0000
0010
0000
0000
0000
0001
0000
0000
0300
0200
0000
0000
0000
0000
0000
0000
0000
0010
0000
0000
0000
1000
0000
0000
0300
0200
0000
0000
0000
0000
0000
0000
0000
0310
0000
0000
0000
0000
0000
0000
0000
0001
0000
0000
0000
0000
0000
0000
0000
1000
0000
0000
0000
0001
0000
0000
0000
,
2000
3002
0203
2300
3001
2000
3200
0302
,
0013
0000
2000
0000
3002
0000
2003
0000
3020
0000
0032
0000
0203
0000
0310
1000
,
0002
0000
0023
0000
0230
0000
0302
0000
1003
0000
0020
0000
0230
0000
1300
0001
,
1000
0000
0010
0000
0100
0000
0001
0000
0100
0000
0010
0000
1000
0100
0010
0001
,
1000
0010
0100
0001
1000
0001
0010
0100
1000
0001
0100
0010
1000
0100
0010
0001
,
1000
0100
1000
0010
0100
0001
0010
0001
0100
0010
1000
0001
0010
0100
0010
0001
,
1000
0010
0110
0101
0000
0011
1001
0000
,
0110
0000
1000
0001
0010
1000
0010
0001
0100
0000
0000
0110
0000
0000
1010
0000
,
0002
0000
0023
0000
0230
0000
2300
0000
3001
0000
0100
0010
1000
0100
0010
0001
,
1000
0100
1000
0010
0100
0001
0010
0001
0100
0010
1000
0100
0001
0100
1000
0001
,
0100
0010
1010
1001
0000
1100
0011
0000
,
0110
0000
1000
0001
0100
1000
0100
0001
1000
0000
0000
1100
0000
0000
0011
0000
,
0002
0000
2003
0000
3020
0000
0230
0000
0301
0000
1000
0100
0010
0001
0010
0100
,
1000
0010
1000
0100
0010
0001
0100
0001
0010
0100
1000
0001
0100
1000
0100
0001
,
0010
0100
0110
1001
0000
1010
0101
0000
,
0110
0000
0001
0100
1000
0100
0001
0010
0100
0000
0000
0110
0000
0000
0011
0000
,
1001
0000
1000
0000
0001
0100
0010
1000
0100
0010
0100
1000
0010
0100
0001
1000
,
0001
0100
0010
1000
0100
1000
0001
0010
0100
1000
0010
0100
0001
0010
1000
0010
,
0001
1000
1010
0101
0000
0011
1100
0000
,
0110
0000
0001
1000
0010
0001
1000
0100
0001
0000
0000
0011
0000
0000
1100
0000
,
1000
0100
0010
0001
1000
0010
1000
0100
1000
0001
0100
0010
0100
0001
0010
0001
,
1000
0100
0001
0100
1000
0100
0001
0200
2000
0000
0300
0000
3000
0000
0000
0000
,
1000
0000
0010
0000
0001
0000
0010
0000
0000
0000
0010
0100
0010
0000
1000
0000
,
0001
0000
0100
0000
0000
0000
0100
0000
0010
1000
0100
0010
0001
0000
1000
0000
,
0010
0000
0001
0000
0000
0000
0001
0010
0001
0000
0010
0000
1000
0000
0100
0000
,
0000
0000
0100
0000
0010
0100
1000
0001
0100
0000
1000
0000
0100
0000
0010
0000
,
0000
0000
0010
1000
0100
0000
0001
0000
0100
0000
0010
0000
0000
0000
0010
0000
,
0001
0100
0010
1000
0001
0000
0010
0000
1000
0000
0001
0000
0000
0000
0001
0100
,
1000
0000
0010
0000
0001
0000
1000
0000
0000
0000
1000
0000
0100
0010
0100
0001
,
1000
1000
0001
0001
,
0100
0000
0000
0000
0100
0000
0000
0000
0010
1000
0001
0010
1000
0010
0001
0100
,
0010
0010
1000
1000
,
0100
0000
0000
0000
0100
0000
0000
0000
0010
0100
1000
0001
0100
1000
0100
0001
,
0010
0001
0010
0001
1000
0010
1000
0010
,
0100
0000
0001
0000
0100
0000
0001
0000
1000
0100
0010
0001
1000
0010
0100
0001
,
1000
0010
0100
0001
0010
0100
0001
0100
0010
0001
1000
0100
0010
1000
0010
0001
,
1000
0001
0100
0010
0001
0010
0100
0010
1000
0100
0010
1000
0001
0100
0010
0001
,
1000
0000
0001
1000
0000
0010
0100
0000
0000
0000
0101
0000
1010
0000
0110
0000
,
1001
0000
1000
0010
0000
0100
0001
0000
0000
0000
0011
0000
1100
0000
0110
0000
,
1001
0000
1000
0010
0000
1000
0001
0000
0000
0000
0011
0000
1100
0000
1001
0000
,
0001
0100
0010
1000
0100
0010
0001
1000
0010
0001
0010
1000
0010
0001
0010
1000
,
0001
0000
0010
0100
0000
1000
0001
0000
0110
0000
1010
0000
0101
0000
1000
0100
,
0010
0000
0001
0100
0000
0010
1000
0000
1001
0000
0101
0000
1010
0000
0001
0100
,
0010
0000
1000
0100
0000
0010
0001
0000
1001
0000
0101
0000
1010
0000
0001
1000
,
0001
0010
1000
0001
0100
1000
0001
0010
1000
0010
0001
0100
1000
0100
0001
0010
,
0100
2002
0000
0000
,
0000
0000
0000
0000
,
3003
0000
0000
0000
;

//--------------- dance-double - Fred-104 ----------------
#NOTES:
     dance-double:
     Fred-104:
     Easy:
     8:
     :
00000000
00000000
00000000
00000000
,
00000000
00000000
00000000
00000000
,
00000000
00000000
00000000
00000000
,
00000000
00000000
00000000
00000000
,
00000000
00000000
00000000
00000000
,
00000000
00000000
00000000
00000000
,
00000000
00000000
00000000
00000000
,
00000000
00000000
00000000
00000000
,
00000000
00000000
00000000
00000000
,
00001000
00000000
00000000
00100000
00000000
00000000
00001000
00000000
,
00000000
00010000
00000000
00000000
00000010
00000000
00001000
00000000
,
00000100
00000100
00000010
00000001
,
00000100
00001000
00010000
00000000
,
00001000
00000000
00000000
00010000
00000000
00000000
00001000
00000000
,
01000000
00010000
01000000
00100000
,
01000000
00010000
10000000
01000000
,
00010000
00001000
00010000
00001000
00020000
00000000
00030000
00000000
,
00010000
00000000
00000000
00001000
00000000
00000000
00100000
00000000
00000000
00000000
00010000
00000000
00010000
00000000
00000000
00000000
,
01000000
00000000
00000000
00010000
00000000
00000000
10000000
00000000
00000000
00000000
01000000
00000000
01000000
00000000
00000000
00000000
,
00100000
00000000
00000000
00001000
00000000
00000000
00010000
00000000
00000000
00000000
00000010
00000000
00000010
00000000
00000000
00000000
,
00001000
00000100
00000010
00000001
,
00001000
00000000
00000000
00000010
00000000
00000000
00000100
00000000
00000000
00000000
00001000
00000000
00001000
00000000
00000000
00000000
,
00010000
00000000
00000000
00001000
00000000
00000000
01000000
00000000
00000000
00000000
00001000
00000000
00001000
00000000
00000000
00000000
,
00100000
00000000
00000000
00001000
00000000
00000000
00010000
00000000
00000000
00000000
00001000
00000000
00001000
00000000
00000000
00000000
,
01000000
00100000
01000000
00000000
00001000
00010000
00001000
00000000
,
00022000
00000000
00000000
00033000
,
00020000
00000000
00000000
00030200
,
00000320
00000000
00000032
00000000
,
00002003
00000000
00000000
00003002
,
00000203
00002300
00023000
00031000
,
00100000
00000000
00000000
00010000
00000000
00000000
01000000
00000000
,
00100000
10000000
00100000
10000000
,
01000000
00000000
00000000
00100000
00000000
00000000
00001000
00000000
,
00010000
00000000
00000010
00000000
00001000
00000001
00001000
00000000
,
00000100
00000000
00000000
00000010
00000000
00000010
00000000
00000010
,
00000000
00000001
00000100
00001000
,
00010000
00000000
00000000
00001000
00000000
00001000
00000000
00001000
,
00000000
00100000
00010000
01000000
,
00001000
00000000
00000000
00010000
00000000
00000000
00000010
00000000
,
00000010
00010000
00001000
00100000
,
00010000
10000000
00010000
00000000
01000000
00100000
01000000
00000000
,
00001000
00010000
00001000
00010000
,
00011000
00000000
00000000
00010000
00000000
00000000
00000100
00000000
,
00000000
00001000
00000000
00000000
00000001
00000000
00000100
00000000
,
00001000
00010000
00001000
00100000
,
00010000
10000000
00010000
00000000
01000000
00100000
01000000
00000000
,
00100000
00000000
00000000
10000000
00000000
00000000
01000000
00000000
,
00000000
00100000
00000000
00000000
00010000
00000000
01000000
00000000
,
00001000
00010000
00000100
00000010
,
00000001
00001000
00000001
00000000
00000100
00000010
00000100
00000000
,
00000001
00000000
00000000
00000010
00000000
00000000
00000100
00000000
,
00000000
00010000
00000000
00000000
00001000
00000000
00010000
00000000
,
00001000
00100000
00010000
10000000
,
00100000
01000000
00100000
00000000
00010000
00001000
00010000
00000000
,
00001000
00000000
00000000
00100000
00000000
00000000
00010000
00000000
,
00000000
10000000
00000000
00000000
00100000
00000000
01000000
00000000
,
00001000
00010000
00000100
00010000
,
00001000
00010000
00001000
00000000
00022000
00000000
00033000
00000000
,
00001000
00000000
00000000
00010000
00000000
00000000
00100000
00000000
,
00000000
10000000
00000000
00000000
00010000
00000000
10000000
00000000
,
00000000
01000000
00000000
00000000
00010000
00000000
00000000
00001000
,
00000000
00000000
00010000
00000000
00000010
00000000
00000000
00001000
,
00000000
00000000
00000100
00000000
00000000
00000010
00000000
00000000
,
00000001
00000000
00000100
00000000
00000000
00001000
00000000
00000000
,
00010000
00000000
00000000
00100000
00000000
00000000
10000000
00000000
,
01000000
01000000
00100000
00100000
,
00001000
00001000
00011000
00000000
,
00010000
00001000
00010000
00000010
,
00001000
00000000
00000001
00000000
00001000
00000001
00001000
00000000
,
00000001
00000010
00000100
00001000
,
00000100
00010000
00001000
00100000
,
00010000
10000000
00010000
00000000
01000000
00100000
01000000
00000000
,
00100000
10000000
00100000
00000000
01000000
00001000
01000000
00000000
,
00001000
00000000
00000000
00010000
00000000
00000000
00000010
00000000
00000000
00000000
00001000
00000000
00001000
00000000
00000000
00000000
,
00000100
00000000
00000000
00001000
00000000
00000000
00000001
00000000
00000000
00000000
00000100
00000000
00000100
00000000
00000000
00000000
,
00000010
00000000
00000000
00010000
00000000
00000000
00001000
00000000
00000000
00000000
00100000
00000000
00100000
00000000
00000000
00000000
,
00010000
01000000
00010000
00000000
10000000
00100000
10000000
00000000
,
00010000
00000000
00000000
00100000
00000000
00000000
01000000
00000000
00000000
00000000
00010000
00000000
00010000
00000000
00000000
00000000
,
00001000
00000000
00000000
00010000
00000000
00000000
00000100
00000000
00000000
00000000
00010000
00000000
00010000
00000000
00000000
00000000
,
00000010
00000000
00000000
00010000
00000000
00000000
00001000
00000000
00000000
00000000
00010000
00000000
00010000
00000000
00000000
00000000
,
00000100
00001000
00000100
00001000
00000001
00001000
00000001
00001000
,
00000000
00000220
00000000
00000000
,
00000000
00000000
00000000
00000000
,
00000330
00000000
00000000
00000000
;

//--------------- dance-double - Fred-104 ----------------
#NOTES:
     dance-double:
     Fred-104:
     Medium:
     15:
     :
00000000
00000000
00000000
00000000
,
00000000
00000000
00000000
00000000
,
00000000
00000000
00000000
00000000
,
00000000
00000000
00000000
00000000
,
00000000
00000000
00000000
00000000
,
00000000
00000000
00000000
00000000
,
00000000
00000000
00000000
00000000
,
00000000
00000000
00000000
00000000
,
00000000
00000000
00000000
00000000
00000000
00000000
00000000
00000000
00000000
00000000
00000000
00000000
00000000
00000000
00010000
00001000
,
00010000
00000100
00001000
00000002
00000000
00001003
00000200
00000000
,
00000300
00000000
00000010
00000001
00000010
00000000
00000001
00000000
00000100
00000000
00000000
00001000
00000000
00000000
00010000
00000000
,
00001000
00100000
00010000
10000000
00000000
00100000
01000000
00010000
,
10000000
00000000
01000000
00000000
00010000
00000000
00001000
00000000
00010000
00000000
00000100
00000000
00010000
00000000
00001000
00010000
,
00001000
00100000
00001000
00100000
00010000
10000000
00010000
10000000
,
00100000
01000000
00100000
01000000
00100000
00010000
00001000
00010000
,
00000010
00001000
00000010
00000000
00000100
00000000
00000001
00000000
00001000
00000100
00001000
00000000
00000010
00000000
00010000
00000000
,
00001000
00100000
00001000
00000000
00010000
00000100
00010000
00000000
00022000
00000000
00000000
00000000
00033000
00000000
00000000
00000000
,
00011000
00000000
00010000
00000100
00000000
00000100
00001000
00000000
00000000
00000000
00000001
00000000
00001000
00000000
00000010
00000000
,
00000110
00000000
00000100
00000001
00000000
00000001
00001000
00000000
00000000
00000000
00000001
00000000
00000010
00000000
00001000
00000000
,
00011000
00000000
00010000
00001000
00000000
00001000
00100000
00000000
00000000
00000000
00010000
00000000
10000000
00000000
00100000
00000000
,
01000000
00010000
10000000
01000000
00010000
00001000
00010000
00000100
,
00001100
00000000
00000100
00010000
00000000
00010000
00001000
00000000
00000000
00000000
00010000
00000000
00001000
00000000
01000000
00000000
,
01010000
00000000
00010000
10000000
00000000
10000000
01000000
00000000
00000000
00000000
00010000
00000000
00001000
00000000
00010000
00000000
,
00010010
00000000
00000010
00000100
00000000
00000100
00000001
00000000
00000000
00000000
00000010
00000000
00000100
00000000
00010000
00000000
,
00001000
00100000
00001000
00000000
00100000
00010000
00100000
00000000
01000000
10000000
01000000
00000000
10000000
00010000
10000000
00000000
,
01000000
00000000
00000000
00010000
00000000
00000000
00001000
00000000
00000000
00000000
00001010
00000000
00000011
00000000
00000000
00000000
,
00002000
00000000
00000000
00003002
,
00000203
00002300
00023000
00032000
,
00003020
00000000
00000000
00002030
,
00023000
00230000
20300000
32000000
,
03100000
00010000
00100000
00001000
00000000
00001000
00010000
00000100
,
00000010
00000001
00001000
00000001
00000100
00000010
00000100
00001000
,
00010000
00001000
00100000
00001000
00000000
00001000
01000000
00001000
,
00010000
00001000
00010000
00001000
00000100
00000010
00001000
00000100
,
00000010
00000001
00001000
00000001
00000000
00000001
00000100
00001000
,
00010000
00000000
00001000
00000000
00100000
00000000
00001000
00000000
00010000
00000000
00001000
00000000
01000000
00000000
00100000
10000000
,
00100000
01000000
00010000
10000000
00000000
10000000
01000000
00010000
,
00001000
00010000
00000010
00010000
00001000
00010000
00000100
00001000
,
00000001
00000100
00000010
00001000
00000010
00000100
00001000
00010000
,
00001000
00010000
00100000
01000000
00001000
00010000
00100000
01000000
,
00010000
10000000
01000000
00100000
00001000
00010000
00000100
00000010
,
00000001
00001000
00000001
00000000
00001000
00000010
00001000
00000000
00000010
00010000
00000010
00000000
00010000
00001000
00010000
00000000
,
00001000
00100000
00010000
10010000
00000000
10000000
10100000
00000000
,
00010000
00000000
10000000
01000000
10000000
00000000
01000000
00000000
00010000
00000000
00000000
00001000
00000000
00000000
00010000
00000000
,
00000100
00000000
00001000
00000000
00000001
00000000
00000100
00000000
00000010
00000000
00001000
00000001
00001000
00000000
00000100
00000000
,
00000010
00000001
00000010
00000000
00000100
00000000
00010000
00001000
00010000
00000000
00001000
00000000
01000000
00010000
01000000
00010000
,
01000000
00001000
00010000
00010100
00000000
00000100
00000110
00000000
,
00000001
00000000
00001000
00000010
00001000
00000000
00000100
00000000
00000010
00000000
00000000
00000001
00000000
00000000
00000010
00000000
,
00001000
00000000
00010000
00000000
00001000
00000000
00100000
00000000
00010000
00000000
10000000
00100000
10000000
00000000
00010000
00000000
,
00100000
01000000
00100000
00000000
00010000
00000000
00100000
00001000
00100000
00000000
00001000
00000000
00010000
00000010
00010000
00000010
,
00010000
00001000
00010000
00010100
00000000
00000100
00000110
00000000
,
00000001
00000000
00001000
00000100
00001000
00000000
00000010
00000000
00010000
00000000
00000000
00010000
00000000
00000000
00010000
00000000
,
00001000
00000000
00100000
00000000
00010000
10000000
00010000
00000000
01000000
00000000
00001000
00010000
00001000
00000000
00010000
00000000
,
00000010
00001000
00000010
00000000
00000100
00000000
00000001
00000010
00000001
00000000
00001000
00000000
00000001
00001000
00000001
00001000
,
00000001
00000100
00001000
00011000
00000000
00001000
01001000
00000000
,
00100000
00000000
10000000
00010000
10000000
00000000
01000000
00000000
00100000
00000000
00000000
00100000
00000000
00000000
00100000
00000000
,
00001000
00010000
00001000
00000000
00100000
00000000
01000000
00000000
10000000
00010000
10000000
00000000
00100000
00000000
00010000
00000000
,
00001000
00010000
00001000
00000000
00010000
00000010
00002000
00000002
00000000
00000000
00003000
00000000
00000003
00000000
00000000
00000000
,
00001000
00000100
00000010
00000001
00000000
00000001
00001000
00000010
,
00000100
00000000
00001000
00000000
00000000
00000000
00001000
00000000
00010000
00001000
00010000
00001000
00010000
00000000
00001000
00000000
,
01000000
00010000
00000000
00010000
00100000
01000000
00100000
00001000
,
00000000
00000000
00001000
00000000
00010000
00001000
00010000
00001000
00010000
00000000
00001000
00000000
00010000
00000000
00100000
00000000
,
00000000
00100000
01000000
00001000
00010000
00100000
00000000
00100000
,
10000000
00010000
10000000
00010000
10000000
00000000
01000000
00000000
00010000
00000000
00001000
00000000
00000000
00000000
00001000
00000000
,
00010000
00000000
00000100
00000000
00000010
00000000
00000100
00000000
00000000
00000000
00000100
00000000
00001000
00000001
00001000
00000001
,
00001000
00001100
00000010
00000011
,
00000001
00000000
00000000
00000000
00001001
00000000
00000000
00000000
00000001
00000100
00000010
00000000
00001000
00000100
00010000
00000000
,
00001000
00101000
00010000
00010010
,
00001000
00000000
00000000
00000000
01001000
00000000
00000000
00000000
01000000
00100000
10000000
00000000
00010000
00100000
01000000
00000000
,
10000000
00010000
10000000
00010000
00100000
01000000
00100000
01000000
,
00010000
00000000
00001000
00000000
00010000
00000000
00001000
00000000
00000100
00000010
00000100
00000000
00000001
00001000
00000001
00000000
,
00001000
00000100
00001000
00000000
00000010
00000000
00010000
00000000
00001000
00100000
00001000
00000000
00010000
00000000
00001000
00000000
,
01000000
00100000
01000000
00000000
00010000
10000000
00010000
00000000
01000000
00000000
00100000
00000000
00010000
00001000
00010000
00001000
,
00010000
00000000
00001000
00010000
00000000
00010000
00001000
00000000
00000000
00000000
00100000
00000000
00010000
00000000
10000000
00000000
,
10010000
00000000
00010000
01000000
00000000
01000000
00100000
00000000
00000000
00000000
10000000
00000000
01000000
00000000
00010000
00000000
,
00011000
00000000
00001000
00010000
00000000
00010000
00000010
00000000
00000000
00000000
00001000
00000000
00000001
00000000
00000010
00000000
,
00000100
00001000
00000100
00000000
00010000
00000000
00001000
00000000
01000000
00010000
01000000
00000000
00001000
00000000
00010000
00000000
,
00010100
00000000
00000100
00001000
00000000
00000001
00001000
00000000
00000100
00000000
00000010
00000000
00000001
00000000
00001000
00000000
,
00001010
00000000
00000010
00010000
00000000
00001000
00010000
00000000
00001000
00000000
00010000
00000000
00100000
00000000
10000000
00000000
,
10010000
00000000
00010000
00100000
00000000
01000000
00100000
00000000
00001000
00000000
00010000
00000000
00000010
00000000
00001000
00000000
,
00000001
00000010
00000100
00000000
00001000
00000100
00010000
00000000
00001000
00000000
00010000
00000000
00100000
01000000
00010000
10000000
,
00000000
02200000
00000000
00000000
,
00000000
00000000
00000000
00000000
,
03300000
00000000
00000000
00000000
;

//--------------- dance-double - Fred-104 ----------------
#NOTES:
     dance-double:
     Fred-104:
     Hard:
     18:
     :
00000000
00000000
00000000
00000000
,
00000000
00000000
00000000
00000000
,
00000000
00000000
00000000
00000000
,
00000000
00000000
00000000
00000000
,
00000000
00000000
00000000
00000000
,
00000000
00000000
00000000
00000000
,
00000000
00000000
00000000
00000000
,
00000000
00000000
00000000
00000000
,
00000000
00000000
00000000
00000000
00000000
00000000
00000000
00000000
00000000
00000000
00000000
00000000
00000000
00000000
00001000
00010000
,
00001000
00010000
00100000
10000000
01000000
00010000
00002000
00000000
,
00013000
00000000
00000100
00000010
00000100
00000000
00001000
00000000
00000001
00000000
00000100
00000010
00000000
00000010
00001000
00000000
,
00000100
00000000
00000010
00000000
00001000
00000000
00010000
00000000
01000000
00000000
00100000
00000000
00010000
10000000
00010000
00000000
,
01000000
00000000
00100000
00000000
00010000
00000000
00001000
00000000
00000100
00000000
00000001
00000000
00000010
00000100
00000010
00000100
,
00001000
00000001
00000010
00000100
00001000
00000010
00000100
00001000
,
00010000
00100000
01000000
00010000
00100000
01000000
10000000
00010000
,
10000000
01000000
00100000
00010000
00100000
00001000
00020000
00000000
00030100
00001000
00000100
00000010
00000001
00001000
00000002
00000000
,
00001003
00000001
00000100
00000010
00000100
00001000
00010000
00100000
01000000
00010000
10000000
00010000
00100000
01000000
00010000
00001000
,
00010000
00000000
00000100
00000010
00000000
00000010
00000001
00000000
00000000
00000000
00001001
00000000
00000001
00000000
00000100
00000000
,
00000110
00000000
00000010
00001000
00000000
00001000
00000001
00000000
00000000
00000000
00000011
00000000
00000010
00000000
00001000
00000000
,
00011000
00000000
00010000
00001000
00000000
00001000
01000000
00000000
00000000
00000000
01010000
00000000
00010000
00000000
10000000
00000000
,
00100000
01000000
00010000
10000000
01000000
00100000
00002000
00000000
00013000
00000010
00001000
00000001
00000010
00000100
00002000
00000000
,
00003001
00000000
00000010
00000100
00000000
00000100
00010000
00000000
00000000
00000000
00011000
00000000
00010000
00000000
00000010
00000000
,
00000110
00000000
00000100
00000001
00000000
00000001
00000010
00000000
00000000
00000000
00001010
00000000
00001000
00000000
00010000
00000000
,
00011000
00000000
00001000
01000000
00000000
01000000
00100000
00000000
00000000
00000000
00110000
00000000
00010000
00000000
00100000
00000000
,
10000000
00010000
00100000
01000000
00010000
00001000
00020000
00000000
00030100
00000010
00000001
00000100
00000010
00001000
00000002
00000000
,
00000013
00000000
00000000
00000011
00000000
00000000
00000101
00000000
00000000
00000100
00001000
00000000
00011000
00000000
00010000
00100000
,
20000000
00000000
00000000
30010000
,
00200000
10000000
01000000
00301000
,
00020000
00000000
00000000
00030020
,
00002030
00000001
00000010
00003100
,
00010000
00000000
00001000
00000000
01001000
00000000
01000000
00000000
00010000
00000000
10000000
00010000
00100000
00000000
01000000
00000000
,
01100000
00100000
00002000
00023000
00032000
00003200
00000320
00000032
,
00000013
00000000
00001000
00000000
00001001
00000000
00000001
00000000
00000010
00000000
00001000
00010000
00001000
00000000
00010000
00000000
,
00000200
00001000
00020300
00001000
00032000
00023000
00230000
20300000
,
32000000
03200000
20300000
30020000
01030000
20000000
30200000
00320000
,
00032000
00000000
00000000
00000000
00000000
00000000
00000000
00000000
00010000
00000000
00000000
00000000
00000100
00000000
00000000
00003000
00002000
00000000
00000000
00000000
00000000
00000000
00000000
00000000
00000100
00000000
00000000
00000000
00010000
00000000
00000000
00003000
00002000
00000000
00000000
00000000
00000000
00000000
00000000
00000000
00023000
00000000
00000000
00000000
00000000
00000000
00000000
00000000
00030020
00000000
00000000
00000000
00000000
00000000
00000000
00000000
00001030
00000000
00000000
00000000
00000001
00000000
00000000
00000000
,
00000020
00000230
00000320
00002030
00013000
02000000
03200000
00320000
,
10030000
00000000
00020000
00000000
02030000
00000000
03200000
00000000
00302000
00000000
00003020
00000000
00020030
00000000
00031000
00010000
,
00002000
00000000
00003200
00000000
00000302
00000000
00000023
00000000
00000130
00000000
00002000
00000000
00003200
00000000
00010300
00001000
,
00020000
00000000
00001000
00000000
00030020
00000000
00000100
00000000
00002030
00000000
00003002
00000000
00000103
00000010
00000100
00000010
,
00001000
00000100
00000010
00000001
00000100
00000010
00002000
00000000
00003100
00010000
00001000
00100000
00010000
01000000
00200000
00000000
,
10300000
01000000
00100000
00010000
01000000
00100000
00010000
00001000
00000100
00000010
00001000
00000001
00000010
00000100
00000010
00001000
,
00010000
00001000
00011000
00010010
00000000
00000010
00001001
00000000
,
00000110
00000000
00001000
00000001
00000100
00001000
00010000
00000000
00011000
00000000
00000000
00110000
00000000
00000000
10100000
00000000
,
00020000
00000000
20030000
00000000
32000000
00000000
03020000
00000000
00031000
00000000
00010000
00000010
00001000
00000001
00000100
00000010
,
00001000
00000001
00000010
00000100
00001000
00000010
00010000
00001000
01000000
00010000
00100000
01000000
10000000
00100000
01000000
00010000
,
10000000
01000000
01100000
00110000
00000000
00100000
00101000
00000000
,
00011000
00000000
00010000
00001000
00000100
00000001
00000010
00000000
00000110
00000000
00000000
00001100
00000000
00000000
00010100
00000000
,
00020000
00000000
00032000
00000000
00023000
00000000
00230000
00000000
10300000
00000000
01000000
00100000
00010000
10000000
00100000
01000000
,
00010000
10000000
01000000
00100000
00010000
01000000
00001000
00010000
00000010
00001000
00000100
00000010
00000001
00000100
00000010
00001000
,
00000100
00010000
00011000
00101000
00000000
11000000
01010000
00000000
,
01100000
00000000
10000000
00100000
00010000
00001000
00010000
00000000
00011000
00000000
00000000
00001100
00000000
00000000
00000101
00000000
,
00001001
00000000
00001000
00000000
00000100
00000010
00000001
00001000
00000010
00010000
00001000
00100000
00001000
00010000
00001000
01000000
,
00010000
10000000
01000000
00100000
01000000
00010000
00001000
00000010
00000100
00000010
00000001
00001000
00000010
00000100
00001000
00010000
,
00001000
00100000
00110000
10010000
00000000
01001000
00011000
00000000
,
00010100
00000000
00010000
00001000
00000010
00000001
00000100
00000000
00000110
00000000
00000000
00001100
00000000
00000000
00010100
00000000
,
00010000
00001000
00100000
00010000
01000000
00100000
20000000
00000000
30010000
00100000
01000000
00010000
00001000
00000010
00000200
00000000
,
00001300
00000001
00000100
00000010
00000100
00001000
00010000
00002000
02000000
00000000
00003000
00000000
03000000
00000000
00000000
00000000
,
00010000
10000000
01000000
00100000
00001000
00010000
00000100
00000010
,
00000001
00000000
00000100
00000000
00000010
00000000
00000100
00000000
00001000
00010000
00001000
00010000
00001000
00000000
01000000
00000000
,
00010000
10000000
01000000
00100000
00001000
00010000
00000010
00000100
,
00000001
00000000
00000010
00000000
00001000
00010000
00001000
00010000
00001000
00000000
00100000
00000000
01000000
00000000
10000000
00000000
,
00100000
01000000
00010000
10000000
01000000
00010000
00001000
00000100
,
00000001
00001000
00000001
00001000
00000001
00000000
00000010
00000000
00000100
00000000
00001000
00000000
00000010
00000000
00000100
00000000
,
00001000
00000000
00010000
00000000
00100000
00000000
10000000
00000000
01000000
00000000
00100000
00000000
00010000
10000000
00010000
10000000
,
00010000
00010000
10000000
10000000
,
01000000
00000000
00000000
00000000
01000000
00000000
00000000
00000000
00100000
00001000
00010000
00000100
00001000
00000100
00000010
00000001
,
00001000
00001000
00000010
00000010
,
00010000
00000000
00000000
00000000
00010000
00000000
00000000
00000000
00001000
00010000
00001000
00100000
00010000
10000000
00100000
01000000
,
00010000
10000000
00010000
10000000
01000000
00010000
01000000
00010000
,
00001000
00000000
00000010
00000000
00001000
00000000
00000010
00000000
00000001
00001000
00000010
00000100
00000001
00001000
00000010
00001000
,
00000001
00000010
00000100
00001000
00000010
00000100
00001000
00010000
00100000
01000000
00001000
00010000
00100000
01000000
00100000
10000000
,
00010000
00100000
01000000
00010000
01000000
00100000
00010000
10000000
00100000
01000000
00100000
00010000
00001000
00000100
00000010
00001000
,
00000001
00000000
00001000
00000100
00000000
00000010
00000001
00000000
00000000
00000000
00000101
00000000
00001010
00000000
00010010
00000000
,
00011000
00000000
00001000
00100000
00000000
00010000
10000000
00000000
00000000
00000000
10100000
00000000
01010000
00000000
11000000
00000000
,
01100000
00000000
00100000
00001000
00000000
00010000
00000010
00000000
00000000
00000000
00001100
00000000
00000110
00000000
00000011
00000000
,
00000001
00001000
00000010
00000100
00001000
00010000
00100000
01000000
00100000
10000000
01000000
00010000
01000000
10000000
00100000
01000000
,
00010000
00000000
10000000
01000000
00000000
00100000
00001000
00000000
00011000
00000000
00010010
00000000
00011000
00000000
00001000
00010000
,
00000010
00000000
00001000
00000001
00000000
00000010
00000100
00000000
00001100
00000000
00010100
00000000
00011000
00000000
00010000
00001000
,
01000000
00000000
00001000
00010000
00000000
00001000
00000100
00000000
00000101
00000000
00000011
00000000
00001100
00000000
00000001
00000010
,
00000001
00001000
00000010
00000100
00001000
00010000
00100000
01000000
00010000
10000000
01000000
00010000
00001000
00000010
00000001
00000100
,
00001000
00022000
00000000
00000000
,
00000000
00000000
00000000
00000000
,
00033000
00000000
00000000
00000000
;
