#TITLE:終焔のClaudia;
#ARTIST:二代目朱雀;
#TITLETRANSLIT:Shuuen no Claudia;
#ARTISTTRANSLIT:Nidaime Suzaku;
#GENRE:HARD RENAISSANCE;
#BANNER:Shuuen no Claudia.png;
#BACKGROUND:Shuuen no Claudia-bg.png;
#CDTITLE:./CDTitles/RB colette -Autumn-.png;
#MUSIC:Shuuen no Claudia.ogg;
#SAMPLESTART:75.5;
#SAMPLELENGTH:15;
#BPMS:0=185,17=175,18=170,19=160,20=140,21=125,22=110,23=100,24=90,25=45,25.5=90,26=181.269,27=185,59=740,63=370,65=185,227=740,231=370,233=185,332=740,336=370,338=185;
#TIMESIGNATURES:0=3=4,27=4=4,327=5=4,332=4=4;
#BGSTAGE:29;

//--------------- dance-single - Fred-104 ----------------
#NOTES:
     dance-single:
     Fred-104:
     Beginner:
     5:
     :
0000
0000
0000
0000
,
0000
0000
0000
0000
,
0000
0000
0000
0000
,
0000
0000
0000
1000
,
0000
0000
0001
0000
,
0000
2002
0000
0000
,
0000
0000
3003
1000
,
0000
1000
0000
1000
,
0000
0000
0000
0001
,
0000
0001
0000
0001
,
0000
0000
0000
0100
,
0000
0100
0000
0100
,
0000
0000
0000
0010
,
0000
0010
0000
0010
,
0000
0000
0000
2002
,
0000
0000
0000
0000
,
0000
0000
0000
3003
,
0000
0000
0000
1001
,
0000
0000
0000
0001
,
0000
0000
0000
1000
,
0000
0000
0000
0001
,
0000
1000
0000
0010
,
0000
0000
0000
0100
,
0000
0000
0000
0001
,
0000
0000
0000
1000
,
0000
0001
0000
1000
,
0000
0010
0000
1000
,
0000
0100
0000
0010
,
0000
0001
0000
1000
,
0000
0001
0000
0100
,
0000
0001
0000
1000
,
0000
0001
0000
1001
,
0000
0000
0000
1000
,
0000
0001
0000
1000
,
0000
0010
0000
1000
,
1000
1000
0000
0010
,
0000
1000
0000
0100
,
0100
0100
0000
0010
,
0000
0001
0000
1000
,
1000
1000
0000
0001
,
0000
1000
0000
0001
,
0001
0001
0000
1000
,
0000
0010
0000
1000
,
0000
0100
0000
0010
,
0000
0001
0000
2000
,
0000
3000
0000
0001
,
0000
0100
0000
0001
,
0000
0010
0000
0100
,
0000
1000
0000
0002
,
0000
0003
0000
1000
,
0000
0010
0000
1000
,
0000
0100
0100
0100
,
0000
0010
0000
0001
,
0000
0010
0010
0010
,
0000
0001
0000
1000
,
0000
0001
0001
0001
,
0000
1000
0000
2002
,
0000
0000
0000
0000
,
0000
3003
0000
1000
,
0000
0010
0000
1000
,
0000
0100
0000
1000
,
0000
0001
0000
1000
,
1000
1000
0000
0001
,
0000
0010
0000
0100
,
0000
1000
0000
0001
,
0000
1000
0000
1001
,
0000
1001
0000
1000
,
0000
0010
0000
1000
,
0000
0001
0000
0100
,
0000
0010
0000
0100
,
0100
0100
0000
0001
,
0000
1000
0000
0001
,
0001
0001
0000
1000
,
1000
1000
0000
0001
,
0001
1001
0000
1000
,
0000
0010
0000
1000
,
1000
1000
0000
0100
,
0000
0010
0000
0001
,
0001
0001
0000
0100
,
0000
0010
0000
0100
,
0100
0100
0000
0001
,
0000
1000
0000
0001
,
0001
0001
0001
0000
,
2002
0000
0000
0000
,
0000
0000
0000
0000
,
0000
0000
0000
0000
,
3003
0000
0000
0000
;

//--------------- dance-single - Fred-104 ----------------
#NOTES:
     dance-single:
     Fred-104:
     Easy:
     8:
     :
0000
0000
0000
0000
,
0000
0000
0000
0000
,
0000
0000
0000
0000
,
0000
0000
0000
1000
,
0000
0001
0100
0010
,
0100
0002
0000
0000
,
2000
0000
3003
1000
,
0100
1000
0000
0001
,
0100
0010
0000
1000
,
0010
0100
0000
0001
,
0010
0001
0000
1000
,
0100
0010
0000
0001
,
1000
0010
0000
1000
,
0100
1000
0000
0001
,
0001
1000
1000
2002
,
0000
0000
0000
0000
,
0000
0000
0000
3003
,
0000
0000
0000
1001
,
0000
0000
0000
0001
,
0000
1000
0000
0100
,
0000
0000
0000
0010
,
0000
0000
0001
1000
0001
0000
1001
0000
,
0000
1000
0000
0000
0010
0000
0100
0000
,
0010
1000
0000
0100
,
0000
0010
0000
0000
0001
0000
0100
0000
,
0001
0000
1000
0001
1000
0000
0001
0000
,
0000
0100
0000
0000
0001
0000
0010
0000
,
0100
1000
0010
1000
,
0000
0100
0000
0000
1000
0000
0010
0000
,
0100
0000
0001
1000
0001
0000
1000
0000
,
0000
0001
0000
0000
0100
0000
0001
0000
,
1000
0001
0010
0110
,
0000
1001
0000
0000
0110
0000
0100
0000
,
0010
0000
1000
0001
1000
0000
0001
0000
,
0010
0200
0300
1000
,
0010
0000
1000
0100
1000
0000
0010
0000
,
0100
0002
0003
1000
,
0100
0000
0010
0001
0010
0000
0001
0000
,
0100
0020
0030
0100
,
0001
0000
0010
0001
0010
0000
0001
0000
,
1000
0020
0030
1000
,
0100
0000
1000
0001
1000
0000
1001
0000
,
0001
0100
0010
0100
,
0001
0000
1000
0100
1000
0000
0100
0000
,
0010
0001
1000
0002
,
0000
2003
0000
3001
,
0100
0000
0010
0000
0100
0010
0100
0000
,
0001
1000
0010
2000
,
3200
0320
0032
2003
,
0000
0002
3003
0001
,
0100
0001
0000
0100
,
0010
0000
1000
0100
1000
0000
0010
0000
,
1000
0100
0000
0010
,
0001
0000
1000
0001
1000
0000
0001
0000
,
0100
1000
0000
0010
,
0001
0000
1000
0001
1000
0000
0001
0000
,
0100
0010
1000
2002
,
0000
0000
0000
0000
,
0000
3003
0000
1000
,
0100
0000
1000
0010
1000
0000
0100
0000
,
0010
0001
0100
0001
,
0001
0010
0000
1000
,
1000
0010
0000
0001
,
0100
0000
0001
0010
0001
0000
0010
0000
,
0100
1000
0000
0001
,
1000
0001
0100
0110
,
0000
1001
0000
0001
,
1000
0000
0010
1000
0010
0000
0100
0000
,
0001
1000
0000
0100
,
1000
0001
0100
0001
,
1000
0002
0003
1000
,
0100
0000
0010
0100
0010
0000
0001
0000
,
0100
0001
1000
0001
,
0100
1000
0100
0001
,
1000
2002
3003
1000
,
0000
0100
0000
0000
0010
0000
0001
0000
,
0100
0010
0100
0001
,
0000
1000
0000
0000
0010
0000
1000
0000
,
0100
0000
1000
0010
1000
0000
0010
0000
,
0000
0100
0000
0000
0001
0000
0010
0000
,
0001
1000
0001
0100
,
0000
0010
0000
0000
1000
0000
0001
0000
,
1000
0000
0001
1000
0001
1000
0000
0000
,
2002
0000
0000
0000
,
0000
0000
0000
0000
,
0000
0000
0000
0000
,
3003
0000
0000
0000
;

//--------------- dance-single - Fred-104 ----------------
#NOTES:
     dance-single:
     Fred-104:
     Medium:
     13:
     :
0000
0000
0000
0000
,
0000
0000
0000
0000
,
0000
0000
0000
0000
,
0000
0000
0000
0001
,
0100
0010
0100
0000
0001
0000
0010
0000
,
0100
0000
1000
0000
0010
0000
0001
0100
,
2000
0000
0000
0000
3000
0000
0001
1000
,
0001
0000
0100
0010
0100
0000
0001
1000
,
0001
0000
0200
0000
0320
0000
1030
0100
,
0010
0000
0001
1000
0010
0000
1000
0100
,
1000
0000
0002
0000
0023
0000
0031
0100
,
0010
0000
1000
0100
0010
0000
0001
1000
,
0010
0000
2000
0000
3200
0000
1300
0010
,
0100
0000
0000
0000
0000
0000
0010
0000
0000
1000
0000
0000
0100
0000
0000
0000
0000
0000
1000
0000
0010
0000
1000
0000
,
0010
0000
0000
0100
0001
0100
0001
0000
0000
2002
0000
0000
,
0000
0000
0000
0000
,
0000
0000
0000
3003
,
0000
0000
0000
1100
,
0000
0010
0000
0000
0100
0000
0001
0000
,
0010
1000
0100
0001
,
0000
1000
0000
0000
0001
0000
0100
0000
,
0010
0000
0000
0000
1000
0000
0100
1000
0100
0000
0010
0000
0011
0000
0000
0000
,
0000
1000
0000
0000
0001
0000
0100
0000
,
0010
0000
1000
0100
1000
0000
0010
0000
,
0000
1000
0000
0000
0100
0000
0010
0000
,
0001
0000
0000
0000
1000
0001
1000
0001
1000
0000
0000
0000
1000
0000
0100
0000
,
0010
0001
0100
0010
1000
0000
0001
0000
,
1000
0000
0010
0100
0001
0000
1000
0001
,
0010
0001
1000
0010
0100
0000
0001
0000
,
1000
0000
0000
0000
0001
0000
0100
0010
0100
0000
0000
0000
0001
0000
0010
0000
,
0100
1000
0010
0100
0001
0000
1000
0000
,
0010
0000
1000
0100
1000
0010
0110
0000
,
0000
1001
0000
0000
0110
0000
0100
0001
,
0010
0000
0100
1000
0001
0000
1000
0100
,
0010
0100
1000
0100
1000
0001
0000
0010
,
0000
0100
0000
0010
0001
1000
0001
0010
,
0001
0100
0010
1000
0001
0010
0000
0001
,
0000
1000
0000
0001
1000
0100
1000
0010
,
1000
0001
0100
0010
1000
0100
0000
0010
,
0000
0001
0000
0100
0010
0100
0001
0010
,
0001
0100
0001
0010
0100
1000
0000
0001
,
0000
0010
0100
1000
0001
0000
1001
0000
,
1000
0010
0100
0001
,
0010
0000
0001
1000
0010
0100
0001
0000
,
1000
0000
0100
0000
0010
0000
0001
0100
,
1000
0100
0001
0000
1000
0000
0001
0000
,
0100
0000
0010
0000
1000
0010
0001
0000
,
0010
0000
0000
0000
0000
0000
0100
0000
0000
0000
0000
0000
0001
0000
0000
1000
0000
0000
0001
0000
0100
0000
0001
0000
,
0100
0000
0000
0000
0000
0000
0000
0000
0000
0000
0000
0000
0010
0000
0000
0000
1000
0000
0000
0000
0010
0000
0000
0000
1000
0000
0000
0000
0000
0000
0000
0000
0000
0000
0000
0000
0001
0000
0000
1000
0000
0000
0001
0000
0000
1000
0000
0000
,
0001
1000
0001
1000
0001
0000
0000
0000
0000
0000
0000
0000
1002
0000
0000
0000
,
2003
0000
3001
0100
0010
0000
0100
0001
,
0010
0200
2300
3001
,
1000
0000
0010
1000
0100
0000
0010
0001
,
1000
0000
0020
0000
0230
0000
0301
0100
,
0010
0000
1000
0001
0010
0000
0001
1000
,
0100
0000
1000
0010
0100
0000
0001
0010
,
0001
0010
0100
1000
0100
1000
0200
0000
,
0000
0000
0000
0000
,
0000
0000
0300
0000
0000
0000
1000
0001
,
0010
0002
0000
0103
0001
0010
0100
0010
,
0001
2000
0000
3010
0100
0001
1001
0000
,
0110
0000
1000
0010
0100
0101
0000
0011
,
0000
0001
1000
0001
0100
0010
1000
0100
,
0010
0002
0000
0103
0010
1000
0001
0010
,
0100
0000
0020
0000
0000
0000
0031
0000
1000
0000
0001
0000
0100
0000
0000
0010
,
0000
0000
1000
0001
2000
0000
0000
0000
3001
0000
0000
0000
1001
0000
0000
0000
,
0110
0000
0001
1000
0010
0100
0001
0010
,
0100
2000
0000
3001
0100
0010
1000
0100
,
0010
0200
0000
1300
0010
0100
0101
0000
,
1001
0000
1000
0100
0010
0011
0000
1010
,
0000
0011
0000
0001
1000
0010
0100
0001
,
0010
0002
0000
0103
0010
0100
0001
0010
,
0100
2000
0000
3100
1000
0010
1000
0100
,
0001
0000
0100
0000
1000
0010
1000
0000
0001
0100
0001
0000
1001
0000
0000
0000
,
0110
0000
2002
0000
3003
0000
1000
0001
,
0100
0001
1000
0100
0010
0001
0100
0000
,
0010
0000
0100
0001
0010
0000
0001
1000
,
0010
1000
0001
0010
0100
1000
0100
0000
,
1000
0000
0000
0000
0001
1000
0001
1000
0001
0000
1000
0000
0001
0000
0010
0000
,
1000
0001
0100
1000
0001
0000
0100
0000
,
0010
0000
1000
0100
1000
0010
1000
0100
,
0001
1000
0010
0001
1000
0000
0001
1000
,
0001
0000
1000
0000
0001
1000
0001
1000
0001
1000
0001
1000
0000
0000
0000
0000
,
2002
0000
0000
0000
,
0000
0000
0000
0000
,
0000
0000
0000
0000
,
3003
0000
0000
0000
;

//--------------- dance-single - Fred-104 ----------------
#NOTES:
     dance-single:
     Fred-104:
     Hard:
     16:
     :
0000
0000
0000
0000
,
0000
0000
0000
0000
,
0000
0000
0000
0000
,
0000
0000
0000
1000
,
0001
0100
0001
0010
0001
0000
0010
0000
,
0100
0000
0000
0000
1000
0000
0000
0000
0001
0000
0000
0000
0100
0000
0010
1000
,
0020
0000
0000
0000
0030
0000
1000
0100
,
0010
0000
1000
0010
0100
0000
1000
0001
,
0100
0000
0000
0000
0000
0000
0001
0000
0010
0000
0001
0000
0100
0000
0001
0000
0010
0000
0001
0000
0000
0100
0000
0000
,
0010
0000
0001
0010
0100
0000
0001
1000
,
0010
0000
0000
0000
0000
0000
1000
0000
0010
0000
0100
0000
0010
0000
1000
0000
0001
0000
1000
0000
0000
0100
0000
0000
,
0001
0000
1000
0010
0001
0000
1000
0001
,
0100
0000
0000
0000
0000
0000
0010
0000
1000
0000
0100
0000
1000
0000
0010
0000
0100
0000
0001
0000
0000
0010
0000
0000
,
0100
0000
0000
1000
0000
0000
0010
0000
0000
0100
0000
0000
0001
0000
0000
1000
0000
0000
0001
0000
0100
0000
0001
0000
,
1000
0010
1000
0001
0010
0100
1000
0100
0010
0002
0000
0000
,
0000
0000
0000
0000
,
0000
0000
0000
0003
,
0000
0000
0000
1001
,
0000
0001
0000
0000
0100
0000
0001
0000
,
1000
0100
0000
1000
,
0000
0010
0000
0000
0100
0000
0001
0000
,
0010
0000
0000
0000
0000
0000
0100
0000
0000
1000
0100
1000
0100
0000
0000
1000
0000
0000
1001
0000
0000
0000
0000
0000
,
0001
0100
0000
0010
0100
0000
0001
0000
,
0010
0000
0100
1000
0001
0000
1000
0000
,
0010
0100
0000
0010
1000
0000
0001
0000
,
1000
0000
0000
0000
0001
0100
0001
0100
0010
0000
0000
0000
1000
0100
1000
0000
,
0010
0000
1000
0100
1000
0000
0001
0000
1000
0100
1000
0000
0010
0000
0000
0010
,
0100
0000
0000
0100
0001
0000
0010
0000
0001
0000
1000
0000
0001
0010
0001
0000
,
1000
0000
0001
0010
0001
0000
0100
0000
0001
0010
0001
0000
0100
0000
0000
0100
,
0010
0000
0000
0010
1000
0010
1000
0010
0100
0000
0001
0000
1000
0001
1000
0000
,
0100
0000
0010
0001
0010
0000
0100
0000
1000
0010
1000
0000
0001
0000
0000
0001
,
0100
0000
0000
0100
0010
0000
1000
0000
0001
0000
1000
0000
1001
0000
0000
0000
,
0100
0000
0110
0000
0000
0000
0010
0000
1000
0000
0001
0100
0001
0000
0000
0000
,
1001
0000
0000
0000
1000
0100
1000
0100
0010
0100
0010
0100
1000
0000
0001
0000
,
1000
0100
0010
0100
1000
1010
0000
0101
,
0000
1100
0000
1000
0001
0010
0100
0010
,
0001
0100
0001
0010
0001
1001
0000
0110
,
0000
0000
1001
0000
0000
0000
1000
0000
0010
0100
0010
0000
1000
0000
0100
0000
,
0010
1000
0010
0001
1000
1100
0000
0101
,
0000
1100
0000
1000
0100
0010
0001
0100
,
0010
0001
0010
1000
0001
1001
0000
0110
,
0000
0000
1001
0000
1000
0000
0001
1000
0001
0100
0001
0100
0001
0000
0010
0000
,
0100
0000
1000
0000
0001
0000
0010
0000
0100
0000
1000
0100
1000
0000
0001
0000
,
0100
0000
0010
1000
0100
0010
0001
1000
,
0010
0000
0100
0000
0001
0000
1000
0000
0100
0000
0010
0000
0001
0100
0001
0100
,
0001
0100
0001
0100
0010
0000
1000
0000
0001
0000
0000
0000
1000
0000
0100
0000
,
0010
0000
0100
0000
1000
0000
0010
0000
0100
0000
0001
0010
0001
0000
1000
0000
,
0001
0000
0000
0000
0000
0000
0010
0000
0000
0000
0000
0000
0200
0000
0000
0000
0000
0000
0000
0000
0000
0000
0000
0000
1300
0000
0000
0000
0000
0000
0001
0000
0000
1000
0000
0000
0001
0000
0000
0000
0100
0000
0000
0000
0001
0000
0000
0000
,
0010
0000
0000
0000
0100
0000
0000
0000
0010
0000
0000
0000
0100
0000
0000
0000
1000
0000
0000
0000
0010
0000
0000
0000
1000
0000
0000
0000
0001
0000
0000
0000
1000
0000
0000
0000
0001
0000
0000
0100
0000
0000
0001
0000
0000
0000
0000
0000
,
1000
0010
1000
0000
0001
1000
0001
1000
0001
0000
1000
0000
2001
0000
0000
0000
,
3002
0000
1003
0010
0100
0000
0010
1000
,
0100
0000
0000
0000
0000
0000
0010
0000
0001
0000
1000
0000
0001
0000
0100
0000
0010
0000
1000
0000
0000
0100
0000
0000
,
0010
0000
1000
0010
0100
0000
1000
0001
,
0100
0000
0000
0000
0000
0000
0001
0000
0010
0000
0100
0000
0010
0000
0001
0000
1000
0000
0001
0000
0000
0010
0000
0000
,
0100
1000
0010
0100
0001
1000
0100
0010
,
0100
0000
0000
0000
0000
0000
1000
0000
0000
0000
0000
0000
0010
0000
0000
0000
1000
0000
0000
0000
0010
0000
0000
0000
0100
0000
0000
0000
0001
0000
0000
0000
0100
0000
0000
0000
0001
0000
0000
0010
0000
0000
0001
0000
0000
0000
0000
0000
,
1000
0010
1000
0000
0001
0100
0001
0100
0010
1000
0010
1000
0002
0000
0000
0000
,
0000
0000
0000
0000
,
0000
0000
0003
0000
0000
0000
1000
0100
,
0001
0200
0000
1300
0010
0100
0001
1000
,
0100
0000
0020
0000
0000
0000
0031
0000
0100
0010
0100
0000
0001
0000
0010
0000
,
0001
1000
0001
0100
0010
1010
0000
0101
,
0000
0000
1100
0000
1000
0000
0010
0100
0010
0000
1000
0000
0001
0000
0010
0000
,
0100
0000
0002
0000
0000
0000
0103
0000
0010
0001
1000
0000
0001
0000
0100
0000
,
1000
0000
0200
0000
0000
0000
0301
0010
0100
0000
1000
0000
0020
0000
0000
2030
,
0000
0000
3001
1000
0100
0000
0000
0000
0110
0000
0000
0000
1001
0000
0000
0000
,
0001
0100
0001
0000
1000
0000
1000
0000
0001
0000
0001
0000
1000
0000
0001
0010
,
0001
0000
0010
0000
0100
0000
1000
0000
0010
0000
0100
0000
0001
0000
1000
0100
,
1000
0000
0010
0000
0100
0000
0001
1000
0001
1000
0001
0000
1001
0000
0000
0000
,
0110
0000
1001
0001
0100
0110
0000
1010
,
0000
0000
1100
0000
1000
0000
0001
0100
0001
0100
0001
0000
1000
0000
0001
0010
,
0001
0000
0100
0000
0001
0000
0010
0000
0100
0010
0100
0000
1000
0000
0010
0100
,
0010
0000
1000
0000
0100
0000
0010
0001
0010
0001
0010
0001
0010
0000
0001
1000
,
0001
0000
0100
0000
0001
0010
0001
0000
1000
0010
1000
0000
1100
0000
0000
0000
,
0011
0000
0000
0000
2002
0000
0000
0000
3003
0000
0000
0000
0001
0100
0001
0000
,
0010
0000
0001
0100
0001
0000
0010
0000
0100
1000
0100
0000
1000
0000
0000
1000
,
0010
0000
0000
0010
0100
0000
0001
0000
1000
0000
0100
0000
0010
0001
0010
0000
,
0100
0000
0010
0001
0010
0000
0001
0000
1000
0010
1000
0000
0001
0000
0000
0001
,
0100
0000
0000
0100
0010
1000
0010
1000
0100
0000
0010
0000
0001
0100
0001
0100
,
0001
0000
1000
0100
1000
0100
1000
0000
0001
0100
0001
0100
0001
0000
0000
0001
,
1000
0000
0000
1000
0100
0000
0010
0000
0001
0000
1000
0000
0001
0100
0001
0100
,
0010
0000
1000
0100
1000
0100
0010
0000
0001
1000
0010
1000
0001
0000
0000
0001
,
1000
0000
0000
1000
0100
0010
0100
0010
0001
1000
0001
1000
0000
0000
0000
0000
,
2002
0000
0000
0000
,
0000
0000
0000
0000
,
0000
0000
0000
0000
,
3003
0000
0000
0000
;

//--------------- dance-single - Fred-104† ----------------
#NOTES:
     dance-single:
     Fred-104†:
     Challenge:
     18:
     :
0000
0000
0000
0000
,
0000
0000
0000
0000
,
0000
0000
0000
0000
,
0000
0000
0000
1000
,
0001
0100
0010
1000
0010
0000
0100
0000
,
0001
0000
0000
0000
1000
0000
0000
0000
0010
0000
0000
0000
0001
0000
0100
1000
,
0002
0000
0000
0000
0003
0000
1100
0100
,
0010
0000
0101
0100
0010
0000
1100
0100
,
0010
0000
0000
0000
0000
0000
0001
0000
0010
0000
0100
0000
1000
0000
0010
0000
0100
0000
0101
0000
0000
0001
0000
0000
,
0010
0000
1100
1000
0010
0000
0101
0001
,
0010
0000
0000
0000
0000
0000
0100
0000
1000
0000
0001
0000
0100
0000
0010
0000
1000
0000
1010
0000
0000
0100
0000
0000
,
0001
0000
0011
0100
1000
0000
1010
0100
,
0001
0000
0000
0000
0000
0000
1000
0000
0100
0000
0010
0000
0001
0000
0010
0000
0100
0000
1100
0000
0000
1000
0000
0000
,
0010
0000
0000
0100
0000
0000
0001
0000
0000
0010
0000
0000
0001
0000
0000
1000
0000
0000
0001
0000
0100
0000
1000
0000
,
0001
0010
1000
0001
0010
1000
0001
0100
1000
0002
0000
0000
,
0000
0000
0000
0000
,
0000
0000
0003
1000
,
0000
0001
0000
2001
,
0000
3020
0000
0000
0230
0000
0301
0000
,
0010
1000
0100
0002
,
0000
0023
0000
0000
0230
0000
1300
0000
,
0010
0000
0000
0000
0000
0000
0000
0000
0000
0000
0000
0000
0000
0000
0000
0000
0000
0000
0000
0000
0000
0000
0000
0000
0000
0000
0000
0000
0000
0000
0000
0000
0000
0000
0000
0000
0000
0000
0000
0000
0000
0000
0000
0000
0000
0000
0000
0000
1000
0000
0000
0000
0000
0000
0000
0000
0000
0000
0000
0000
0000
0000
0000
0000
0000
0000
0000
0000
0000
0000
0000
0000
0001
0000
0000
0000
0000
0000
0000
0000
0100
0000
0000
0000
0000
0000
0000
0000
0010
0000
0000
0000
0000
0000
0000
0000
1000
0000
0000
0000
0000
0000
0000
0000
0000
0000
0000
0000
0000
0000
0000
0000
0000
0000
0000
0000
0000
0000
0000
0000
0010
0000
0000
0000
0000
0000
0000
0000
0000
0000
0000
0000
0000
0000
0000
0000
0000
0000
0000
0000
0000
0000
0000
0000
1000
0000
0000
0000
0000
0000
0000
0000
0000
0000
0000
0000
0000
0000
0000
0000
0000
0000
0000
0000
0000
0000
0000
0000
0200
0000
0000
0300
0000
0000
0000
0000
0000
0000
0000
0000
0000
0000
0000
0000
0000
0000
0000
0000
0000
0000
0000
0000
,
0200
0300
0000
0000
0000
0000
0000
0000
0010
0000
0000
0000
0000
0000
0000
0000
0200
0300
0000
0000
0000
0000
0000
0000
0200
0300
0000
0000
0000
0000
0000
0000
1000
0000
0000
0000
0000
0000
0000
0000
0001
0000
0000
0000
0000
0000
0000
0000
1000
0000
0000
0000
0000
0000
0000
0000
0000
0000
0000
0000
0000
0000
0000
0000
,
0010
0000
0000
0000
0000
0000
0000
0000
0000
0000
0000
0000
0000
0000
0000
0000
0001
0000
0000
0000
0000
0000
0000
0000
0100
0000
0000
0000
0000
0000
0000
0000
1000
0000
0000
0000
0000
0000
0000
0000
0001
0000
0000
0000
0000
0000
0000
0000
1000
0000
0000
0000
0000
0000
0000
0000
0200
0300
0000
0000
0000
0000
0000
0000
,
0200
0300
0000
0000
0000
0000
0000
0000
0001
0000
0000
0000
0000
0000
0000
0000
0020
0030
0000
0000
0000
0000
0000
0000
0020
0030
0000
0000
0000
0000
0000
0000
1000
0000
0000
0000
0000
0000
0000
0000
0001
0000
0000
0000
0000
0000
0000
0000
2000
0000
0000
0000
0000
0000
0000
0000
0000
0000
0000
0000
0000
0000
0000
0000
,
3002
0000
0000
0000
1003
0100
0010
0001
0010
0100
1000
0000
0001
0100
0001
0100
,
0010
0000
1000
0100
1000
0100
0010
0000
0001
1000
0010
1000
0001
0000
1000
0010
,
0100
0000
0010
1000
0100
0000
0010
0000
0001
0000
1000
0000
0001
0010
0001
0010
,
0100
0000
1000
0010
1000
0010
0100
0000
0001
1000
0100
1000
0001
0000
1000
0001
,
0100
0000
0001
1000
0010
0100
0001
0100
0001
0010
0001
1000
0001
0010
0100
1000
,
0100
0000
1000
0010
0100
0001
0010
0000
0001
1000
0010
1000
0100
0000
1000
0010
,
0100
0000
0010
1000
0001
0000
0010
0000
0100
0000
1000
0000
1100
0000
0000
0000
,
0010
0000
0101
0000
0000
0000
0010
0000
1100
0000
1000
0001
1000
0000
0100
0000
,
0010
0000
0001
0000
1000
0001
0100
0001
0010
0100
1000
0100
0010
0000
0001
0100
,
0001
0000
0010
0000
0100
0000
1000
0010
1000
0000
2100
0000
3000
0000
0102
0000
,
0003
0000
2100
0000
3000
0000
0001
0100
0010
0000
1000
0000
0001
0000
0010
0100
,
0010
0000
0001
0000
1000
0000
0010
0100
0010
0000
0210
0000
0300
0000
1002
0000
,
0003
0000
2010
0000
3000
0000
0010
1000
0010
0100
0001
1000
0001
0000
0010
0100
,
1000
0000
0001
0000
0100
0000
0010
1000
0001
0000
0012
0000
0003
0000
2010
0000
,
3000
0000
0012
0000
0003
0000
1000
0010
0100
0000
0001
0000
1000
0000
0100
0001
,
0100
0000
0010
0000
0001
0000
0100
0010
1000
0000
0001
0000
1000
0000
0210
0000
,
0301
0000
0120
0000
1030
0000
0001
0010
0100
0010
0001
1000
0001
0000
0010
0000
,
1000
0000
0010
0000
0001
0000
0010
0000
0100
0000
1000
0001
1000
0000
0010
0000
,
1000
0010
0001
0010
0100
1000
0100
0001
,
1000
0000
0010
0000
1000
0000
0100
0000
0001
0000
0100
0000
1000
0100
0010
0001
,
1000
0100
0010
0001
0010
0000
0001
0000
1000
0000
0001
0000
0100
0000
0001
0000
,
0010
0000
1000
0000
0010
0000
0001
0000
0100
0000
0010
1000
0010
0000
0100
0000
,
0001
0000
0000
0000
0000
0000
1000
0000
0000
0000
0000
0000
1100
0000
0000
0000
0000
0000
0000
0000
0000
0000
0000
0000
0011
0000
0000
0000
0000
0000
0001
0000
0000
1000
0000
0000
0001
0000
0000
0000
0010
0000
0000
0000
0100
0000
0000
0000
,
0001
0000
0000
0000
0100
0000
0000
0000
0010
0000
0000
0000
0001
0000
0000
0000
0100
0000
0000
0000
0010
0000
0000
0000
0001
0000
0000
0000
0010
0000
0000
0000
0100
0000
0000
0000
0001
0000
0000
1000
0000
0000
0001
0000
0000
1000
0000
0000
,
0100
0010
0100
0010
0001
1000
0100
0010
0001
1000
0100
0010
0002
0000
0000
0000
,
0203
0000
1300
0100
0001
0000
1000
0100
,
0010
0000
0000
0000
0000
0000
0001
0000
1000
0000
0100
0000
1000
0000
0010
0000
0100
0000
0101
0000
0000
0001
0000
0000
,
0010
0000
1100
1000
0010
0000
0110
0100
,
0001
0000
0000
0000
0000
0000
1000
0000
0001
0000
1000
0000
0100
0000
0010
0000
0100
0000
1100
0000
0000
1000
0000
0000
,
0001
0100
0001
0010
0001
1000
0001
0010
,
0100
0000
0000
0000
0000
0000
1000
0000
0000
0000
0000
0000
0001
0000
0000
0000
0100
0000
0000
0000
1000
0000
0000
0000
0001
0000
0000
0000
0010
0000
0000
0000
1000
0000
0000
0000
0001
0000
0000
0010
0000
0000
0100
0000
0000
1000
0000
0000
,
0010
0100
0001
0100
0010
1000
0100
0010
0001
1000
0010
0100
0002
0000
0000
0000
,
0000
0000
0000
0000
,
0000
0000
0000
0000
0003
0000
0000
0000
0000
0000
0000
0000
1000
0000
0100
0001
,
0100
0000
2000
0000
3001
0000
0020
0000
0130
0000
0020
0000
0031
0000
0010
1000
,
0010
0000
0002
0000
1003
0000
0001
0010
0100
1000
0010
0100
0001
0000
0100
0001
,
1000
0000
0010
0100
0001
0000
0120
0000
1030
0000
0210
0000
0301
0000
0120
0000
,
1030
0000
0210
0000
0301
0010
0100
1000
0010
0100
0001
1000
0001
0000
0010
0100
,
0001
0000
0200
0000
0310
0000
0001
1000
0001
0100
0010
1000
0001
0000
0100
0010
,
0001
0000
0020
0000
0130
0000
0001
1000
0001
0010
0100
1000
0002
0000
0000
0203
,
0000
0000
0320
2030
0002
0000
3003
0000
1001
0000
0000
0000
0110
0000
0000
0000
,
1000
0100
0010
0001
0100
0010
0001
0010
0100
0001
0010
0100
1000
0000
0001
0100
,
1000
0000
0200
0000
0310
0000
1000
0100
0010
0000
0002
0000
0103
0000
0010
0001
,
0010
0000
2000
0000
3001
0000
1000
0001
0100
0010
1000
0100
0010
0000
0001
1000
,
0010
0000
1000
0001
1000
0000
2010
0000
3001
0000
0012
0000
1003
0000
2100
0000
,
3001
0000
0102
0000
1003
0000
0001
0010
0100
1000
0010
0100
0001
0000
1000
0100
,
0010
0000
0002
0000
1003
0000
0001
0100
0010
0100
0001
0100
0001
0000
1000
0001
,
0100
0000
0000
0000
0000
0000
0020
0000
0000
0000
0000
0000
1030
0000
0000
0000
0000
0000
0001
0000
0000
0010
0000
0000
0100
0000
0000
1000
0000
0000
0010
0000
0000
0100
0000
0000
0001
0000
0000
0000
0000
0000
1000
0000
0100
0000
1000
0000
,
0100
0000
0000
0020
0000
0000
0031
0100
0010
1000
0000
0000
0001
0010
0100
1000
0000
0000
1100
0000
0000
0000
0000
0000
,
0101
0000
0000
0000
2002
0000
0000
0000
3003
0000
0000
0000
1000
0001
0100
0001
,
1000
0000
0001
1000
0010
0100
0001
0000
1000
0100
0010
0001
0100
0000
0001
0010
,
1000
0000
0010
0001
0100
0000
0010
1000
0001
0000
1000
0000
0001
0010
0100
1000
,
0001
0000
1000
0010
0100
0001
0010
0000
0001
0100
0010
1000
0001
0000
1000
0100
,
0010
0000
0001
1000
0010
1000
0100
1000
0001
0100
0010
1000
0001
0100
1000
0100
,
0001
0000
1000
0100
0001
0100
1000
0000
0001
0100
1000
0100
0001
0000
0100
0001
,
0010
0000
1000
0010
0001
0000
0100
0010
1000
0000
0001
0000
1000
0010
0001
0010
,
1000
0000
0001
0010
1000
0010
0001
0000
1000
0010
0001
0010
1000
0000
0001
1000
,
0010
0000
0100
0001
0010
0100
1000
0010
0100
0001
0010
0100
0000
0000
0000
0000
,
2002
0000
0000
0000
,
0000
0000
0000
0000
,
0000
0000
0000
0000
,
3003
0000
0000
0000
;

//--------------- dance-double - Fred-104 ----------------
#NOTES:
     dance-double:
     Fred-104:
     Easy:
     8:
     :
00000000
00000000
00000000
00000000
,
00000000
00000000
00000000
00000000
,
00000000
00000000
00000000
00000000
,
00000000
00000000
00000000
00001000
,
00000000
00010000
00001000
00100000
,
00010000
20000000
00000000
00000000
,
00020000
00000000
30030000
10000000
,
00100000
01000000
00000000
00010000
,
00100000
01000000
00000000
00100000
,
00001000
00010000
00000000
00000100
,
00010000
00000100
00000000
00000100
,
00001000
00000100
00000000
00000010
,
00000001
00000010
00000000
00000100
,
00001000
00000100
00000000
00001000
,
00001000
00000001
00000001
00002002
,
00000000
00000000
00000000
00000000
,
00000000
00000000
00000000
00003003
,
00000000
00000000
00000000
00011000
,
00000000
00000000
00000000
00001000
,
00000000
00010000
00000000
01000000
,
00000000
00000000
00000000
10000000
,
00000000
00000000
01000000
01000000
01000000
00000000
10010000
00000000
,
00000000
10000000
00000000
00000000
01000000
00000000
00010000
00000000
,
00001000
00000100
00000000
00001000
,
00000000
00010000
00000000
00000000
00100000
00000000
00010000
00000000
,
00001000
00000000
00010000
00001000
00010000
00000000
00001000
00000000
,
00000000
00010000
00000000
00000000
00000100
00000000
00001000
00000000
,
00000001
00001000
00000100
00000010
,
00000000
00000100
00000000
00000000
00010000
00000000
00001000
00000000
,
00100000
00000000
00010000
00100000
00010000
00000000
10000000
00000000
,
00000000
00100000
00000000
00000000
01000000
00000000
00010000
00000000
,
10000000
01000000
00100000
00110000
,
00000000
10010000
00000000
00000000
01010000
00000000
00010000
00000000
,
10000000
00000000
01000000
00100000
01000000
00000000
00100000
00000000
,
00010000
00200000
00300000
00001000
,
00010000
00000000
00000100
00010000
00000100
00000000
00001000
00000000
,
00000001
00002000
00003000
00000010
,
00000100
00000000
00000001
00000100
00000001
00000000
00001000
00000000
,
00000010
00020000
00030000
00001000
,
00100000
00000000
00010000
01000000
00010000
00000000
00100000
00000000
,
01000000
20000000
30000000
00010000
,
01000000
00000000
00010000
10000000
00010000
00000000
10010000
00000000
,
10000000
01000000
00010000
00001000
,
00100000
00000000
00001000
00010000
00001000
00000000
00010000
00000000
,
00001000
00000100
00001000
00020000
,
00000000
00032000
00000000
00003010
,
00001000
00000000
00010000
00000000
00001000
00010000
00001000
00000000
,
00010000
00001000
00000100
00002000
,
00023000
00230000
00320000
00032000
,
00000000
00020000
00033000
00001000
,
00010000
00000100
00000000
00001000
,
00000001
00000000
00000100
00000010
00000100
00000000
00000001
00000000
,
00000100
00001000
00000000
00010000
,
00100000
00000000
10000000
00010000
10000000
00000000
00010000
00000000
,
10000000
01000000
00000000
00010000
,
00001000
00000000
00000010
00000001
00000010
00000000
00000001
00000000
,
00001000
00000010
00000100
00000202
,
00000000
00000000
00000000
00000000
,
00000000
00000303
00000000
00000001
,
00000100
00000000
00000010
00000100
00000010
00000000
00001000
00000000
,
00000100
00020000
00030000
00001000
,
00010000
00200000
00300000
00010000
,
00001000
00000020
00000030
00001000
,
00010000
00000000
00001000
01000000
00001000
00000000
00100000
00000000
,
00010000
20000000
30000000
01000000
,
00100000
00001000
00010000
00011000
,
00000000
01100000
00000000
00010000
,
10000000
00000000
00010000
01000000
00010000
00000000
01000000
00000000
,
00001000
00020000
00030000
00001000
,
00010000
02000000
03000000
00010000
,
00001000
00000200
00000300
00001000
,
00010000
00000000
00001000
00010000
00001000
00000000
00010000
00000000
,
00001000
00000010
00000001
00000010
,
00000100
00010000
00001000
01000000
,
00100000
20020000
30030000
10000000
,
00000000
01000000
00000000
00000000
00010000
00000000
01000000
00000000
,
10000000
00010000
00000000
00100000
,
00000000
00001000
00000000
00000000
00010000
00000000
00000010
00000000
,
00001000
00000000
00000100
00001000
00000100
00000000
00001000
00000000
,
00000000
00000010
00000000
00000000
00000001
00000000
00000010
00000000
,
00001000
00000001
00000000
00000100
,
00000000
00000010
00000000
00000000
00010000
00000000
00001000
00000000
,
00010000
00000000
00001000
00000000
00010000
00010000
00000000
00000000
,
00022000
00000000
00000000
00000000
,
00000000
00000000
00000000
00000000
,
00000000
00000000
00000000
00000000
,
00033000
00000000
00000000
00000000
;

//--------------- dance-double - Fred-104 ----------------
#NOTES:
     dance-double:
     Fred-104:
     Medium:
     13:
     :
00000000
00000000
00000000
00000000
,
00000000
00000000
00000000
00000000
,
00000000
00000000
00000000
00000000
,
00000000
00000000
00000000
10000000
,
00010000
01000000
00100000
00000000
10000000
00000000
01000000
00000000
,
00010000
00000000
00001000
00000000
00000010
00000000
00000100
00001000
,
00000002
00000000
00000000
00000000
00000003
00000000
00001000
00000010
,
00001000
00000000
00000001
00000100
00000001
00000000
00000100
00001000
,
00000100
00000000
00002000
00000000
00023000
00000000
01030000
00010000
,
01000000
00000000
10000000
00100000
10000000
00000000
00010000
10000000
,
00010000
00000000
20000000
00000000
32000000
00000000
03100000
00001000
,
00100000
00000000
00001000
00010000
00001000
00000000
00010000
00000100
,
00010000
00000000
00000200
00000000
00002300
00000000
00003001
00000100
,
00000010
00000000
00000000
00000000
00000000
00000000
00001000
00000000
00000000
00000100
00000000
00000000
00000010
00000000
00000000
00000000
00000000
00000000
00000001
00000000
00000100
00000000
00000001
00000000
,
00000100
00000000
00000000
00001000
00010000
00001000
00010000
00000000
00000000
00022000
00000000
00000000
,
00000000
00000000
00000000
00000000
,
00000000
00000000
00000000
00033000
,
00000000
00000000
00000000
10010000
,
00000000
00010000
00000000
00000000
01000000
00000000
00100000
00000000
,
10000000
01000000
00010000
00001000
,
00000000
00000010
00000000
00000000
00000001
00000000
00001000
00000000
,
00000001
00000000
00000000
00000000
00000100
00000000
00000001
00000010
00000001
00000000
00001000
00000000
00001100
00000000
00000000
00000000
,
00000000
00000001
00000000
00000000
00000100
00000000
00000001
00000000
,
00000010
00001000
00010000
00001000
,
00000000
00010000
00000000
00000000
01000000
00000000
10000000
00000000
,
00010000
00000000
00000000
00000000
10000000
00010000
10000000
00010000
10000000
00000000
00000000
00000000
00010000
00000000
01000000
00000000
,
10000000
01000000
00010000
00100000
00001000
00000000
00010000
00000000
,
00001000
00000000
00000010
00000100
00001000
00000000
00000001
00000100
,
00001000
00010000
00001000
00000100
00000001
00000000
00001000
00000000
,
00000010
00000000
00000000
00000000
00000100
00000000
00000001
00001000
00000001
00000000
00000000
00000000
00000001
00000000
00000010
00000000
,
00000100
00001000
00000100
00000010
00000100
00000000
00010000
00000000
,
00001000
00000000
00100000
00001000
00010000
00001000
00011000
00000000
,
00000000
00010100
00000000
00000000
00011000
00000000
00001000
01000000
,
00001000
00000000
00010000
00000010
00001000
00000000
00000001
00000010
,
00000100
00000010
00000001
00000010
00000100
00000010
00000000
00000001
,
00000000
00000100
00000000
00001000
00010000
00000000
00001000
00010000
,
00100000
00010000
00001000
00010000
01000000
00010000
00000000
00001000
,
00000000
00010000
00100000
00010000
00001000
00000000
00010000
00001000
,
00000010
00001000
00010000
00001000
00000100
00001000
00000000
00010000
,
00000000
01000000
00010000
00001000
00010000
00000000
00001000
00000010
,
00001000
00010000
00100000
00010000
00001000
00010000
00000000
00100000
,
10000000
00100000
00010000
00100000
01000000
00000000
10010000
00000000
,
00010000
01000000
00100000
10000000
,
01000000
00000000
00100000
00001000
00010000
00000000
00100000
00000000
,
10000000
00000000
01000000
00000000
00100000
00000000
00001000
00010000
,
00001000
00010000
00001000
00000000
00010000
00000000
00000100
00000000
,
00001000
00000000
00000001
00000000
00001000
00000100
00000010
00000000
,
00000001
00000000
00000000
00000000
00000000
00000000
00001000
00000000
00000000
00000000
00000000
00000000
00000001
00000000
00000000
00000100
00000000
00000000
00000001
00000000
00000010
00000000
00000100
00000000
,
00001000
00000000
00000000
00000000
00000000
00000000
00000000
00000000
00000000
00000000
00000000
00000000
00000001
00000000
00000000
00000000
00000100
00000000
00000000
00000000
00000010
00000000
00000000
00000000
00001000
00000000
00000000
00000000
00000000
00000000
00000000
00000000
00000000
00000000
00000000
00000000
00000100
00000000
00000000
00010000
00000000
00000000
00000100
00000000
00000000
00000000
00000000
00000000
,
00010000
00001000
00010000
00000000
00011000
00000000
00000000
00000000
00000000
00000000
00000000
00000000
00002000
00000000
00000000
00000000
,
00023000
00000000
00130000
01000000
00100000
00000000
10000000
01000000
,
10000000
00020000
02030000
03010000
,
00100000
00000000
00001000
00010000
00001000
00000000
00000100
00000010
,
00000100
00000000
00000002
00000000
00002003
00000000
00003001
00000010
,
00001000
00000000
00010000
00100000
10000000
00000000
10000000
01000000
,
00010000
00000000
00001000
00000100
00000001
00000000
00001000
00000100
,
00000010
00000001
00000100
00000010
00000100
00001000
00020000
00000000
,
00000000
00000000
00000000
00000000
,
00000000
00000000
00030000
00000000
00000000
00000000
00010000
00001000
,
00010000
00000020
00000000
00001030
00000010
00000100
00000001
00000010
,
00000100
00000020
00000000
00000031
00000100
00001000
00010000
00000000
,
00100000
00000000
01000000
00010000
10000000
01000000
00000000
00010000
,
00000000
00001000
00010000
01000000
00010000
00000000
00001000
00010000
,
00100000
02000000
00000000
03010000
10000000
01000000
00100000
00001000
,
00010000
00000000
00200000
00000000
00000000
00000000
10300000
00000000
00010000
00000000
00100000
00000000
01000000
00000000
00000000
10000000
,
00000000
00000000
00010000
01000000
00020000
00000000
00000000
00000000
00130000
00000000
00000000
00000000
00011000
00000000
00000000
00000000
,
00010100
00000000
00010000
00001000
00000100
00000001
00001000
00000100
,
00000001
00000200
00000000
00001300
00000001
00000100
00000010
00001000
,
00010000
02000000
00000000
03100000
10000000
00010000
00100000
00000000
,
10010000
00000000
10000000
00100000
00010000
00001000
00000000
00000100
,
00000000
00000001
00001000
00000001
00000100
00000000
00000001
00000010
,
00000100
00020000
00000000
00031000
00100000
00010000
01000000
00100000
,
10000000
00020000
00000000
01030000
00100000
01000000
00001000
00010000
,
00000010
00001000
00000100
00000100
00000010
00000010
00000011
00000000
,
00001100
00000000
00002002
00000000
00003003
00000000
00000001
00000100
,
00001000
00000100
00000010
00000100
00000001
00001000
00000001
00000000
,
00000010
00000000
00000100
00010000
00001000
00000000
00100000
00010000
,
00001000
00000100
00001000
00010000
00001000
00000100
00001000
00000000
,
00000001
00000000
00000000
00000000
00000100
00000010
00000100
00000010
00000100
00000000
00000000
00000000
00000001
00000000
00000100
00000000
,
00001000
00010000
00100000
10000000
00010000
00100000
01000000
00000000
,
10000000
00000000
00010000
00100000
01000000
00100000
00001000
00010000
,
00100000
01000000
00001000
00010000
00100000
10000000
01000000
00100000
,
00010000
00000000
10000000
00000000
00010000
10000000
00010000
10000000
00010000
10000000
00010000
10000000
00000000
00000000
00000000
00000000
,
20020000
00000000
00000000
00000000
,
00000000
00000000
00000000
00000000
,
00000000
00000000
00000000
00000000
,
30030000
00000000
00000000
00000000
;

//--------------- dance-double - Fred-104 ----------------
#NOTES:
     dance-double:
     Fred-104:
     Hard:
     16:
     :
00000000
00000000
00000000
00000000
,
00000000
00000000
00000000
00000000
,
00000000
00000000
00000000
00000000
,
00000000
00000000
00000000
00010000
,
00001000
00000100
00000001
00000010
00000100
00000000
00001000
00000000
,
00000100
00000000
00000000
00000000
00000010
00000000
00000000
00000000
00001000
00000000
00000000
00000000
00010000
00000000
00100000
10000000
,
00020000
00000000
00000000
00000000
00030000
00000000
10000000
01000000
,
00010000
00000000
10000000
00100000
00010000
00000000
10000000
01000000
,
00100000
00000000
00000000
00000000
00000000
00000000
00001000
00000000
00010000
00000000
00000100
00000000
00001000
00000000
00000001
00000000
00001000
00000000
00000100
00000000
00000000
00000010
00000000
00000000
,
00000001
00000000
00000100
00000010
00001000
00000000
00000001
00000010
,
00000100
00000000
00000000
00000000
00000000
00000000
00001000
00000000
00000100
00000000
00010000
00000000
00001000
00000000
01000000
00000000
00001000
00000000
00010000
00000000
00000000
00001000
00000000
00000000
,
00000010
00000000
00001000
00010000
00100000
00000000
00010000
00001000
,
00010000
00000000
00000000
00000000
00000000
00000000
00001000
00000000
00100000
00000000
00010000
00000000
10000000
00000000
00010000
00000000
01000000
00000000
00100000
00000000
00000000
10000000
00000000
00000000
,
01000000
00000000
00000000
00100000
00000000
00000000
00010000
00000000
00000000
10000000
00000000
00000000
00010000
00000000
00000000
01000000
00000000
00000000
00100000
00000000
01000000
00000000
00010000
00000000
,
00100000
00001000
00010000
00001000
00100000
00010000
10000000
00100000
01000000
00200000
00000000
00000000
,
00000000
00000000
00000000
00000000
,
00000000
00000000
00000000
00300000
,
00000000
00000000
00000000
00001001
,
00000000
00001000
00000000
00000000
00000010
00000000
00000100
00000000
,
00000001
00000000
00000010
00000100
00000010
00000000
00000100
00000000
,
00000000
00010000
00000000
00000000
00001000
00000000
00100000
00000000
,
00010000
00000000
00000000
00000000
00000000
00000000
10000000
00000000
00000000
00010000
10000000
00010000
10000000
00000000
00000000
00010000
00000000
00000000
10010000
00000000
00000000
00000000
00000000
00000000
,
10000000
01000000
00000000
00100000
01000000
00000000
10000000
00000000
,
00100000
00000000
00010000
00001000
00000100
00000000
00000001
00000000
,
00001000
00000001
00000000
00000010
00000100
00000000
00000010
00000000
,
00000001
00000000
00000000
00000000
00001000
00000001
00001000
00000001
00001000
00000000
00000000
00000000
00000001
00000010
00000001
00000000
,
00001000
00000000
00000010
00000100
00000010
00000000
00001000
00000000
00000100
00010000
00000100
00000000
00010000
00000000
00000000
00000000
,
01000000
00000000
00000000
00000000
10000000
00000000
00100000
00000000
01000000
00000000
00010000
00000000
10000000
01000000
10000000
00000000
,
00010000
00000000
00100000
01000000
00100000
00000000
00001000
00000000
00010000
00001000
00010000
00000000
00000100
00000000
00000000
00000000
,
00000010
00000000
00000000
00000000
00000010
00000001
00000010
00000001
00000100
00000000
00000010
00000000
00001000
00000100
00001000
00000000
,
00000100
00000000
00010000
00001000
00010000
00000000
00001000
00000000
01000000
00100000
01000000
00000000
00010000
00000000
00000000
00000000
,
00100000
00000000
00001000
00010000
00000010
00001000
00001100
00000000
,
00000000
00000101
00000000
00000000
00001100
00001000
00000001
00000010
,
00000100
00000000
00000000
00000000
00001000
00000001
00001000
00000001
00000100
00000010
00001000
00000000
00000001
00000000
00000010
00000000
,
00000100
00000010
00000001
00001000
00000010
00000110
00000000
00001001
,
00000000
00001010
00000000
00000010
00010000
00001000
00100000
00001000
,
00010000
00001000
01000000
00010000
00100000
00101000
00000000
00010010
,
00000000
00000000
01001000
00000000
00000000
00000000
00001000
00010000
00001000
00000000
00010000
00000000
00000100
00000000
00001000
00000000
,
00000001
00000010
00000100
00000010
00000001
00000101
00000000
00001100
,
00000000
00011000
00000000
00001000
00010000
00100000
10000000
00010000
,
00100000
01000000
00100000
00010000
10000000
11000000
00000000
10010000
,
00000000
00000000
00010000
00000000
01000000
00000000
00100000
10000000
00100000
10000000
00010000
00000000
10000000
00000000
01000000
00000000
,
00100000
00000000
00010000
00000000
10000000
00000000
00100000
00000000
01000000
00000000
00010000
00100000
00010000
00000000
00100000
00000000
,
00001000
00000000
00010000
00000010
00001000
00000100
00010000
00000010
,
00001000
00000000
00000010
00000000
00000100
00000000
00000010
00000000
00001000
00000000
00000100
00000000
00000010
00000001
00000010
00000001
,
00001000
00000100
00001000
00000100
00000010
00000000
00000001
00000000
00001000
00000000
00000000
00000000
00000001
00000000
00000100
00000000
,
00001000
00000000
00010000
00000000
00001000
00000000
00000100
00000000
00001000
00000000
00010000
00001000
00010000
00000000
00100000
00000000
,
00010000
00000000
00000000
00000000
00000000
00000000
00001000
00000000
00000000
00000000
00000000
00000000
00000010
00000000
00000000
00000000
00000000
00000000
00000000
00000000
00000000
00000000
00000000
00000000
00001000
00000000
00000000
00000000
00000000
00000000
00010000
00000000
00000000
00001000
00000000
00000000
00010000
00000000
00000000
00000000
00001000
00000000
00000000
00000000
00100000
00000000
00000000
00000000
,
00010000
00000000
00000000
00000000
10000000
00000000
00000000
00000000
00100000
00000000
00000000
00000000
01000000
00000000
00000000
00000000
00010000
00000000
00000000
00000000
10000000
00000000
00000000
00000000
01000000
00000000
00000000
00000000
00100000
00000000
00000000
00000000
01000000
00000000
00000000
00000000
00100000
00000000
00000000
00010000
00000000
00000000
00100000
00000000
00000000
00000000
00000000
00000000
,
00001000
00010000
00001000
00000000
00010000
00000010
00010000
00000010
00001000
00000000
00000001
00000000
00000201
00000000
00000000
00000000
,
00000320
00000000
00001030
00000001
00000010
00000000
00000001
00001000
,
00000010
00000000
00000000
00000000
00000000
00000000
00010000
00000000
00000100
00000000
00001000
00000000
00000010
00000000
00010000
00000000
00001000
00000000
00100000
00000000
00000000
00010000
00000000
00000000
,
10000000
00000000
01000000
00100000
01000000
00000000
10000000
00100000
,
01000000
00000000
00000000
00000000
00000000
00000000
00010000
00000000
01000000
00000000
00100000
00000000
10000000
00000000
00010000
00000000
00100000
00000000
00010000
00000000
00000000
00100000
00000000
00000000
,
01000000
10000000
00100000
01000000
00010000
00100000
00001000
00010000
,
00000010
00000000
00000000
00000000
00000000
00000000
00001000
00000000
00000000
00000000
00000000
00000000
00000100
00000000
00000000
00000000
00000010
00000000
00000000
00000000
00000001
00000000
00000000
00000000
00001000
00000000
00000000
00000000
00000010
00000000
00000000
00000000
00000100
00000000
00000000
00000000
00000010
00000000
00000000
00001000
00000000
00000000
00000010
00000000
00000000
00000000
00000000
00000000
,
00010000
00001000
00010000
00000000
00001000
00100000
00001000
00100000
00010000
10000000
00010000
10000000
02000000
00000000
00000000
00000000
,
00000000
00000000
00000000
00000000
,
00000000
00000000
03000000
00000000
00000000
00000000
00010000
01000000
,
00100000
02000000
00000000
03010000
00100000
00010000
10000000
01000000
,
00100000
00000000
00002000
00000000
00000000
00000000
00013000
00000000
00000100
00001000
00000100
00000000
00001100
00000000
00000000
00000000
,
00000110
00000000
00000010
00000001
00001000
00001010
00000000
00010010
,
00000000
00000000
00011000
00000000
00001000
00000000
00100000
00010000
00100000
00000000
00001000
00000000
00010000
00000000
00001000
00000000
,
01000000
00000000
00020000
00000000
00000000
00000000
10030000
00000000
01000000
00100000
01000000
00000000
00100000
00000000
00001000
00000000
,
00010000
00000000
00002000
00000000
00000000
00000000
00013000
00000010
00001000
00000000
00000010
00000000
00000200
00000000
00000000
00000302
,
00000000
00000000
00000013
00000001
00001000
00000000
00000000
00000000
00001010
00000000
00000000
00000000
00000101
00000000
00000000
00000000
,
00000001
00000010
00000100
00000000
00010000
00000000
00010000
00000000
00001000
00000000
00001000
00000000
00100000
00000000
00010000
01000000
,
00010000
00000000
00200000
00000000
00000000
00000000
01300000
00000000
10000000
00000000
00010000
00000000
10000000
00000000
01000000
00100000
,
01000000
00000000
00200000
00000000
00000000
00000000
00301000
00010000
00001000
00010000
00001000
00000000
00011000
00000000
00000000
00000000
,
00000110
00000000
00001000
00000010
00000100
00000101
00000000
00001100
,
00000000
00000000
00000101
00000000
00000001
00000000
00000010
00000100
00000010
00000100
00000010
00000000
00000001
00000000
00001000
00000010
,
00000100
00000000
00000010
00000000
00001000
00000000
00000100
00010000
00000100
00010000
00001000
00000000
01000000
00000000
00010000
00100000
,
00010000
00000000
01000000
00000000
00010000
00000000
10000000
00010000
01000000
00010000
10000000
00000000
00100000
00000000
10000000
01000000
,
00100000
00000000
00001000
00000000
00010000
00001000
00010000
00000000
00000010
00001000
00000010
00000000
00001010
00000000
00000000
00000000
,
00010010
00000000
00000000
00000000
00022000
00000000
00000000
00000000
00033000
00000000
00000000
00000000
00010000
00001000
00010000
00000000
,
00000010
00000000
00010000
00001000
00010000
00000000
00000100
00000000
00010000
00001000
00010000
00000000
00000100
00000000
00001000
00000000
,
00000001
00000000
00000000
00000000
00001000
00000000
00000100
00000000
00000010
00000000
00000001
00000000
00001000
00000100
00001000
00000000
,
00000010
00000000
00010000
00001000
00010000
00000000
00000100
00000000
00010000
00001000
00010000
00000000
00001000
00000000
00100000
00000000
,
00010000
00000000
00000000
00000000
01000000
00100000
01000000
00100000
10000000
00000000
01000000
00000000
10000000
00100000
10000000
00100000
,
10000000
00000000
00010000
00100000
00010000
00100000
00010000
00000000
01000000
00100000
01000000
00100000
01000000
00000000
00010000
00000000
,
00100000
00000000
00000000
00000000
00001000
00000000
00010000
00000000
00000010
00000000
00001000
00000000
00000100
00000010
00000100
00000010
,
00000100
00000000
00000010
00000001
00000010
00000001
00000010
00000000
00000001
00001000
00000001
00001000
00000001
00000000
00000100
00000000
,
00000010
00000000
00001000
00000000
00000001
00000010
00000100
00001000
00000010
00000100
00000001
00000010
00000000
00000000
00000000
00000000
,
00002002
00000000
00000000
00000000
,
00000000
00000000
00000000
00000000
,
00000000
00000000
00000000
00000000
,
00003003
00000000
00000000
00000000
;

//--------------- dance-double - Fred-104† ----------------
#NOTES:
     dance-double:
     Fred-104†:
     Challenge:
     18:
     :
00000000
00000000
00000000
00000000
,
00000000
00000000
00000000
00000000
,
00000000
00000000
00000000
00000000
,
00000000
00000000
00000000
00000001
,
00000010
00001000
00010000
01000000
10000000
00000000
00100000
00000000
,
00010000
00000000
00000000
00000000
00001000
00000000
00000000
00000000
00000100
00000000
00000000
00000000
00000001
00000000
00000010
00001000
,
00022000
00000000
00000000
00000000
00033000
00000000
00011000
00001000
,
00100000
00000000
00011000
00010000
00000010
00000000
00011000
00010000
,
00000100
00000000
00000000
00000000
00000000
00000000
00001000
00000000
00000100
00000000
00000001
00000000
00000100
00000000
00001000
00000000
00000010
00000000
00000110
00000000
00000000
00000100
00000000
00000000
,
00000001
00000000
00000110
00000010
00001000
00000000
00001001
00000001
,
00000100
00000000
00000000
00000000
00000000
00000000
00000001
00000000
00001000
00000000
00000010
00000000
00010000
00000000
00001000
00000000
00100000
00000000
00110000
00000000
00000000
00010000
00000000
00000000
,
10000000
00000000
10100000
10000000
00010000
00000000
01100000
00010000
,
10000000
00000000
00000000
00000000
00000000
00000000
01000000
00000000
10000000
00000000
00010000
00000000
01000000
00000000
00100000
00000000
10000000
00000000
11000000
00000000
00000000
01000000
00000000
00000000
,
00100000
00000000
00000000
00001000
00000000
00000000
00010000
00000000
00000000
00000100
00000000
00000000
00001000
00000000
00000000
00000001
00000000
00000000
00001000
00000000
00000100
00000000
00000010
00000000
,
00000001
00000100
00001000
00010000
00100000
10000000
01000000
00100000
00010000
00200000
00000000
00000000
,
00000000
00000000
00000000
00000000
,
00000000
00300000
00000000
00001000
,
00000000
00010000
00000000
00012000
,
00000000
02003000
00000000
00000000
03200000
00000000
10300000
00000000
,
01000000
00000000
00010000
01000000
10000000
00000000
00020000
00000000
,
00000000
20030000
00000000
00000000
30200000
00000000
01300000
00000000
,
00010000
00000000
00000000
00000000
00000000
00000000
00100000
00000000
00000000
00001000
00010000
00001000
00010000
00000000
00000000
00000100
00000000
00000000
00010000
00000000
00000000
00001000
00000000
00000000
,
00000010
00000001
00000100
00001000
00010000
00100000
10000000
00000000
,
00010000
00000000
00100000
01000000
00100000
00010000
10000000
00100000
,
00010000
00001000
00000100
00000001
00000010
00001000
00010000
00000000
,
01000000
00000000
00000000
00000000
10000000
00010000
10000000
01000000
00100000
00010000
00100000
00000000
00001000
00100000
00010000
01000000
,
00010000
00000000
00100000
00001000
00010000
00000100
00001000
00000000
00000010
00010000
00001000
00100000
00010000
00000000
01000000
00010000
,
00100000
00000000
00001000
00010000
00000010
00000000
00001000
00000100
00010000
00000000
00001000
00000000
00100000
00010000
01000000
00001000
,
00010000
00000000
00000010
00001000
00000100
00010000
00001000
00000000
00010000
00000100
00001000
00000010
00010000
00000000
00001000
00100000
,
00010000
00000000
01000000
00001000
00010000
00001000
00100000
00001000
00010000
00000100
00010000
00000000
00001000
00010000
00100000
00010000
,
00001000
00000000
00010000
00001000
00000010
00001000
00010000
00000000
00001000
00010000
00001000
00010000
00001000
00000000
00100000
00010000
,
10000000
00000000
00010000
10000000
01000000
00000000
00100000
00001000
00010000
00000000
00001000
00000000
00011000
00000000
00000000
00000000
,
00000000
00000000
00000110
00000000
00000000
00000000
00000000
00000000
00001001
00000000
00000001
00000000
00000100
00000000
00000001
00001000
,
00000010
00000000
00010000
00001000
00100000
00010000
10000000
00100000
01000000
00010000
10000000
01000000
00100000
00000000
00010000
10000000
,
00010000
00000000
01000000
00000000
00100000
00000000
10000000
01000000
00100000
00000000
00120000
00000000
00030000
00000000
00201000
00000000
,
00300000
00000000
00012000
00000000
00003000
00000000
00010000
00000100
00001000
00000000
00000010
00000000
00000100
00000000
00000001
00000010
,
00001000
00000000
00000010
00000000
00000001
00000000
00000100
00000010
00001000
00000000
00001200
00000000
00000300
00000000
00000120
00000000
,
00000030
00000000
00001200
00000000
00000300
00000000
00010000
00001000
00010000
00000010
00001000
00000010
00010000
00000000
00001000
00100000
,
00010000
00000000
01000000
00000000
00100000
00000000
01000000
00010000
00100000
00000000
00210000
00000000
00300000
00000000
10200000
00000000
,
00300000
00000000
00210000
00000000
00300000
00000000
00010000
10000000
00100000
00000000
01000000
00000000
00010000
00000000
01000000
10000000
,
01000000
00000000
00100000
00000000
10000000
00000000
01000000
00100000
00010000
00000000
01000000
00000000
00001000
00000000
00012000
00000000
,
00013000
00000000
00021000
00000000
00031000
00000000
00010000
00000010
00001000
00000100
00010000
00001000
00010000
00000000
00001000
00000000
,
00000010
00000000
00001000
00000000
00010000
00000000
00001000
00000000
00000010
00000000
00000001
00000010
00001000
00000000
00010000
00000000
,
00001000
00000100
00001000
00010000
01000000
10000000
00010000
10000000
,
01000000
00000000
00100000
00000000
00010000
00000000
01000000
00000000
00100000
00000000
00010000
00000000
00001000
00010000
00001000
00010000
,
00000010
00001000
00000010
00001000
00000100
00000000
00010000
00000000
00001000
00000000
00010000
00000000
00000100
00000000
00001000
00000000
,
00000001
00000000
00000100
00000000
00000010
00000000
00001000
00000000
00000100
00000000
00000010
00000001
00000100
00000000
00001000
00000000
,
00010000
00000000
00000000
00000000
00000000
00000000
00100000
00000000
00000000
00000000
00000000
00000000
10100000
00000000
00000000
00000000
00000000
00000000
00000000
00000000
00000000
00000000
00000000
00000000
10000000
00000000
00000000
00000000
00000000
00000000
01000000
00000000
00000000
00100000
00000000
00000000
00001000
00000000
00000000
00000000
00010000
00000000
00000000
00000000
00000100
00000000
00000000
00000000
,
00001000
00000000
00000000
00000000
00000001
00000000
00000000
00000000
00000010
00000000
00000000
00000000
00000100
00000000
00000000
00000000
00001000
00000000
00000000
00000000
00000100
00000000
00000000
00000000
00010000
00000000
00000000
00000000
00001000
00000000
00000000
00000000
00100000
00000000
00000000
00000000
00010000
00000000
00000000
00100000
00000000
00000000
01000000
00000000
00000000
10000000
00000000
00000000
,
00100000
01000000
00010000
00100000
00001000
00010000
00001000
00100000
00010000
00100000
01000000
10000000
00020000
00000000
00000000
00000000
,
00230000
00000000
10300000
00100000
00010000
00000000
10000000
00100000
,
00010000
00000000
00000000
00000000
00000000
00000000
00001000
00000000
00010000
00000000
00100000
00000000
01000000
00000000
00010000
00000000
10000000
00000000
10010000
00000000
00000000
10000000
00000000
00000000
,
01000000
00000000
00101000
00001000
00010000
00000000
00010100
00010000
,
00001000
00000000
00000000
00000000
00000000
00000000
00010000
00000000
00000100
00000000
00001000
00000000
00000001
00000000
00000100
00000000
00000010
00000000
00000110
00000000
00000000
00000100
00000000
00000000
,
00000001
00000010
00000100
00001000
00000100
00010000
00001000
00100000
,
00001000
00000000
00000000
00000000
00000000
00000000
00010000
00000000
00000000
00000000
00000000
00000000
00001000
00000000
00000000
00000000
00100000
00000000
00000000
00000000
00010000
00000000
00000000
00000000
10000000
00000000
00000000
00000000
00010000
00000000
00000000
00000000
01000000
00000000
00000000
00000000
00010000
00000000
00000000
00100000
00000000
00000000
01000000
00000000
00000000
10000000
00000000
00000000
,
00100000
01000000
00010000
00100000
00001000
00010000
00000010
00001000
00000010
00000100
00000001
00001000
00000200
00000000
00000000
00000000
,
00000000
00000000
00000000
00000000
,
00000000
00000000
00000000
00000000
00000300
00000000
00000000
00000000
00000000
00000000
00000000
00000000
00001000
00000000
00000010
00000001
,
00000010
00000000
00002000
00000000
00003001
00000000
00000200
00000000
00001300
00000000
00000200
00000000
00000301
00000000
00001000
00000001
,
00000010
00000000
00000200
00000000
00002300
00000000
00003100
00010000
00001000
01000000
00001000
00010000
00001000
00000000
00010000
00100000
,
01000000
00000000
00010000
10000000
01000000
00000000
01200000
00000000
00301000
00000000
00021000
00000000
00030010
00000000
00000210
00000000
,
00000301
00000000
00001002
00000000
00001003
00000000
00000001
00000010
00000100
00000010
00000001
00000100
00000001
00000000
00000010
00000100
,
00000010
00000000
00000002
00000000
00001003
00000000
00000010
00010000
00001000
00100000
00010000
10000000
00010000
00000000
01000000
00100000
,
01000000
00000000
00020000
00000000
10030000
00000000
01000000
00100000
00010000
00100000
00001000
00010000
00002000
00000000
00000000
00203000
,
00000000
00000000
00302000
00023000
00000020
00000000
00030030
00000000
00011000
00000000
00000000
00000000
01100000
00000000
00000000
00000000
,
00010000
00100000
01000000
10000000
00010000
01000000
00100000
00010000
00100000
10000000
00010000
10000000
00010000
00000000
01000000
00100000
,
01000000
00000000
00020000
00000000
10030000
00000000
01000000
00100000
00001000
00000000
00020000
00000000
00031000
00000000
00000100
00000010
,
00000100
00000000
00000002
00000000
00001003
00000000
00000100
00000010
00000001
00000010
00000100
00001000
00000001
00000000
00000100
00000010
,
00001000
00000000
00000001
00000010
00000100
00000000
00000120
00000000
00000031
00000000
00000102
00000000
00001003
00000000
00001200
00000000
,
00010300
00000000
00021000
00000000
00031000
00000000
01000000
00010000
00100000
00010000
10000000
01000000
00100000
00000000
00010000
00100000
,
01000000
00000000
20000000
00000000
30100000
00000000
01000000
00010000
00100000
00001000
00010000
00001000
00100000
00000000
00001000
00010000
,
00000010
00000000
00000000
00000000
00000000
00000000
00002000
00000000
00000000
00000000
00000000
00000000
00003100
00000000
00000000
00000000
00000000
00000000
00000010
00000000
00000000
00000001
00000000
00000000
00001000
00000000
00000000
00000010
00000000
00000000
00000100
00000000
00000000
00000001
00000000
00000000
00000010
00000000
00000000
00000000
00000000
00000000
00000100
00000000
00001000
00000000
00000100
00000000
,
00001000
00000000
00000000
00000200
00000000
00000000
00010300
00001000
00010000
00001000
00000000
00000000
01000000
00100000
01000000
00100000
00000000
00000000
10100000
00000000
00000000
00000000
00000000
00000000
,
01001000
00000000
00000000
00000000
00022000
00000000
00000000
00000000
00033000
00000000
00000000
00000000
00010000
00001000
00000100
00001000
,
00010000
00000000
00001000
00010000
01000000
00010000
00001000
00000000
00010000
00001000
00010000
00001000
00010000
00000000
00000010
00001000
,
00000100
00000000
00000010
00000001
00001000
00000000
00000010
00010000
00001000
00000000
00010000
00000000
00001000
00010000
00100000
00010000
,
00001000
00000000
00010000
00001000
00000010
00001000
00010000
00000000
00001000
00010000
00001000
00010000
00001000
00000000
00100000
00010000
,
10000000
00000000
00010000
00100000
01000000
10000000
00100000
01000000
00010000
10000000
00010000
00100000
00010000
00100000
01000000
00100000
,
00010000
00000000
00001000
00000010
00000100
00000010
00001000
00000000
00010000
01000000
00100000
10000000
00010000
00000000
10000000
01000000
,
00100000
00000000
00010000
00100000
00001000
00000000
00010000
00000100
00001000
00000000
00000010
00000000
00001000
00000100
00000010
00000100
,
00001000
00000000
00010000
01000000
00100000
01000000
00010000
00000000
00001000
00000100
00000010
00000001
00001000
00000000
00000001
00000010
,
00000100
00000000
00000010
00001000
00010000
01000000
00100000
00010000
10000000
00100000
00010000
00001000
00000000
00000000
00000000
00000000
,
00022000
00000000
00000000
00000000
,
00000000
00000000
00000000
00000000
,
00000000
00000000
00000000
00000000
,
00033000
00000000
00000000
00000000
;
