#VERSION:0.83;
#TITLE:雫;
#ARTIST:あさき;
#TITLETRANSLIT:Shizuku;
#ARTISTTRANSLIT:Asaki;
#GENRE:LAMENTO;
#BANNER:Shizuku.png;
#BACKGROUND:Shizuku-bg.png;
#CDTITLE:./CDTitles/pnm 12 Iroha.png;
#MUSIC:Shizuku.ogg;
#SAMPLESTART:72.457;
#SAMPLELENGTH:15;
#DISPLAYBPM:95:210;
#BPMS:0=141.011,4=140.99,20=139.05,24=134.078,26=129.94,30=125,31=110.092,32=104.895,33=94.937,34=95.541,35=97.087,36=210;
#BGSTAGE:30;

//--------------- dance-single - Fred-104 ----------------
#NOTEDATA:;
#STEPSTYPE:dance-single;
#DESCRIPTION:Fred-104;
#DIFFICULTY:Beginner;
#METER:4;
#CREDIT:Fred-104;
#NOTES:
0000
0000
0000
0000
,
0000
0000
0000
0000
,
0000
0000
0000
0000
,
0000
0000
0000
0000
,
0000
0000
0000
0000
,
1000
0000
0000
0000
,
0001
0000
0000
0000
,
1000
0000
0000
0000
,
2000
0000
0000
0000
,
0000
0000
3000
0000
,
0001
0000
0000
0000
,
1000
0000
0000
0000
,
0001
0000
0000
0000
,
0100
0000
0000
0000
,
0001
0000
0000
0000
,
0001
0000
0000
0000
,
1000
0000
0000
0000
,
0010
0000
0000
0000
,
1000
0000
0010
0000
,
1000
0000
0000
0000
,
0001
0000
1000
0000
,
0001
0000
0000
0000
,
0010
0000
0010
0000
,
0010
0000
0000
0000
,
0100
0000
1000
0000
,
0001
0000
0000
0000
,
1000
0000
0000
0000
,
0001
0000
0001
0000
,
0100
0000
0000
0000
,
0001
0000
0001
0000
,
0010
0000
0000
0000
,
0001
0000
1000
0000
,
0001
0000
0000
0000
,
1000
0000
0001
0000
,
1000
0000
0000
0000
,
0010
0000
0010
0000
,
1000
0000
0000
0000
,
0001
0000
1000
0000
,
0010
0000
0000
0000
,
1000
0000
1000
0000
,
0100
0000
0000
0000
,
0010
0000
0001
0000
,
1000
0000
0000
0000
,
0001
0000
0000
0000
,
1000
0000
0000
0000
,
0010
0000
0000
0000
,
0100
0000
0000
0000
,
0010
0000
0000
0000
,
1000
0000
0000
0000
,
1001
0000
0000
0000
,
0001
0000
0000
0000
,
1000
0000
0000
0000
,
0010
0000
0000
0000
,
1000
0000
0000
0000
,
1000
0000
0000
0000
,
0001
0000
0000
0000
,
1000
0000
0000
0000
,
0100
0000
1000
0000
,
1000
0000
0000
0000
,
0001
0000
0000
0000
,
0100
0000
0000
0000
,
0001
0000
0000
0000
,
0100
0000
0000
0000
,
0001
0000
0000
0000
,
1000
0000
0000
0000
,
0100
0000
1000
0000
,
0001
0000
0000
0000
,
1000
0000
0000
0000
,
0010
0000
0000
0000
,
1000
0000
0000
0000
,
0001
0000
0000
0000
,
1000
0000
0000
0000
,
0010
0000
0000
0000
,
1000
0000
0001
0000
,
1000
0000
0000
0000
,
0001
0000
0000
0000
,
1000
0000
0001
0000
,
1000
0000
1000
0000
,
0010
0000
0000
0000
,
1000
0000
0000
0000
,
0001
0000
0000
0000
,
1001
0000
0000
0000
,
1000
0000
0010
0000
,
1000
0000
0001
0000
,
0001
0000
0100
0000
,
0001
0000
0001
0000
,
1000
0000
0100
0000
,
1000
0000
1000
0000
,
0001
0000
0001
0000
,
1000
0000
0000
0000
,
1000
0000
0001
0000
,
1000
0000
0000
0000
,
0001
0000
0010
0000
,
0001
0000
0000
0000
,
1000
0000
0010
0000
,
0100
0000
0010
0000
,
0100
0000
0100
0000
,
0001
0000
1000
1000
,
2002
0000
0000
0000
,
0000
0000
0000
0000
,
0000
0000
0000
0000
,
3003
0000
0000
0000
;

//--------------- dance-single - Fred-104 ----------------
#NOTEDATA:;
#STEPSTYPE:dance-single;
#DESCRIPTION:Fred-104;
#DIFFICULTY:Easy;
#METER:8;
#CREDIT:Fred-104;
#NOTES:
0000
0000
0000
0000
,
0000
0000
0000
0000
,
0000
0000
0000
0000
,
0000
0000
0000
0000
,
0000
0000
0000
0000
,
2000
0000
3020
0000
,
2030
0000
3002
0000
,
0023
0000
0230
0000
,
2300
0000
0002
0000
,
0000
0000
3003
0000
,
1000
0000
0000
0010
0000
0000
0000
1000
,
0000
0000
0001
0100
,
0010
0000
0100
0000
0010
0000
0000
0010
,
0000
0000
0100
0000
0001
0000
0000
1000
,
0000
0000
0100
0000
1000
0000
0000
1000
,
0000
0000
0001
0000
0100
0000
0000
0100
,
0000
0000
0001
0000
1000
0000
0000
0001
,
0000
0010
0010
0100
,
0010
0000
0000
0001
0000
0000
0000
1000
,
0000
0000
0010
0010
,
1000
0000
1000
0000
0001
0000
0000
1000
,
0000
0000
0010
0000
1000
0000
0000
1100
,
0000
0000
1000
0000
0010
0000
0000
0100
,
0000
0000
0001
0000
1000
0000
0000
0001
,
0000
0000
0010
0000
0001
0000
0000
1001
,
0000
0000
0000
0000
1000
0001
1000
0000
,
0001
0000
0000
0100
0000
0000
0001
0000
,
1000
0000
0000
0000
0100
1000
0100
0000
,
1000
0000
0000
0100
0000
0000
1000
0000
,
0002
0203
0320
2030
,
3001
0000
0000
0010
0000
0000
0100
0000
,
2000
0000
3020
2030
,
3001
0000
0000
0100
0000
0000
0010
0000
,
0100
0001
1000
1000
,
0001
0000
0000
1000
0000
0000
0010
0000
,
1000
0100
0010
0001
,
1000
0000
0000
0001
0000
0000
0100
0000
,
0001
0000
0000
0010
0000
0000
0001
0000
,
1000
0000
0000
0100
0000
0000
1000
0000
,
0100
0100
0010
0001
,
1000
0000
0000
0001
0000
0000
0100
0000
,
0001
1000
0001
1001
,
1000
0000
0000
0010
0000
0000
1000
0000
,
0100
0000
0000
1000
0000
0000
0010
0000
,
0100
0000
0000
0001
0000
0000
0100
0000
,
0001
0000
0000
0010
0000
0000
0001
0000
,
1000
0000
0000
0001
0000
0000
1000
0000
,
0100
0000
0000
0010
0000
0000
0001
0000
,
1000
0010
1000
1000
,
0002
0000
0000
2003
0000
3000
1001
0000
,
1000
0000
0000
0100
0000
0000
0010
0000
,
0001
0000
0000
0100
0000
0000
0010
0000
,
1000
0000
0000
0010
0000
0000
0100
0000
,
0001
0000
0000
0010
0000
0000
0100
0000
,
1000
0000
1000
0100
0000
0000
0010
0000
,
0001
0000
0001
0100
0000
0000
0010
0000
,
1000
0000
0010
0100
0000
0000
0001
0000
,
1000
0100
1000
0001
,
1001
0000
0010
0000
0000
0010
0000
0001
,
0000
1000
0010
1000
,
0100
0000
0000
0100
0000
1000
0000
0010
,
0000
0000
0100
0000
0001
0000
1000
0001
,
0000
0100
0000
0100
0000
0000
0010
0100
,
0000
0100
0010
1000
,
0001
0000
0100
0000
0010
0000
1000
0010
,
0000
0100
0010
0100
,
0110
0000
0000
0001
0000
0100
0000
0010
,
0000
0010
1000
0100
,
1000
0000
0000
0001
0000
1000
0000
0100
,
0000
0000
1000
0000
0001
0000
0000
0100
,
0000
0010
0000
0100
0000
0000
0001
0000
,
1000
0000
0000
0000
0010
0000
1000
0001
,
0000
0000
0100
0000
0010
0000
0100
0001
,
0000
0000
1000
0000
0001
1000
0001
0000
,
1001
0000
0000
0010
0000
1000
0000
0010
,
0000
0100
0100
0010
,
0100
0000
0000
0001
0000
1000
0000
0001
,
0000
0000
0010
0000
0001
0000
0010
0001
,
0000
0000
1000
0000
0020
0000
0000
0230
,
0000
0000
0301
0000
1000
0000
0001
0010
,
0000
0000
0001
0000
1000
0000
0001
1000
,
0001
0000
0000
1000
0000
0000
1001
0000
,
0001
0000
0000
1000
0000
0010
0000
1000
,
0000
0000
0001
0000
0100
0000
0000
0001
,
0000
0000
0100
0000
0010
0000
0000
1000
,
0000
0000
0010
0000
1000
0000
0000
0100
,
0000
0000
0010
0000
0001
0000
0000
1000
,
0000
0000
0010
0000
0100
0000
0000
0010
,
0000
0000
1000
0000
0100
0000
0000
0110
,
0000
0000
0010
0000
0001
1000
0001
0000
,
1001
0000
0000
0001
0000
1000
0000
0100
,
0000
0000
1000
0000
0010
0000
0000
0100
,
0000
0000
0000
0001
0000
1000
0000
0001
,
0000
0000
0100
0000
0100
0000
0010
0100
,
0010
0000
0000
1000
0000
0010
0000
0100
,
0000
0000
0001
0000
1000
0000
0000
0100
,
0000
0000
0010
0000
0001
0000
0000
1001
,
0000
1000
0001
0100
,
2002
0000
0000
0000
,
0000
0000
0000
0000
,
0000
0000
0000
0000
,
3003
0000
0000
0000
;

//--------------- dance-single - Fred-104 ----------------
#NOTEDATA:;
#STEPSTYPE:dance-single;
#DESCRIPTION:Fred-104;
#DIFFICULTY:Medium;
#METER:11;
#CREDIT:Fred-104;
#NOTES:
0000
0000
0000
0000
,
0000
0000
0000
0000
,
0000
0000
0000
0000
,
0000
0000
0000
0000
,
0000
0000
0000
0000
,
1000
0000
0010
1000
0001
0100
0010
0000
,
1000
0100
0220
0330
,
0001
0000
1000
0001
1000
0010
0200
0000
,
0302
2003
3002
0023
,
0000
0000
0030
0000
,
0001
0000
0010
0001
0000
0100
0000
0002
,
0000
1003
0020
0130
,
0010
0000
1000
0000
1000
0000
0010
0200
,
0000
0000
0301
0000
0010
0000
0001
2000
,
0000
0000
3010
0000
1000
0000
0010
0200
,
0000
0000
0301
0000
0001
0000
0100
0002
,
0000
0000
0203
0000
0320
0000
1030
0020
,
0000
0000
0130
0010
0100
0000
0100
0000
,
0001
0000
1000
0010
0000
1000
0000
1001
,
0000
0000
1000
0100
1000
0000
0010
0100
,
0000
0000
0101
0000
0002
0010
0000
0013
,
0000
0001
0100
0000
0010
1000
0000
1001
,
0000
0000
1000
0000
0100
0010
0000
0001
,
0000
0001
0100
0000
0010
0000
0010
1000
,
0000
0001
0100
0000
0010
0000
0000
1001
,
0000
0000
0010
0100
0010
0100
0010
0000
,
0210
0000
0000
0302
0000
0000
2003
0000
,
3002
0000
0013
0010
,
0100
0000
0010
1000
0000
0001
0100
0000
,
0020
1000
1000
0130
,
1000
0000
0000
0001
0000
1000
0010
0000
,
0200
0000
0320
2030
,
3001
0000
0000
0100
0000
0000
0010
1000
,
0100
0000
1000
0001
1000
0001
1000
0000
,
1020
0000
0000
0230
0000
0000
0302
0000
,
1003
0010
0100
0101
,
1001
0000
0002
0100
0000
0103
0010
0000
,
0200
0000
0000
0320
0000
0000
1030
0000
,
0002
0000
0000
0100
0000
0000
1003
0000
,
0100
0010
1000
0100
,
0011
0000
0001
2000
,
3020
0230
0302
1003
,
1001
0000
0200
0010
0000
0310
1000
0000
,
0100
0000
0020
0001
0000
0031
0100
0000
,
0010
0000
2000
0100
0000
3100
0010
0000
,
0010
0000
0002
0100
0000
0103
0010
0000
,
1000
0000
2000
0010
0000
3100
0010
0000
,
0001
0000
0020
0100
0000
0031
1000
0010
,
0100
0001
2000
0001
,
3100
0000
0000
0011
0000
0000
1001
0000
,
1100
0000
1000
0020
0000
0030
0010
0000
,
0110
0000
0100
0002
0000
0003
0001
0000
,
0011
0000
0001
0200
0000
0300
0100
0000
,
0101
0000
0001
2000
0000
3000
1000
0000
,
1001
0000
0001
0100
0000
0010
1000
0000
,
0001
0000
0010
0100
0000
1000
0001
0000
,
1000
0100
1000
0000
0001
0100
0001
0000
,
0110
1000
0001
1000
,
1001
0000
2000
0100
3000
0010
0200
0001
,
0300
0010
1000
0000
0002
0000
2003
0000
,
3100
0000
0100
0020
0000
0031
1000
0002
,
0000
0103
0010
0000
0010
1000
0001
0100
,
0000
0010
0000
0200
0000
0000
0010
0310
,
0000
0000
0001
0000
0100
0000
2000
0010
,
0000
3100
0010
0000
0001
0010
0001
0200
,
0000
1000
0001
1300
,
1001
0000
0020
0100
0030
1000
0002
0100
,
0003
1000
0100
0000
0010
0100
1000
0000
,
0001
0000
0100
0100
0000
0010
0000
2001
,
0000
0000
3100
0000
0010
0000
0010
0100
,
0000
0010
0000
1001
0000
0001
0000
0100
,
0000
0010
1000
0000
1000
0100
0010
0200
,
0000
0000
1000
0000
1300
0000
0001
1000
,
0000
1000
0100
0010
0001
0100
0010
0000
,
1100
0000
0010
0200
0000
0010
0000
0310
,
0000
1000
0010
0000
0100
0000
0001
0000
,
1000
0000
2000
0010
0000
0100
0000
3002
,
0000
0000
0100
0000
0010
0000
0103
0010
,
0000
0010
0100
0000
0001
0000
1000
0100
,
0000
0100
0010
0000
0010
0000
0001
2000
,
0000
0000
0010
0000
0100
0000
3010
0100
,
0110
0000
0000
0101
0000
0000
1010
0000
,
1001
0000
0010
1000
0000
0101
0000
2010
,
0000
0000
3001
0000
1000
0010
1000
0200
,
0000
0000
1300
0000
0001
0100
0010
0200
,
0000
0000
0301
0000
1000
0001
1000
0100
,
1000
0000
0100
0000
0001
0000
0010
0010
,
0000
0000
1000
0000
0010
0100
0100
0002
,
0000
0000
1000
0000
0013
0000
0100
0010
,
0000
0000
1000
0100
1000
0100
1000
0001
,
1000
0001
0100
0010
0000
0100
0000
0102
,
0000
0000
0103
0010
1000
0100
0010
0002
,
0000
0000
0100
0103
0000
0110
0000
2001
,
0000
0000
0000
0000
3010
0000
0100
0001
,
0100
0000
0010
0200
0000
0302
0000
2003
,
0000
3010
0100
0000
0100
0010
1000
0002
,
0000
0000
1000
1003
0000
0010
1000
0200
,
0000
0320
0032
1003
,
2002
0000
0000
0000
,
0000
0000
0000
0000
,
0000
0000
0000
0000
,
3003
0000
0000
0000
;

//--------------- dance-single - Fred-104 ----------------
#NOTEDATA:;
#STEPSTYPE:dance-single;
#DESCRIPTION:Fred-104;
#DIFFICULTY:Hard;
#METER:14;
#CREDIT:Fred-104;
#NOTES:
0000
0000
0000
0000
,
0000
0000
0000
0000
,
0000
0000
0000
0000
,
0000
0000
0000
0000
,
0000
0000
0000
0000
,
1000
0000
0001
0100
0010
1000
0001
0010
,
0001
0100
2000
3020
,
0031
0000
0100
0010
1000
0001
0020
0000
,
0230
0302
0203
2000
,
0000
0000
3300
0000
,
1000
0000
0002
0100
0000
2003
0000
0010
,
0000
0000
3001
0000
1000
0000
0000
0000
0010
0000
1000
0000
0001
0100
0001
0000
,
1000
0100
0020
0000
1030
0010
0001
2000
,
0000
3001
0200
0000
0301
1000
0100
2100
,
0000
3001
2000
0000
3001
0100
1000
0200
,
0000
0301
0020
0000
1030
0010
0001
2000
,
0000
3010
0200
0000
0301
0100
0010
0002
,
0000
0013
0100
0001
1000
0000
1001
0000
,
1000
0010
0100
2000
0000
3100
0001
0020
,
0000
0130
1000
0010
0100
0001
0100
1000
,
0100
0001
0010
0200
0000
0301
0100
0020
,
0000
0031
0010
0100
1000
0001
1000
1001
,
0000
1000
0002
0000
1003
0010
0100
2000
,
0000
3100
0010
1000
0010
0100
0001
2000
,
0000
3100
0010
0001
0100
0010
0100
0002
,
0000
1003
0002
0000
0103
0010
0100
0100
,
0002
0000
0000
0203
0000
0000
0320
0000
,
1030
0000
0100
0000
1000
0100
0010
0001
,
2000
0000
0000
3020
0000
0000
2030
0000
,
3001
0110
1000
0110
,
0002
0000
0000
0023
0000
0000
0230
0000
,
1300
0001
0100
0000
1010
0000
0101
0000
,
0001
0100
0010
0000
0100
1000
0100
0010
,
0100
0000
0001
1000
0100
0010
0001
0000
,
0200
0000
0000
0302
0000
0000
2003
0000
,
3001
0100
1000
0000
0001
0010
2000
0000
,
3001
0010
0100
0002
0000
0000
0103
0000
,
0010
0001
1000
0020
0000
0000
1030
0000
,
0001
0000
1000
0010
0000
1000
0100
0000
,
0010
0001
1000
0000
1002
0000
0203
0000
,
0310
0000
1000
0100
0001
0100
2000
0000
,
3002
0000
0203
0000
0310
1000
1001
0000
,
1100
0000
1000
0100
0000
0100
0001
0000
,
0101
0000
0001
0100
0000
0100
1000
0000
,
1010
0000
1000
0010
0000
0010
0001
0000
,
0011
0000
0001
0010
0000
0010
1000
0000
,
1200
0000
1300
0200
0000
0301
0200
1300
,
1020
0000
0031
0020
0000
1030
0020
0031
,
1001
1100
0101
0110
,
1001
0000
0000
0000
0000
0000
0110
0000
0000
0000
0001
1000
0001
0000
0000
0000
,
1000
0100
0010
0200
0000
1300
1001
0000
,
0001
0100
0010
0200
0000
0301
1001
0000
,
1000
0010
0100
0020
0000
1030
1100
0000
,
0001
0010
0100
0020
0000
0031
0101
0000
,
1000
0100
0010
1000
0010
0001
1000
0000
,
0001
0100
0010
0001
0010
1000
0001
0000
,
1000
0100
0001
1000
0010
0001
1001
0000
,
1100
0000
0000
0000
0011
0000
0000
0000
0001
1000
0001
1000
0001
1000
0001
1000
,
0001
1000
0100
0020
0000
0031
0100
0020
,
0000
1030
0020
0000
0130
0001
1000
0100
,
1000
0010
0100
0002
0000
0013
0100
2000
,
0000
3001
0200
0000
0310
1000
0001
0020
,
0000
0230
0000
0320
0000
0031
1000
1001
,
0000
0001
2000
0000
3020
0000
0130
0002
,
0000
0013
0200
0000
2300
0000
3001
0200
,
0000
0310
0100
0000
0101
0000
1001
0000
,
1000
0010
0100
2000
0000
3100
0001
2000
,
0000
3001
0020
0000
0130
1000
0010
1000
,
0001
0010
0100
0002
0000
0103
1000
0002
,
0000
0103
0020
0000
1030
0100
0010
0002
,
0000
2003
0000
3020
0000
0130
0210
0000
,
0302
0000
0100
0000
1003
0001
0100
0110
,
0000
0100
0001
0000
1000
0010
1000
1100
,
0000
0001
0100
0010
1000
0100
0001
0100
,
2000
0000
3010
1000
0100
1000
0001
0201
,
0000
0310
2010
0000
3002
0000
2003
0000
,
3001
0010
0100
0002
0000
0103
0010
0002
,
0000
1003
0020
0000
0130
1000
0100
0020
,
0000
1030
0001
0000
0200
0000
0310
0200
,
0000
0301
0020
0000
0130
1000
0001
1001
,
0000
0100
0010
0000
1000
0000
0001
1000
,
1100
0000
0000
0000
0000
0000
0011
0000
0000
0000
0000
0000
1000
0001
1000
0001
,
1000
0100
1000
1010
0000
0001
0100
0110
,
0000
0010
1000
0000
0001
1000
0100
1100
,
0000
1000
0010
0000
1000
0100
0010
0011
,
0000
0001
1000
0000
0020
1000
1030
0002
,
0000
1003
0100
0000
0010
0001
0010
0200
,
0000
1300
0001
0000
0100
0010
0100
0002
,
0000
1003
0001
0000
0100
0100
0010
1020
,
0000
1030
0010
0100
1000
0100
0001
1000
,
0001
0000
0010
0011
0000
1001
0000
1010
,
0000
0001
0100
0010
0100
0001
1000
2100
,
0000
3010
0100
0002
0000
2003
0000
3200
,
0000
0000
0310
0000
0001
0000
1000
0000
0002
0000
0000
0000
1003
0001
1000
0001
,
1000
0000
0001
0200
0000
0320
0000
2030
,
0000
3001
0010
0001
1000
0010
0100
0002
,
0000
1003
0100
0010
0001
0100
0010
0110
,
0000
0100
0001
1000
0002
0000
2003
0000
,
3020
0000
0000
0000
0000
0000
0000
0000
0000
0000
0230
0000
0000
0000
0000
0300
,
0000
0000
0000
0022
0000
0000
0000
0000
0000
0000
0033
0000
0000
0000
2200
0000
,
0000
0000
0000
3300
,
1001
0000
0000
0000
;

//--------------- dance-double - Fred-104 ----------------
#NOTEDATA:;
#STEPSTYPE:dance-double;
#DESCRIPTION:Fred-104;
#DIFFICULTY:Easy;
#METER:8;
#CREDIT:Fred-104;
#NOTES:
00000000
00000000
00000000
00000000
,
00000000
00000000
00000000
00000000
,
00000000
00000000
00000000
00000000
,
00000000
00000000
00000000
00000000
,
00000000
00000000
00000000
00000000
,
20000000
00000000
32000000
00000000
,
03200000
00000000
00302000
00000000
,
00023000
00000000
00030200
00000000
,
00000320
00000000
00000002
00000000
,
00000000
00000000
00000033
00000000
,
00001000
00000000
00000000
00000001
00000000
00000000
00000000
00001000
,
00000000
00000000
00000001
00000100
,
00001000
00000000
00010000
00000000
01000000
00000000
00000000
00100000
,
00000000
00000000
00010000
00000000
01000000
00000000
00000000
00100000
,
00000000
00000000
10000000
00000000
00010000
00000000
00000000
00100000
,
00000000
00000000
00010000
00000000
10000000
00000000
00000000
00010000
,
00000000
00000000
00100000
00000000
00001000
00000000
00000000
00010000
,
00000000
00001000
01000000
00001000
,
00010000
00000000
00000000
00000100
00000000
00000000
00000000
00000010
,
00000000
00000000
00000001
00001000
,
00000100
00000000
00000010
00000000
00000001
00000000
00000000
00000100
,
00000000
00000000
00001000
00000000
00010000
00000000
00000000
00011000
,
00000000
00000000
00001000
00000000
00010000
00000000
00000000
00100000
,
00000000
00000000
01000000
00000000
00100000
00000000
00000000
10000000
,
00000000
00000000
00010000
00000000
01000000
00000000
00000000
00011000
,
00000000
00000000
00000000
00000000
00010000
00000010
00010000
00000000
,
00001000
00000000
00000000
00100000
00000000
00000000
00001000
00000000
,
00010000
00000000
00000000
00000000
00000100
00001000
00000100
00000000
,
00000010
00000000
00000000
00000001
00000000
00000000
00001000
00000000
,
00000020
00000230
00002300
00023000
,
00031000
00000000
00000000
01000000
00000000
00000000
00001000
00000000
,
00020000
00000000
00032000
00023000
,
00031000
00000000
00000000
00100000
00000000
00000000
00010000
00000000
,
10000000
00100000
01000000
00010000
,
10000000
00000000
00000000
01000000
00000000
00000000
00100000
00000000
,
00001000
00010000
00000100
00000010
,
00000001
00000000
00000000
00000100
00000000
00000000
00001000
00000000
,
00010000
00000000
00000000
00001000
00000000
00000000
00000100
00000000
,
00000001
00000000
00000000
00001000
00000000
00000000
00000100
00000000
,
00000010
00001000
00010000
00001000
,
00010000
00000000
00000000
00001000
00000000
00000000
00100000
00000000
,
00001000
00010000
00001000
00011000
,
01000000
00000000
00000000
00100000
00000000
00000000
01000000
00000000
,
00010000
00000000
00000000
10000000
00000000
00000000
00010000
00000000
,
01000000
00000000
00000000
00001000
00000000
00000000
00010000
00000000
,
00000100
00000000
00000000
00010000
00000000
00000000
00001000
00000000
,
00010000
00000000
00000000
00000010
00000000
00000000
00010000
00000000
,
00000100
00000000
00000000
00001000
00000000
00000000
00000100
00000000
,
00000010
00000001
00000010
00000010
,
00000002
00000000
00000000
00002003
00000000
00003000
00001001
00000000
,
00000001
00000000
00000000
00000100
00000000
00000000
00000001
00000000
,
00001000
00000000
00000000
00000100
00000000
00000000
00010000
00000000
,
00000100
00000000
00000000
00010000
00000000
00000000
00001000
00000000
,
01000000
00000000
00000000
00010000
00000000
00000000
10000000
00000000
,
00010000
00000000
10000000
01000000
00000000
00000000
00100000
00000000
,
00001000
00000000
00010000
00001000
00000000
00000000
01000000
00000000
,
00001000
00000000
00010000
00000100
00000000
00000000
00010000
00000000
,
00001000
00001000
00010000
00010000
,
00011000
00000000
00001000
00000000
00000000
00100000
00000000
00010000
,
00000000
01000000
00100000
01000000
,
00010000
00000000
00000000
10000000
00000000
00100000
00000000
10000000
,
00000000
00000000
00010000
00000000
10000000
00000000
01000000
00100000
,
00000000
00100000
00000000
00001000
00000000
00000000
00010000
00001000
,
00000000
00100000
00001000
00010000
,
00000010
00000000
00001000
00000000
00000100
00000000
00010000
00001000
,
00000000
00010000
00001000
00000100
,
00000101
00000000
00000000
00000100
00000000
00000001
00000000
00001000
,
00000000
00000001
00000100
00001000
,
00010000
00000000
00000000
00001000
00000000
00100000
00000000
01000000
,
00000000
00000000
10000000
00000000
00010000
00000000
00000000
01000000
,
00000000
00100000
00000000
01000000
00000000
00000000
00010000
00000000
,
10000000
00000000
00000000
00000000
01000000
00000000
00100000
00001000
,
00000000
00000000
00010000
00000000
00000100
00000000
00010000
00001000
,
00000000
00000000
01000000
00000000
00010000
10000000
00010000
00000000
,
10010000
00000000
00000000
10000000
00000000
01000000
00000000
00100000
,
00000000
01000000
10000000
00010000
,
01000000
00000000
00000000
00001000
00000000
00010000
00000000
00001000
,
00000000
00000000
00100000
00000000
00001000
00000000
00010000
00000010
,
00000000
00000000
00010000
00000000
00002000
00000000
00000000
00003020
,
00000000
00000000
00000031
00000000
00000010
00000000
00000100
00001000
,
00000000
00000000
00000001
00000000
00000100
00000000
00000001
00001000
,
00000100
00000000
00000000
00000010
00000000
00000000
00001001
00000000
,
00000001
00000000
00000000
00000010
00000000
00001000
00000000
00010000
,
00000000
00000000
00100000
00000000
10000000
00000000
00000000
00010000
,
00000000
00000000
01000000
00000000
00100000
00000000
00000000
10000000
,
00000000
00000000
00010000
00000000
10000000
00000000
00000000
01000000
,
00000000
00000000
00100000
00000000
00001000
00000000
00000000
00010000
,
00000000
00000000
00001000
00000000
01000000
00000000
00000000
00001000
,
00000000
00000000
00010000
00000000
00001000
00000000
00000000
00011000
,
00000000
00000000
00010000
00000000
00000010
00001000
00000010
00000000
,
00001010
00000000
00000000
00000010
00000000
00001000
00000000
00000001
,
00000000
00000000
00000010
00000000
00000100
00000000
00000000
00010000
,
00000000
00000000
00000000
00001000
00000000
00100000
00000000
00001000
,
00000000
00000000
01000000
00000000
00010000
00000000
10000000
00010000
,
10000000
00000000
00000000
10000000
00000000
01000000
00000000
00100000
,
00000000
00000000
00001000
00000000
00010000
00000000
00000000
00100000
,
00000000
00000000
10000000
00000000
01000000
00000000
00000000
01100000
,
00000000
00010000
01000000
00100000
,
20020000
00000000
00000000
00000000
,
00000000
00000000
00000000
00000000
,
00000000
00000000
00000000
00000000
,
30030000
00000000
00000000
00000000
;

//--------------- dance-double - Fred-104 ----------------
#NOTEDATA:;
#STEPSTYPE:dance-double;
#DESCRIPTION:Fred-104;
#DIFFICULTY:Medium;
#METER:11;
#CREDIT:Fred-104;
#NOTES:
00000000
00000000
00000000
00000000
,
00000000
00000000
00000000
00000000
,
00000000
00000000
00000000
00000000
,
00000000
00000000
00000000
00000000
,
00000000
00000000
00000000
00000000
,
10000000
00000000
00010000
10000000
00100000
00010000
00001000
00000000
,
00000010
00000001
00002002
00003003
,
00001000
00000000
00000001
00000100
00001000
00010000
01000000
00000000
,
20000000
30200000
02300000
00020000
,
00000000
00000000
03030000
00000000
,
01000000
00000000
00001000
00010000
00000000
00000100
00000000
00020000
,
00000000
00031000
00020000
00030010
,
00010000
00000000
00001000
00000000
00001000
00000000
00010000
00200000
,
00000000
00000000
10300000
00000000
00010000
00000000
10000000
02000000
,
00000000
00000000
13000000
00000000
01000000
00000000
00100000
00002000
,
00000000
00000000
00013000
00000000
00010000
00000000
00001000
00020000
,
00000000
00000000
00032000
00000000
00003200
00000000
00000301
00002000
,
00000000
00000000
00003100
00000010
00000001
00000000
00000001
00000000
,
00001000
00000000
00000001
00000020
00000000
00000100
00000000
00000130
,
00000000
00001000
00000010
00000000
00000010
00000000
00010000
00001000
,
00000000
00010000
01000000
00000000
20000000
01000000
00000000
31000000
,
00000000
00100000
00010000
00000000
00010000
01000000
00000000
01100000
,
00000000
00000000
10000000
00000000
00200000
01000000
00000000
01300000
,
00000000
00000000
00001000
00000000
00010000
00000000
00001000
00010000
,
00000000
00000000
00010000
00000000
00001000
00000000
00000010
00000100
,
00000000
00000000
00001000
00000010
00001000
00000000
00000001
00000000
,
00000012
00000000
00000000
00002003
00000000
00000000
00003020
00000000
,
00020030
00000000
00031000
00010000
,
00200000
00000000
00000000
02300000
00000000
00000000
03020000
00000000
,
20030000
32000000
03200000
00302000
,
00013000
00000000
00000000
00001000
00000000
00000100
00000010
00000000
,
00002000
00000000
00003002
00000023
,
00000130
00000000
00000000
00001000
00000000
00000000
00000001
00000100
,
00001000
00000000
00010000
00001000
00000000
00010000
00001000
00000000
,
00012000
00000000
00000000
02003000
00000000
00000000
03010000
00000000
,
10000000
01000000
10000000
00010000
,
10010000
00000000
20000000
00100000
00000000
30100000
00010000
00000000
,
00002000
00000000
00000000
00003020
00000000
00000000
00000230
00000000
,
00002300
00000000
00000100
00000000
,
00003100
00000000
00000010
00000001
,
00001001
00000000
00000001
00001000
,
00000200
00000320
00002030
00013000
,
00011000
00000000
00001000
00020000
00000000
00130000
01000000
00000000
,
00010000
00000000
10000000
02000000
00000000
03100000
00010000
00000000
,
10000000
00000000
00010000
02000000
00000000
03100000
00010000
00000000
,
00001000
00000000
00000010
00000200
00000000
00001300
00000001
00000000
,
00001000
00000000
00000001
00000020
00000000
00000130
00010000
00000000
,
00001000
00000000
00010000
00002000
00000000
01003000
00001000
00010000
,
00001000
00010000
00012000
00010000
,
00013000
00000000
00000000
00011000
00000000
00000000
01100000
00000000
,
10010000
00000000
10000000
00200000
00000000
00000000
00310000
00000000
,
00001000
00000000
00000100
00000020
00000000
00000000
00001030
00000000
,
00000001
00000000
00000010
00002000
00000000
00000000
00013000
00000000
,
00001000
00000000
01000000
00020000
00000000
00000000
10030000
00000000
,
10010000
00000000
10000000
01000000
00000000
00010000
00001000
00000000
,
00000100
00000000
00000001
00001000
00000000
00000100
00000010
00000000
,
00000001
00000000
00000100
00001000
00010000
00000000
00001000
00000000
,
00011000
00001000
01000000
00010000
,
10010000
00000000
10000000
02000000
00000000
03100000
00001000
00020000
,
00000000
00031000
00000100
00000000
00000001
00000010
00000100
00001000
,
00000001
00000000
00000100
00001000
00000000
00010000
00001000
00000100
,
00000000
00001000
00010000
00000000
00001000
00100000
00001000
00010000
,
00000000
00001000
00000000
02000000
00000000
00000000
00100000
03100000
,
00000000
00000000
10000000
00000000
01000000
00000000
00100000
00002000
,
00000000
00013000
00100000
00000000
01000000
00000000
00010000
00020000
,
00000000
20030000
32000000
03020000
,
00031000
00000000
00010000
00002000
00000000
00003100
00000010
00002000
,
00000000
00003001
00000010
00000000
00000001
00000010
00000100
00001000
,
00000001
00000000
00000100
00001000
00000000
00010000
00000000
00002000
,
00000000
00000000
01003000
00000000
00001000
00000000
00010000
00002000
,
00000000
00103000
00010000
20000000
00000000
31000000
00100000
01000000
,
00010000
00000000
00001000
00000000
00010000
00000000
00001000
00020000
,
00000000
00000000
00230000
00000000
20300000
00000000
30010000
10000000
,
00000000
01000000
00100000
00010000
01000000
00001000
00010000
00000000
,
00011000
00000000
00010000
00000200
00000000
00020300
00000000
00032000
,
00000000
00013000
00001000
00000000
00000100
00000001
00000010
00000000
,
00000100
00000000
00010000
00002000
00000000
00003200
00000000
00002300
,
00000000
00000000
00023000
00000000
00032000
00000000
01003000
00020000
,
00000000
00000000
00130000
00000000
01000000
00000000
10000000
00100000
,
00000000
00000000
10000000
00000000
00010000
00000000
00100000
02000000
,
00000000
00000000
10000000
00000000
00100000
00000000
13000000
00100000
,
00010000
00000000
00000000
00001000
00000000
00000000
00011000
00000000
,
00010010
00000000
00001000
00000100
00000000
00000110
00000000
00001002
,
00000000
00000000
00000103
00000000
00000001
00000010
00000100
00002000
,
00000000
00000000
00003100
00000000
00000010
00001000
00010000
00002000
,
00000000
00013000
00001000
00100000
,
00010000
00000000
10000000
00000000
00100000
10000000
00010000
00100000
,
00000000
00100000
00001000
00000000
00001000
00010000
00000010
00000200
,
00000000
00000000
00000001
00000000
00000310
00000000
00000000
00000110
,
00000000
00000000
00000001
00000010
00000001
00001000
00000010
00000100
,
00000001
00001000
00000100
00010000
00000000
00010100
00000000
00012000
,
00000000
00000000
01003000
00010000
10000000
01000000
00100000
00020000
,
00000000
00000000
10000000
10030000
00000000
10100000
00000000
02001000
,
00000000
00000000
00000000
00000000
03010000
00000000
00100000
01000000
,
00010000
00000000
00002000
00010000
00003000
00010000
00000010
00000100
,
00000000
00000200
00000001
00000300
00000010
00001000
00010000
00002000
,
00000000
00000000
00010000
00013000
00000000
00001000
00000000
01002000
,
00000000
01003000
00002000
00023000
,
00002000
00000000
00000000
00000000
,
00000000
00000000
00000000
00000000
,
00000000
00000000
00000000
00000000
,
00033000
00000000
00000000
00000000
;

//--------------- dance-double - Fred-104 ----------------
#NOTEDATA:;
#STEPSTYPE:dance-double;
#DESCRIPTION:Fred-104;
#DIFFICULTY:Hard;
#METER:14;
#CREDIT:Fred-104;
#NOTES:
00000000
00000000
00000000
00000000
,
00000000
00000000
00000000
00000000
,
00000000
00000000
00000000
00000000
,
00000000
00000000
00000000
00000000
,
00000000
00000000
00000000
00000000
,
00001000
00000000
01000000
00100000
10000000
01000000
00100000
00001000
,
00010000
00001000
00000200
00000302
,
00000013
00000000
00001000
00010000
01000000
10000000
00020000
00000000
,
02030000
03002000
00023000
00000020
,
00000000
00000000
00030030
00000000
,
00010000
00000000
00001000
00000020
00000000
00000230
00000000
00000302
,
00000000
00000000
00000103
00000000
00001000
00000000
00000000
00000000
00000001
00000000
00000100
00000000
00001000
00010000
00001000
00000000
,
00010000
00001000
00200000
00000000
00310000
10000000
00100000
02000000
,
00000000
03010000
20000000
00000000
31000000
00100000
00001000
00021000
,
00000000
00031000
00020000
00000000
00031000
00000100
00000001
00002000
,
00000000
00003100
00000020
00000000
00000031
00001000
00000010
00000002
,
00000000
00000013
00000200
00000000
00000301
00000010
00000100
00020000
,
00000000
00031000
00010000
00100000
01000000
00000000
01010000
00000000
,
10000000
00100000
00010000
00002000
00000000
00013000
00100000
02000000
,
00000000
03100000
10000000
01000000
00100000
00001000
00010000
00000100
,
00010000
00001000
00000100
00000002
00000000
00000013
00000001
00002000
,
00000000
00003010
00000100
00001000
00010000
00001000
01000000
01100000
,
00000000
10000000
00020000
00000000
10030000
01000000
00010000
02000000
,
00000000
03100000
01000000
10000000
00100000
00010000
00001000
00020000
,
00000000
00031000
00000100
00000010
00000001
00000010
00001000
00000200
,
00000000
00000310
00002000
00000000
00013000
00001000
01000000
00001000
,
00020000
00000000
00000000
00032000
00000000
00000000
00203000
00000000
,
00301000
00000000
00010000
00000000
01000000
00100000
00010000
10000000
,
00200000
00000000
00000000
00320000
00000000
00000000
00032000
00000000
,
00013000
01001000
00010000
00010010
,
00002000
00000000
00000000
00023000
00000000
00000000
00030020
00000000
,
00001030
00000100
00000010
00000000
00000011
00000000
00001100
00000000
,
00000001
00000100
00000010
00000000
00001000
00000100
00000010
00000100
,
00001000
00000000
00000001
00000100
00001000
00010000
01000000
00000000
,
20000000
00000000
00000000
30020000
00000000
00000000
02030000
00000000
,
03010000
10000000
01000000
00000000
00100000
00001000
00010000
00000000
,
00100000
01000000
00010000
20000000
00000000
00000000
31000000
00000000
,
00010000
00001000
00000010
00000200
00000000
00000000
00001300
00000000
,
00000010
00000000
00000100
00001000
00000000
00010000
00100000
00000000
,
01000000
00010000
10000000
00000000
00120000
00000000
20030000
00000000
,
30010000
00000000
00100000
01000000
00010000
00001000
00020000
00000000
,
00032000
00000000
02003000
00000000
03010000
00100000
01100000
00000000
,
10010000
00000000
10000000
01000000
00000000
00100000
00001000
00000000
,
00011000
00000000
00010000
00001000
00000000
00000100
00000001
00000000
,
00000011
00000000
00000001
00000100
00000000
00001000
00010000
00000000
,
00011000
00000000
00001000
00010000
00000000
01000000
00100000
00000000
,
10020000
00000000
10030000
00200000
00000000
00310000
00002000
00003100
,
00000201
00000000
00000301
00000020
00000000
00001030
00020000
01030000
,
11000000
01010000
00011000
00010100
,
00001001
00000000
00000000
00000000
00000000
00000000
00000110
00000000
00000000
00000000
00001000
00000001
00001000
00000000
00000000
00000000
,
00000001
00000100
00001000
00000200
00000000
00000301
00000200
00000000
,
00000310
00001000
00010000
00002000
00000000
00003010
00020000
00000000
,
00031000
00100000
01000000
00200000
00000000
00301000
00020000
00000000
,
00130000
01000000
10000000
02000000
00000000
03010000
20000000
00000000
,
30010000
10000000
01000000
00010000
00001000
00000010
00000001
00000000
,
00001000
00000001
00000100
00001000
00010000
00100000
10000000
00000000
,
00010000
10000000
01000000
00010000
00001000
00010000
00010100
00000000
,
00001100
00000000
00000000
00000000
00000101
00000000
00000000
00000000
00000001
00001000
00000001
00001000
00000001
00001000
00000001
00001000
,
00000001
00000100
00000010
00002000
00000000
00003100
00000010
00000002
,
00000000
00000103
00000020
00000000
00001030
00000100
00000010
00001000
,
00010000
01000000
00100000
00020000
00000000
10030000
00010000
02000000
,
00000000
03010000
00200000
00000000
00310000
01000000
00100000
20000000
,
00000000
32000000
00000000
03200000
00000000
00301000
00010000
00011000
,
00000000
00000010
00002000
00000000
00003020
00000000
00000130
00000002
,
00000000
00000013
00000200
00000000
00000320
00000000
00001030
00020000
,
00000000
00031000
00100000
00000000
01100000
00000000
10010000
00000000
,
10000000
00100000
01000000
20000000
00000000
31000000
00010000
20000000
,
00000000
30010000
00200000
00000000
00310000
01000000
00010000
10000000
,
01000000
00100000
00001000
00020000
00000000
00031000
00000010
00002000
,
00000000
00013000
00000200
00000000
00000310
00000001
00001000
00000002
,
00000000
00000203
00000000
00002300
00000000
00013000
00012000
00000000
,
02003000
00000000
03002000
00000000
00013000
00010000
00001000
00011000
,
00000000
00001000
01000000
00000000
00010000
00100000
01000000
11000000
,
00000000
10000000
01000000
00100000
00001000
00010000
00000100
00000010
,
00000002
00000000
00000103
00000010
00001000
00000001
00000010
00000012
,
00000000
00001003
00001002
00000000
00002003
00000000
00003020
00000000
,
00010030
00001000
00100000
00002000
00000000
00013000
00000010
00002000
,
00000000
00003100
00020000
00000000
00031000
00100000
00010000
00200000
,
00000000
01300000
00100000
00000000
00020000
00000000
01030000
00200000
,
00000000
00310000
00002000
00000000
00013000
00001000
00010000
00011000
,
00000000
00100000
00001000
00000000
00010000
00000000
00001000
01000000
,
01001000
00000000
00000000
00010010
00000000
00000000
00011000
00000000
,
00010000
00001000
00000100
00000101
00000000
00000001
00000010
00000110
,
00000000
00001000
00000001
00000000
00000100
00001000
00010000
00011000
,
00000000
00001000
01000000
00000000
00010000
00100000
01000000
11000000
,
00000000
10000000
00020000
00000000
01030000
00010000
00001000
00000020
,
00000000
00010030
00001000
00000000
00010000
00001000
00000100
00000002
,
00000000
00000013
00000100
00000000
00001000
00000010
00000100
00002000
,
00000000
00013000
00001000
00000000
00010000
00010000
00001000
00012000
,
00000000
00103000
00001000
00010000
00001000
01000000
00001000
00010000
,
00000100
00000000
00001000
00001010
00000000
00001001
00000000
00000101
,
00000000
00000001
00000010
00001000
00010000
00100000
10000000
20010000
,
00000000
30010000
01000000
00200000
00000000
20300000
00000000
30020000
,
00000000
00000000
00130000
00000000
00001000
00000000
00010000
00000000
00002000
00000000
00000000
00000000
00013000
00000010
00010000
00000000
,
00001000
00000000
00010000
00000200
00000000
00000302
00000000
00000203
,
00000000
00001300
00000001
00001000
00000010
00010000
00001000
00200000
,
00000000
01300000
10000000
00010000
01000000
00100000
01000000
01010000
,
00000000
00010000
10000000
01000000
00200000
00000000
00302000
00000000
,
00023000
00000000
00000000
00000000
00000000
00000000
00000000
00000000
00000000
00000000
00030020
00000000
00000000
00000000
00000000
00000030
,
00000000
00000000
00000000
00002020
00000000
00000000
00000000
00000000
00000000
00000000
00003030
00000000
00000000
00000000
00000202
00000000
,
00000000
00000000
00000000
00000303
,
00001001
00000000
00000000
00000000
;
