#VERSION:0.83;
#TITLE:Shiva;
#ARTIST:Relect;
#GENRE:HARD PSY;
#BANNER:Shiva.png;
#BACKGROUND:Shiva-bg.png;
#CDTITLE:./CDTitles/DANCERUSH STARDOM.png;
#MUSIC:Shiva.ogg;
#SAMPLESTART:67.2;
#SAMPLELENGTH:15;
#BPMS:0=150;
#STAGE:29;

//--------------- dance-single - Fred-104 ----------------
#NOTEDATA:;
#STEPSTYPE:dance-single;
#DESCRIPTION:Fred-104;
#DIFFICULTY:Beginner;
#METER:2;
#CREDIT:Fred-104;
#NOTES:
0000
0000
0000
0000
,
0000
0000
0000
0000
,
0000
0000
0000
0000
,
0000
0000
0000
0000
,
0000
0000
0000
0000
,
0000
0000
0000
0000
,
0001
0000
0000
0000
,
1000
0000
0000
0000
,
0001
0000
1000
0000
,
0002
0000
0000
0003
,
0001
0000
1000
0000
,
0001
0000
1000
0000
,
0001
0000
0010
0000
,
0001
0000
1000
0000
,
0002
0003
1000
0000
,
0001
0000
0100
0000
,
0001
0000
1000
0000
,
1001
0000
0000
0000
,
2000
3000
0010
0000
,
1000
0000
0001
0000
,
1000
0000
0100
0000
,
1000
0000
0001
0000
,
2000
3000
0001
0000
,
0100
0000
0001
0000
,
0010
0000
0001
0000
,
0000
0000
0000
0000
,
0002
0000
0000
0000
,
0000
0000
0003
0000
,
2000
0000
0000
3000
,
0002
0003
2000
3000
,
0001
0000
0001
0000
,
1000
0000
1000
0000
,
0001
0000
1000
0000
,
1001
0000
0000
0000
,
0002
0000
0003
0000
,
1000
0000
0001
0000
,
2000
0000
3000
0000
,
0010
0000
0100
0000
,
0020
0000
0030
0000
,
1000
0000
0001
0000
,
0200
0000
0300
0000
,
0001
0000
1000
0000
,
0001
0000
0001
0000
,
0010
0000
0010
0000
,
0100
0000
0100
0000
,
1000
0000
1000
0000
,
0001
0000
0100
0000
,
0010
0000
1000
0000
,
0001
0000
1000
0000
,
1001
0000
0000
0000
,
0002
0003
0100
0000
,
0001
0000
1000
0000
,
0001
0000
0010
0000
,
0100
0000
1000
0000
,
0020
0030
1000
0000
,
0001
0000
1000
0000
,
0010
0000
1000
0000
,
1001
0000
0000
0000
,
0002
0003
0010
0000
,
0001
0000
0010
0000
,
1000
0000
0100
0000
,
1000
0000
0100
0000
,
0002
0003
0010
0000
,
0100
0000
1000
0000
,
0001
0000
1000
0000
,
0001
0000
2000
3000
,
1001
0000
0000
0000
;

//--------------- dance-single - Fred-104 ----------------
#NOTEDATA:;
#STEPSTYPE:dance-single;
#DESCRIPTION:Fred-104;
#DIFFICULTY:Easy;
#METER:7;
#CREDIT:Fred-104;
#NOTES:
0000
0000
0000
0000
,
0000
0000
0000
0000
,
0000
0000
0000
0000
,
0000
0000
0000
0000
,
0000
0000
0000
0000
,
0000
0000
0000
0000
,
0001
0000
0010
0000
,
0001
0000
0100
0000
,
0001
0001
1000
1000
,
0001
0100
1000
0010
,
2002
3003
1000
0100
,
0001
0000
1000
0010
,
0001
0000
1000
0010
,
0100
0000
0001
0010
,
2002
3003
0001
0010
,
1000
0000
0001
0100
,
1000
0000
0001
0100
,
0010
1000
0001
1000
,
2002
3003
1000
0001
,
0100
0001
0010
0001
,
1000
0001
0100
0010
,
1000
0000
0001
0000
1000
0001
1000
0000
,
2002
3003
1000
0100
,
0001
0010
1000
0001
,
1000
0000
0010
0000
0100
0000
0001
0001
,
0000
0000
0000
1001
,
0002
0000
0000
0000
,
0000
0000
2003
3020
,
0230
0000
0000
0000
,
0320
0000
2030
3002
,
1003
1000
0010
0010
,
0100
0100
0001
0001
,
1000
0100
1000
0000
0001
0010
0001
0000
,
1000
1000
0001
0001
,
2002
3003
2000
3100
,
2000
3020
0032
0203
,
2300
0000
3001
0100
,
0001
0000
0010
0100
0010
0100
0010
0000
,
2002
3003
0002
0103
,
0002
0023
2030
3200
,
0302
0000
1003
0010
,
1000
0000
0100
0010
0100
0010
0100
0000
,
1000
0100
1000
0100
,
0001
0010
0001
0010
,
1000
0100
0001
0010
,
1000
0000
0001
0000
1000
0010
1000
0000
,
0100
0010
0001
0100
,
0001
0100
0010
1000
,
0001
0010
0001
0000
1000
0100
1000
0000
,
0001
0010
1000
0100
,
1001
0001
0100
0010
,
0100
0001
0010
0100
,
1000
0010
0001
0010
,
1000
0001
2002
3003
,
1000
0100
0001
0100
,
1000
0010
1000
0100
,
0010
0100
1000
0010
,
0100
0001
2002
3003
,
0001
0000
0010
0000
0001
0010
0001
0000
,
0010
1000
0010
0001
,
1000
0000
0100
0000
1000
0100
1000
0000
,
0100
0001
0100
2000
,
3001
0100
0001
0010
,
0100
1000
0001
1000
,
0001
0010
0001
0000
1000
0100
1000
0000
,
0001
0010
1000
0100
,
1001
0000
0000
0000
;

//--------------- dance-single - Fred-104 ----------------
#NOTEDATA:;
#STEPSTYPE:dance-single;
#DESCRIPTION:Fred-104;
#DIFFICULTY:Medium;
#METER:12;
#CREDIT:Fred-104;
#NOTES:
0000
0000
0000
0000
,
0000
0000
0000
0000
,
0000
0000
0000
0000
,
0000
0000
0000
0000
,
0000
0000
0000
0000
,
0000
0000
0000
0000
,
2000
3200
0302
0203
,
1300
0100
0001
0000
1000
0010
0001
0000
,
1000
1000
0100
0100
0010
0010
0001
0001
,
0000
1000
0001
0100
0010
1000
1001
0000
,
1001
0000
0000
0001
0100
0000
0010
0000
1000
0000
0000
1000
0100
0000
0010
0000
,
0100
0000
0000
0100
1000
0000
0010
0000
0100
0000
0000
0100
0001
0000
1000
0000
,
0001
0000
0000
0001
0010
0000
0100
0000
1000
0000
0000
1000
0100
0000
0010
0000
,
0100
0000
0000
0100
1000
0000
0001
0000
0100
0000
0010
1000
0020
0000
0030
0000
,
1100
0000
0000
1000
0100
0000
0010
0000
0100
0000
0000
0100
1000
0000
0001
0000
,
0010
0000
0000
0010
0100
0000
0010
0000
0001
0000
0000
0001
0100
0000
0010
0000
,
0100
0000
0000
0100
0001
0000
1000
0000
0010
0000
0000
0010
0100
0000
0001
0000
,
1000
0000
0000
0000
0001
0100
0000
0010
0000
0000
0100
0000
2002
0000
3003
0000
,
1020
0000
0130
0001
0010
0100
1000
0010
,
0100
0000
0001
0000
1000
0000
0100
0000
0010
0000
0001
1000
0001
0000
0100
0000
,
0010
0100
0001
0010
0100
0010
0001
1000
,
0100
0000
0010
0000
0001
0000
1000
0000
0001
0000
1000
0001
0200
0000
0310
0000
,
1000
0100
1000
0100
0010
1000
0010
1000
,
0001
0100
0001
0100
0010
0001
0010
0001
,
1000
1000
0010
0010
0100
0100
0001
0001
,
0000
0000
0000
1001
,
2000
0000
0000
0000
,
0000
0000
3020
0032
,
2003
0000
0000
0000
,
3200
0000
0302
2003
,
3001
0010
0001
1000
0001
0100
0001
1000
,
0001
0010
0100
1000
0001
0100
0010
1000
,
0001
0001
0100
0100
0010
0010
1000
1000
,
2200
3300
0202
0303
2020
3030
0022
0033
,
1001
0000
1000
0100
0120
0000
0031
0000
,
2000
3100
0002
0103
2000
3010
0002
0013
,
2000
0000
3010
0000
0002
0000
0103
1000
,
0001
1000
0010
0100
0001
1000
0002
0003
,
2001
0000
3001
1000
1020
0000
0130
0000
,
0002
0103
2000
3100
0002
0013
2000
3010
,
0002
0000
1003
0001
0200
0000
0301
0010
,
1000
0010
0001
0100
0010
1000
0002
0003
,
1001
0000
0000
1000
0010
0000
0100
0000
0010
0000
0000
0010
0100
0000
0001
0000
,
1000
0000
0000
1000
0100
0000
0010
0000
0001
0000
0000
0001
0010
0000
0100
0000
,
0010
0000
0000
0010
0001
0000
0100
0000
0010
0000
0000
0010
0100
0000
0001
0000
,
1000
0000
0000
1000
0001
0000
0100
0000
0010
0000
1000
0000
0001
0000
0000
0000
,
1000
0100
1000
0010
1000
0001
1000
0100
,
0010
0001
0100
0010
1000
0001
0010
0001
,
1000
1000
0001
0001
0100
0100
0010
0010
,
0000
1000
0100
0001
0010
1000
1001
0000
,
1000
0010
1000
0100
1000
0010
0100
0010
,
1000
0100
0010
0001
0100
0010
0200
0000
,
0301
0010
0001
1000
0001
0100
0010
1000
,
0001
0100
1000
0100
0001
1000
0002
0000
,
1003
0010
1000
0100
0010
0001
0100
0010
,
0100
0001
0010
0001
1000
0001
0100
0010
,
0100
0001
0010
0100
1000
0010
0100
0001
,
1000
0100
0001
0100
1000
0100
0120
0000
,
0031
0000
0100
0000
0001
0000
0010
0000
0100
0000
1000
0000
0100
1000
0100
0000
,
1000
0000
0010
0000
0100
0000
0010
0000
1000
0000
0001
0000
0100
0001
0100
0000
,
0001
0000
0010
0000
0100
0000
1000
0000
0010
0000
0100
0000
0010
1000
0010
0000
,
0100
0001
0010
0100
1000
0001
2000
0000
,
3001
0100
0001
0010
0001
0100
0010
0100
,
0010
1000
0100
0010
0001
1000
0001
1000
,
0001
0001
0100
0100
0010
0010
1000
1000
,
0001
0100
1000
0001
0010
1000
1001
0000
,
1001
0000
0000
0000
;

//--------------- dance-single - Fred-104 ----------------
#NOTEDATA:;
#STEPSTYPE:dance-single;
#DESCRIPTION:Fred-104;
#DIFFICULTY:Hard;
#METER:17;
#CREDIT:Fred-104;
#NOTES:
0000
0000
0000
0000
,
0000
0000
0000
0000
,
0000
0000
0000
0000
,
0000
0000
0000
0000
,
0000
0000
0000
0000
,
0000
0000
0000
0000
,
1100
1000
1010
0010
0110
0100
0101
0001
,
0011
0010
0110
0100
1100
1000
1001
0001
,
1000
0010
1000
0100
0010
0001
1000
0010
0100
0001
0010
0100
1000
0010
0100
0001
,
0000
1000
0010
1000
0010
0000
0100
0001
0100
0000
0110
0000
2002
0000
3003
0000
,
2100
0000
0000
0000
3001
0010
0100
1000
0001
0000
0010
0100
1000
0001
0010
0100
,
1000
0000
0001
0100
0010
1000
0001
0100
0010
0000
1000
0001
0100
0010
1000
0100
,
0010
0000
0001
0100
0010
1000
0100
0010
0100
0000
1000
0001
0100
0001
1000
0100
,
0010
0000
0001
0010
0100
1000
0010
1000
0100
1000
0010
0100
0002
0000
0000
0003
,
1002
0000
0000
0000
1003
0010
0100
0001
1000
0000
0010
0100
0001
1000
0010
0100
,
0001
0000
0010
0001
1000
0100
0010
0001
1000
0000
0100
0010
0001
1000
0100
0010
,
0001
0100
0001
1000
0010
0100
0001
1000
0001
1000
0001
0010
0100
1000
0100
0010
,
0001
0000
0000
1000
0010
0100
0000
0101
0000
0001
1000
0000
2200
0000
3300
0000
,
1020
0000
0000
0000
1030
0001
0100
0001
1000
0001
0010
0001
1000
0001
0100
0001
,
1000
0001
0010
0100
1000
0100
0010
0001
0100
0010
1000
0010
0200
0000
0301
0000
,
1000
0001
0010
0100
1000
0001
0010
0100
1000
0001
0100
0010
1000
0001
0100
0010
,
0100
0001
1000
0010
0100
0001
1000
0100
0010
0100
1000
0001
0200
0000
0310
0000
,
0120
0000
1030
0001
1000
0001
0100
0001
0010
0001
1000
0001
0100
0010
1000
0010
,
0100
0001
0010
0100
1000
0100
0010
0001
1000
0100
0001
0100
2000
0000
3001
0000
,
0100
0001
0010
0001
0100
0001
0010
0001
0100
0010
1000
0010
0100
0010
1000
0010
,
0000
0000
0000
1001
,
2000
0010
0100
0100
,
0001
0000
0100
0000
3002
0203
0302
0203
,
0320
0000
0000
0000
1000
0000
0000
0000
0001
0000
0000
0000
1030
0000
0001
0010
,
0200
0000
1000
0010
0302
0000
2003
3200
,
0310
0001
0010
0001
0100
0010
1000
0100
,
1000
0010
0001
0100
0001
0010
1000
0001
,
1000
0010
1000
0100
0010
0001
0100
0010
1000
0001
0010
0100
1000
0010
0100
0001
,
2001
3100
1002
0013
2001
3100
0220
0330
,
1001
0000
1000
0100
2001
3010
1000
0100
,
0120
0031
0210
1300
0120
0031
2001
3100
,
0120
0000
0000
0000
0031
0000
0100
0000
0120
0000
0000
0000
1030
0010
0100
0001
,
1000
0001
1000
0100
2000
0000
3020
0000
0032
0000
0203
0000
2300
0000
3000
0000
,
1002
0000
0000
0000
0100
0003
0010
0000
0210
0000
1300
0000
0001
0000
1000
0000
,
2100
3010
0102
0013
1200
0310
0201
0310
,
2001
0000
0000
0000
3001
1000
0100
0010
0002
0000
0000
0000
1003
0100
0010
0100
,
0001
0100
1000
0001
2000
0000
3020
0000
0032
0000
0203
0000
2300
0000
0000
3000
,
1001
0000
0000
1000
0100
0000
0010
0000
0001
0000
0000
0100
0010
0000
0100
0000
,
0001
0000
0000
0010
0100
0000
1000
0000
0010
0000
0000
0100
0001
0000
1000
0001
,
1000
0000
0000
0100
0010
0000
1000
0000
0010
0000
0000
0001
1000
0000
0001
0000
,
0100
0000
0000
0010
0001
0000
0010
0000
1000
0000
0001
1000
0001
0000
1000
0000
,
0100
0010
0001
0000
0100
0010
0001
0000
0010
0100
0001
0000
0010
0100
0001
0000
,
1000
0010
0100
0000
1000
0010
0100
0000
1000
0100
0010
0000
1000
0100
0010
0000
,
0001
1000
0010
1000
0001
1000
0100
0010
0100
1000
0010
0100
0001
0010
0100
1000
,
0000
0001
0100
0010
1000
0000
0001
1000
0001
0000
0100
0000
0220
0000
0330
0000
,
1001
0000
0000
0000
0001
0000
0100
0000
0001
0000
0010
0000
0001
0000
0000
0000
1000
0000
0100
0000
0010
0000
0001
0100
0001
0000
0010
0000
0100
0000
0000
0000
,
0010
0000
0000
0000
0001
0000
1000
0000
0010
0000
0100
0000
0010
0000
0000
0000
1000
0000
0010
0000
1000
0000
0100
0010
0100
0000
1000
0000
0001
0000
0000
0000
,
1000
0000
0000
0000
0001
0000
1000
0000
0100
0000
1000
0000
0010
0000
0000
0000
1000
0000
0001
0000
0010
0000
0001
1000
0001
0000
0010
0000
0100
0000
0000
0000
,
1000
0000
0000
0000
0010
0000
0100
0000
0001
0000
0010
0000
0100
0000
0000
0000
0010
0000
0001
0000
0100
0000
0010
1000
0020
0000
0000
0000
0000
0000
0030
0000
,
2001
0000
0000
0000
3001
0000
1000
0000
0100
0000
0010
0000
0001
0000
0000
0000
1000
0000
0100
0000
1000
0000
0001
0100
0001
0000
0010
0000
0100
0000
0000
0000
,
1000
0000
0000
0000
0010
0000
0100
0000
0010
0000
1000
0000
0001
0000
0000
0000
1000
0000
0001
0000
0010
0000
0100
0010
0100
0000
0010
0000
0001
0000
0000
0000
,
1000
0000
0000
0000
0001
0000
1000
0000
0010
0000
1000
0000
0100
0000
0000
0000
1000
0000
0001
0000
0010
0000
0100
1000
0100
0000
0010
0000
0100
0000
0000
0000
,
1000
0000
0000
0000
0100
0000
0001
0000
0100
0000
0001
0000
0100
0000
0000
0000
1000
0000
0100
0000
0010
0000
0001
0010
0001
0000
1000
0000
0001
0000
0000
0000
,
1000
0000
0100
0000
0010
0000
0001
0000
0100
0000
0010
0000
0001
0000
0000
0000
0010
0000
1000
0000
0001
0000
1000
0010
1000
0000
0100
0000
0010
0000
0000
0000
,
0001
0000
1000
0000
0010
0000
0001
0000
0010
0000
0100
0000
0001
0000
0000
0000
1000
0000
0001
0000
0010
0000
0100
0010
0100
0000
0010
0000
0001
0000
0000
0000
,
1000
0000
0001
0000
0100
0000
1000
0000
0100
0000
0010
0000
1000
0000
0000
0000
0100
0000
0010
0000
0001
0000
1000
0001
1000
0000
0010
0000
0100
0000
0000
0000
,
0001
0000
0010
0000
1000
0000
0010
0000
0001
0000
0100
0000
0001
0000
0000
0000
0010
0000
0100
0000
1000
0000
0001
1000
0002
0000
0000
0000
1003
0000
0000
0000
,
0010
0100
0001
0000
0010
0100
0001
0000
0100
0010
0001
0000
0100
0010
0001
0000
,
1000
0100
0010
0000
1000
0100
0010
0000
1000
0010
0100
0000
1000
0010
0100
0000
,
0001
1000
0001
0100
0001
0010
0100
1000
0001
0100
0010
0001
0010
0100
0010
1000
,
0001
1000
0100
0010
0001
0000
0100
0010
0100
0000
0110
0000
1001
0000
0000
0000
,
1010
0000
0000
0000
;

//--------------- dance-double - Fred-104 ----------------
#NOTEDATA:;
#STEPSTYPE:dance-double;
#DESCRIPTION:Fred-104;
#DIFFICULTY:Easy;
#METER:7;
#CREDIT:Fred-104;
#NOTES:
00000000
00000000
00000000
00000000
,
00000000
00000000
00000000
00000000
,
00000000
00000000
00000000
00000000
,
00000000
00000000
00000000
00000000
,
00000000
00000000
00000000
00000000
,
00000000
00000000
00000000
00000000
,
00001000
00000000
00000010
00000000
,
00000100
00000000
00000001
00000000
,
00001000
00001000
00000001
00000001
,
00000100
00001000
00010000
00001000
,
00022000
00033000
00001000
00010000
,
00100000
00000000
00010000
00001000
,
00000010
00000000
00001000
00010000
,
00100000
00000000
00010000
00001000
,
00022000
00033000
00001000
00010000
,
00100000
00000000
00010000
00001000
,
00000100
00000000
00001000
00010000
,
01000000
00010000
00001000
00010000
,
00022000
00033000
00010000
01000000
,
00010000
00001000
00010000
00100000
,
00010000
00001000
00000010
00001000
,
00010000
00000000
00001000
00000000
00010000
00001000
00010000
00000000
,
00022000
00033000
00010000
00001000
,
00000100
00001000
00010000
00001000
,
00000010
00000000
00001000
00000000
00010000
00000000
00001000
00001000
,
00000000
00000000
00000000
00001001
,
00000002
00000000
00000000
00000000
,
00000000
00000000
00000023
00002030
,
00023000
00000000
00000000
00000000
,
02030000
00000000
23000000
30020000
,
10030000
01000000
00100000
01000000
,
10000000
00100000
00010000
00001000
,
00010000
00001000
00010000
00000000
00001000
00010000
00001000
00000000
,
00010000
00010000
00001000
00001000
,
00022000
00033000
00020000
00031000
,
00020000
00032000
00003020
00000230
,
00020300
00000000
00031000
00010000
,
00000100
00000000
00001000
00000001
00001000
00000001
00001000
00000000
,
00002002
00003003
00000002
00000103
,
00000020
00002030
00023000
00230000
,
00302000
00000000
00013000
00001000
,
00010000
00000000
01000000
00100000
01000000
00100000
01000000
00000000
,
00010000
10000000
01000000
00010000
,
00001000
00000010
00000001
00000100
,
00001000
00010000
00100000
10000000
,
00010000
00000000
10000000
00000000
01000000
00100000
01000000
00000000
,
10000000
00100000
01000000
00010000
,
00100000
00001000
00010000
00000100
,
00001000
00000100
00001000
00000000
00000001
00000100
00000001
00000000
,
00000100
00000010
00001000
00010000
,
00011000
00001000
00010000
00100000
,
00010000
00001000
00010000
01000000
,
00010000
00001000
00010000
00100000
,
00010000
00001000
00022000
00033000
,
00010000
00001000
00000010
00001000
,
00010000
00001000
00000100
00001000
,
00010000
01000000
00010000
00001000
,
00010000
00100000
00220000
00330000
,
00010000
00000000
10000000
00000000
00010000
10000000
01000000
00000000
,
00100000
00010000
01000000
00001000
,
00010000
00000000
00000100
00000000
00001000
00000100
00001000
00000000
,
00000100
00000010
00000001
00002000
,
00003001
00000100
00000010
00001000
,
00000100
00010000
00001000
00100000
,
00010000
10000000
00010000
00000000
10000000
01000000
10000000
00000000
,
00100000
10000000
01000000
00010000
,
00011000
00000000
00000000
00000000
;

//--------------- dance-double - Fred-104 ----------------
#NOTEDATA:;
#STEPSTYPE:dance-double;
#DESCRIPTION:Fred-104;
#DIFFICULTY:Medium;
#METER:12;
#CREDIT:Fred-104;
#NOTES:
00000000
00000000
00000000
00000000
,
00000000
00000000
00000000
00000000
,
00000000
00000000
00000000
00000000
,
00000000
00000000
00000000
00000000
,
00000000
00000000
00000000
00000000
,
00000000
00000000
00000000
00000000
,
00020000
00032000
00003020
00000230
,
00020300
00032000
00003020
00000230
,
00010300
00010000
00001000
00001000
00010000
00010000
00001000
00001000
,
00000000
00100000
00001000
00010000
01000000
00100000
01100000
00000000
,
10010000
00000000
00000000
00010000
01000000
00000000
00100000
00000000
10000000
00000000
00000000
10000000
01000000
00000000
00100000
00000000
,
00001000
00000000
00000000
00001000
00010000
00000000
00000100
00000000
00010000
00000000
00000000
00010000
00001000
00000000
00010000
00000000
,
00000010
00000000
00000000
00000010
00001000
00000000
00000100
00000000
00000010
00000000
00000000
00000010
00000001
00000000
00000100
00000000
,
00001000
00000000
00000000
00001000
00010000
00000000
00001000
00000000
00010000
00000000
00100000
00000000
20000000
00000000
30000000
00000000
,
10010000
00000000
00000000
10000000
01000000
00000000
00100000
00000000
00010000
00000000
00000000
00010000
01000000
00000000
00001000
00000000
,
00010000
00000000
00000000
00010000
00001000
00000000
00100000
00000000
00001000
00000000
00000000
00001000
00010000
00000000
00000100
00000000
,
00001000
00000000
00000000
00001000
00000100
00000000
00000010
00000000
00000001
00000000
00000000
00000001
00000100
00000000
00000010
00000000
,
00000100
00000000
00000000
00000000
00000010
00001000
00000000
00000100
00000000
00000000
00010000
00000000
00022000
00000000
00033000
00000000
,
00020010
00000000
00031000
00100000
00010000
00100000
00010000
01000000
,
00010000
00100000
01000000
00100000
00010000
10000000
00010000
01000000
,
00100000
10000000
00100000
10000000
01000000
00100000
00001000
00010000
,
00100000
10000000
01000000
00010000
00001000
00000010
00000002
00001003
,
00000001
00000010
00000001
00000100
00000001
00000010
00000100
00001000
,
00000100
00010000
00001000
01000000
00010000
00100000
00010000
10000000
,
00010000
00100000
01000000
10000000
00010000
00100000
01000000
10000000
,
00000000
00000000
00000000
10010000
,
00200000
00000000
00000000
00000000
,
00000000
00000000
00320000
00032000
,
00003020
00000000
00000000
00000000
,
00002030
00000000
00023000
02030000
,
03010000
00001000
00010000
00100000
00010000
00001000
00010000
01000000
,
00010000
00001000
00000100
00001000
00010000
00001000
00000010
00001000
,
00010000
00010000
00001000
00001000
00010000
00010000
00001000
00001000
,
00022000
00033000
00202000
00303000
00022000
00033000
00020020
00030030
,
00011000
00000000
00001000
00100000
00120000
00000000
10030000
00000000
,
20000000
31000000
00020000
00030000
00002000
00003100
00000002
00000003
,
00001001
00000000
00000010
00000000
00000200
00000000
00000301
00000010
,
00000001
00000010
00001000
00010000
00001000
00010000
00200000
00300000
,
20010000
00000000
30010000
01000000
01200000
00000000
10300000
00000000
,
02000000
03100000
00002000
00003000
00020000
00030100
00000020
00000030
,
00001001
00000000
00000001
00000100
00002000
00000000
00003001
00000010
,
00001000
00000001
00001000
00000001
00000100
00000010
00002000
00003000
,
00011000
00000000
00000000
00001000
00100000
00000000
00010000
00000000
10000000
00000000
00000000
10000000
01000000
00000000
00100000
00000000
,
01000000
00000000
00000000
01000000
10000000
00000000
00100000
00000000
01000000
00000000
00000000
01000000
00010000
00000000
00001000
00000000
,
00010000
00000000
00000000
00010000
00001000
00000000
00010000
00000000
00100000
00000000
00000000
00100000
00010000
00000000
00001000
00000000
,
00010000
00000000
00000000
00010000
00000100
00000000
00001000
00000000
00000100
00000000
00000010
00000000
00000001
00000000
00000000
00000000
,
00002000
00003002
00000203
00000320
,
00001030
00000100
00010000
00000100
00010000
00001000
00100000
00010000
,
10000000
00010000
00100000
01000000
10000000
00010000
01000000
00100000
,
00000000
10000000
01000000
00010000
00001000
00000010
00000001
00000000
,
00001000
00000001
00000100
00000001
00000010
00000100
00000010
00000001
,
00000100
00001000
00010000
01000000
10000000
00010000
20000000
00000000
,
30100000
10000000
01000000
10000000
00100000
01000000
00010000
00100000
,
01000000
00100000
00001000
00010000
00001000
01000000
00002000
00000000
,
00013000
00000100
00001000
00000100
00010000
00000100
00001000
00000100
,
00000010
00000001
00000100
00000010
00001000
00000100
00010000
01000000
,
00001000
00010000
00001000
00100000
00010000
10000000
00100000
01000000
,
00010000
10000000
01000000
00100000
00001000
00010000
00012000
00000000
,
00003010
00000001
00001000
00000001
00000100
00000010
00000100
00000001
,
00000010
00000100
00000010
00000001
00000100
00001000
00010000
00100000
,
00010000
00001000
00010000
01000000
00010000
00001000
00000010
00001000
,
00010000
00000000
00001000
00000000
00000100
00000000
00000001
00000000
00001000
00000001
00001000
00000001
00001000
00000000
00000001
00000000
,
00001000
00000010
00000100
00000001
00001000
00000010
00000100
00000001
,
00000010
00000100
00010000
00001000
00100000
01000000
10000000
00010000
,
10000000
00100000
01000000
00010000
10000000
01000000
00100000
00010000
,
10000000
01000000
00010000
00001000
00000010
00000001
00001000
00000000
,
00001001
00000000
00000000
00000000
;

//--------------- dance-double - Fred-104 ----------------
#NOTEDATA:;
#STEPSTYPE:dance-double;
#DESCRIPTION:Fred-104;
#DIFFICULTY:Hard;
#METER:17;
#CREDIT:Fred-104;
#NOTES:
00000000
00000000
00000000
00000000
,
00000000
00000000
00000000
00000000
,
00000000
00000000
00000000
00000000
,
00000000
00000000
00000000
00000000
,
00000000
00000000
00000000
00000000
,
00000000
00000000
00000000
00000000
,
11000000
00100000
00010000
01000000
01100000
10000000
01000000
00010000
,
00011000
00001000
00000010
00000001
00001001
00000100
00001000
00000010
,
00000100
00000001
00000010
00000000
00000100
00001000
00000010
00000000
00010000
00001000
00100000
00010000
10000000
00100000
01000000
00010000
,
00000000
10000000
01000000
00100000
00010000
00000000
00001000
00000100
00000010
00000000
00000001
00000000
00002002
00000000
00003003
00000000
,
00000210
00000000
00000000
00000000
00000301
00000010
00000100
00000010
00000001
00000000
00001000
00000010
00001000
00000100
00010000
00001000
,
00010000
00000000
00001000
00100000
00010000
10000000
00010000
01000000
00100000
00000000
10000000
01000000
00100000
00010000
00100000
01000000
,
10000000
00000000
00010000
10000000
00100000
01000000
00010000
10000000
00100000
00000000
01000000
00010000
10000000
00100000
01000000
00010000
,
00100000
00000000
00001000
00010000
00000100
00001000
00000010
00000100
00000001
00001000
00000001
00001000
00000002
00000000
00000000
00000003
,
00002001
00000000
00000000
00000000
00003001
00000010
00000100
00001000
00000001
00000000
00000010
00000100
00001000
00000001
00000010
00000100
,
00001000
00000000
00000100
00010000
00001000
00100000
00010000
00100000
01000000
00000000
10000000
00100000
01000000
00010000
10000000
00100000
,
01000000
00000000
00010000
10000000
01000000
00100000
00010000
10000000
01000000
00000000
00100000
00010000
01000000
00001000
00010000
00000100
,
00001000
00000000
00000000
00000010
00001000
00000100
00000000
00010100
00000000
00010000
00001000
00000000
00022000
00000000
00033000
00000000
,
02001000
00000000
00000000
00000000
03001000
00010000
00000100
00010000
00001000
00010000
00000100
00010000
00001000
00010000
00000100
00001000
,
00000100
00010000
00000100
00001000
00000010
00001000
00000001
00001000
00000010
00001000
00000001
00001000
00000200
00000000
00000310
00000000
,
00000001
00000010
00000100
00000010
00000001
00000010
00000100
00000010
00000001
00000100
00000010
00001000
00000100
00010000
00001000
00100000
,
00001000
00010000
00001000
00100000
00010000
10000000
00010000
01000000
00010000
10000000
00010000
00100000
02000000
00000000
13000000
00000000
,
10020000
00000000
10030000
00010000
01000000
00010000
10000000
00010000
00100000
00010000
01000000
00010000
00100000
00010000
01000000
00001000
,
00010000
00001000
00100000
00001000
00010000
00000100
00001000
00000100
00001000
00000010
00000100
00000001
00000200
00000000
00000310
00000000
,
00001000
00000001
00000010
00000000
00000100
00010000
00001000
00000000
00100000
00010000
10000000
00100000
01000000
00010000
10000000
01000000
,
00000000
00000000
00000000
00011000
,
00020000
00000100
01000000
00000010
,
00100000
00000000
00000010
00000000
00230000
00302000
00023000
00032000
,
00023000
00000000
00000000
00000000
00001000
00000000
00000000
00000000
01000000
00000000
00000000
00000000
00031000
00000000
00010000
00000100
,
00002000
00000000
00000100
00000000
00003020
00000000
00000230
00000320
,
00001030
00000100
00001000
00000010
00000100
00000001
00000010
00001000
,
00010000
01000000
10000000
00010000
01000000
00100000
10000000
01000000
,
10000000
01000000
00100000
00010000
00100000
00001000
00010000
00000100
00001000
00000100
00000010
00000001
00001000
00000001
00000100
00000000
,
00000120
00001030
00012000
00013000
01200000
01300000
20020000
30030000
,
11000000
00000000
01000000
00100000
00201000
00301000
00010000
00001000
,
00021000
01030000
00012000
00003100
00021000
00130000
00012000
00003010
,
00021000
00000000
00000000
00000000
00031000
00000000
00100000
00000000
02100000
00000000
00000000
00000000
13000000
00010000
10000000
01000000
,
10000000
00100000
01000000
00100000
20000000
00000000
32000000
00000000
03020000
00000000
00032000
00000000
00023000
00000000
00030000
00000000
,
00012000
00000000
00003010
00000001
00002001
00003100
00010000
00001000
,
00021000
01030000
00012000
00003010
00021000
00130000
00012000
00003100
,
00021000
00000000
00000000
00000000
00031000
00010000
00001000
00100000
00020000
00000000
00000000
00000000
00130000
00010000
01000000
00001000
,
00010000
00000100
00001000
00000100
00000020
00000000
00000032
00000000
00000203
00000000
00002300
00000000
00023000
00000000
00030000
00000000
,
00011000
00000000
00000000
00010000
00100000
00000000
01000000
00000000
10000000
00000000
00000000
10000000
00100000
00000000
01000000
00000000
,
00010000
00000000
00000000
00010000
00100000
00000000
10000000
00000000
00100000
00000000
00000000
00001000
00010000
00000000
00000010
00001000
,
00000100
00000000
00000000
00000010
00000001
00000000
00000100
00000000
00001000
00000000
00000000
00010000
00100000
00000000
10000000
00000000
,
00010000
00000000
00000000
10000000
01000000
00000000
00100000
00000000
00001000
00000000
00010000
00001000
00010000
00000000
00000010
00000000
,
00010000
00001000
00000100
00000000
00001000
00000100
00000010
00000000
00000100
00000010
00001000
00000000
00000100
00000000
00010000
00000000
,
00001000
00010000
01000000
00000000
00010000
01000000
00100000
00000000
01000000
00100000
00010000
00000000
01000000
00000000
00001000
00000000
,
00010000
00001000
00010000
00000100
00001000
00000001
00000010
00000100
00001000
00000100
00010000
00001000
00100000
00010000
00100000
01000000
,
00000000
10000000
01000000
00010000
00001000
00000000
00010000
00001000
00000010
00000000
00000001
00000000
00002002
00000000
00003003
00000000
,
00000110
00000000
00001000
00000010
00000100
00000010
00001000
00000000
00000001
00000010
00000100
00001000
00000100
00000010
00000001
00000000
,
00001000
00000000
00000010
00010000
00001000
00010000
00100000
00000000
10000000
00010000
01000000
00010000
10000000
01000000
00100000
00000000
,
00010000
00000000
10000000
00100000
00010000
00100000
01000000
00000000
00010000
10000000
00010000
01000000
00100000
01000000
00010000
00000000
,
00100000
00000000
00001000
00010000
00001000
00000010
00000001
00000000
00001000
00000100
00000010
00000001
00002000
00000000
00000000
00003000
,
00001100
00000000
00000000
00000000
00000100
00000000
00010000
00000000
00001000
00000000
00010000
00000000
00100000
00000000
00000000
00000000
10000000
00000000
00010000
00000000
00100000
00000000
01000000
10000000
01000000
00000000
00100000
00000000
01000000
00000000
00000000
00000000
,
10000000
00000000
00000000
00000000
00100000
00000000
00010000
00000000
00001000
00000000
00010000
00000000
00100000
00000000
00000000
00000000
01000000
00000000
00010000
00000000
00001000
00000000
00010000
00001000
00010000
00000000
00100000
00000000
00010000
00000000
00000000
00000000
,
00001000
00000000
00000000
00000000
00010000
00000000
00001000
00000000
00000100
00000000
00001000
00000000
00010000
00000000
00000000
00000000
00001000
00000000
00000010
00000000
00000001
00000000
00001000
00000001
00001000
00000000
00000001
00000000
00000100
00000000
00000000
00000000
,
00000001
00000000
00000000
00000000
00000010
00000000
00000100
00000000
00000010
00000000
00000001
00000000
00001000
00000000
00000000
00000000
00000001
00000000
00000100
00000000
00000010
00000000
00001000
00000100
00001000
00000000
00000100
00000000
00010000
00000000
00000000
00000000
,
00001000
00000000
01000000
00000000
00010000
00000000
01000000
00000000
00001000
00000000
00100000
00000000
00010000
00000000
00000000
00000000
01000000
00000000
00010000
00000000
00100000
00000000
01000000
00100000
01000000
00000000
00100000
00000000
00010000
00000000
00000000
00000000
,
10000000
00000000
00010000
00000000
01000000
00000000
00010000
00000000
10000000
00000000
01000000
00000000
00100000
00000000
00000000
00000000
00001000
00000000
00010000
00000000
00001000
00000000
01000000
00001000
01000000
00000000
00001000
00000000
00010000
00000000
00000000
00000000
,
00001000
00000000
00000100
00000000
00000001
00000000
00001000
00000000
00000001
00000000
00000010
00000000
00000100
00000000
00000000
00000000
00000010
00000000
00000001
00000000
00001000
00000000
00000001
00000010
00000001
00000000
00000010
00000000
00000100
00000000
00000000
00000000
,
00000010
00000000
00000001
00000000
00000100
00000000
00001000
00000000
00010000
00000000
00100000
00000000
10000000
00000000
00000000
00000000
01000000
00000000
00010000
00000000
00001000
00000000
00010000
00001000
00020000
00000000
00000000
00000000
00030100
00000000
00000000
00000000
,
00010000
00001000
00000010
00000000
00001000
00000010
00000100
00000000
00000010
00000100
00001000
00000000
00000010
00000000
00010000
00000000
,
00001000
00010000
00100000
00000000
00010000
00100000
01000000
00000000
00100000
01000000
00010000
00000000
00100000
00000000
00001000
00000000
,
00010000
00001000
00010000
00000100
00001000
00000010
00010000
00001000
00100000
00010000
01000000
00001000
00010000
00001000
00000010
00000001
,
00001000
00000001
00000100
00001000
00010000
00000000
00100000
10000000
00010000
00000000
10000000
00000000
11000000
00000000
00000000
00000000
,
10010000
00000000
00000000
00000000
;
