#TITLE:疾風迅雷;
#ARTIST:KUMOKIRI;
#TITLETRANSLIT:Shippuujinrai;
#GENRE:ORIENTAL CORE;
#BANNER:Shippuujinrai.png;
#BACKGROUND:Shippuujinrai-bg.png;
#CDTITLE:./CDTitles/bm IIDX 21 SPADA.png;
#MUSIC:Shippuujinrai.ogg;
#SAMPLESTART:81.5;
#SAMPLELENGTH:15;
#BPMS:0=180,172=90,188=180,318=360,320.5=180;
#STOPS:318=0.125,318.75=0.125,319.5=0.167;
#BGSTAGE:30;

//--------------- dance-single - Fred-104 ----------------
#NOTES:
     dance-single:
     Fred-104:
     Beginner:
     7:
     :
0000
0000
0000
0000
,
0000
0000
0000
0000
,
0000
0000
0000
0000
,
0000
0000
0000
0000
,
0000
0000
0000
0000
,
0000
0000
0000
0000
,
0000
0000
0000
0000
,
1000
0000
0000
0001
0000
0000
0000
0000
,
0000
1000
0000
0001
0000
0000
0100
0000
,
0001
0000
0000
0010
0000
0000
0000
0000
,
0000
0001
0000
0000
2002
0000
3003
0000
,
1000
0000
0000
0010
0000
0000
1000
0000
,
0100
0000
0000
0010
0000
0000
0100
0000
,
0010
0000
0000
0001
0000
0000
1000
0000
,
0001
0000
0000
0100
0000
0000
0001
0000
,
0010
0000
0000
0100
0000
0000
1000
0000
,
0001
0000
0000
1000
0000
0000
0010
0000
,
1000
0000
0000
0100
0000
0000
0010
0000
,
0001
0000
0000
1000
0000
0000
0001
0000
,
1000
1000
0000
0010
,
1000
1000
0000
0001
,
1000
0001
0000
0001
,
0100
0001
0001
0001
,
1000
0010
1000
1000
,
0100
0010
0001
1000
,
0001
0000
1000
0000
,
0001
0000
1000
0010
,
1000
0000
0010
1000
,
0100
0000
0010
0001
,
1000
0000
0001
1000
,
0100
0000
1000
0010
,
0100
0000
0001
0020
,
0130
0000
1000
0002
,
1003
0000
0010
0200
,
0301
0000
1000
0002
,
2003
0000
0000
3020
0000
0000
2030
0000
,
3002
0000
2003
0000
,
3020
0000
2030
0000
,
3200
0000
0320
0000
,
0032
0000
2003
0000
,
3002
0000
0023
0032
,
2003
0000
3020
0000
,
0230
0000
0302
0003
,
1001
0001
0100
0010
,
1000
0000
0100
0000
0010
0000
0001
1000
,
0001
1000
0010
1000
,
0001
0100
0001
0100
0010
1000
0010
1000
,
0002
0000
0000
0003
,
2000
0000
0000
3000
,
0020
0000
0000
0030
,
0200
0000
0000
0300
,
0002
0000
0000
0003
,
2000
3000
0200
0300
,
0020
0030
0002
0003
,
2000
3000
0020
0030
,
0200
0300
0002
0003
,
2000
3000
0002
0003
,
0000
0000
0000
0000
,
1000
1000
0010
0100
,
0001
1000
0001
0000
,
1001
0000
1000
0010
,
1000
0100
0010
0001
,
1001
0000
0001
0100
,
0001
0001
0010
0001
,
1000
0010
0100
0100
,
0110
0000
0001
1000
,
1001
0000
0000
0000
,
1001
0000
0000
0000
,
1001
0000
0110
0000
,
1001
0000
0110
0000
,
1000
0000
0010
1000
,
0100
0000
0010
0001
,
1000
0000
0001
0000
,
1000
0100
0010
0001
,
1000
1000
0001
0001
,
1001
0000
0000
0000
,
0000
0000
0000
0000
,
1000
1000
0010
0010
,
0100
0010
0100
0000
0001
1000
0001
0000
,
1001
0000
2002
0000
,
0000
0000
0000
0000
,
0000
0000
0000
0000
,
3003
0000
0000
0000
;

//--------------- dance-single - Fred-104 ----------------
#NOTES:
     dance-single:
     Fred-104:
     Easy:
     11:
     :
0000
0000
0000
0000
,
0000
0000
0000
0000
,
0000
0000
0000
0000
,
0000
0000
0000
0000
,
0000
0000
0000
0000
,
0000
0000
0000
0000
,
0000
0000
0000
0000
,
1001
0000
0000
0110
0000
0000
0001
0000
,
1000
0010
0000
1000
0000
0010
0100
0000
,
0110
0000
0000
0101
0000
0000
1001
0000
,
0001
1000
0000
0010
0000
1000
0100
0000
,
1000
0000
0010
0100
0000
0010
1000
0000
,
0100
0000
0010
0001
0000
0010
0100
0000
,
1000
0000
0001
0100
0000
0010
1000
0000
,
0001
0000
1000
0100
0000
0010
0001
0000
,
1000
0000
0001
0100
0000
0010
0100
0000
,
0001
0000
1000
0100
0000
0010
0001
0000
,
1000
0000
0001
0010
0000
1000
0010
0000
,
0001
2000
3020
0230
,
0301
0010
0001
0000
0000
0000
1000
0000
,
1000
0100
1000
0000
0000
0000
0010
0000
,
0100
0010
0100
0000
0001
0010
0001
0000
,
1000
0010
1000
0000
0001
0100
0001
0000
,
1000
0100
1000
0100
1000
0010
0100
0000
,
0001
0010
0001
0000
2000
3200
0320
0032
,
1003
0010
1000
0010
0100
0001
0100
0010
,
2000
0000
0000
0000
3001
1000
0001
0100
,
0001
0010
0001
0000
0100
0000
0010
0000
,
1000
0010
0000
1000
0010
0000
0100
0000
,
0010
1000
0100
0000
0010
0000
0001
0000
,
0100
0001
0000
0100
0010
0000
0100
0000
,
0001
1000
0010
0000
0100
0000
0010
0000
,
1000
0001
0000
0100
0001
0000
1000
0000
,
0001
0010
0100
0000
1000
0000
0001
0000
,
0100
0010
0000
0010
1000
0001
1000
0000
,
1002
0000
0000
0203
0000
0000
0320
0000
,
2030
3020
0230
2300
,
3200
0302
2003
3200
,
0320
0032
2003
3002
,
0203
0000
0320
2030
,
3002
0000
2003
3200
0320
0000
0032
0000
,
2003
3020
0230
0302
,
1003
0010
1000
0000
0001
0100
0001
0000
,
1100
0000
0000
0100
0000
0000
0010
0000
0001
0000
0100
0000
0010
0100
0010
0000
,
1000
0010
1000
0100
0010
0001
1000
0001
,
0200
0000
0000
0000
0301
0000
0010
0000
0100
0000
1000
0010
1000
0010
0100
0000
,
0001
0010
0001
0000
1000
0010
1000
0000
0001
0100
0001
0000
1000
0000
1000
0000
,
0001
0100
0010
0000
1000
0100
0010
0000
,
0001
0100
0010
0000
1000
0010
0100
0000
,
0001
1000
0100
0000
1000
0001
0100
0000
,
0001
0010
0100
0000
1000
0001
0010
0000
,
0001
0100
0010
0000
1000
0100
1000
0000
,
0001
0100
0010
0000
0001
0010
1000
0000
,
0001
0100
1000
0000
0100
0010
1000
0000
,
0001
1000
0100
0000
0010
0001
1000
0000
,
0100
1000
0001
0000
0100
0010
1000
0000
,
0001
0100
0001
0100
0010
1000
0010
1000
,
0000
0001
0100
0100
0010
1000
0001
0000
,
1000
0100
1000
0010
1000
0001
0010
0001
,
0200
0010
1000
0310
,
0100
0000
0001
0010
0100
0000
1000
0010
,
0100
0001
1000
0001
0010
0100
0010
0001
,
2000
0000
3010
1000
0100
1000
0010
0000
,
0100
0001
0010
0001
1000
0001
0100
0000
,
0001
0010
0100
1000
1000
0010
0100
0001
,
0002
0000
0000
0000
1003
0001
1000
0001
,
1001
0000
0000
0000
0000
0000
0000
0010
,
0100
0000
0000
0000
0000
0000
0000
0010
,
0100
0000
0000
0000
0000
0000
0010
0000
1000
0000
0000
0001
0000
0000
1000
0000
,
1001
0000
0001
1000
,
0001
0100
0100
1000
,
0001
0000
0000
1000
0000
0000
0100
0000
0100
0000
0001
0000
,
1000
0010
1000
0100
0010
0001
0100
0001
,
0100
0010
0100
0001
0010
0100
1000
0001
,
0100
0010
1000
0001
,
1001
0000
0000
0000
,
0000
0000
0000
0000
,
1000
0100
1000
0010
0100
0010
1000
0001
,
0010
0001
0100
1000
0100
0001
0010
0100
,
1000
0000
0000
0000
0000
0000
0000
0000
0000
0000
0000
0000
0000
0000
0000
0000
0000
0000
0000
0000
0000
0000
0000
0000
0001
0000
0000
0000
0000
0000
0000
0000
0022
0033
0000
0000
0000
0000
0000
0000
0000
0000
0000
0000
2200
3300
0000
0000
0000
0000
0000
0000
0000
0000
0000
0000
0220
0330
0000
0000
0000
0000
0000
0000
,
0000
2002
0000
0000
0000
0000
0000
0000
,
0000
0000
0000
0000
,
3003
0000
0000
0000
;

//--------------- dance-single - Fred-104 ----------------
#NOTES:
     dance-single:
     Fred-104:
     Medium:
     15:
     :
0000
0000
0000
0000
,
0000
0000
0000
0000
,
0000
0000
0000
0000
,
0000
0000
0000
0000
,
0000
0000
0000
0000
,
0000
0000
0000
0000
,
0000
0000
0000
0000
,
1100
0000
0000
0000
0000
0000
0101
0000
0000
0000
0000
0000
1100
0000
0000
0001
,
0100
0000
0010
0000
0000
0000
1000
0000
0100
0000
0010
0000
0001
0000
0100
0010
,
0100
0000
0000
0000
0000
0000
1010
0000
0000
0000
0000
0000
1000
0000
0001
0010
,
0001
1001
0000
0010
1000
0001
2000
0000
,
3001
0010
0100
1100
0000
1000
0020
0000
,
1030
0000
0100
0000
0010
0000
0100
0000
0000
0000
1000
0000
0001
0010
0001
0000
,
0100
0001
0010
0001
0000
0001
2000
0000
,
3001
0000
0100
0000
0010
0000
0100
0000
0000
0000
0001
0000
1000
0000
0100
0010
,
0100
1000
0001
0010
0000
0010
0200
0000
,
0310
1000
0001
0100
0000
0010
2000
0000
,
3001
0010
1000
0010
0000
0001
0200
0000
,
0310
0000
0000
0000
1000
0100
1000
0100
0010
0100
0010
0100
1000
0000
0010
0000
,
1000
0000
0100
1000
0100
0000
0010
0000
0001
0000
0100
0010
0100
0000
0001
0010
,
0001
0000
0100
0010
0100
0000
0001
0000
1000
0000
0001
0100
0001
0000
0100
0010
,
0100
0000
0001
0100
0001
0000
1000
0010
1000
0000
0010
0100
0010
0000
1000
0100
,
1000
0000
0001
0000
0100
0010
0100
0000
0001
0000
1000
0000
1001
0000
0000
0000
,
0001
0010
0010
0010
0100
1000
1000
1000
,
0001
0100
0010
0100
0002
0023
0230
2300
,
3001
0000
0100
0010
0100
0000
0001
0000
1000
0010
1000
0000
0001
0100
0001
0000
,
2002
0000
0000
0000
0000
0000
3003
0000
1000
0000
0001
0100
0001
0000
1000
0000
,
0001
0010
0010
0100
0010
0010
0001
0100
,
0100
1000
0100
0100
0001
0010
0100
0000
,
1000
0100
0100
0010
0100
0100
1000
0010
,
0010
0001
0010
0010
1000
0001
1000
0000
,
0001
0010
1000
0001
0100
1000
0001
0010
,
1000
0001
0100
1000
0001
0010
1000
0000
,
0001
0010
0100
0001
1000
0010
0100
1000
,
0001
0100
1000
0100
0001
0010
0001
0000
,
2000
3200
0320
0032
0000
0203
0320
2030
,
3200
0000
2300
3020
0230
0320
2030
3002
,
2003
3020
2030
3020
0230
0302
0203
0302
,
0023
0032
0023
0032
2003
3200
2300
3200
,
2300
0000
3020
2030
,
3002
0000
0023
0230
2300
3002
0203
0320
,
2030
3200
0320
0032
0203
0320
0230
0302
,
1003
1000
0001
0001
1000
0001
1001
0000
,
1000
0100
0010
0001
0000
1000
0100
0010
0001
0000
0100
0010
1000
0010
0100
0000
,
0001
0010
0001
0100
0001
0010
0100
1000
0010
1000
0010
1000
0100
0010
0001
1000
,
0002
0000
0000
0000
0103
0000
0010
0000
1000
0000
0001
0100
0010
1000
0001
0010
,
0001
0020
0032
0023
0230
2300
3200
2300
3010
1000
0100
0010
0001
0100
0010
0100
,
0001
0010
0001
0100
0100
0010
1000
0100
,
0010
0001
0010
0001
1000
0001
0100
0010
,
1000
0100
0010
1000
0010
0100
1000
0001
,
0100
0010
0100
0001
0010
0001
1000
0001
,
1000
0100
0010
0001
0100
0010
2000
0000
,
3001
0100
0001
0000
0010
0000
0100
0000
1000
0000
0010
0000
0100
0000
0010
0000
,
1000
0010
1000
0000
0100
0000
1000
0000
0010
0000
0100
0000
0001
0000
1000
0000
,
0001
0100
0001
0000
0100
0000
0010
0000
1000
0000
0001
0000
0010
0000
0100
0000
,
0010
0100
0010
0000
0001
0000
1000
0000
0001
0000
0100
0000
0010
0000
1000
0000
,
0010
1000
0010
0000
0100
0001
0100
0000
0001
1000
0001
0000
1000
0001
1000
0001
,
0000
1000
0010
0100
0001
0100
1000
0100
,
0001
0000
0010
0000
0100
0000
1000
0010
1000
0000
0000
0010
0100
0000
0001
0000
,
1000
0000
0000
0100
0010
0000
0001
0000
1000
0010
1000
0010
0100
0000
0001
0000
,
2000
0000
0000
0000
0000
0000
3001
1000
0001
0000
0000
0100
0010
0000
0100
0000
,
0001
0010
0001
0000
1000
0010
1000
0000
0001
0000
0010
0000
0100
0000
1000
0000
,
0002
0000
0000
0000
0000
0000
0103
0010
1000
0000
0000
0010
0100
0000
0010
0000
,
1000
0000
0100
1000
0100
0000
0010
0000
0001
1000
0001
0000
0100
0000
0000
0000
,
0010
0000
1000
0010
1000
0000
0001
1000
0001
0000
0100
0010
0100
0000
0001
0000
,
2000
0000
3200
0000
0320
0000
0032
0000
1003
0001
1000
0001
1000
0001
1000
0000
,
1001
0000
0000
0000
0000
0000
0000
0001
,
0101
0000
0000
0000
0000
0000
0000
0000
0000
0000
0000
0000
0000
0000
0100
0010
,
0100
0000
0000
0000
0000
0000
0010
1000
0010
0000
0000
1001
0000
0000
0001
0100
,
0010
0000
0000
0000
0000
0000
1000
0010
0100
0001
0000
0000
,
1000
0000
0000
1100
0000
0000
0010
0100
0001
0010
0000
0000
,
0100
1000
0010
0100
0000
0000
0001
0000
1000
0000
1010
0000
,
1000
0100
1000
0000
0010
0100
0010
0000
1000
0010
1000
0000
0001
0100
0001
0000
,
0100
0010
0100
0000
0010
1000
0010
0000
1000
0001
1000
0000
0001
0100
0001
0000
,
1001
1100
1001
0101
,
0110
0000
0000
0000
,
0000
0000
0000
0000
,
0001
0010
0100
1000
0001
0100
0010
1000
,
0001
1000
0001
1000
0001
1000
0001
1000
0001
1000
0001
1000
0001
1000
0001
1000
,
0001
0000
0000
0000
0000
0000
0000
0000
0000
0000
0000
0000
0000
0000
0000
0000
0000
0000
0000
0000
0000
0000
0000
0000
1000
0000
0000
0000
0010
0000
0000
0000
0200
0300
0000
0000
0000
0000
0000
0000
0000
0000
0000
0000
0002
0003
0000
0000
0000
0000
0000
0000
0000
0000
0000
0000
0022
0033
0000
0000
0000
0000
0000
0000
,
0000
2002
0000
0000
0000
0000
0000
0000
,
0000
0000
0000
0000
,
3003
0000
0000
0000
;

//--------------- dance-single - Fred-104 ----------------
#NOTES:
     dance-single:
     Fred-104:
     Hard:
     18:
     :
0000
0000
0000
0000
,
0000
0000
0000
0000
,
0000
0000
0000
0000
,
0000
0000
0000
0000
,
0000
0000
0000
0000
,
0000
0000
0000
0000
,
0000
0000
0000
0000
,
1010
0000
0000
0000
0000
0000
0101
0000
0000
0000
0000
0000
1001
0000
0000
0001
,
0010
0100
1000
0000
0000
0000
1010
0000
1000
0000
0001
0000
1000
0000
0001
0100
,
0010
0000
0000
1010
0000
0000
0000
0000
,
0000
0000
1001
0000
0000
0000
0000
0000
0220
0000
0000
0330
0100
0010
1000
0100
,
0010
0000
0001
0101
0000
1000
1100
0000
,
0001
0000
0100
0000
1000
0000
0100
0000
0000
0000
0001
0000
1000
0100
0010
0001
,
1000
0000
0001
0011
0000
1000
1010
0000
,
0001
0000
0010
0000
1000
0000
0010
0000
0000
0000
0001
0000
2000
0000
3001
1000
,
0100
0000
1000
0110
0000
0001
0110
0000
,
1000
0000
0000
0000
0100
0000
1001
0000
0000
0000
0010
0000
1000
0100
1000
0001
,
0100
0000
0010
0101
0000
0010
1100
0000
,
1001
0000
0000
0000
0001
0100
0010
1000
0100
1000
0010
0100
0001
0010
0001
1000
,
0001
0100
0010
1000
0002
0000
0000
0000
0000
0000
1003
0001
0100
0000
0001
1000
,
0100
1000
0001
0100
0002
0000
0000
0000
0000
0000
1003
0100
0010
0001
0010
0100
,
1000
0001
0100
0010
1000
0000
0010
1000
0100
0000
1000
0010
0100
0000
0001
0010
,
0100
0000
0010
0001
0100
0010
1000
0001
1000
0000
0001
1000
0010
1000
0001
0000
,
1000
0100
0010
0001
0010
0100
1000
0000
0001
0100
0010
1000
0010
0100
0001
0000
,
1000
0010
1000
0100
0010
0001
0100
0001
0200
0000
0302
0000
2003
0000
3200
0000
,
0310
0000
0001
1000
0010
0100
0001
0000
1000
0100
0010
0001
0010
0100
1000
0010
,
0200
0000
0000
0000
0000
0000
0000
0000
0000
0000
0000
0000
0301
0000
0000
1000
0001
0100
0001
0000
0000
1000
0000
0000
,
0001
0000
0010
0000
0100
1000
0100
0000
0010
0000
0001
0100
0001
0000
0010
0000
,
0100
1000
0001
0000
1000
0000
0100
1000
0010
0000
1000
0000
0100
1000
0001
0000
,
1000
0000
0100
0000
0010
0001
0010
0000
0001
0000
1000
0100
1000
0000
0001
0000
,
0010
0001
0100
0000
0001
0000
0010
0001
1000
0000
0001
0000
0010
0001
0100
0000
,
0001
0000
0010
0000
0100
0010
0001
0000
1000
0000
0001
0100
0010
0000
1000
0000
,
0001
0100
1000
0000
0100
0000
0001
0010
1000
0000
0010
0000
0001
0100
1000
0000
,
0100
0000
0001
0000
0010
0100
1000
0000
0001
0000
0100
0010
1000
0000
0100
0000
,
0010
0001
0010
0001
1000
0000
0010
1000
0010
1000
0001
0000
0100
0010
1000
0000
,
0002
0203
0320
0032
0000
0023
2030
3002
,
0203
0000
0302
0023
2030
3002
0203
2300
,
3002
0023
0230
0302
0203
2300
3020
0230
,
0302
2003
3020
0230
2300
3200
0302
2003
,
3002
0000
0203
2300
,
3020
0000
0000
0000
0032
0000
2003
0000
3001
0100
0010
1000
0200
0000
0320
0000
,
0032
0203
0320
0032
0023
2030
3002
0203
,
0301
0010
1000
0001
0100
1000
1001
0000
,
0001
0010
0100
0020
0000
0031
1000
0010
0100
0000
0001
0010
0010
1000
0100
0100
,
0001
0100
0010
0100
1000
0100
0010
0100
0001
0010
0100
0010
1000
0010
0100
0010
,
0002
0000
0000
0000
0000
0000
0000
0000
1003
0000
0000
0000
0010
0000
0000
0000
0100
0000
0000
0100
0000
0000
0100
0000
0001
0000
0010
0000
0100
0000
1000
0000
,
0001
0200
0320
2030
3200
0320
0032
0023
1030
0010
0001
0100
0010
1000
0001
1000
,
0001
0100
0001
0100
0010
0100
0010
0100
0010
1000
0010
1000
0100
1000
0100
1000
,
0100
0010
0100
0010
0001
0010
0001
0010
0001
1000
0001
1000
0010
0100
0010
0100
,
0001
1000
0100
1000
0100
0010
0001
0010
0001
0100
0001
0100
0010
1000
0001
1000
,
0100
1000
0010
1000
0100
0010
0001
1000
0010
1000
0100
1000
0001
0010
0001
0000
,
1000
0100
1000
0001
0100
0001
1000
0010
1000
0001
0010
0100
2000
0000
0000
0000
,
3010
1000
0010
1000
0001
1000
0001
1000
0100
1000
0100
1000
0100
0010
0001
0010
,
0001
0100
0001
0010
0001
0010
0001
0010
0100
0010
0100
1000
0010
1000
0010
1000
,
0001
0010
0001
0010
0100
1000
0100
0010
0001
0100
0001
0100
0010
1000
0010
0100
,
0001
0010
0001
1000
0001
1000
0001
1000
0100
0010
0100
1000
0010
1000
0001
0000
,
1000
0100
1000
0100
0010
0001
0010
0001
1000
0010
0100
0001
1000
0100
0010
0001
,
0000
0000
1000
0010
0100
0010
1000
0100
0010
0000
0001
0000
1000
0000
0010
0000
,
0100
0000
0001
0000
0010
0000
0001
1000
0010
0000
1000
0001
0100
0000
0010
0000
,
1000
0100
0010
0000
0001
0010
0100
0000
1000
0010
0100
0001
0100
0010
1000
0000
,
1020
0000
0000
0000
0000
0000
0130
0010
0100
0000
0001
0010
0001
1000
0001
0000
,
1000
0100
1000
0010
0100
0010
1000
0010
0100
0001
1000
0000
0010
1000
0001
0000
,
2001
0000
0000
0000
0000
0000
3010
1000
0100
0000
0010
0001
0100
0010
1000
0000
,
0001
0100
0001
0000
0100
0010
1000
0000
0001
1000
0100
1000
0001
0100
0001
0000
,
1000
0000
0010
0000
1000
0100
0010
0001
1000
0000
0001
0100
0010
0000
1000
0010
,
0200
0000
0302
0000
2003
0000
3020
0000
0130
0001
0100
0001
0010
0001
0010
0100
,
1000
0000
0000
0000
0000
0000
0000
0110
,
1001
0000
0000
0000
0000
0000
0000
0000
0000
0000
0000
0000
0000
0000
1000
0001
,
0010
0000
0000
0000
0000
0000
0001
1000
0100
0000
0000
1100
0000
0000
0010
0100
,
0001
0000
0000
0000
0000
0000
1000
0100
0010
0001
0100
0010
,
1000
0000
0000
1010
0000
0000
1000
0100
0010
0001
0000
0100
,
0001
1000
0100
1000
0000
0001
0100
0000
0110
0000
1010
0000
,
1000
0100
0010
0001
1000
0100
0010
0001
1000
0010
0100
0001
1000
0010
0100
0001
,
0010
0100
1000
0010
1000
0001
0100
0001
1000
0100
0010
0001
0100
0010
1000
0000
,
2010
0000
0000
0000
0000
0000
0000
0000
0000
0000
0000
0000
0000
0000
0000
3000
1200
0000
0000
0000
0000
0000
0000
0000
0000
0000
0000
0000
0000
0000
0000
0300
0120
0000
0000
0000
0000
0000
0000
0000
0000
0000
0000
0000
0000
0000
0000
0030
0012
0000
0000
0000
0000
0000
0000
0000
0000
0000
0000
0000
0000
0000
0000
0003
,
1001
0000
0000
0000
,
0000
0000
0000
0000
0002
2003
3020
0230
,
0301
0100
0010
1000
0001
0100
0010
1000
0001
0010
0100
1000
0010
0100
0001
1000
,
0100
0010
0001
0100
0010
1000
0100
1000
0010
0100
0001
0010
0001
0100
1000
0100
,
0001
0000
0000
0000
0000
0000
0000
0000
0000
0000
0000
0000
0000
0000
0000
0000
0000
0000
0000
0000
0000
0000
0000
0000
0001
0000
0000
0000
1000
0000
0000
0000
2020
3030
0000
0000
0000
0000
0000
0000
0000
0000
0000
0000
0202
0303
0000
0000
0000
0000
0000
0000
0000
0000
0000
0000
2200
3300
0000
0000
0000
0000
0000
0000
,
0000
2002
0000
0000
0000
0000
0000
0000
,
0000
0000
0000
0000
,
3003
0000
0000
0000
;

//--------------- dance-single - Fred-104† ----------------
#NOTES:
     dance-single:
     Fred-104†:
     Challenge:
     19:
     :
0000
0000
0000
0000
,
0000
0000
0000
0000
,
0000
0000
0000
0000
,
0000
0000
0000
0000
,
0000
0000
0000
0000
,
0000
0000
0000
0000
,
0000
0000
0000
0000
,
1100
0000
0000
0000
0000
0000
0011
0000
0000
0000
0100
0000
0010
0000
0000
1000
,
0001
1000
0100
0000
MMMM
0000
0010
0000
0001
0000
1000
0010
0100
0000
0001
1000
,
0100
0000
1000
0000
0001
0000
0101
0000
0000
0000
0010
0000
1000
0000
0001
1000
,
0100
0000
1100
0000
0000
0000
1000
0000
0001
0000
1000
0001
0100
0010
1000
0010
,
1010
1000
0001
0011
0000
0101
1001
0000
,
1000
0000
0100
0000
0001
0000
0100
0000
0000
0000
MMMM
0000
1000
0001
1000
0100
,
0010
0001
1000
1010
0000
0110
1001
0000
,
1000
0000
0010
0000
0001
0000
0020
0000
0000
0000
1030
0000
1001
0000
0001
1000
,
0100
1000
0001
0011
MMMM
1000
1100
0000
,
1010
0000
0010
0000
0100
0000
0101
0000
0000
0000
MMMM
0000
0001
0010
0100
1000
,
0001
0100
0001
0011
0000
0100
1001
0000
,
0110
0000
1000
0000
0001
0100
0010
1000
0001
0010
0001
0010
0100
0010
0001
1000
,
0001
0010
0100
1000
0001
0000
0000
0000
MMMM
0000
1000
0100
0010
0000
0001
0100
,
0001
0010
0001
1000
0010
0000
0000
0000
MMMM
0000
1000
0100
1000
0010
0100
0010
,
1000
0100
0010
0001
1000
0000
0001
1000
0100
0000
1000
0010
0100
0000
0001
0010
,
0100
0000
1000
0010
0100
0001
0100
0001
0010
0100
1000
0001
0100
0010
0100
0001
,
1000
0010
1000
0100
1000
0010
0100
0000
0001
0010
0100
0010
0001
0010
0100
0000
,
1000
0010
1000
0100
0010
0001
0010
0100
2000
0000
3002
0000
0203
0000
0320
0000
,
1030
0000
0010
0100
0001
0010
0100
0000
1000
0001
0100
0001
0010
0001
0010
0100
,
1000
0000
0000
0000
0000
0000
0000
0000
0000
0000
0000
0000
MMMM
0000
0000
0000
0000
0000
0000
0000
0000
0000
0000
0000
0001
0000
0000
0000
0000
0000
0100
0000
0001
0000
0010
0000
0001
0000
0000
0010
0000
0000
0100
0000
0000
1000
0000
0000
,
0001
0000
0010
0000
1000
0010
0100
0000
1000
0000
0100
0010
0100
0000
1000
0000
,
0010
1000
0001
0100
0010
0000
0100
0010
1000
0100
0010
0001
0010
0100
1000
0000
,
0001
0000
0100
0000
1000
0100
0010
0000
1000
0000
0100
0010
0001
0000
1000
0000
,
0001
0010
0100
1000
0001
0000
0100
0010
1000
0010
0100
0001
0010
0100
1000
0010
,
1000
0000
0100
0000
0001
0100
0010
0000
0001
0000
0100
0010
1000
0000
0100
0000
,
0010
0001
1000
0010
0100
0000
0001
0010
0100
0010
0001
1000
0001
0100
0001
0010
,
0001
0000
0010
0000
1000
0010
0100
0000
1000
0000
0100
0010
0001
0000
1000
0000
,
0001
0100
0010
1000
0001
0000
1000
0100
0010
0001
1000
0000
0001
0100
0010
0000
,
2000
3200
0320
2030
0000
3020
0230
2300
,
3002
0000
0203
2300
3200
0302
0023
0230
,
2300
3020
0230
0320
2030
3200
0320
0032
,
0203
0320
2030
3200
0302
0203
2300
3002
,
2003
0000
3020
0032
,
0203
0000
0000
0000
2300
0000
3002
0000
1003
0100
0010
0001
1000
0000
MMMM
0000
,
0002
0203
0320
0032
0023
2030
3002
0203
,
0320
0030
0000
0000
0000
0000
0000
0000
0020
0030
0000
0000
0000
0000
0000
0000
0020
0030
0000
0000
0000
0000
0000
0000
0020
0030
0000
0000
0000
0000
0000
0000
0200
0300
0000
0000
0000
0000
0000
0000
0200
0300
0000
0000
0000
0000
0000
0000
0200
0300
0000
0000
0000
0000
0000
0000
0200
0300
0000
0000
0000
0000
0000
0000
,
0001
0100
0010
0002
0000
0013
0100
0001
2000
0000
3100
0010
1000
0010
0001
1000
,
0010
0100
0001
0010
0110
0100
1000
0001
1000
0100
1000
0001
1001
1000
0010
0100
,
0002
0000
0000
0000
0000
0000
0000
0000
0000
0000
0000
0000
0000
0000
0000
0003
0101
0000
0000
0000
0000
0000
0000
0000
0100
0000
0000
0000
0000
0000
0000
0000
0010
0000
0000
0000
1000
0000
0100
0000
1000
0000
0000
0000
0001
0000
0000
0000
0100
0000
0000
0000
0010
0000
0000
0000
0100
0000
0000
0000
0010
0000
0000
0000
,
1000
0200
0320
0032
0203
0320
0032
0023
1030
0001
0010
1000
0010
0001
0100
0001
,
1000
0010
0100
0010
1000
0001
1000
0100
0010
0001
0100
0001
0010
0100
0010
0001
,
1000
0010
1000
0100
1000
0001
0100
0001
1000
0100
0010
0100
1000
0001
0010
0001
,
0100
0001
0010
0100
1000
0010
1000
0100
1000
0010
1000
0100
1000
0010
1000
0100
,
1000
0100
0010
0001
0010
0100
0010
0001
0100
0001
0010
0100
0010
0001
1000
0010
,
1000
0100
1000
0001
0100
0001
0010
0100
1000
0010
1000
0001
0200
0000
0000
0000
,
0301
0100
0010
0001
0010
0100
1000
0100
0010
1000
0100
0010
0001
0100
0010
1000
,
0001
0010
0100
0001
0100
0010
1000
0010
0100
1000
0010
0100
0001
1000
0100
0010
,
0100
1000
0001
0100
0001
1000
0010
1000
0001
0010
1000
0001
0100
1000
0001
1000
,
0001
0010
0100
1000
0010
0100
1000
0100
0001
0010
0100
1000
0010
0001
0010
1000
,
0001
0000
0000
0100
0000
0000
0010
0000
0000
0100
0000
0000
1000
0000
0000
0100
0000
0000
0010
0000
0000
0100
0000
0000
0001
0000
0000
1000
0000
0000
0100
0000
0000
0010
0000
0000
0001
0000
0100
0000
0001
0000
0100
0000
0010
0000
1000
0000
,
0000
0000
0001
0100
1000
0100
0001
0100
0010
0000
0010
0000
0010
0000
0010
0000
,
1000
0000
0001
0000
0010
0100
1000
0100
0010
0000
0001
0100
0010
1000
0001
0000
,
1000
0000
0000
0100
0000
0000
1000
0000
0100
0000
0010
0000
0001
0000
0000
0100
0000
0000
0010
0000
1000
0000
0010
0000
0100
0000
0000
0001
0000
0000
0010
0000
0000
0001
0000
0000
0100
0000
0000
0001
0000
0000
0010
0000
0000
0100
0000
0000
,
2000
0000
3000
0000
MMMM
0000
0001
1000
0010
0000
1000
0010
0100
0001
1000
0000
,
0001
0000
0000
1000
0000
0000
0100
0000
0000
0010
0000
0000
0001
0000
0000
1000
0000
0000
0010
0000
0000
0100
0000
0000
0001
0000
0010
0000
0100
0000
1000
0000
0000
0000
0000
0000
0001
0000
0100
0000
0010
0000
1000
0000
0000
0000
0000
0000
,
2002
0000
3003
0000
MMMM
0000
1000
0001
0100
0010
1000
0010
0100
0000
0001
0000
,
1000
0100
0001
0000
0001
0100
1000
0000
1000
0010
0100
1000
0100
0010
1000
0100
,
0001
0000
0000
0000
0000
0000
0100
0000
0000
1000
0000
0000
0001
0000
0000
1000
0000
0000
0010
0000
0000
0100
0000
0000
0001
0000
0000
0000
0000
0000
0100
0000
0010
0000
1000
0000
0100
0000
0000
0000
0000
0000
0010
0000
0001
0000
1000
0000
,
0002
0000
0023
0000
0230
0000
2300
0000
3001
0100
0010
1000
0100
0010
0001
1000
,
1001
0000
0000
0000
MMMM
0000
0000
1100
,
0101
0000
0000
0000
0000
0000
0000
0000
MMMM
0000
0000
0000
0000
0000
0001
0100
,
0110
0000
0000
0000
0000
0000
1000
0100
0110
0000
0000
0011
0000
0000
0001
1000
,
1001
0000
0000
MMMM
0000
0000
1000
0100
0100
0001
0010
0010
,
1000
0000
0000
0010
0000
0000
1000
0000
0000
0001
0010
0001
0100
0000
0010
0000
0100
0000
0010
0000
0000
0000
1000
0000
,
0001
0000
0100
0000
0100
0000
1000
0000
0000
0001
0010
0100
1000
0000
0000
0000
1100
0000
0000
0000
1001
0000
0000
0000
,
0001
0010
0100
0010
0001
0100
0010
0100
0001
0100
1000
0100
0010
1000
0010
0100
,
0001
0010
0100
0010
0001
0100
1000
0100
0010
1000
0100
0010
0001
1000
0010
0100
,
0001
MMMM
0101
MMMM
0110
MMMM
1010
MMMM
,
0001
0010
0100
1000
0010
1000
0100
1000
0001
0010
0100
0010
0001
1000
0100
0010
,
0001
0010
0100
1000
0100
0010
1000
0010
0100
1000
0001
0100
0010
1000
0001
0100
,
0001
0100
0010
1000
0001
0100
1000
0100
0010
1000
0100
0010
0001
0100
0010
0001
,
0010
0000
0000
1000
0000
0000
0001
0000
0000
0100
0000
0000
0010
0000
0000
1000
0000
0000
0100
0000
0000
1000
0000
0000
0010
0000
0000
0100
0000
0000
0010
0000
0000
1000
0000
0000
0001
0000
0100
0000
0010
0000
1000
0000
0010
0000
0100
0000
,
0001
0000
0000
0000
0000
0000
0000
0000
0000
0000
0000
0000
0000
0000
0000
0000
MMMM
0000
0000
0000
0000
0000
0000
0000
1000
0000
0000
0000
0100
0000
0000
0000
0220
0330
0000
0000
0000
0000
0000
0000
0000
0000
0000
0000
0022
0033
0000
0000
0000
0000
0000
0000
0000
0000
0000
0000
2020
3030
0000
0000
0000
0000
0000
0000
,
0000
2002
0000
0000
0000
0000
0000
0000
,
0000
0000
0000
0000
,
3003
0000
0000
0000
;

//--------------- dance-double - Fred-104 ----------------
#NOTES:
     dance-double:
     Fred-104:
     Easy:
     11:
     :
00000000
00000000
00000000
00000000
,
00000000
00000000
00000000
00000000
,
00000000
00000000
00000000
00000000
,
00000000
00000000
00000000
00000000
,
00000000
00000000
00000000
00000000
,
00000000
00000000
00000000
00000000
,
00000000
00000000
00000000
00000000
,
00011000
00000000
00000000
00011000
00000000
00000000
00010000
00000000
,
00000100
00001000
00000000
00000001
00001000
00000000
00000010
00000000
,
00000110
00000000
00000000
00000110
00000000
00000000
00000100
00000000
,
00000001
00000010
00001000
00000000
00010000
01000000
10000000
00000000
,
00010000
00000000
10000000
00100000
00000000
01000000
00100000
00000000
,
10000000
00000000
01000000
00100000
00000000
00001000
00010000
00000000
,
00000100
00000000
00000010
00000001
00000000
00001000
00000010
00000000
,
00000100
00000000
00000001
00000010
00000000
00000100
00000010
00000001
,
00001000
00000000
00000001
00000010
00000000
00000100
00010000
00000000
,
00001000
00000000
00000100
00000010
00000000
00001000
00000100
00000000
,
00000010
00000000
00001000
00010000
00000000
01000000
00100000
00000000
,
00010000
00000000
10000000
01000000
10000000
01000000
00100000
00010000
,
10000000
00100000
10000000
00000000
00100000
00000000
00010000
00000000
,
00001000
00010000
00001000
00000000
00000010
00000000
00000100
00000000
,
00001000
00000010
00000100
00000000
00001000
00000000
00010000
00000000
,
01000000
00100000
00010000
00000000
00100000
01000000
10000000
00000000
,
00010000
01000000
00010000
00000000
10000000
00100000
00010000
00000000
,
00100000
10000000
01000000
00000000
00100000
00001000
00010000
00000000
,
00000010
00001000
00000001
00000000
00000010
00000100
00001000
00000000
,
00002002
00000000
00003003
00000000
00001000
00000001
00001000
00000000
,
00000001
00000000
00000010
00000100
00000000
00000100
00010000
00000000
,
00010000
00001000
00000000
00001000
00100000
00000000
00010000
00000000
,
10000000
00000000
00100000
01000000
00000000
01000000
00010000
00000000
,
10000000
00100000
00000000
00010000
00001000
00000000
00000100
00000000
,
00000001
00000000
00001000
00000010
00000000
00000010
00000100
00000000
,
00000001
00000010
00000000
00001000
00010000
00000000
01000000
00000000
,
10000000
00000000
00010000
10000000
00000000
00100000
01000000
00000000
,
00010000
01000000
00000000
00100000
10000000
01000000
00100000
00000000
,
00120000
00000000
00000000
02030000
00000000
00000000
03200000
00000000
,
20300000
32000000
03200000
00302000
,
00023000
00230000
20300000
32000000
,
03020000
00032000
00003200
00000320
,
00002030
00000000
00003200
00000320
,
00000032
00000000
00002003
00003002
00000203
00000000
00000320
00000000
,
00002030
00003200
00000320
00002030
,
00013000
01000000
00100000
00000000
00010000
10000000
00010000
00000000
,
10010000
00000000
00000000
10000000
00000000
00000000
00100000
00000000
01000000
00000000
00010000
10000000
00010000
00000000
10000000
00000000
,
01000000
00100000
01000000
00000000
00100000
00010000
00100000
00000000
00001000
00010000
00001000
00000000
00010000
00000010
00010000
00000000
,
00011000
00000000
00000000
00000000
00010000
00000000
00000100
00000000
00001000
00000000
00000001
00000100
00000001
00000100
00000010
00000000
,
00000100
00000001
00000010
00000000
00000100
00010000
00001000
00000000
00010000
01000000
10000000
00000000
00010000
00000000
10000000
00000000
,
00100000
01000000
00100000
00000000
10000000
00100000
10000000
00000000
,
00010000
10000000
00010000
00000000
10000000
01000000
10000000
00000000
,
01000000
00010000
01000000
00000000
00010000
00001000
00010000
00000000
,
00001000
00000010
00001000
00000000
00000010
00000001
00000010
00000000
,
00000001
00000100
00000001
00000000
00001000
00000001
00002000
00000000
,
00003010
00000100
00000001
00000000
00000100
00000001
00000010
00000000
,
00000100
00001000
00000010
00000000
00010000
00001000
00100000
00000000
,
00010000
10000000
01000000
00000000
10000000
00010000
00100000
00000000
,
00001000
01000000
00010000
00000000
00100000
00001000
00010000
00000000
,
00000100
00000010
00000001
00000000
00001000
00000010
00000100
00000001
,
00000000
00000001
00000010
00001000
00010000
01000000
10000000
00000000
,
00010000
00100000
00010000
00100000
01000000
00100000
00010000
00100000
,
00002000
00010000
00000010
00013000
,
00001000
00000000
00010000
00001000
00100000
00000000
00001000
00100000
,
00010000
00100000
00001000
00000000
00010000
00001000
00000010
00000000
,
00000200
00000000
00001300
00000010
00000001
00000010
00001000
00000000
,
00000010
00000100
00001000
00000000
00010000
01000000
00100000
00000000
,
00010000
10000000
00100000
10000000
00010000
00100000
01000000
00100000
,
00002000
00000000
00000000
00000000
00013000
00001000
00000100
00000001
,
00001001
00000000
00000000
00000000
00000000
00000000
00000000
00000001
,
00000011
00000000
00000000
00000000
00000000
00000000
00000000
00001000
,
00001100
00000000
00000000
00000000
00000000
00000000
00010000
00000000
00001000
00000000
00000000
00100000
00000000
00000000
00010000
00000000
,
10010000
00000000
01100000
00000000
,
00010000
10000000
00100000
01000000
,
00010000
00000000
00000000
00100000
00000000
00000000
01000000
00000000
10000000
00000000
00010000
00000000
,
10000000
00100000
00010000
00000000
00001000
00000010
00000001
00000000
,
00000001
00000100
00001000
00000000
00010000
01000000
10000000
00000000
,
00100000
00010000
00001000
00000100
,
00001001
00000000
00000000
00000000
,
00000000
00000000
00000000
00000000
,
00001000
00000100
00000010
00000100
00000010
00001000
00010000
00001000
,
00100000
00010000
01000000
00100000
00010000
00001000
00000100
00000010
,
00001000
00000000
00000000
00000000
00000000
00000000
00000010
00010000
00000010
00000000
00000000
00011000
00000000
00000000
00010100
00000000
,
00000000
00002200
00000000
00000000
00000000
00000000
00000000
00000000
,
00000000
00000000
00000000
00000000
,
00003300
00000000
00000000
00000000
;

//--------------- dance-double - Fred-104 ----------------
#NOTES:
     dance-double:
     Fred-104:
     Medium:
     15:
     :
00000000
00000000
00000000
00000000
,
00000000
00000000
00000000
00000000
,
00000000
00000000
00000000
00000000
,
00000000
00000000
00000000
00000000
,
00000000
00000000
00000000
00000000
,
00000000
00000000
00000000
00000000
,
00000000
00000000
00000000
00000000
,
00101000
00000000
00000000
00000000
00000000
00000000
00011000
00000000
00000000
00000000
00000000
00000000
00010100
00000000
00000000
00000100
,
00001000
00000000
00000010
00000000
00000000
00000000
00001000
00000000
00000100
00000000
00000010
00000000
00000001
00000000
00000100
00000001
,
00000100
00000000
00000000
00000000
00000000
00000000
00000110
00000000
00000000
00000000
00000000
00000000
00000001
00000000
00001000
00000100
,
00001000
00001100
00000000
00000100
00020000
00000000
00032000
00000000
,
00013000
00001000
00000010
00000001
00000000
00000100
00001000
00000000
,
00010000
00100000
01000000
00100000
00000000
10000000
01000000
00010000
,
00001000
00010000
00001000
00000100
00000000
00000001
00000010
00000000
,
00000100
00010000
00001000
00010000
00000000
01000000
00100000
00010000
,
10000000
01000000
00010000
00001000
00000000
00010000
00000010
00000000
,
00001000
00000100
00000010
00000001
00000000
00000100
00000010
00000100
,
00001000
00010000
00100000
01000000
00000000
00100000
10000000
00000000
,
01000000
00000000
00000000
00000000
01000000
00000000
00100000
00000000
00010000
10000000
00010000
10000000
00010000
01000000
00010000
01000000
,
00100000
00000000
10000000
01000000
10000000
00000000
01000000
00000000
00100000
00000000
00010000
00100000
00010000
00000000
01000000
00001000
,
01000000
00000000
00001000
00010000
00001000
00000000
00010000
00000000
00000100
00000000
00001000
00000001
00001000
00000000
00000010
00000100
,
00000010
00000000
00001000
00000010
00001000
00000000
00000100
00000000
00000010
00000000
00000001
00000100
00000001
00000000
00000010
00000100
,
00000010
00000000
00000001
00000100
00000001
00000000
00001000
00000001
00001000
00000000
00000100
00000000
00001100
00000000
00000000
00000000
,
00010000
00000100
00000100
00000100
00010000
00001000
00001000
00001000
,
00100000
00010000
10000000
00010000
02000000
03200000
20300000
30020000
,
10030000
00000000
01000000
00100000
01000000
00000000
00100000
00000000
00001000
00010000
00000010
00000000
00001000
00000001
00001000
00000000
,
00002002
00000000
00000000
00000000
00000000
00000000
00003003
00000000
00000001
00000000
00001000
00000010
00001000
00000000
00000001
00000000
,
00001000
00000100
00000010
00000001
00000100
00001000
00010000
00100000
,
10000000
01000000
01000000
00010000
00100000
00100000
10000000
00000000
,
00010000
00100000
01000000
00010000
00001000
00000010
00000100
00001000
,
00000001
00000100
00000100
00001000
00000010
00000010
00000001
00000000
,
00001000
00000001
00000010
00000100
00001000
00010000
00100000
01000000
,
10000000
01000000
01000000
00010000
00100000
00100000
10000000
00000000
,
00010000
00100000
01000000
00100000
00001000
00010000
00000100
00000010
,
00000001
00000100
00001000
00010000
00100000
10000000
00010000
00000000
,
20000000
30020000
02030000
03020000
00000000
00230000
00302000
00023000
,
00030200
00000000
00002300
00003020
00000032
00000023
00002030
00003002
,
00002003
00003200
00002300
00003200
00000320
00000230
00000320
00000230
,
00000320
00000032
00000023
00000032
00000203
00002300
00023000
02030000
,
23000000
00000000
30020000
02030000
,
03200000
00000000
20300000
32000000
03200000
00320000
02030000
03002000
,
00023000
00032000
00023000
00030200
00000320
00000230
00000320
00000032
,
00000103
00001000
00010000
01000000
10000000
00010000
10010000
00000000
,
00010000
00100000
10000000
00100000
00000000
00010000
00100000
01000000
00100000
00000000
00001000
00010000
00000010
00010000
00001000
00000000
,
00010000
00001000
00000100
00000001
00001000
00000100
00000010
00000100
00010000
00001000
00010000
01000000
00100000
00010000
10000000
00100000
,
00002000
00000000
00000000
00000000
00003010
00000000
00010000
00000000
00001000
00000000
00000100
00000001
00001000
00000010
00001000
00000010
,
00000100
00002000
00003200
00002300
00023000
00032000
00023000
00032000
00013000
00100000
01000000
00100000
01000000
00010000
10000000
00000000
,
00010000
00100000
01000000
10000000
01000000
00100000
00010000
00000000
,
01000000
00001000
00010000
00000100
00001000
00000010
00000100
00000000
,
00000001
00000010
00000100
00001000
00000100
00000010
00000001
00000000
,
00000100
00001000
00010000
00100000
01000000
00010000
10000000
00000000
,
00010000
00100000
01000000
00010000
00001000
00000100
00000002
00000000
,
00001003
00000001
00000100
00001000
00000100
00000001
00000010
00000100
,
00001000
00000100
00010000
00001000
00100000
00010000
00100000
01000000
,
10000000
00010000
01000000
00100000
00010000
00001000
00010000
00100000
,
10000000
01000000
00010000
00001000
00000010
00000100
00001000
00000001
,
00000100
00000010
00000100
00000000
00000001
00000100
00000001
00000000
00001000
00000010
00001000
00000000
00000001
00000010
00000100
00001000
,
00000000
00000010
00000100
00001000
00010000
00100000
01000000
00010000
,
00100000
00000000
01000000
00000000
00100000
00000000
00010000
00000000
10000000
00000000
00000000
00100000
01000000
00000000
00010000
00000000
,
00100000
01000000
00100000
00001000
00010000
00100000
01000000
00100000
,
20000000
00000000
00000000
00000000
00000000
00000000
30010000
01000000
00010000
00000000
01000000
00000000
00001000
00000000
00010000
00000000
,
00001000
00010000
00000010
00000000
00001000
00000010
00001000
00000000
00000001
00000010
00000100
00000000
00001000
00000000
00000001
00000000
,
00000200
00000000
00000000
00000000
00000000
00000000
00000301
00000100
00000001
00000000
00000000
00001000
00000100
00000000
00000010
00000000
,
00000100
00001000
00000001
00000010
00000100
00000001
00001000
00000010
,
00000001
00001000
00000100
00000010
00001000
00010000
01000000
00100000
,
00020000
00000000
02030000
00000000
03200000
00000000
20300000
00000000
30010000
10000000
00010000
10000000
01000000
00100000
01000000
00100000
,
00010000
00000000
00000000
00000000
00000000
00000000
00000000
00100000
,
00101000
00000000
00000000
00000000
00000000
00000000
00000000
00000000
00000000
00000000
00000000
00000000
00000000
00000000
00010000
00000010
,
00010000
00000000
00000000
00000000
00000000
00000000
00000010
00001000
00000001
00000000
00000000
00000010
00000000
00000000
00000100
00001000
,
00000001
00000000
00000000
00000000
00000000
00000000
00001000
00000001
00001000
00000001
00000000
00000000
,
00000100
00000000
00000000
00000110
00000000
00000000
00000010
00001000
00000010
00000100
00000000
00000000
,
00000001
00000100
00001000
00010000
00000000
00000000
00001000
00000000
00010000
00000000
00100000
00000000
,
10000000
00000000
00010000
01000000
00010000
00000000
10000000
01000000
10000000
00000000
00100000
01000000
00100000
00000000
01000000
00010000
,
01000000
00000000
00001000
00010000
00001000
00000000
00010000
00000100
00010000
00000000
00000010
00000100
00000010
00000000
00001000
00000001
,
00001000
00001100
00001010
00000101
,
00001001
00000000
00000000
00000000
,
00000000
00000000
00000000
00000000
,
00000001
00000100
00000010
00001000
00000100
00010000
00001000
00100000
,
00010000
10000000
00010000
10000000
00010000
10000000
00010000
10000000
00010000
10000000
00010000
10000000
00010000
10000000
00010000
10000000
,
00010000
00000000
00000000
00000000
00000000
00000000
00000000
00000000
00000000
00000000
00000000
00000000
00000000
00000000
00000000
00000000
00000000
00000000
00000000
00000000
00000000
00000000
00000000
00000000
01000000
00000000
00000000
00000000
00100000
00000000
00000000
00000000
02000000
03000000
00000000
00000000
00000000
00000000
00000000
00000000
00000000
00000000
00000000
00000000
00002000
00003000
00000000
00000000
00000000
00000000
00000000
00000000
00000000
00000000
00000000
00000000
00020000
00030000
00000000
00000000
00000000
00000000
00000000
00000000
,
00000000
00020020
00000000
00000000
00000000
00000000
00000000
00000000
,
00000000
00000000
00000000
00000000
,
00030030
00000000
00000000
00000000
;

//--------------- dance-double - Fred-104 ----------------
#NOTES:
     dance-double:
     Fred-104:
     Hard:
     18:
     :
00000000
00000000
00000000
00000000
,
00000000
00000000
00000000
00000000
,
00000000
00000000
00000000
00000000
,
00000000
00000000
00000000
00000000
,
00000000
00000000
00000000
00000000
,
00000000
00000000
00000000
00000000
,
00000000
00000000
00000000
00000000
,
11000000
00000000
00000000
00000000
00000000
00000000
00110000
00000000
00000000
00000000
00000000
00000000
10010000
00000000
00000000
00010000
,
01000000
00010000
01000000
00000000
00000000
00000000
00100000
00000000
10000000
00000000
01000000
00000000
00100000
00000000
00000000
00001000
,
00010000
00000000
00000000
00011000
00000000
00010000
00001000
00000100
,
00000001
00000000
00000011
00000000
00000000
00000000
00000000
00000000
00001100
00000000
00000000
00000000
00000001
00001000
00000001
00001000
,
00000001
00000100
00001000
00010000
00000000
00001000
00000010
00000000
,
00000001
00000100
00001000
00010000
00000000
00001000
00010000
01000000
,
10000000
01000000
00010000
00001000
00000000
00010000
00100000
00000000
,
10000000
00000000
01000000
00000000
00010000
00000000
00001000
00000000
00000000
00000000
00010000
00000000
00100000
00000000
01000000
00010000
,
10000000
00100000
00010000
00001000
00000000
00010000
01000000
00000000
,
10000000
00100000
00010000
00001000
00000000
00010000
01000000
10000000
,
00100000
00010000
00001000
00010000
00000000
01000000
00100000
00000000
,
10010000
00000000
00000000
00000000
10000000
01000000
10000000
00010000
01000000
00010000
10000000
01000000
00100000
00010000
00100000
00000000
,
00001000
00010000
00000010
00010000
00002000
00000000
00000000
00000000
00000000
00000000
00013000
00001000
00000010
00000000
00000100
00000010
,
00000001
00000000
00001000
00000001
00002000
00000000
00000000
00000000
00000000
00000000
00003001
00000100
00000010
00000100
00000001
00000000
,
00001000
00000100
00010000
00001000
01000000
00000000
00001000
00010000
00001000
00000000
00010000
00001000
00010000
00000000
00000010
00001000
,
00000010
00000000
00010000
00001000
00010000
00000000
00001000
00100000
00001000
00000000
01000000
00100000
10000000
00010000
00100000
00000000
,
01000000
10000000
00010000
00000000
10000000
00100000
10000000
00000000
00100000
01000000
00001000
00000000
00010000
00001000
00010000
00000000
,
00001000
00010000
00000010
00010000
00001000
00010000
00000010
00000000
00020000
00000000
00032000
00000000
00003200
00000000
00000302
00000000
,
00001003
00000000
00000010
00001000
00000001
00001000
00000010
00000000
00000100
00000001
00001000
00000001
00000010
00000100
00010000
00001000
,
00020000
00000000
00000000
00000000
00000000
00000000
00000000
00000000
00031000
00000000
00010000
00100000
01000000
00000000
00010000
00000000
,
10000000
00000000
01000000
00000000
00100000
00001000
00100000
00000000
01000000
00000000
10000000
00100000
10000000
00000000
01000000
00000000
,
00100000
00010000
00100000
00000000
00001000
00000000
00010000
00000010
00010000
00000000
00001000
00000000
00100000
00010000
00100000
00000000
,
00001000
00000000
00010000
00000000
00001000
00000010
00000001
00000000
00001000
00000000
00000001
00000100
00000001
00000000
00000100
00000000
,
00000010
00000100
00001000
00000000
00010000
00000000
00100000
01000000
00010000
00000000
10000000
00000000
00100000
01000000
00010000
00000000
,
10000000
00000000
01000000
00000000
00100000
00010000
00100000
00000000
00001000
00000000
01000000
00001000
01000000
00000000
00001000
00000000
,
00010000
00000100
00010000
00000000
00000010
00000000
00001000
00000100
00001000
00000000
00000010
00000000
00010000
00001000
00010000
00000000
,
00000100
00000000
00001000
00000000
00000001
00000100
00000001
00000000
00001000
00000000
00000010
00010000
00000010
00000000
00010000
00000000
,
00001000
00100000
00010000
10000000
00100000
00000000
01000000
00010000
10000000
01000000
00100000
00000000
00010000
01000000
00100000
00000000
,
20000000
32000000
03200000
00302000
00000000
00023000
00030200
00000320
,
00000032
00000000
00000203
00002300
00023000
02030000
03200000
00320000
,
02030000
03200000
20300000
32000000
03200000
00320000
00032000
00003200
,
00000320
00000032
00000203
00002300
00023000
00230000
20300000
30020000
,
20030000
00000000
30200000
00320000
,
00032000
00000000
00000000
00000000
00003200
00000000
00000320
00000000
00001030
00000100
00001000
00000100
00000020
00000000
00000032
00000000
,
00000023
00000230
00020300
00032000
00203000
02300000
23000000
30020000
,
01030000
00100000
00010000
00001000
00000100
00000010
00001010
00000000
,
00001000
00000010
00000100
00000020
00000000
00001030
00000001
00000010
00000200
00000000
00010300
00001000
00100000
00010000
10000000
00100000
,
01000000
00100000
10000000
00010000
01000000
01000000
10000000
00010000
00100000
00001000
00010000
00000100
00010000
00010000
01000000
00001000
,
00020000
00000000
00000000
00000000
00000000
00000000
00000000
00000000
00031000
00000000
00000000
00000000
00000010
00000000
00000000
00000000
00000001
00000000
00000000
00000010
00000100
00000000
00001000
00000000
00000010
00000000
00000100
00000000
00001000
00000000
00010000
00000000
,
00100000
20000000
30020000
02030000
03200000
20300000
32000000
03200000
00301000
00010000
00000100
00001000
00000001
00000100
00000010
00001000
,
00000001
00000100
00000010
00000100
00000001
00000100
00000010
00000000
00000100
00000010
00001000
00000010
00000100
00000010
00001000
00000000
,
00000010
00001000
00000001
00001000
00000010
00001000
00000001
00000000
00000100
00000010
00000100
00001000
00010000
00001000
00010000
00000000
,
00001000
00100000
00010000
00100000
00001000
00100000
00010000
00000000
00100000
00010000
10000000
00010000
00100000
00010000
10000000
00000000
,
00010000
10000000
01000000
10000000
00010000
10000000
01000000
00000000
10000000
00100000
01000000
00100000
10000000
01000000
00100000
00000000
,
00001000
00010000
00001000
00000000
00010000
00000010
00001000
00000000
00000010
00001000
00010000
01000000
00002000
00000000
00000000
00000000
,
00013000
00000100
00001000
00000100
00010000
00000100
00001000
00000000
00000010
00000100
00000001
00000100
00000010
00000100
00000001
00000000
,
00001000
00000010
00000100
00000010
00001000
00000010
00000100
00000000
00000001
00000010
00000100
00000010
00000001
00000010
00000100
00000000
,
00010000
00001000
00100000
00001000
00010000
00001000
01000000
00000000
00001000
00100000
00010000
00100000
00001000
00100000
00010000
00000000
,
01000000
00100000
10000000
00100000
01000000
00100000
10000000
00000000
01000000
10000000
00100000
10000000
00010000
00100000
01000000
00000000
,
10000000
00100000
01000000
00100000
00010000
00001000
00010000
00000100
00001000
00000100
00000010
00000001
00000100
00000010
00001000
00000100
,
00000000
00000000
00000010
00000001
00001000
00000001
00000010
00000001
00000100
00000000
00001000
00000000
00010000
00000000
00001000
00000000
,
00010000
00001000
00100000
01000000
00100000
00010000
01000000
10000000
,
00010000
00100000
10000000
01000000
00100000
00010000
01000000
00002000
,
00100000
00000000
00000000
00000000
00013000
00000000
00001000
00010000
00001000
00000000
00000100
00000010
00001000
00000100
00000010
00000000
,
00000001
00000100
00001000
00000000
00010000
00100000
10000000
00000000
01000000
00100000
00010000
00100000
00001000
00010000
00001000
00000000
,
00021000
00000000
00000000
00000000
00000000
00000000
00031000
00010000
00001000
00000000
00010000
00100000
01000000
00000000
00010000
00000000
,
10000000
01000000
00100000
00000000
00010000
01000000
00100000
00000000
10000000
01000000
00100000
00000000
00001000
00010000
00001000
00000000
,
01000000
00000000
00001000
00000000
00010000
00000000
00001000
00000000
00000100
00000000
00000010
00001000
00000001
00000000
00000001
00000010
,
00000200
00000000
00002300
00000000
00003002
00000000
00000203
00000000
00000301
00001000
00000010
00010000
00001000
00100000
00001000
00000000
,
00011000
00000000
00000000
00000000
00000000
00000000
00000000
01010000
,
10010000
00000000
00000000
00000000
00000000
00000000
00000000
00000000
00000000
00000000
00000000
00000000
00000000
00000000
10000000
01000000
,
00100000
00000000
00000000
00000000
00000000
00000000
00001000
00010000
00000010
00000000
00000000
00001000
00000000
00000000
00000001
00000010
,
00000100
00000000
00000000
00000000
00000000
00000000
00001000
00000001
00000010
00001000
00010000
01000000
,
10000000
00000000
00000000
10100000
00000000
00000000
10000000
01000000
00100000
00001000
00000000
00010000
,
00000100
00001000
00000010
00000100
00000000
00000001
00000010
00000000
00000011
00000000
00001001
00000000
,
00000001
00000100
00000001
00000100
00000010
00001000
00000010
00001000
00000001
00000010
00000100
00001000
00000100
00010000
00001000
01000000
,
00001000
00010000
00001000
00010000
00100000
01000000
00100000
01000000
00010000
00100000
01000000
10000000
00100000
01000000
00001000
00010000
,
00002000
00100000
00000010
00103000
,
00011000
00000000
00000000
00000000
,
00000000
00000000
00000000
00000000
00020000
00032000
00003200
00000302
,
00001003
00000100
00001000
00000100
00000010
00000001
00000010
00000001
00000100
00001000
00000100
00001000
00010000
00100000
00010000
00100000
,
10000000
01000000
00100000
00001000
00010000
00000010
00001000
00000010
00000100
00000001
00000010
00000100
00010000
00001000
00100000
01000000
,
10000000
00000000
00000000
00000000
00000000
00000000
00000000
00000000
00000000
00000000
00000000
00000000
00000000
00000000
00000000
00000000
00000000
00000000
00000000
00000000
00000000
00000000
00000000
00000000
00010000
00000000
00000000
00000000
10000000
00000000
00000000
00000000
00200000
00300000
00000000
00000000
00000000
00000000
00000000
00000000
00000000
00000000
00000000
00000000
00020000
00030000
00000000
00000000
00000000
00000000
00000000
00000000
00000000
00000000
00000000
00000000
00002000
00003000
00000000
00000000
00000000
00000000
00000000
00000000
,
00000000
00022000
00000000
00000000
00000000
00000000
00000000
00000000
,
00000000
00000000
00000000
00000000
,
00033000
00000000
00000000
00000000
;

//--------------- dance-double - Fred-104† ----------------
#NOTES:
     dance-double:
     Fred-104†:
     Challenge:
     19:
     :
00000000
00000000
00000000
00000000
,
00000000
00000000
00000000
00000000
,
00000000
00000000
00000000
00000000
,
00000000
00000000
00000000
00000000
,
00000000
00000000
00000000
00000000
,
00000000
00000000
00000000
00000000
,
00000000
00000000
00000000
00000000
,
00000101
00000000
00000000
00000000
00000000
00000000
00001100
00000000
00000000
00000000
00000010
00000000
00000100
00000000
00000000
00000001
,
00000100
00000010
00000100
00000000
MMMM1000
00000000
00010000
00000000
00100000
00000000
01000000
00100000
10000000
00000000
01000000
00100000
,
00001000
00000000
00010000
00000000
00001000
00000000
01001000
00000000
00000000
00000000
00001000
00000000
00010000
00000000
00000100
00001000
,
00000001
00000000
00000110
00000000
00000000
00000000
00001000
00000000
00000100
00000000
00000010
00000001
00001000
00000001
00000100
00000010
,
00000110
00000010
00001000
00001010
00000000
00010000
00011000
00000000
,
00001000
00000000
00010000
00000000
00100000
00000000
10000000
00000000
00000000
00000000
0100MMMM
00000000
00010000
00001000
00000010
00000100
,
00000010
00000001
00001000
00001001
00000000
00000110
00001001
00000000
,
00000001
00000000
00000100
00000000
00001000
00000000
00020000
00000000
00000000
00000000
0103MMMM
00000000
01100000
00000000
01000000
10000000
,
00010000
10000000
01000000
01100000
MMMMMMMM
00001000
00011000
00000000
,
00010010
00000000
00000010
00000000
00001000
00000000
00001001
00000000
00000000
00000000
00001000
00000000
MMMM0001
00000100
00000010
00000100
,
00001000
00010000
00001000
00011000
00000000
01000000
01100000
00000000
,
10010000
00000000
10000000
00000000
00100000
01000000
10000000
01000000
00100000
10000000
00010000
00100000
01000000
00100000
00001000
00010000
,
00001000
00000100
00000010
00000100
00000001
00000000
00000000
00000000
MMMM1000
00000000
00000010
00000100
00000001
00000000
00001000
00000001
,
00000100
00000010
00000100
00001000
00010000
00000000
00000000
00000000
MMMM1000
00000000
00010000
00000010
00001000
00000100
00010000
00001000
,
00010000
00100000
01000000
00100000
10000000
00000000
01000000
00010000
00001000
00000000
00000010
00000001
00000100
00000000
00000010
00010000
,
00001000
00000000
01000000
00001000
00010000
00100000
01000000
00100000
00010000
00000000
00001000
00010000
00000001
00001000
00000100
00000000
,
00000010
00000001
00000100
00000010
00000100
00001000
00010000
00000000
00100000
01000000
00010000
00100000
01000000
10000000
00010000
00000000
,
10000000
01000000
00100000
00001000
00010000
00001000
01000000
00010000
00200000
00000000
02300000
00000000
23000000
00000000
30020000
00000000
,
10030000
01000000
00010000
00000000
00001000
00000010
00000001
00000000
00001000
00000100
00000010
00000001
00000100
00000010
00001000
00000001
,
00002000
00000000
00000000
00000000
MMMM0000
00000000
00000000
00000000
00003001
00000000
00001000
00000100
00000010
00000100
00000001
00000100
,
00001000
00000000
00000001
00000000
00001000
00000010
00000100
00000000
00001000
00000000
00010000
00100000
01000000
00000000
00010000
00000000
,
00100000
01000000
10000000
00000000
00100000
00000000
01000000
00100000
00010000
00000000
00001000
00000000
00000100
00000001
00001000
00000000
,
00000100
00000000
00000010
00000000
00001000
00010000
01000000
00000000
00100000
00000000
00010000
00001000
00000100
00000000
00000010
00000000
,
00000001
00000100
00001000
00000000
00010000
00000000
00100000
01000000
00010000
00000000
10000000
00000000
01000000
00010000
00001000
00000000
,
00010000
00000000
00000100
00000000
00000010
00000001
00001000
00000000
00000001
00000000
00000100
00001000
00000100
00000000
00000001
00000000
,
00001000
00000100
00000010
00001000
00010000
00000000
01000000
00100000
00010000
01000000
00100000
00000000
00010000
00001000
00010000
00000000
,
00001000
00000000
00010000
00000000
00000010
00000100
00001000
00000000
00010000
00000000
00100000
01000000
00010000
00000000
10000000
00000000
,
00010000
00100000
01000000
00010000
00001000
00000000
00000010
00000001
00001000
00000010
00000100
00000000
00000001
00000010
00000100
00000000
,
00002000
00003002
00000203
00002300
00000000
00003200
00000320
00002030
,
00003200
00000000
00000320
00002030
00023000
02030000
03200000
00320000
,
02030000
03002000
00023000
00230000
02300000
23000000
30020000
00032000
,
00023000
00030200
00000320
00000032
00000203
00002300
00023000
00030200
,
00000320
00000000
00000032
00000203
,
00002300
00000000
00000000
00000000
00023000
00000000
00230000
00000000
10300000
01000000
00010000
01000000
10000000
00000000
MMMMMMMM
00000000
,
20000000
32000000
03200000
00320000
00032000
00003200
00000320
00000032
,
00000103
00000100
00000100
00000100
00000010
00000010
00000010
00000010
,
00001000
00000100
00000010
00000002
00000000
00000103
00001000
00010000
00200000
00000000
10300000
01000000
00010000
00001000
00010000
00100000
,
01000000
00100000
00010000
00001000
00011000
00010000
00001000
00000100
00000001
00001000
00000100
00000010
00000011
00000001
00001000
00000001
,
00000201
00000000
00000000
00000000
00000000
00000000
00000000
00000000
00000000
00000000
00000000
00000000
00000000
00000000
00000000
00000300
00000110
00000000
00000000
00000000
00000000
00000000
00000000
00000000
00000010
00000000
00000000
00000000
00000000
00000000
00000000
00000000
00001000
00000000
00000000
00000000
00000000
00000000
00001000
00000000
00000001
00000000
00000000
00000000
00000100
00000000
00000000
00000000
00001000
00000000
00000000
00000000
00010000
00000000
00000000
00000000
00100000
00000000
00000000
00000000
01000000
00000000
00000000
00000000
,
00020000
20030000
32000000
03002000
00003200
00002300
00023000
00230000
01300000
10000000
00100000
00001000
00000010
00010000
00001000
00000100
,
00000001
00001000
00000100
00001000
00000001
00001000
00000100
00001000
00000001
00000010
00000100
00001000
00000100
00010000
00001000
00010000
,
00001000
00100000
00010000
00100000
00001000
00100000
00010000
00100000
00001000
00010000
00001000
01000000
00010000
10000000
01000000
00100000
,
00001000
00010000
00000010
00010000
00001000
00010000
00000010
00010000
00001000
00010000
00000100
00001000
00000001
00000100
00000010
00001000
,
00000001
00000100
00000010
00001000
00000001
00000010
00000100
00001000
00000100
00010000
00001000
01000000
00010000
10000000
01000000
00100000
,
00010000
00100000
00001000
00010000
00000010
00001000
00000100
00010000
00001000
01000000
00010000
00100000
00002000
00000000
00000000
00000000
,
00013000
00001000
00000010
00000100
00000010
00000001
00001000
00000001
00000100
00000010
00001000
00000001
00000100
00000010
00000100
00001000
,
00010000
00100000
01000000
00100000
00010000
00001000
00000100
00000010
00001000
00000100
00000010
00000001
00001000
00000010
00000100
00000001
,
00001000
00000001
00000100
00000010
00000100
00001000
00010000
00100000
10000000
00010000
00100000
01000000
10000000
00010000
01000000
00100000
,
10000000
00010000
00100000
01000000
00100000
00010000
00001000
00000100
00000010
00000001
00001000
00000010
00000100
00000001
00001000
00000100
,
00000010
00001000
00010000
01000000
00100000
00010000
10000000
00100000
00010000
00001000
00010000
00000010
00001000
00000010
00010000
00001000
,
00000000
00000000
00010000
00001000
00000100
00000001
00001000
00000100
00000010
00000000
00000001
00000000
00000100
00000000
00001000
00000000
,
00010000
00000000
00001000
00000000
00010000
00000100
00000010
00000001
00001000
00000000
00000010
00000100
00000001
00000100
00000010
00000000
,
00001000
00000010
00000100
00000000
00000001
00000010
00000100
00000000
00001000
00000010
00010000
00001000
01000000
00010000
10000000
01000000
,
00200000
00000000
00000000
00000000
0000MMMM
00000000
00301000
00010000
00001000
00000000
00010000
00000100
00001000
00000001
00000100
00000000
,
00001000
00010000
00001000
01000000
00010000
00100000
01000000
00100000
00010000
00001000
00000100
00000010
00000100
00001000
00000001
00000100
,
00000020
00000000
00000000
00000000
MMMM0000
00000000
00010030
00001000
00010000
00100000
01000000
00100000
10000000
00000000
00010000
00000000
,
01000000
01000000
10000000
00000000
01000000
01000000
00010000
00000000
10000000
00100000
01000000
10000000
00010000
00100000
01000000
00000000
,
00010000
00000000
00000000
00000000
00000000
00000000
01000000
00000000
00000000
00100000
00000000
00000000
10000000
00000000
00000000
01000000
00000000
00000000
00100000
00000000
00000000
00001000
00000000
00000000
00010000
00000000
00000000
00000000
00000000
00000000
00000100
00000000
00000000
00001000
00000000
00000000
00000001
00000000
00000000
00000000
00000000
00000000
00000100
00000000
00000010
00000000
00001000
00000000
,
00000020
00000000
00000230
00000000
00000302
00000000
00002003
00000000
00003001
00000010
00000100
00010000
00001000
00100000
01000000
10000000
,
00010000
00000000
00000000
00000000
MMMMMMMM
00000000
00000000
00101000
,
00010010
00000000
00000000
00000000
00000000
00000000
00000000
00000000
MMMMMMMM
00000000
00000000
00000000
00000000
00000000
00000001
00000100
,
00000110
00000000
00000000
00000000
00000000
00000000
00010000
00001000
00011000
00000000
00000000
00101000
00000000
00000000
00001000
01000000
,
01010000
00000000
00000000
MMMMMMMM
00000000
00000000
10000000
01000000
00010000
00001000
00000010
00000100
,
00001000
00000000
00000000
00000100
00000000
00000000
00000010
00000000
00000000
00000001
00000100
00000001
00001000
00000000
00001000
00000000
00001000
00000000
00000010
00000000
00000000
00000000
00100000
00000000
,
00001000
00000000
00001000
00000000
00001000
00000000
00010000
00000000
00000000
00001000
00010000
00000100
00010000
00000000
00000000
00000000
00010010
00000000
00000000
00000000
00011000
00000000
00000000
00000000
,
00010000
00001000
00000100
00000001
00001000
00000100
00000010
00000100
00000001
00000100
00001000
00000001
00000100
00000010
00000100
00001000
,
00010000
00100000
01000000
00100000
10000000
00010000
00100000
10000000
00010000
01000000
00100000
00010000
10000000
00100000
00010000
00100000
,
10000000
MMMM1000
0001MMMM
MMMM0001
,
00010000
00001000
00000010
00000100
00001000
00010000
00100000
01000000
10000000
00010000
01000000
00100000
00010000
10000000
01000000
00010000
,
10000000
00100000
00010000
00001000
00010000
01000000
00010000
00001000
00000100
00000001
MMMM1000
00000100
MMMM0010
00000001
MMMM0010
00000100
,
00001000
00000001
00000100
00000010
00000001
00001000
00000100
00000001
00001000
00000001
00000100
00000010
00000100
00001000
00010000
00100000
,
01000000
00000000
00000000
00010000
00000000
00000000
10000000
00000000
00000000
01000000
00000000
00000000
00100000
00000000
00000000
10000000
00000000
00000000
00010000
00000000
00000000
01000000
00000000
00000000
00100000
00000000
00000000
00010000
00000000
00000000
10000000
00000000
00000000
01000000
00000000
00000000
00100000
00000000
00001000
00000000
00010000
00000000
00000010
00000000
00001000
00000000
00000001
00000000
,
00001000
00000000
00000000
00000000
00000000
00000000
00000000
00000000
00000000
00000000
00000000
00000000
00000000
00000000
00000000
00000000
MMMMMMMM
00000000
00000000
00000000
00000000
00000000
00000000
00000000
00000100
00000000
00000000
00000000
00000010
00000000
00000000
00000000
00000220
00000330
00000000
00000000
00000000
00000000
00000000
00000000
00000000
00000000
00000000
00000000
00022000
00033000
00000000
00000000
00000000
00000000
00000000
00000000
00000000
00000000
00000000
00000000
02200000
03300000
00000000
00000000
00000000
00000000
00000000
00000000
,
00000000
20020000
00000000
00000000
00000000
00000000
00000000
00000000
,
00000000
00000000
00000000
00000000
,
3003MMMM
00000000
00000000
00000000
;
