#VERSION:0.83;
#TITLE:神謳 -RESONANCE-;
#ARTIST:SOUND HOLIC feat. Nana Takahashi Vs.GOD PHOENIX Prim;
#TITLETRANSLIT:Shin ou -RESONANCE-;
#GENRE:Hi-MYTH;
#BANNER:Shin ou -RESONANCE-.png;
#BACKGROUND:Shin ou -RESONANCE--bg.png;
#CDTITLE:./CDTitles/bm IIDX 25 CANNON BALLERS.png;
#MUSIC:Shin ou -RESONANCE-.ogg;
#SAMPLESTART:52.145;
#SAMPLELENGTH:15;
#BPMS:0=180;
#BGSTAGE:16;

//--------------- dance-single - Fred-104 ----------------
#NOTEDATA:;
#STEPSTYPE:dance-single;
#DESCRIPTION:Fred-104;
#DIFFICULTY:Beginner;
#METER:3;
#CREDIT:Fred-104;
#NOTES:
0000
0000
0000
0000
,
0000
0000
0000
0000
,
0000
0000
0000
0000
,
0000
0000
0000
0000
,
0000
0000
0000
0000
,
0000
0000
0000
0000
,
0000
0000
0000
0000
,
1000
0000
0000
0000
,
0001
0000
0000
0000
,
0100
0000
0010
0000
,
0100
0000
0000
0000
,
0001
0000
1000
0000
,
0001
0000
1000
0000
,
1001
0000
0000
0000
,
0000
0000
0000
0000
,
0002
0000
0000
0003
,
2000
0000
0000
3000
,
0002
0003
2000
3000
,
0002
0000
0000
0003
,
2000
0000
0000
3000
,
0002
0000
0000
0003
,
2000
3000
0002
0003
,
2002
0000
0000
3003
,
1000
0000
0010
0000
,
1000
0000
0100
0000
,
2000
3000
0002
0003
,
2002
0000
3003
0000
,
1000
0000
0000
0000
,
0001
0000
0000
0000
,
2000
3000
0002
0003
,
2002
0000
3003
0000
,
0002
0000
0000
0003
,
2000
0000
0000
3000
,
0020
0000
0000
0030
,
0200
0000
0000
0300
,
0001
0000
0001
0000
,
1000
0000
0001
0000
,
1000
0000
0000
0000
,
0001
0000
0000
2002
,
0000
0000
0000
3003
,
1000
0000
0001
0000
,
1000
0000
0100
0000
,
0100
0000
1000
0000
,
0001
0000
1000
0000
,
1000
0000
0001
0000
,
1000
0000
0010
0000
,
1000
0000
0001
0000
,
1000
0000
0001
0000
,
0001
0000
1000
0000
,
0001
0000
0100
0000
,
0100
0000
0001
0000
,
1000
0000
0001
0000
,
1000
0000
0001
0000
,
0000
0000
0000
0000
,
2000
0000
0002
0000
,
0000
0000
0000
3003
,
0001
0000
1000
0000
,
0001
0000
0100
0000
,
0010
0000
0100
0000
,
0001
0000
1000
0000
,
0001
0000
0100
0000
,
0010
0000
0100
0000
,
0001
0000
1000
0000
,
0001
0000
1000
0000
,
0002
0000
0000
0003
,
2000
3000
0200
0300
,
2000
0000
0000
3000
,
0002
0003
0200
0300
,
0001
0000
1000
0000
,
0001
0000
0100
0000
,
0001
0000
0000
0000
,
1000
0000
0000
2002
,
0000
0000
0000
3003
,
0001
0000
0000
0000
,
0000
0000
0000
0000
,
1000
0000
0000
0000
,
0001
0000
1000
0000
,
0001
0000
1000
0000
,
0010
0000
1000
0000
,
0001
0000
1000
0000
,
0001
0000
1000
0000
,
1000
0000
0001
0000
,
0100
0000
0010
0000
,
1000
0000
0001
0000
,
1000
0000
0001
0000
,
0001
0000
1000
0000
,
0000
0000
0000
0000
,
0002
0000
2000
0000
,
0000
0000
0000
3003
,
0001
0000
1000
0000
,
0001
0000
0100
0000
,
0001
0000
1000
0000
,
0001
0000
1000
0000
,
0010
0000
1000
0000
,
0001
0001
0001
0001
,
1001
0000
0000
0110
,
0000
0000
2002
0000
,
0000
0000
0000
3003
0000
0000
0000
0000
;

//--------------- dance-single - Fred-104 ----------------
#NOTEDATA:;
#STEPSTYPE:dance-single;
#DESCRIPTION:Fred-104;
#DIFFICULTY:Easy;
#METER:10;
#CREDIT:Fred-104;
#NOTES:
0000
0000
0000
0000
,
0000
0000
0000
0000
,
0000
0000
0000
0000
,
0000
0000
0000
0000
,
1000
0010
1000
0100
0000
1000
0001
2002
,
0000
0000
0000
0000
,
0000
0000
0000
3003
,
1000
0000
0000
0100
0000
0000
1000
0000
0001
0000
0000
0100
0000
0000
0001
0000
,
0010
0000
0100
0000
1000
0010
0100
0000
,
0010
0000
0000
1000
0000
0000
0010
0000
0100
0000
0000
0001
0000
0000
0100
0000
,
0001
0000
0010
0000
0100
1000
0001
0000
,
0100
0000
0000
0010
0000
0000
1000
0000
0100
0000
0000
1000
0000
0000
0001
0000
,
0100
0000
0010
0000
1000
0001
1000
0000
,
0001
0001
0000
0101
0000
1010
0000
1001
,
0000
0001
0100
0010
1000
2002
0000
3003
,
2000
0000
0000
3020
0000
0000
0130
0000
,
0002
0000
0000
0023
0000
0000
0130
0000
,
1000
0010
0001
0100
,
2002
0000
0000
0000
3003
0001
1000
0001
,
0200
0000
0000
0320
0000
0000
1030
0000
,
0200
0000
0000
0320
0000
0000
0031
0000
,
1000
0000
0000
0000
0010
0000
0000
0000
0100
0000
0000
0001
0000
0000
0100
0000
,
0001
0001
0000
1000
1000
0000
1001
0000
,
0001
0000
0010
0100
0000
0010
0100
0000
,
1000
0000
0010
0100
0000
0010
0100
0000
,
0001
0000
0000
0010
0000
0000
0001
0000
1000
0000
0000
0001
0000
0000
0100
0000
,
0220
0000
0000
0000
0330
0001
1000
0001
,
0100
0000
0000
0010
0000
0000
1010
0000
0000
0000
1000
0000
0100
0000
0000
0000
,
0010
0000
0000
0100
0000
0000
1100
0000
0000
0000
0001
0000
0100
0000
0000
0000
,
0020
0000
0000
0000
2030
0000
0000
0000
3001
0000
0000
1000
0000
0000
0001
0000
,
0100
0000
0010
0000
1000
1000
1000
0000
,
1001
2000
3200
0320
,
0031
0100
0001
0000
1000
0010
1000
0000
,
0001
0000
0000
0100
0000
0000
0010
0000
0100
0000
0000
0010
0000
0000
1000
0000
,
0001
0000
1001
0000
1000
0001
1000
0000
,
0001
0000
0010
0001
0000
1000
0001
0000
,
0100
0000
0010
1000
0000
0010
0100
0000
,
0001
0000
0000
0010
0000
0000
0001
0000
1000
0000
0000
0010
0000
0000
0100
0000
,
0001
0000
0000
1000
0000
0000
2002
0000
0000
0000
3003
0000
1000
0000
0000
0001
,
0000
2002
0000
0000
0000
0000
3003
0000
,
1000
0000
0010
0100
0000
0010
1000
0000
,
0200
1000
0010
1300
,
0001
0000
0100
0010
0000
1000
0001
0000
,
0200
0001
0010
0301
,
1000
0000
0001
0100
0000
0010
0100
0000
,
0001
0000
1000
0100
0000
0010
0001
0000
,
1000
0000
0000
0000
0001
0000
0000
0000
0100
0000
0000
0010
0000
0000
0100
0000
,
0002
0000
0000
0000
2003
0000
0000
0000
3001
0000
0000
0001
0000
0000
0001
0000
,
1000
0000
0010
0100
0000
0010
1000
0002
,
0000
0000
0103
0010
,
0100
0000
0001
0010
0000
0001
1000
0002
,
0000
0000
0103
0010
,
1000
0000
0100
0000
1000
0000
0001
2000
,
0000
0000
0000
0000
0000
0000
0000
0000
3001
0000
0000
0100
0000
0000
0010
0000
,
2000
0000
0002
0000
,
0000
0000
0000
3003
,
0001
0100
0010
0000
,
1000
0100
0001
0100
,
1000
0010
0100
0000
,
0001
0000
0010
0000
0001
1000
0001
0000
,
0100
0000
0010
0000
1000
0010
1000
0000
,
0100
0000
0010
0000
0001
1000
0001
0000
,
0100
0010
0100
0001
,
0010
0000
0001
0000
1000
0001
1000
0000
,
2002
0000
0000
3003
,
2000
0000
0000
3020
0000
0000
0130
0000
,
0202
0000
0000
0303
,
0002
0000
0000
2003
0000
0000
3010
0000
,
1000
0000
0100
0010
0000
0001
0100
0000
,
0010
0000
1000
0010
0000
0100
0001
0000
,
1000
0000
0000
0100
0000
0000
1000
0000
0010
0000
0000
0100
0000
0000
0001
0000
,
0010
0000
0000
0100
0000
0000
0220
0000
0000
0000
0330
0000
1000
0000
0000
0001
,
0000
2002
0000
0000
0000
0000
3003
0000
,
1001
0000
0000
0000
,
0001
0000
0100
0010
,
1000
0000
0001
0000
,
1000
0000
0001
0000
1000
0001
1000
0000
,
0001
0000
0100
0010
0000
1000
0010
0000
,
0100
0000
0001
0010
0000
0001
1000
0000
,
0001
0000
0000
0000
0100
0000
0010
0000
1000
0000
0000
0001
0000
0000
2000
0000
,
0000
0000
0000
0000
0000
0000
0000
0000
3001
0000
0000
0001
0000
0000
0001
0000
,
0100
0000
0010
1000
0000
0010
0100
0002
,
0000
0000
1003
0100
,
0010
0000
0100
1000
0000
0001
1000
0020
,
0000
0000
0130
0010
,
1000
0000
0100
0000
1000
0001
1000
0002
,
0000
0000
0000
0000
0000
0000
0000
0000
0103
0000
0000
0010
0000
0000
0100
0000
,
0002
0000
2000
0000
,
0000
0000
0000
3003
,
0001
0100
0001
0000
0010
0000
0100
0000
,
1000
0010
0100
0000
0010
0000
1000
0000
,
0001
0100
0001
0000
0100
0000
1000
0000
,
0100
0001
0010
0000
1000
0000
0010
0000
,
0001
0100
0001
0000
1000
0010
1000
0000
,
0001
1000
0001
1000
0001
1000
0001
1000
,
0001
0000
0000
0101
0000
0000
1010
0000
,
0000
0011
0000
0000
1100
0000
0000
2002
,
0000
0000
0000
3003
0000
0000
0000
0000
;

//--------------- dance-single - Fred-104 ----------------
#NOTEDATA:;
#STEPSTYPE:dance-single;
#DESCRIPTION:Fred-104;
#DIFFICULTY:Medium;
#METER:14;
#CREDIT:Fred-104;
#NOTES:
0000
0000
0000
0000
,
0000
0000
0000
0000
,
0000
0000
0000
0000
,
0000
0000
0000
0000
,
0001
0100
0010
1010
0000
1000
0100
0220
,
0000
0000
0000
0000
,
0000
0000
0000
0330
,
1000
0000
0000
0100
0000
0000
0010
0001
0010
0000
0000
0001
0000
0000
0100
0010
,
0100
0000
0000
0000
0001
1000
0001
0000
0010
0000
0100
0000
1000
0000
0001
0000
,
0100
0000
0000
0010
0000
0000
1000
0100
1000
0000
0000
0010
0100
0000
0001
0000
,
0010
0000
0001
0000
1000
0000
0001
0000
0010
0000
0100
0010
0100
0000
1000
0000
,
0001
0000
0000
1000
0000
0000
0010
1000
0010
0000
0000
0100
0000
0000
0001
1000
,
0001
0000
0000
0000
0010
0100
0010
0000
0001
0000
0100
0000
1000
0000
0100
0000
,
0001
1001
0000
0110
0000
0001
0100
0110
,
0000
0010
1000
0100
1000
1001
0000
0000
,
1000
0010
1000
0200
0000
0000
0000
0310
,
0001
1000
0001
0200
0000
0000
0000
0301
,
0010
0000
0000
0100
0000
0000
1000
0000
0001
0000
0000
0010
0000
0000
0100
0000
,
2200
0000
0000
0000
3300
1000
0010
0100
,
0001
0010
0100
0020
0000
0031
1000
0001
,
1000
0100
1000
0020
0000
0130
0001
0010
,
0001
0000
0010
0000
0100
0000
1000
0000
0001
0000
0000
0010
0000
0000
0100
0000
,
1000
0010
1000
0000
0000
0000
0001
0100
0001
0000
0000
0000
1001
0000
0000
0000
,
0001
0010
0100
0010
0001
1000
0001
0100
,
0010
0100
0001
1000
0100
1000
0001
0100
,
0010
0000
0000
1000
0000
0000
0100
0000
0010
0000
0000
0001
0000
0000
0100
0000
,
0220
0000
0000
0000
0330
0001
1000
0001
,
0100
0000
0000
0110
0000
0000
1010
0000
0000
0000
1000
0000
0010
0000
0100
0000
,
0001
0000
0000
0011
0000
0000
1100
0000
0000
0000
0001
0000
1000
0000
0001
0000
,
0200
0000
0000
0000
0320
0000
0000
0000
1030
0000
0000
0100
0000
0000
0010
0001
,
0010
0000
0001
0000
1000
0000
0001
0000
0100
0010
0100
0010
0100
0000
0001
0000
,
1001
0000
0001
0010
0100
0000
0010
0001
,
1000
0001
0100
0010
1000
0100
0010
0001
,
1000
0000
0000
0100
0000
0000
0001
0000
1000
0000
0000
0010
0000
0000
0001
0000
,
1001
0000
0000
0000
0110
0000
0000
0000
0001
1000
0001
1000
0001
0000
0000
0000
,
1000
0100
0001
0100
0000
1000
0001
0100
,
0001
0010
1000
0010
0000
0001
0100
0010
,
1000
0000
0000
1100
0000
0000
0010
0000
0001
0000
0000
0101
0000
0000
0010
0000
,
1000
0000
0000
1010
0000
0000
2002
0000
0000
0000
3003
0000
0011
0000
0000
1100
,
0000
0220
0000
0000
0000
0000
0330
0000
,
1000
0100
0010
0100
1000
0001
0100
0010
,
1000
0100
0010
1000
0001
0100
0010
0001
,
1000
0001
1000
0010
0100
0010
1000
0100
,
1000
0010
0001
0010
0100
0001
1000
0000
,
0001
0010
0100
1000
0001
0100
0010
0100
,
0001
1000
0010
0001
0010
0100
0001
1000
,
0100
0000
1000
0000
0010
0000
0100
0000
0001
0000
0000
0100
0000
0000
0010
0000
,
1000
0100
1000
0000
0001
0100
0001
0000
0100
0000
0000
0110
0000
0000
1001
0000
,
0001
0010
0100
0001
0100
1000
0001
0100
,
0010
1000
0100
1000
0001
0010
0001
0100
,
0001
0010
1000
0001
0100
1000
0001
0100
,
0010
1000
0100
0010
0001
0100
0010
1000
,
0001
0000
0010
0000
0100
0000
1000
0000
0001
0010
0001
0010
0100
0000
2200
0000
,
0000
0000
0000
0000
0000
0000
3300
0000
1000
0000
0000
0010
0000
0000
0100
0001
,
0200
0000
0000
0000
0000
0000
0301
2000
0002
0000
0000
0000
0000
0000
0000
0000
,
0000
0000
0000
3003
,
1000
0100
0001
0100
1000
0010
0100
0001
,
0000
0000
1001
0000
0000
0000
1010
0000
0010
0000
0000
0100
0000
0000
0001
0000
,
0100
0010
1000
0100
0010
0100
0001
0100
,
0000
1000
0001
0100
0001
1000
1001
0000
,
0001
0010
1000
0010
0001
0010
1000
0010
,
0001
0100
1000
0100
0001
0100
1000
0100
,
0001
0010
0100
1000
0010
0100
0001
0010
,
0001
0000
1000
0000
0010
0000
0100
0000
0001
1000
0001
1000
0001
0000
0000
0000
,
2002
0000
0000
3003
,
2020
0000
3030
0202
0000
0303
0220
0330
,
2002
0000
0000
3003
,
2200
0000
3300
0022
0000
0033
2002
3003
,
1000
0100
0010
0210
0000
1300
0010
0001
,
0010
0100
0001
2001
0000
3001
0100
0010
,
1000
0000
0000
1010
0000
0000
0100
0000
0001
0000
0000
0011
0000
0000
0100
0000
,
1000
0000
0000
1100
0000
0000
2002
0000
0000
0000
3003
0000
0101
0000
0000
1010
,
0000
0220
0000
0000
0000
0000
0330
0000
,
1001
0000
1000
0100
0000
0010
0001
2000
,
0000
0000
0000
0000
3001
0100
1000
0100
,
0002
0000
0013
0200
0000
1300
0010
0100
,
0001
0000
1000
0000
0001
0000
1000
0000
0100
0010
0100
0010
0100
0000
0000
0000
,
0010
0001
1000
0001
0100
0010
1000
0100
,
1000
0010
0001
1000
0100
0001
1000
0001
,
1000
0000
0010
0000
0100
0000
0010
0000
0001
0000
0000
0010
0000
0000
1000
0000
,
0001
1000
0001
0000
0100
0010
0100
0000
0001
0000
0000
0101
0000
0000
0110
0000
,
0010
1000
0100
0010
0001
1000
0001
0100
,
0010
0100
0001
0010
0100
0001
0100
0010
,
0001
1000
0010
0001
1000
0100
0001
1000
,
0001
0100
0010
1000
0001
0100
0010
1000
,
0001
0000
1000
0000
0100
0000
0010
0000
0001
1000
0001
1000
0100
0000
0220
0000
,
0000
0000
0000
0000
0000
0000
0330
0000
0010
0000
0000
0001
0000
0000
1000
0001
,
2000
0000
0000
0000
0000
0000
3010
0200
0020
0000
0000
0000
0000
0000
0000
0000
,
0000
0000
0000
0330
,
1000
0000
0010
1000
0010
0000
0100
0000
0010
0000
1000
0000
0100
0000
0010
0000
,
0001
0000
0100
0010
0100
0000
0001
0000
0010
0000
0001
0000
1000
0000
0001
0000
,
0100
0000
0010
1000
0010
0000
0100
0000
0001
0000
0010
0000
0100
0000
0010
0000
,
0001
0000
1000
0100
1000
0000
0001
0000
1000
0000
0010
0000
0100
0000
0001
0000
,
1000
1000
0100
0100
0010
0010
0001
0001
,
1000
0000
0100
0000
0010
0000
0001
0000
1000
0001
1000
0001
1000
0001
1000
0001
,
1000
0000
0001
0011
0000
1000
1100
0000
,
0001
0101
0000
1000
1010
0010
0100
2002
,
0000
0000
0000
3003
0000
0000
0000
0000
;

//--------------- dance-single - Fred-104 ----------------
#NOTEDATA:;
#STEPSTYPE:dance-single;
#DESCRIPTION:Fred-104;
#DIFFICULTY:Hard;
#METER:17;
#CREDIT:Fred-104;
#NOTES:
0000
0000
0000
0000
,
0000
0000
0000
0000
,
0000
0000
0000
0000
,
0000
0000
0000
0000
,
1100
0100
0010
0101
0000
0100
0010
2002
,
0000
0000
0000
0000
,
0000
0000
0000
3003
,
1001
0000
0000
0011
0000
0000
0100
1000
0100
0000
0000
1010
0000
0000
1000
0001
,
1000
0000
0000
0000
0001
0100
0010
0000
1000
0010
1000
0010
0100
0001
0100
0001
,
0100
0000
0000
0110
0000
0000
0010
1000
0010
0000
0000
1000
0100
0010
0100
0010
,
0001
0000
0100
0010
0000
0100
0001
0000
1000
0000
0001
0100
0010
0100
0010
0100
,
0001
0000
0000
0011
0000
0000
0100
1000
0100
0000
0000
0110
0000
0000
0001
1000
,
0001
0000
0000
0000
1000
0010
0100
0000
0001
0010
0001
0010
0100
1000
0100
1000
,
0100
1100
0000
0011
0000
1010
0010
0110
,
0000
0101
1001
1010
1001
1001
0000
0000
,
1100
0100
0010
0002
0000
0000
0000
1003
,
0001
0100
0010
2000
0000
0000
0000
3100
,
1000
0000
0000
0100
0000
0000
0010
0000
1000
0000
0000
0010
0000
0000
0001
0000
,
2002
0000
0000
0000
0000
0000
0000
0000
3003
0000
0001
0000
0100
0000
0001
1000
,
0001
0000
1000
0000
0010
0000
0210
0000
0000
0000
0301
0000
1000
0000
0100
0010
,
0100
0000
1000
0000
0001
0000
0201
0000
0000
0000
0310
0000
1000
0000
0001
1000
,
0001
0000
1000
0000
0010
0000
0100
0001
0100
0000
0000
0110
0000
0000
1001
0000
,
0001
0010
2000
0000
3000
0000
0001
0100
2000
0000
3000
0000
1001
0000
0000
0000
,
1001
0000
1000
0000
0010
0000
0200
0000
0310
0000
1000
0100
1000
0000
1000
0010
,
1000
0000
0100
0000
0010
0000
0200
0000
1300
0000
0001
0100
0001
0000
0001
0010
,
0001
0000
0000
0101
0000
0000
0010
0000
1000
0000
0000
1100
0000
0000
0010
0000
,
2002
0000
0000
0000
0000
0000
0000
0000
3003
0000
1000
0010
0100
0001
1000
0100
,
0010
0000
0000
0011
0000
0000
1001
0000
0000
0000
0001
0100
0010
1000
0010
0000
,
1010
0000
0000
1100
0000
0000
1001
0000
0000
0000
1000
0001
0010
0100
1000
0001
,
2000
0000
0000
0000
3020
0000
0000
0000
0032
0000
0000
0203
0000
0000
1300
0001
,
1000
0000
0010
0000
1000
0000
0100
0000
1000
0010
0100
0001
1000
0000
0001
0000
,
1001
0000
0000
0000
1000
0000
0100
0000
0010
0000
0000
0000
1000
0000
0010
0001
,
1000
0000
0001
0000
0100
0000
0010
0000
0001
0000
0010
0000
1000
0000
0001
1000
,
0001
0000
0000
0010
0000
0000
1000
0000
0001
0000
0000
0100
0000
0000
1000
0000
,
1001
0000
0000
0000
0110
0000
0000
0000
1000
0001
0100
0010
0100
0000
0000
0000
,
0101
0001
1000
1010
0000
0001
1000
0001
,
0011
0000
0001
0000
0100
0000
0110
0000
0000
0000
0100
0010
1000
0000
0001
0000
,
1100
0000
0000
0101
0000
0000
1010
0000
0011
0000
0000
1100
0000
0000
0101
0000
,
1100
0000
0000
0011
0000
0000
2002
0000
0000
0000
3003
0000
0110
0000
0000
1010
,
0000
0202
0000
0000
0000
0000
0303
0000
,
1000
0000
0001
0010
0100
0000
1000
0000
0010
0000
0100
0001
0010
0000
0001
0000
,
1000
0010
1000
0000
1000
0100
1000
0000
0001
0000
0100
0001
1000
0000
0001
0000
,
1000
0000
0001
1000
0010
0000
0100
0000
0001
0000
1000
0000
0100
0000
0010
0001
,
0010
0000
0010
0100
0010
0000
0001
0000
1000
0000
0001
1000
0100
0010
0001
0100
,
0001
0000
0010
0000
0010
0000
0100
0000
0010
0000
0010
0000
0001
0000
1000
0100
,
1000
0000
0010
0000
0010
0000
0100
0000
0010
0000
0010
0000
1000
0000
0001
0100
,
0001
0000
0010
0100
0010
0000
0001
1000
0001
0000
0000
0100
0000
0000
0001
1000
,
0100
1000
0001
1000
0010
1000
0001
1000
0100
0000
0000
0110
0000
0000
0001
0100
,
0001
0000
0010
0100
0010
0000
0001
0000
1000
0000
0001
0000
0100
0000
0001
0010
,
0100
0000
1000
0010
0100
0000
0001
0000
0010
0001
0010
0000
0010
0100
0010
0000
,
0001
0000
1000
0001
0010
0000
0100
0000
1000
0010
0100
0000
0010
0000
1000
0000
,
0002
0000
0010
0000
2003
0000
0100
0000
3001
0010
0001
0010
0100
1000
0100
1000
,
0100
0000
1000
0000
0001
0000
0100
0000
0010
1000
0001
0100
0010
0000
0220
0000
,
0000
0000
0000
0000
0000
0000
0330
0000
0100
0000
0000
0010
0000
0000
0100
0001
,
2000
0000
0000
0000
0000
0000
3001
1000
0020
0000
0000
0000
0000
0000
0000
0000
,
0000
0000
0000
0030
,
1000
0100
0010
0001
0010
0100
0010
0011
,
0000
0000
1010
0000
0000
0000
0011
0000
0001
1000
0100
0010
0001
0100
0010
1000
,
0001
0000
0100
0000
0010
1000
0010
0000
1000
0000
0100
0000
1000
0001
0010
0000
,
0000
0000
0001
0000
0010
0000
0001
0000
0100
0001
1000
0001
0020
0000
0000
0000
,
0031
0000
0010
0001
2000
0000
0010
0000
3002
0000
0100
0000
1003
0000
0100
0010
,
0100
0000
1000
0001
0020
0000
0001
0000
0230
0000
1000
0000
0310
0100
0010
0001
,
1000
0000
0100
1000
0002
0000
0010
0000
2003
0000
0100
0000
3001
1000
0001
1000
,
0001
0100
0001
0100
0010
1000
0010
1000
0001
0010
0100
1000
0001
0000
0000
0000
,
1001
0000
0000
1000
0100
0000
0000
0001
,
0200
0000
0000
2300
0000
0000
3002
0000
,
1003
0000
0000
0000
0000
0000
0010
0001
0010
0000
0000
0000
0000
0000
1000
0100
,
1000
0000
0010
0000
0100
0000
1000
0000
0100
0010
0100
0001
1000
0000
0000
0000
,
1001
0000
0001
0000
0010
0000
0011
0000
0000
0000
0010
0001
0100
0000
0010
0000
,
1010
0000
1000
0000
0010
0000
0110
0000
0000
0000
1000
0100
0010
0001
0010
0000
,
0011
0000
0000
1010
0000
0000
0101
0000
1100
0000
0000
0101
0000
0000
1010
0000
,
0011
0000
0000
1100
0000
0000
2002
0000
0000
0000
3003
0000
1010
0000
0000
0101
,
0000
2002
0000
0000
0000
0000
3003
0000
,
1001
0000
1000
0002
0000
0103
1000
0002
,
0000
0000
0000
0000
0000
0000
0000
0000
0013
0000
1000
0000
0001
0000
1000
0100
,
0020
0000
0031
0200
0000
0310
1000
0001
,
1100
0000
1000
0000
0101
0000
0001
0000
1000
0001
1000
0001
1000
0000
0000
0000
,
0001
0000
1000
0100
0010
0000
0100
0000
1000
0010
0100
0000
0001
0000
0100
0010
,
0100
0000
0100
0001
0100
0000
0010
0000
1000
0000
0001
1000
0010
0000
1000
0001
,
0010
0000
0100
1000
0010
0000
0100
0000
0010
0000
0000
1000
0000
0000
0100
0010
,
0001
0100
0001
1000
0001
0010
0001
1000
0001
0000
0000
0101
0000
0000
0100
0010
,
1000
0100
0010
1000
0001
0100
0010
0001
,
1000
0000
0001
1000
0100
0000
0010
0001
0100
0000
0001
0000
0010
0000
0001
1000
,
0100
0000
0010
0100
1000
0000
0010
0000
0100
0001
0100
0000
0100
0010
0100
0000
,
0001
0000
0010
0000
0100
0000
0010
0100
0010
0000
0100
1000
0001
1000
0100
0010
,
0100
0000
0010
0000
0001
0000
1000
0000
0100
0010
0001
1000
0100
0000
0220
0000
,
0000
0000
0000
0000
0000
0000
0330
0000
0100
0000
0000
0010
0000
0000
0001
1000
,
0200
0000
0000
0000
0000
0000
0310
0100
2000
0000
0000
0000
0000
0000
0000
0000
,
0000
0000
0000
3000
,
1000
0000
0010
0100
1000
0000
0100
0000
0010
0000
1000
0010
1000
0001
0010
0001
,
1000
0000
0001
0100
0010
0000
0001
0000
0010
0000
0100
0001
1000
0001
0010
0001
,
1000
0000
0001
1000
0010
0000
0001
0000
0010
0000
0100
0001
1000
0100
0010
0100
,
1000
0000
0001
0010
1000
0000
0010
0000
0001
0000
1000
0001
0100
0010
1000
0001
,
0200
0000
0001
1300
0200
0000
1000
0301
0200
0000
0001
1300
0100
0000
0010
0000
,
0001
1000
0100
1000
0001
0010
0100
1000
0001
0100
0010
1000
0100
1000
0010
0100
,
0001
0000
0000
0000
1000
0100
0001
0000
0000
0000
1000
0010
0001
0000
0000
0000
,
1000
0100
0001
0000
0000
0000
1000
0010
0001
0000
1001
0000
1000
0010
0200
0000
,
0000
0000
0000
0300
0000
0000
0000
0000
;

//--------------- dance-single - Fred-104 writes an 18.999 ----------------
#NOTEDATA:;
#STEPSTYPE:dance-single;
#DESCRIPTION:Fred-104 writes an 18.999;
#DIFFICULTY:Challenge;
#METER:18;
#CREDIT:Fred-104;
#NOTES:
0000
0000
0000
0000
,
0000
0000
0000
0000
,
0000
0000
0000
0000
,
0000
0000
0000
0000
,
2010
3100
0010
0102
0003
1100
0011
2002
,
0000
0000
0000
3003
0000
0000
0001
0000
0010
0000
0100
0000
1000
0000
1000
0000
1000
0000
0001
0000
0100
0000
0010
0000
,
1000
1000
2000
0002
0000
0000
0000
0000
0000
3003
0000
0000
,
1100
0000
1000
0100
0000
0010
0001
1000
0001
0000
0100
0010
0000
1000
0001
0010
,
0001
0000
0000
0000
1000
0100
0010
0001
0100
0010
0001
0010
0100
0001
0010
0100
,
1000
0000
0001
0100
0000
0010
1000
0001
0100
0000
0001
0100
1000
0100
0010
1000
,
0001
0000
0010
0100
0000
1000
0001
0000
0010
0000
0001
1000
0100
0001
0100
0010
,
0001
0000
1000
0010
0000
0001
0010
0100
0010
0000
1000
0100
0000
0010
0001
1000
,
0001
0000
0000
0000
1000
0001
0100
1000
0100
0010
0100
0001
1000
0100
0010
0001
,
1001
1010
0000
0101
0000
0011
1010
0011
,
0000
1100
0101
1100
0110
1001
0000
0000
,
1000
0100
0001
0020
0000
0000
0000
1030
,
0100
0001
0010
2000
0000
0000
0000
3001
,
0100
0000
0000
1000
0000
0000
0010
0000
0001
0000
0000
0100
0000
0000
1000
0002
,
2000
0000
0000
0000
0000
0000
3003
0000
MMMM
0000
0001
0000
1000
0000
0010
0100
,
0001
0000
0010
0000
0100
0000
1100
0000
MMMM
0000
1000
0000
0001
0000
0100
0010
,
0100
0000
0001
0000
0010
0000
0011
0000
MMMM
0000
1010
0000
MMMM
0000
0001
1000
,
0001
0000
0000
0000
0000
0000
0000
0000
0000
0000
0000
0000
0000
0000
0000
0000
0000
0000
0000
0000
0000
0000
0000
0000
0100
0000
0000
0000
0000
0000
0000
0000
0000
0000
0000
0000
0000
0000
0000
0000
0000
0000
0000
0000
0000
0000
0000
0000
0010
0000
0000
0000
0000
0000
0000
0000
0000
0000
0000
0000
0000
0000
0000
0000
0000
0000
0000
0000
0000
0000
0000
0000
1000
0000
0000
0000
0000
0000
0000
0000
0000
0000
0000
0000
0100
0000
0000
0000
0000
0000
0000
0000
0000
0000
0000
0000
0110
0000
0000
0000
0000
0000
0000
0000
0000
0000
0000
0000
0000
0000
0000
0000
0000
0000
0000
0000
0000
0000
0000
0000
0000
0000
0000
0000
0000
0000
0000
0000
0000
0000
0000
0000
1001
0000
0000
0000
0000
0000
0000
0000
0000
0000
0000
0000
0000
0000
0000
0000
0000
0000
0000
0000
0000
0000
0000
0000
0000
0000
0000
0000
0000
0000
0000
0000
0000
0000
0000
0000
0001
0000
0000
0000
0000
0000
0000
0000
0000
0000
0000
0000
0200
0300
0000
0000
0000
0000
0000
0000
0000
0000
0000
0000
,
0200
0300
0000
0000
0000
0000
0000
0000
0000
0000
0000
0000
1000
0000
0000
0000
0000
0000
0000
0000
0000
0000
0000
0000
0002
0000
0000
0000
0000
0000
0000
0000
0000
0000
0000
0000
0000
0000
0000
0000
0000
0000
0000
0000
0000
0000
0000
0000
0000
0000
0000
0000
0000
0000
0000
0000
0000
0000
0000
0000
0000
0000
0000
0000
0000
0000
0000
0000
0000
0000
0000
0000
1003
0000
0000
0000
0000
0000
0000
0000
0000
0000
0000
0000
0020
0030
0000
0000
0000
0000
0000
0000
0000
0000
0000
0000
0020
0030
0000
0000
0000
0000
0000
0000
0000
0000
0000
0000
0000
0000
0000
0000
0000
0000
0000
0000
0000
0000
0000
0000
0001
0000
0000
0000
0000
0000
0000
0000
0000
0000
0000
0000
1000
0000
0000
0000
0000
0000
0000
0000
0000
0000
0000
0000
0001
0000
0000
0000
0000
0000
0000
0000
0000
0000
0000
0000
0100
0000
0000
0000
0000
0000
0000
0000
0000
0000
0000
0000
0010
0000
0000
0000
0000
0000
0000
0000
0000
0000
0000
0000
1000
0000
0000
0000
0000
0000
0000
0000
0000
0000
0000
0000
,
0001
0000
0100
0001
0010
0000
0100
0000
1000
0000
0001
0100
1000
0100
0010
0100
,
0001
0000
1000
0010
0001
0000
0010
0000
0100
0000
0001
0010
0100
0001
0100
0010
,
0001
0000
0001
0100
0000
0100
1000
0001
1000
0000
1000
0010
0000
0010
0001
1000
,
0001
0000
0100
0000
0010
0000
0100
0001
0010
0000
0100
1000
0100
0001
0100
1000
,
1010
0000
0000
0101
0000
0000
1001
0000
0000
0000
1100
0000
0101
0000
1100
0000
,
1010
0000
0000
0011
0000
0000
0110
0000
1000
0010
0100
1000
0100
0001
1000
0010
,
1000
0000
MMMM
0000
0001
0000
MMMM
0000
1000
0100
0000
0010
0001
0000
0100
0001
,
0010
0000
0011
0000
0100
0000
1100
0000
0010
0100
0001
1000
0100
0001
0100
1000
,
0002
0000
0203
0000
2300
0000
3100
0010
,
1000
0000
0100
0000
0010
0000
0001
0000
0100
0000
0001
0000
0010
1000
0010
0000
,
0011
0000
0000
1010
0000
0000
0101
0000
1100
0000
0000
0011
0000
0000
1001
0000
,
1010
0000
MMMM
0000
0101
0000
MMMM
0000
1000
0100
0010
0100
0001
0100
1000
0001
,
0100
0000
0010
0000
1000
0000
1100
0000
MMMM
0000
0101
0000
0001
0100
0010
0000
,
1010
0000
1000
0000
0100
0000
0110
0000
MMMM
0000
0001
1000
0010
0100
0001
0000
,
0011
0000
0000
1010
0000
0000
1100
0000
0101
0000
0000
0011
0000
0000
1010
0000
,
1100
0000
0000
0101
0000
0000
2002
0000
0000
0000
3003
0000
1100
0000
0000
0011
,
0000
0220
0000
0000
0000
0000
0330
0000
,
1000
0000
0100
1000
0010
0000
0100
0001
0010
0000
0100
1000
0001
0000
0100
0000
,
0001
0010
0100
0010
1000
0010
0001
1000
0001
0100
0010
1000
0100
0010
0001
0010
,
0100
0000
1000
0001
0100
0000
0010
0001
0010
0000
1000
0001
0100
0000
0001
0000
,
1000
0010
0100
0001
0010
0100
0010
0000
0001
1000
0001
0100
1000
0100
0010
1000
,
0001
0000
0100
1000
0100
0000
0001
0000
0010
1000
0010
0000
0001
0000
1000
0001
,
1000
0000
0100
0001
0100
0000
1000
0000
0010
0001
0010
0000
1000
0000
0001
1000
,
0001
0000
1000
0100
0001
0000
1000
0010
0001
0100
0000
1000
0001
0000
0010
1000
,
0001
0010
0100
1000
0100
0010
0001
1000
0001
0000
0000
0101
0000
0000
1000
0001
,
1000
0000
0010
1000
0100
0000
1000
0001
0020
0000
0100
0000
0031
0000
1000
0000
,
0001
0100
0010
1000
0100
0010
0001
0010
0100
0001
0100
1000
0001
0100
0010
0000
,
0001
0000
0010
0100
0002
0000
1000
0000
0013
0000
0001
1000
0100
0000
1000
0000
,
0002
0000
0100
0000
2003
0000
0010
0000
3001
1000
0100
0010
0001
0010
0100
1000
,
0001
0010
1000
0010
0001
0100
0010
0001
0010
1000
0001
0100
1000
0100
0020
0000
,
0000
0000
0000
0000
0030
0000
0000
0000
1000
0000
0000
0010
0000
0000
0001
0100
,
2000
0000
0000
0000
3001
0100
0010
0001
0010
0000
0000
0000
0100
0001
1000
0100
,
0010
0000
0000
0000
1000
0010
0100
1000
0001
0000
1000
0100
0010
0001
0100
0010
,
1000
0010
0001
1000
0100
0001
1000
1100
,
MMMM
0000
0101
0000
MMMM
0000
1000
0010
0100
0001
0010
0100
1000
0010
0100
0001
,
0010
0000
0001
0000
1000
0001
0100
0010
1000
0000
0100
0010
0001
1000
0010
0000
,
MMMM
0000
0010
0000
0100
0000
0001
0000
1000
0100
0010
0001
2000
0000
0000
0000
,
3001
0000
0000
0000
0000
0000
0100
0000
0001
0000
0010
0000
0200
0000
0000
0000
0000
0000
1000
0000
0000
0000
0000
0000
0320
0000
0000
0000
0000
0000
0001
0000
0000
0000
0000
0000
0130
0000
0000
1000
0000
0000
0010
0000
0000
1000
0000
0000
,
0001
0000
0000
0000
0000
0000
1000
0000
0001
0000
0100
0000
0020
0000
0000
0000
0000
0000
1000
0000
0000
0000
0000
0000
0230
0000
0000
0000
0000
0000
0001
0000
0000
0000
0000
0000
0310
0000
0000
0100
0000
0000
0001
0000
0000
1000
0000
0000
,
0001
0000
0000
0000
0000
0000
1000
0000
0001
0000
0010
0000
0002
0000
0000
0000
0000
0000
0100
0000
0000
0000
0000
0000
2003
0000
0000
0000
0000
0000
0001
0000
0000
0000
0000
0000
3100
0000
0000
1000
0000
0000
0010
0000
0000
0100
0000
0000
,
0001
0010
0100
1000
0010
0100
0001
0010
0001
0100
1000
0100
0001
0000
0000
0000
,
2002
0000
0000
3003
,
1000
0100
MMMM
0001
0100
MMMM
1000
0001
,
1001
0000
0000
0000
0001
0010
0100
1000
1100
0000
0000
0000
1000
0100
0010
0001
,
0011
0000
MMMM
0000
1100
0000
MMMM
0000
0001
1000
0010
0100
0001
0000
0000
0000
,
0101
0000
0001
0100
0010
0000
1010
0000
MMMM
0000
1000
0100
0010
0001
1000
0000
,
1001
0000
0001
0100
0010
0000
1010
0000
MMMM
0000
1000
0100
1000
0001
0100
0010
,
1010
0000
0000
0011
0000
0000
0101
0000
1100
0000
0000
1010
0000
0000
0011
0000
,
0101
0000
0000
1100
0000
0000
1001
0000
MMMM
0000
MMMM
0000
1010
0000
0000
0101
,
0000
0220
0000
0000
0000
0000
0330
0000
,
1001
0000
0000
0000
,
MMMM
0000
0000
0000
0000
0000
0000
0000
0000
0000
0000
0000
0000
0000
0100
0010
,
0110
0000
1001
0000
,
2001
0000
3010
0000
1002
0000
0103
0000
1000
0100
0010
0001
1000
0000
0000
0000
,
0001
0100
0010
1000
0100
0000
1000
0100
0010
0001
0010
0000
0001
1000
0010
0000
,
1000
0100
0010
0001
0100
0010
0001
0010
1000
0001
0100
1000
0100
0010
1000
0001
,
1000
0000
0001
0010
0100
0000
1000
0010
0100
0010
0000
1000
0001
0000
1000
0001
,
0010
0100
1000
0010
0100
0001
0010
0100
1100
0000
0000
0101
0000
0000
1000
0001
,
1000
0000
0001
1000
0010
0000
0100
0001
0010
0000
0100
1000
0001
0000
1000
0000
,
0001
0100
0010
0100
1000
0100
0001
1000
0001
0010
0100
0001
0100
1000
0001
1000
,
0100
0000
0010
0001
2000
0000
0010
0000
3100
0000
1000
0010
0100
0000
0001
0000
,
0021
0000
1030
0000
1020
0000
0031
0000
1000
0100
0010
0001
0010
0100
1000
0001
,
1000
0001
0100
1000
0100
0010
1000
0001
0100
0010
0001
0010
1000
0001
0200
0000
,
0000
0000
0000
0000
0300
0000
0000
0000
0001
0000
0000
0100
0000
0000
1000
0010
,
0002
0000
0000
0000
1003
0100
0001
0010
1000
0000
0000
0000
0001
0100
1000
0010
,
0001
0000
0000
0000
1000
0010
0001
0010
1000
0000
0001
0010
0100
0010
0001
0010
,
0100
0000
0000
0000
0000
0000
1000
0000
0010
0000
0100
0000
0002
0000
0000
0000
0000
0000
0010
0000
0000
0000
0000
0000
2003
0000
0000
0000
0000
0000
0010
0000
0000
0000
0000
0000
3100
0000
0000
0010
0000
0000
0001
0000
0000
1000
0000
0000
,
0001
0000
0000
0000
0000
0000
1000
0000
0100
0000
0010
0000
0200
0000
0000
0000
0000
0000
1000
0000
0000
0000
0000
0000
0320
0000
0000
0000
0000
0000
0001
0000
0000
0000
0000
0000
0130
0000
0000
1000
0000
0000
0100
0000
0000
0010
0000
0000
,
0100
0000
0000
0000
0000
0000
1000
0000
0010
0000
0100
0000
0002
0000
0000
0000
0000
0000
0100
0000
0000
0000
0000
0000
0023
0000
0000
0000
0000
0000
0001
0000
0000
0000
0000
0000
0130
0000
0000
1000
0000
0000
0001
0000
0000
1000
0000
0000
,
0100
0000
0000
0000
0000
0000
1000
0000
0001
0000
0010
0000
0200
0000
0000
0000
0000
0000
0010
0000
0000
0000
0000
0000
1300
0000
0000
0000
0000
0000
0001
0000
0000
1000
0000
0000
0001
0000
0000
0010
0000
0000
0100
0000
0000
0010
0000
0000
,
0001
0010
1000
0000
1000
0010
0001
0000
0001
0100
1000
0000
1000
0100
0001
0000
,
0001
0100
0001
1000
0100
0010
0001
0100
0010
1000
0001
1000
0001
0100
1000
0100
,
0001
0000
MMMM
0000
0001
0010
1000
0000
MMMM
0000
0001
0100
1000
0000
MMMM
0000
,
0001
0100
1000
0000
MMMM
0000
0001
0010
1000
0000
0001
0100
0010
1000
2002
0000
,
0000
0000
0000
3003
0000
0000
0000
0000
;

//--------------- dance-double - Fred-104 ----------------
#NOTEDATA:;
#STEPSTYPE:dance-double;
#DESCRIPTION:Fred-104;
#DIFFICULTY:Easy;
#METER:11;
#CREDIT:Fred-104;
#NOTES:
00000000
00000000
00000000
00000000
,
00000000
00000000
00000000
00000000
,
00000000
00000000
00000000
00000000
,
00000000
00000000
00000000
00000000
,
00001000
00010000
00001000
00010000
00000000
01000000
10000000
20020000
,
00000000
00000000
00000000
00000000
,
00000000
00000000
00000000
30030000
,
10000000
00000000
00000000
01000000
00000000
00000000
00010000
00000000
00001000
00000000
00000000
00000100
00000000
00000000
00001000
00000000
,
00010000
00000000
00001000
00000000
00000100
00000001
00001000
00000000
,
00000001
00000000
00000000
00000010
00000000
00000000
00000100
00000000
00010000
00000000
00000000
00001000
00000000
00000000
01000000
00000000
,
00001000
00000000
00010000
00000000
00100000
01000000
00010000
00000000
,
10000000
00000000
00000000
00100000
00000000
00000000
00010000
00000000
00001000
00000000
00000000
00010000
00000000
00000000
00000010
00000000
,
00010000
00000000
00001000
00000000
00010000
00001000
00010000
00000000
,
00001000
00001000
00000000
00011000
00000000
00000010
00000000
00001001
,
00000000
00001000
00000001
00001000
00000010
00000220
00000000
00000330
,
00001001
00000000
00000001
00000100
,
00001000
00000000
00010000
00100000
,
10000000
01000000
00100000
00001000
,
00022000
00000000
00000000
00000000
00033000
00001000
00010000
00000100
,
00020000
00000000
00000000
00032000
00000000
00000000
00013000
00000000
,
00000020
00000000
00000000
00002030
00000000
00000000
00003010
00000000
,
00010000
00000000
00000000
00000000
00001000
00000000
00000000
00000000
00010000
00000000
00000000
00001000
00000000
00000000
01000000
00000000
,
00100000
00100000
00000000
01000000
01000000
00000000
10010000
00000000
,
00010000
00000000
10000000
01000000
00000000
00100000
01000000
00000000
,
10000000
00000000
00100000
10000000
00000000
01000000
00100000
00000000
,
00001000
00000000
00000000
00010000
00000000
00000000
00001000
00000000
00000100
00000000
00000000
00000001
00000000
00000000
00001000
00000000
,
00002002
00000000
00000000
00000000
00003003
00001000
00000100
00000010
,
00000001
00000000
00000000
00000100
00000000
00000000
00000110
00000000
00000000
00000000
00000001
00000000
00001000
00000000
00000000
00000000
,
00000010
00000000
00000000
00010000
00000000
00000000
00011000
00000000
00000000
00000000
00001000
00000000
01000000
00000000
00000000
00000000
,
00200000
00000000
00000000
00000000
20300000
00000000
00000000
00000000
31000000
00000000
00000000
00100000
00000000
00000000
00010000
00000000
,
00100000
00000000
00001000
00000000
00000100
00000010
00001000
00000000
,
00001001
00000002
00002003
00003002
,
00000103
00001000
00010000
00000000
00001000
01000000
00001000
00000000
,
00010000
00000000
00000000
01000000
00000000
00000000
00100000
00000000
00010000
00000000
00000000
10000000
00000000
00000000
00100000
00000000
,
01000000
00000000
01010000
00000000
00010000
10000000
00010000
00000000
,
10000000
00000000
01000000
00100000
00000000
00001000
00010000
00000000
,
00001000
00000000
00010000
00000010
00000000
00001000
00000100
00000000
,
00010000
00000000
00000000
00001000
00000000
00000000
00000100
00000000
00000001
00000000
00000000
00000010
00000000
00000000
00000100
00000000
,
00001000
00000000
00000000
00000010
00000000
00000000
00002020
00000000
00000000
00000000
00003030
00000000
00010000
00000000
00000000
00001000
,
00000000
00022000
00000000
00000000
00000000
00000000
00033000
00000000
,
00001000
00000000
00100000
00010000
00000000
01000000
00010000
00000000
,
00100000
00000000
01000000
00000000
10000000
00010000
10000000
00000000
,
00010000
00000000
00100000
01000000
00000000
00010000
00001000
00000000
,
00010000
00000000
00000010
00000000
00010000
00001000
00010000
00000000
,
00001000
00000000
00000100
00000001
00000000
00001000
00000100
00000000
,
00000010
00000000
00000001
00001000
00000000
00000010
00010000
00000000
,
00001000
00000000
00000000
00000000
00010000
00000000
00000000
00000000
00001000
00000000
00000000
01000000
00000000
00000000
00001000
00000000
,
00020000
00000000
00000000
00000000
00032000
00000000
00000000
00000000
00013000
00000000
00000000
00010000
00000000
00000000
00010000
00000000
,
00001000
00000000
00100000
00010000
00000000
01000000
00001000
00020000
,
00000000
00000000
00030010
00010000
,
00001000
00000000
00100000
00001000
00000000
00010000
00001000
00020000
,
00000000
00000000
00030100
00001000
,
00010000
00000000
00100000
00000000
01000000
00000000
10000000
00200000
,
00000000
00000000
00000000
00000000
00000000
00000000
00000000
00000000
00310000
00000000
00000000
00010000
00000000
00000000
00010000
00000000
,
00002000
00000000
00020000
00000000
,
00000000
00000000
00000000
00033000
,
00010000
00001000
00000010
00000000
,
00001000
00010000
00100000
00000000
,
00010000
00001000
00000100
00000000
,
00001000
00000000
00010000
00000000
00001000
00001000
00001000
00000000
,
00010000
00000000
00100000
00000000
01000000
00100000
01000000
00000000
,
00010000
00000000
10000000
00000000
01000000
00010000
00001000
00000000
,
00010000
00001000
00000100
00000001
,
00000010
00000000
00000100
00000000
00001000
00000010
00000100
00000000
,
00002002
00000000
00000000
00003003
,
00000002
00000000
00000000
00000203
00000000
00000000
00001300
00000000
,
00022000
00000000
00000000
00033000
,
00002000
00000000
00000000
00023000
00000000
00000000
00130000
00000000
,
10000000
00000000
00010000
01000000
00000000
00100000
10000000
00000000
,
01000000
00000000
00100000
00010000
00000000
01000000
00001000
00000000
,
00010000
00000000
00000000
00000100
00000000
00000000
00000010
00000000
00000001
00000000
00000000
00000100
00000000
00000000
00001000
00000000
,
00010000
00000000
00000000
00001000
00000000
00000000
00022000
00000000
00000000
00033000
00000000
00000000
01000000
00000000
00000000
00100000
,
00000000
02200000
00000000
00000000
00000000
00000000
03300000
00000000
,
10010000
00000000
00000000
00000000
,
10000000
00000000
00010000
00000000
,
00001000
00000000
00000001
00000000
,
00001000
00000000
00000001
00000000
00001000
00000001
00001000
00000000
,
00000001
00000000
00000010
00000100
00000000
00000010
00000001
00000000
,
00001000
00000000
00000010
00010000
00000000
00001000
00010000
00000000
,
00001000
00000000
00000000
00000000
00010000
00000000
00100000
00000000
01000000
00000000
00000000
00010000
00000000
00000000
20000000
00000000
,
00000000
00000000
00000000
00000000
00000000
00000000
00000000
00000000
31000000
00000000
00000000
01000000
00000000
00000000
01000000
00000000
,
10000000
00000000
01000000
00100000
00000000
00001000
00010000
00002000
,
00000000
00000000
00013000
00000010
,
00010000
00000000
00001000
00000100
00000000
00000001
00000100
00000020
,
00000000
00000000
00001030
00000001
,
00000010
00000000
00000100
00000000
00001000
00000001
00001000
00000002
,
00000000
00000000
00000000
00000000
00000000
00000000
00000000
00000000
00000103
00000000
00000000
00001000
00000000
00000000
00010000
00000000
,
00002000
00000000
00020000
00000000
,
00000000
00000000
00000000
00033000
,
00001000
00010000
00001000
00000000
00010000
00000000
00100000
00000000
,
10000000
00010000
10000000
00000000
01000000
00000000
00010000
00000000
,
00001000
00010000
00001000
00000000
00000100
00000010
00000100
00000000
,
00000001
00000100
00000010
00000000
00001000
00000100
00000010
00000000
,
00000001
00000100
00001000
00000000
00010000
00001000
00010000
00000000
,
00001000
00010000
00001000
00010000
00000100
00001000
00000100
00001000
,
00000001
00000000
00000001
00000100
00000000
00000100
00001000
00000000
,
00001000
00010000
00000000
00010000
00100000
10000000
00100000
20000000
,
00000000
00000000
00000000
30000000
00000000
00000000
00000000
00000000
;

//--------------- dance-double - Fred-104 ----------------
#NOTEDATA:;
#STEPSTYPE:dance-double;
#DESCRIPTION:Fred-104;
#DIFFICULTY:Medium;
#METER:14;
#CREDIT:Fred-104;
#NOTES:
00000000
00000000
00000000
00000000
,
00000000
00000000
00000000
00000000
,
00000000
00000000
00000000
00000000
,
00000000
00000000
00000000
00000000
,
00000001
00000010
00000100
00000110
00000000
00000100
00010000
00022000
,
00000000
00000000
00000000
00000000
,
00000000
00000000
00000000
00033000
,
00001000
00000000
00000000
01000000
00000000
00000000
00100000
10000000
00100000
00000000
00000000
01000000
00000000
00000000
00010000
00100000
,
00010000
00000000
00000000
00000000
01000000
00001000
00010000
00000000
00001000
00000000
00000100
00000000
00000001
00000000
00000010
00000000
,
00000100
00000000
00000000
00010000
00000000
00000000
00001000
00010000
00001000
00000000
00000000
00000010
00000100
00000000
00000010
00000000
,
00000001
00000010
00000100
00000010
00000001
00001000
00000010
00000100
,
00001000
00000000
00000000
00010000
00000000
00000000
00001000
01000000
00001000
00000000
00000000
00010000
00000000
00000000
00100000
10000000
,
00100000
00000000
00000000
00000000
10000000
01000000
10000000
00000000
01000000
00000000
00100000
00000000
00010000
00000000
00100000
00000000
,
00001000
00101000
00000000
00010010
00000000
00001000
00010000
00011000
,
00000000
00000010
00000100
00000001
00001000
00001001
00000000
00000000
,
00000001
00000010
00001000
00020000
00000000
00000000
00000000
00031000
,
00010000
01000000
10000000
00020000
00000000
00000000
00000000
10030000
,
01000000
00000000
00000000
00010000
00000000
00000000
00001000
00000000
00010000
00000000
00000000
00100000
00000000
00000000
10000000
00000000
,
20020000
00000000
00000000
00000000
30030000
10000000
01000000
00010000
,
01000000
10000000
00100000
02000000
00000000
03010000
00100000
00010000
,
01000000
00001000
00010000
00002000
00000000
00103000
00001000
00010000
,
00001000
00000000
00000010
00000000
00001000
00000000
00010000
00000000
00001000
00000000
00000000
01000000
00000000
00000000
00001000
00000000
,
00010000
00001000
00010000
00000000
00000000
00000000
00000100
00001000
00000100
00000000
00000000
00000000
00001001
00000000
00000000
00000000
,
00000001
00000010
00000100
00020000
00000000
00031000
00000100
00000001
,
00001000
00000001
00000100
00002000
00000000
00013000
01000000
10000000
,
00010000
00000000
00000000
01000000
00000000
00000000
00100000
00000000
01000000
00000000
00000000
00010000
00000000
00000000
10000000
00000000
,
22000000
00000000
00000000
00000000
33000000
10000000
01000000
00100000
,
00001000
00000000
00000000
00011000
00000000
00000000
00010100
00000000
00000000
00000000
00000100
00000000
00001000
00000000
00000001
00000000
,
00000100
00000000
00000000
00001100
00000000
00000000
00011000
00000000
00000000
00000000
00001000
00000000
00010000
00000000
00100000
00000000
,
02000000
00000000
00000000
00000000
03200000
00000000
00000000
00000000
00310000
00000000
00000000
00001000
00000000
00000000
00010000
00000010
,
00010000
00000000
00001000
00000000
00010000
00000000
00001000
00000000
00010000
00001000
00010000
00001000
00010000
00000000
00001000
00000000
,
00011000
00000000
00001000
00010000
01000000
00000000
00010000
00001000
,
00000100
00001000
00010000
00100000
00010000
00001000
00000010
00001000
,
00010000
00000000
00000000
00001000
00000000
00000000
00000100
00000000
00001000
00000000
00000000
00010000
00000000
00000000
00001000
00000000
,
01001000
00000000
00000000
00000000
01100000
00000000
00000000
00000000
00010000
10000000
00010000
10000000
00010000
00000000
00000000
00000000
,
10000000
01000000
00100000
00020000
00000000
01030000
00100000
00010000
,
00100000
01000000
00001000
00020000
00000000
00130000
01000000
00010000
,
10000000
00000000
00000000
01000000
00000000
00000000
00010000
00000000
00001000
00000000
00000000
00000010
00000000
00000000
00000001
00000000
,
00000100
00000000
00000000
00001000
00000000
00000000
00022000
00000000
00000000
00000000
00033000
00000000
00011000
00000000
00000000
00101000
,
00000000
00020020
00000000
00000000
00000000
00000000
00030030
00000000
,
00010000
00001000
00010000
00001000
00000100
00000001
00000010
00000100
,
00001000
00000010
00000100
00000001
00001000
00000001
00000010
00000000
,
00000001
00000010
00000001
00000010
00001000
00010000
00001000
01000000
,
00001000
00010000
00100000
00010000
00001000
00010000
01000000
00000000
,
10000000
00010000
01000000
00010000
00100000
01000000
00100000
00010000
,
10000000
00100000
00010000
00001000
00010000
00100000
10000000
00000000
,
00010000
00000000
00100000
00000000
01000000
00000000
00010000
00000000
00001000
00000000
00000000
00010000
00000000
00000000
00000100
00000000
,
00000010
00000001
00000010
00000000
00000001
00000010
00000001
00000000
00001000
00000000
00000000
00001010
00000000
00000000
00001001
00000000
,
00000001
00001000
00000001
00000100
00001000
00010000
00001000
00000010
,
00001000
00010000
00100000
00010000
00001000
00010000
01000000
00000000
,
10000000
00100000
00010000
00001000
00010000
00000010
00010000
00001000
,
00000100
00001000
00010000
00001000
00000010
00000001
00001000
00000000
,
00000001
00000000
00000010
00000000
00000100
00000000
00001000
00000000
00000001
00000010
00000001
00000010
00000100
00000000
00002200
00000000
,
00000000
00000000
00000000
00000000
00000000
00000000
00003300
00000000
00010000
00000000
00000000
00000010
00000000
00000000
00010000
00001000
,
00010000
00000000
00000000
00000000
00000000
00000000
00001000
00020000
00002000
00000000
00000000
00000000
00000000
00000000
00000000
00000000
,
00000000
00000000
00000000
00033000
,
00001000
00010000
00100000
01000000
10000000
01000000
00100000
10000000
,
00000000
00000000
11000000
00000000
00000000
00000000
01100000
00000000
10000000
00000000
00000000
00010000
00000000
00000000
10000000
00000000
,
00010000
01000000
00100000
00010000
00001000
00000100
00000001
00001000
,
00000000
00000100
00000010
00000001
00000100
00000100
00000110
00000000
,
00000001
00000100
00001000
00010000
00100000
10000000
00010000
00000000
,
10000000
01000000
00010000
00001000
00000010
00000001
00001000
00000000
,
00000001
00000100
00000010
00000100
00001000
00010000
00001000
01000000
,
00001000
00000000
00010000
00000000
00100000
00000000
10000000
00000000
01000000
00100000
01000000
00100000
01000000
00000000
00000000
00000000
,
20020000
00000000
00000000
30030000
,
02200000
00000000
03300000
00022000
00000000
00033000
00000220
00000330
,
00002002
00000000
00000000
00003003
,
00000220
00000000
00000330
00022000
00000000
00033000
02200000
03300000
,
10000000
01000000
00100000
00002000
00000000
00013000
00001000
00000100
,
00000010
00001000
00000001
00000020
00000000
00001030
00000010
00000001
,
00001000
00000000
00000000
00001001
00000000
00000000
00000100
00000000
00010000
00000000
00000000
00101000
00000000
00000000
00010000
00000000
,
10000000
00000000
00000000
01000000
00000000
00000000
02200000
00000000
00000000
00000000
03300000
00000000
00011000
00000000
00000000
00000110
,
00000000
00002002
00000000
00000000
00000000
00000000
00003003
00000000
,
00001001
00000000
00000001
00000100
00000000
00001000
00010000
00002000
,
00000000
00000000
00000000
00000000
00013000
00100000
01000000
00010000
,
20000000
00000000
31000000
00200000
00000000
00301000
00010000
00100000
,
01000000
00000000
00100000
00000000
00010000
00000000
00001000
00000000
00010000
00001000
00010000
00001000
00010000
00000000
00000000
00000000
,
00001000
00010000
00100000
01000000
00010000
10000000
01000000
00010000
,
00001000
00100000
00001000
00000010
00000100
00001000
00000001
00000000
,
00000100
00000000
00000010
00000000
00001000
00000000
00000001
00000000
00000010
00000000
00000000
00000100
00000000
00000000
00001000
00000000
,
00000100
00010000
00000100
00000000
00010000
00001000
00010000
00000000
00001000
00000000
00000000
00011000
00000000
00000000
00101000
00000000
,
00100000
00001000
00010000
01000000
00100000
01000000
00010000
00001000
,
00010000
00000010
00000100
00001000
00010000
00001000
00100000
00000000
,
00001000
00010000
00100000
10000000
01000000
00100000
00010000
00001000
,
00000100
00000010
00000001
00000100
00001000
00010000
00001000
00000000
,
00010000
00000000
01000000
00000000
00100000
00000000
00010000
00000000
10000000
01000000
10000000
01000000
00100000
00000000
00220000
00000000
,
00000000
00000000
00000000
00000000
00000000
00000000
00330000
00000000
00100000
00000000
00000000
00001000
00000000
00000000
00010000
00001000
,
00020000
00000000
00000000
00000000
00000000
00000000
00030100
00000020
00000200
00000000
00000000
00000000
00000000
00000000
00000000
00000000
,
00000000
00000000
00000000
00000330
,
00001000
00000000
00000001
00000100
00000001
00000000
00001000
00000000
00000010
00000000
00000100
00000000
00001000
00000000
00010000
00000000
,
00001000
00000000
01000000
00010000
01000000
00000000
00001000
00000000
00010000
00000000
01000000
00000000
10000000
00000000
00010000
00000000
,
00100000
00000000
01000000
10000000
01000000
00000000
10000000
00000000
00100000
00000000
00010000
00000000
00001000
00000000
00100000
00000000
,
00001000
00000000
00010000
00001000
00010000
00000000
00001000
00000000
00000100
00000000
00000001
00000000
00001000
00000000
00000010
00000000
,
00000100
00000001
00001000
00000100
00000010
00001000
00010000
01000000
,
00100000
00000000
10000000
00000000
00100000
00000000
00010000
00000000
10000000
00010000
10000000
00010000
10000000
00010000
10000000
00010000
,
10000000
00000000
10000000
01000000
00000000
00010000
00001000
00000000
,
00000010
00000001
00000000
00000100
00001000
00010000
00100000
20020000
,
00000000
00000000
00000000
30030000
00000000
00000000
00000000
00000000
;

//--------------- dance-double - Fred-104 ----------------
#NOTEDATA:;
#STEPSTYPE:dance-double;
#DESCRIPTION:Fred-104;
#DIFFICULTY:Hard;
#METER:17;
#CREDIT:Fred-104;
#NOTES:
00000000
00000000
00000000
00000000
,
00000000
00000000
00000000
00000000
,
00000000
00000000
00000000
00000000
,
00000000
00000000
00000000
00000000
,
00011000
00010000
00000100
00001100
00000000
00000001
00000100
00002002
,
00000000
00000000
00000000
00000000
,
00000000
00000000
00000000
00003003
,
00000001
00000000
00000000
00000101
00000000
00000000
00000100
00000010
00000100
00000000
00000000
00000110
00000000
00000000
00000010
00001000
,
00000010
00000000
00000000
00000000
00010000
00001000
00010000
00000000
00001000
00010000
00001000
00010000
00100000
01000000
00010000
00000000
,
01000000
00000000
00000000
01100000
00000000
00000000
00100000
10000000
00100000
00000000
00000000
10000000
01000000
00100000
00001000
00010000
,
00001000
00000000
00010000
00001000
00000000
00001000
00000100
00000000
00000001
00000000
00001000
00000100
00000010
00000001
00000010
00000100
,
00001000
00000000
00000000
00001010
00000000
00000000
00000001
00000010
00000100
00000000
00000000
00010100
00000000
00000000
00010000
00001000
,
00010000
00000000
00000000
00000000
00001000
00100000
00001000
00000000
00100000
00010000
10000000
00010000
10000000
01000000
00100000
00000000
,
00110000
00101000
00000000
00011000
00000000
00001010
00000010
00000110
,
00000000
00001001
00001000
00001100
00000100
00010100
00000000
00000000
,
00001000
00010000
00100000
20000000
00000000
00000000
00000000
30100000
,
00010000
00001000
00000100
00000002
00000000
00000000
00000000
00000103
,
00001000
00000000
00000000
00010000
00000000
00000000
00100000
00000000
10000000
00000000
00000000
01000000
00000000
00000000
00010000
00000000
,
00022000
00000000
00000000
00000000
00000000
00000000
00000000
00000000
00033000
00000000
00010000
00000000
00001000
00000000
00000100
00000010
,
00000100
00000000
00001000
00000000
00010000
00000000
00000020
00000000
00000000
00000000
00001030
00000000
00000100
00000000
00000010
00000001
,
00000010
00000000
00000001
00000000
00000100
00000000
00002000
00000000
00000000
00000000
00013000
00000000
00001000
00000000
00010000
01000000
,
00100000
00000000
01000000
00000000
10000000
00000000
00010000
10000000
00010000
00000000
00000000
00010000
00000000
00000000
10000000
00000000
,
01000000
00010000
00002000
00000000
00003000
00000000
00000100
00001000
00020000
00000000
00030000
00000000
00011000
00000000
00000000
00000000
,
00010000
00000000
00001000
00000000
00000100
00000000
00000001
00000000
00001000
00000000
00000100
00000010
00000100
00000000
00000100
00001000
,
00000100
00000000
00000010
00000000
00000001
00000000
00001000
00000000
00000010
00000000
00010000
00001000
00010000
00000000
00010000
00000100
,
00010000
00000000
00000000
00011000
00000000
00000000
00100000
00000000
00001000
00000000
00000000
00011000
00000000
00000000
00010000
00000000
,
00020200
00000000
00000000
00000000
00000000
00000000
00000000
00000000
00030300
00000000
00000100
00001000
00000100
00000010
00000100
00000010
,
00000001
00000000
00000000
00000011
00000000
00000000
00001001
00000000
00000000
00000000
00000010
00000000
00010000
00000000
00001000
00000000
,
00011000
00000000
00000000
00010100
00000000
00000000
00011000
00000000
00000000
00000000
00001000
00100000
00001000
00000000
00010000
00000000
,
00002000
00000000
00000000
00000000
00023000
00000000
00000000
00000000
00230000
00000000
00000000
02300000
00000000
00000000
03001000
00010000
,
00001000
00000000
00100000
00000000
00001000
00000000
00010000
00000000
00001000
00010000
00001000
00010000
01000000
00000000
10000000
00000000
,
10010000
00000000
00000000
00000000
00010000
00000000
01000000
00000000
10000000
00000000
00000000
00000000
00010000
00000000
00100000
10000000
,
00010000
00000000
10000000
00000000
01000000
00000000
00100000
00000000
00010000
00000000
00100000
00000000
00001000
00000000
00010000
00000100
,
00010000
00000000
00000000
00001000
00000000
00000000
00000100
00000000
00000001
00000000
00000000
00001000
00000000
00000000
00000100
00000000
,
00000110
00000000
00000000
00000000
00001001
00000000
00000000
00000000
00001000
00000001
00000100
00000010
00001000
00000000
00000000
00000000
,
00001010
00000010
00000100
00000101
00000000
00000001
00000010
00000100
,
00001100
00000100
00010000
00011000
00000000
00001000
01000000
00010000
,
01010000
00000000
00000000
00100000
00000000
00000000
10000000
00000000
11000000
00000000
00000000
00100000
00000000
00000000
00001000
00000000
,
00011000
00000000
00000000
00000010
00000000
00000000
00002002
00000000
00000000
00000000
00003003
00000000
00000101
00000000
00000000
00001100
,
00000000
00022000
00000000
00000000
00000000
00000000
00033000
00000000
,
00001000
00000000
00100000
00000000
00010000
00000000
10000000
00100000
10000000
00000000
00100000
01000000
00010000
00000000
10000000
00000000
,
01000000
00100000
01000000
00000000
00100000
00010000
00100000
00000000
00001000
00000000
00010000
00000000
00001000
00000000
00000100
00000001
,
00000100
00000000
00000001
00000000
00001000
00000000
00000010
00001000
00000010
00000000
00000010
00000100
00000010
00000000
00001000
00000000
,
00000001
00000000
00000010
00000000
00000100
00000000
00001000
00000001
00001000
00000000
00000010
00001000
00000001
00001000
00000100
00010000
,
00001000
00000000
00010000
00000000
00100000
00000000
10000000
00000000
01000000
00000000
00010000
00000000
00001000
00000000
00010000
00001000
,
00010000
00000000
00001000
00000000
00000010
00000000
00000001
00000000
00000100
00000000
00001000
00000000
00010000
00000000
00001000
00010000
,
00001000
00000000
01000000
00001000
01000000
00000000
00100000
00000000
00010000
00000000
00000000
00001000
00000000
00000000
00010000
00000100
,
00001000
00000100
00010000
00000100
00001000
00000100
00010000
00000100
00001000
00000000
00000000
00000110
00000000
00000000
00000001
00001000
,
00000001
00000000
00000010
00000100
00000010
00000000
00000001
00000000
00000010
00000000
00001000
00000000
00010000
00000000
00001000
00000100
,
00000010
00000000
00000100
00000001
00001000
00000000
00000001
00000000
00000100
00000010
00000100
00000000
00000100
00000001
00000100
00000000
,
00000010
00000000
00010000
00001000
00010000
00000000
01000000
00000000
00100000
01000000
00100000
00000000
00010000
00000000
10000000
00000000
,
00100000
00000000
00010000
00000000
00001000
00000000
01000000
00000000
00001000
00010000
00001000
00100000
00010000
10000000
00010000
01000000
,
00100000
00000000
10000000
00000000
01000000
00000000
00100000
00000000
00010000
01000000
00100000
10000000
00100000
00000000
20200000
00000000
,
00000000
00000000
00000000
00000000
00000000
00000000
30300000
00000000
10000000
00000000
00000000
00100000
00000000
00000000
00010000
00001000
,
00000200
00000000
00000000
00000000
00000000
00000000
00000301
00001000
00000200
00000000
00000000
00000000
00000000
00000000
00000000
00000000
,
00000000
00000000
00000000
00000300
,
00001000
00000100
00000010
00001000
00000010
00000001
00001000
00001100
,
00000000
00000000
00110000
00000000
00000000
00000000
00011000
00000000
00010000
00000100
00001000
00000100
00010000
00000100
00001000
00000001
,
00000100
00000000
00000001
00000000
00000010
00000100
00000010
00000000
00000001
00000000
00000100
00000000
00000010
00000100
00000001
00000000
,
00000000
00000000
00000100
00000000
00001000
00000000
00010000
00000000
00100000
10000000
00100000
10000000
00020000
00000000
00000000
00000000
,
10030000
00000000
00010000
00100000
01000000
00000000
10000000
00000000
01000000
00000000
00100000
00000000
00010000
00000000
01000000
00001000
,
00010000
00000000
00000100
00001000
00000100
00000000
00000010
00000000
00000001
00000000
00000100
00000000
00000001
00001000
00000001
00000100
,
00000001
00000000
00001000
00000010
00001000
00000000
00000100
00000000
00000010
00000000
00001000
00000000
00010000
00001000
00010000
00000000
,
00100000
00000000
01000000
00010000
01000000
00000000
00010000
10000000
01000000
00100000
00010000
10000000
00100000
00000000
00000000
00000000
,
10010000
00000000
00000000
10000000
00100000
00000000
00000000
00010000
,
00002000
00000000
00000000
00003020
00000000
00000000
00000032
00000000
,
00001003
00000000
00000000
00000000
00000000
00000000
00000100
00000001
00000100
00000000
00000000
00000000
00000000
00000000
00010000
00001000
,
00010000
00000000
00001000
00000000
00100000
00000000
00001000
00000000
00010000
00000010
00001000
00000010
00010000
00000000
00000000
00000000
,
00011000
00010000
00000100
00000110
00000000
00000011
00000001
00001000
,
00001100
00000100
00010000
00011000
00000000
01001000
00001000
00100000
,
00110000
00000000
00000000
10000000
00000000
00000000
01000000
00000000
01100000
00000000
00000000
00001000
00000000
00000000
00010000
00000000
,
00010100
00000000
00000000
00000010
00000000
00000000
00002002
00000000
00000000
00000000
00003003
00000000
00001100
00000000
00000000
00010100
,
00000000
00022000
00000000
00000000
00000000
00000000
00033000
00000000
,
10010000
00000000
00010000
02000000
00000000
13000000
00010000
00200000
,
00000000
00000000
00000000
00000000
00000000
00000000
00000000
00000000
10300000
00000000
00010000
00000000
01000000
00000000
00100000
01000000
,
00200000
00000000
10300000
02000000
00000000
03010000
00001000
00000100
,
00000001
00000000
00000001
00000000
00001000
00000000
00001000
00000000
00000001
00000010
00000100
00001000
00000001
00000000
00000000
00000000
,
00001000
00000000
00000001
00001000
00000010
00000000
00010000
00000000
00001000
00010000
00100000
00000000
01000000
00000000
00010000
10000000
,
01000000
00000000
00100000
00001000
00010000
00000000
00001000
00000000
00010000
00000000
00001000
00000010
00001000
00000000
00010000
00001000
,
01000000
00000000
00010000
00100000
01000000
00000000
10000000
00000000
00100000
00000000
00000000
00010000
00000000
00000000
00001000
00000100
,
00000001
00001000
00000001
00000010
00000001
00001000
00000010
00000100
00000001
00000000
00000000
00000110
00000000
00000000
00001000
00000001
,
00000100
00001000
00010000
00100000
01000000
00010000
00100000
01000000
,
00010000
00000000
00001000
00000000
00000010
00000000
00001000
00000000
00010000
00000000
00001000
00010000
00100000
00000000
01000000
00100000
,
10000000
00000000
01000000
00010000
00001000
00000000
00010000
00000000
01000000
00000000
00010000
00000000
00001000
00000000
00000100
00000000
,
00000001
00000000
00001000
00000000
00000100
00000000
00000010
00000001
00000010
00000000
00000100
00001000
00000001
00000100
00000010
00001000
,
00000001
00000000
00000010
00000000
00000100
00000000
00010000
00000000
00001000
01000000
00010000
01000000
00001000
00000000
00022000
00000000
,
00000000
00000000
00000000
00000000
00000000
00000000
00033000
00000000
00010000
00000000
00000000
00001000
00000000
00000000
00000010
00000001
,
00002000
00000000
00000000
00000000
00000000
00000000
00003001
00000100
00002000
00000000
00000000
00000000
00000000
00000000
00000000
00000000
,
00000000
00000000
00000000
00003000
,
00010000
00000000
00001000
00100000
00010000
00000000
10000000
00000000
00010000
00000000
01000000
00100000
10000000
00100000
01000000
00100000
,
10000000
00000000
01000000
00100000
00010000
00000000
00100000
00000000
00001000
00000000
00010000
00000010
00001000
00000010
00010000
00000010
,
00001000
00000000
00000001
00001000
00000100
00000000
00000010
00000000
00000001
00000000
00000100
00000010
00001000
00000010
00000100
00000001
,
00001000
00000000
00000001
00001000
00000100
00000000
00010000
00000000
00001000
00000000
00100000
00001000
00100000
00010000
10000000
00010000
,
02000000
00000000
00010000
03100000
02000000
00000000
10000000
03100000
02000000
00000000
00010000
03100000
01000000
00000000
10000000
00000000
,
00010000
01000000
00010000
01000000
00001000
00010000
00001000
00010000
00000010
00001000
00000010
00001000
00000001
00000010
00000100
00001000
,
00000001
00000000
00000000
00000000
00000100
00000010
00001000
00000000
00000000
00000000
00000100
00010000
00001000
00000000
00000000
00000000
,
00100000
00010000
01000000
00000000
00000000
00000000
00100000
10000000
01000000
00000000
00010000
00000000
00001000
00000010
00000200
00000000
,
00000000
00000000
00000000
00000300
00000000
00000000
00000000
00000000
;

//--------------- dance-double - Fred-104 writes an 18.999 ----------------
#NOTEDATA:;
#STEPSTYPE:dance-double;
#DESCRIPTION:Fred-104 writes an 18.999;
#DIFFICULTY:Challenge;
#METER:18;
#CREDIT:Fred-104;
#NOTES:
00000000
00000000
00000000
00000000
,
00000000
00000000
00000000
00000000
,
00000000
00000000
00000000
00000000
,
00000000
00000000
00000000
00000000
,
00011000
00001000
00100000
00110000
00000000
11000000
01000000
02200000
,
00000000
00000000
00000000
03300000
00000000
00000000
10000000
00000000
01000000
00000000
00010000
00000000
00001000
00000000
00000010
00000000
00000001
00000000
00000100
00000000
00001000
00000000
00010000
00000000
,
00100000
10000000
00010000
02000000
00000000
00000000
00000000
00000000
00000000
0300MMMM
00000000
00000000
,
10010000
00000000
00010000
10000000
00000000
00100000
01000000
00100000
00010000
00000000
00001000
00010000
00000000
00000100
00001000
00000100
,
00010000
00000000
00000000
00000000
00001000
00010000
00100000
01000000
00010000
00100000
01000000
10000000
00100000
00010000
00001000
00000010
,
00001000
00000000
00010000
00001000
00000000
00000100
00000001
00000010
00000100
00000000
00001000
00000010
00000100
00001000
00010000
00001000
,
00000100
00000000
00000010
00001000
00000000
00000100
00000010
00000001
00001000
00000000
00000001
00000100
00000010
00001000
00000010
00000100
,
00000001
00000000
00001000
00000100
00000000
00000010
00001000
00010000
00001000
00000000
00010000
00001000
00000000
00000010
00001000
00010000
,
00001000
00000000
00000000
00000000
00010000
00001000
00010000
00100000
01000000
10000000
01000000
00010000
10000000
01000000
00100000
00010000
,
00110000
10100000
00000000
11000000
00000000
01010000
00010000
00011000
,
00000000
00001010
00000010
00000011
00000001
00001001
00000000
00000000
,
00000001
00000010
00001000
00020000
00000000
0000MMMM
00000000
01030000
,
10000000
00100000
00010000
00002000
00000000
MMMM0000
00000000
00003010
,
00000001
00000000
00000000
00000100
00000000
00000000
00001000
00000000
00010000
00000000
00000000
00100000
00000000
00000000
10000000
00020000
,
20000000
00000000
00000000
00000000
00000000
00000000
30030000
00000000
MMMMMMMM
00000000
10000000
00000000
01000000
00000000
00100000
00010000
,
00100000
00000000
00010000
00000000
01000000
00000000
01001000
00000000
MMMMMMMM
00000000
00010000
00000000
00001000
00000000
00000010
00000100
,
00000010
00000000
00000001
00000000
00001000
00000000
00001001
00000000
MMMMMMMM
00000000
00000110
00000000
MMMMMMMM
00000000
00000001
00001000
,
00000010
00000000
00000000
00000000
00000000
00000000
00000000
00000000
00000000
00000000
00000000
00000000
00000000
00000000
00000000
00000000
00000000
00000000
00000000
00000000
00000000
00000000
00000000
00000000
00000100
00000000
00000000
00000000
00000000
00000000
00000000
00000000
00000000
00000000
00000000
00000000
00000000
00000000
00000000
00000000
00000000
00000000
00000000
00000000
00000000
00000000
00000000
00000000
00001000
00000000
00000000
00000000
00000000
00000000
00000000
00000000
00000000
00000000
00000000
00000000
00000000
00000000
00000000
00000000
00000000
00000000
00000000
00000000
00000000
00000000
00000000
00000000
01000000
00000000
00000000
00000000
00000000
00000000
00000000
00000000
00000000
00000000
00000000
00000000
00001000
00000000
00000000
00000000
00000000
00000000
00000000
00000000
00000000
00000000
00000000
00000000
00010000
00000000
00000000
00000000
00000000
00000000
00000000
00000000
00000000
00000000
00000000
00000000
00000000
00000000
00000000
00000000
00000000
00000000
00000000
00000000
00000000
00000000
00000000
00000000
00000000
00000000
00000000
00000000
00000000
00000000
00000000
00000000
00000000
00000000
00000000
00000000
00011000
00000000
00000000
00000000
00000000
00000000
00000000
00000000
00000000
00000000
00000000
00000000
00000000
00000000
00000000
00000000
00000000
00000000
00000000
00000000
00000000
00000000
00000000
00000000
00000000
00000000
00000000
00000000
00000000
00000000
00000000
00000000
00000000
00000000
00000000
00000000
00001000
00000000
00000000
00000000
00000000
00000000
00000000
00000000
00000000
00000000
00000000
00000000
00020000
00030000
00000000
00000000
00000000
00000000
00000000
00000000
00000000
00000000
00000000
00000000
,
00020000
00030000
00000000
00000000
00000000
00000000
00000000
00000000
00000000
00000000
00000000
00000000
01000000
00000000
00000000
00000000
00000000
00000000
00000000
00000000
00000000
00000000
00000000
00000000
00002000
00000000
00000000
00000000
00000000
00000000
00000000
00000000
00000000
00000000
00000000
00000000
00000000
00000000
00000000
00000000
00000000
00000000
00000000
00000000
00000000
00000000
00000000
00000000
00000000
00000000
00000000
00000000
00000000
00000000
00000000
00000000
00000000
00000000
00000000
00000000
00000000
00000000
00000000
00000000
00000000
00000000
00000000
00000000
00000000
00000000
00000000
00000000
00013000
00000000
00000000
00000000
00000000
00000000
00000000
00000000
00000000
00000000
00000000
00000000
00001000
00000000
00000000
00000000
00000000
00000000
00000000
00000000
00000000
00000000
00000000
00000000
00010000
00000000
00000000
00000000
00000000
00000000
00000000
00000000
00000000
00000000
00000000
00000000
00000000
00000000
00000000
00000000
00000000
00000000
00000000
00000000
00000000
00000000
00000000
00000000
00000010
00000000
00000000
00000000
00000000
00000000
00000000
00000000
00000000
00000000
00000000
00000000
00010000
00000000
00000000
00000000
00000000
00000000
00000000
00000000
00000000
00000000
00000000
00000000
00001000
00000000
00000000
00000000
00000000
00000000
00000000
00000000
00000000
00000000
00000000
00000000
00010000
00000000
00000000
00000000
00000000
00000000
00000000
00000000
00000000
00000000
00000000
00000000
00100000
00000000
00000000
00000000
00000000
00000000
00000000
00000000
00000000
00000000
00000000
00000000
10000000
00000000
00000000
00000000
00000000
00000000
00000000
00000000
00000000
00000000
00000000
00000000
,
00010000
00000000
00100000
00010000
10000000
00000000
00100000
00000000
01000000
00000000
00010000
01000000
10000000
00000000
10000000
01000000
,
00010000
00000000
10000000
01000000
00100000
00000000
00001000
00000000
00010000
00000000
00001000
00010000
01000000
00000000
00010000
00001000
,
00010000
00000000
00001000
00000100
00000000
00000100
00000001
00001000
00000001
00000000
00000100
00001000
00000000
00001000
00010000
00100000
,
01000000
00000000
00010000
00000000
10000000
00000000
01000000
00100000
00010000
00000000
00100000
00001000
00010000
00100000
10000000
00010000
,
10010000
00000000
00000000
01100000
00000000
00000000
10010000
00000000
00000000
00000000
10100000
00000000
10000000
00000000
01000000
00000000
,
01010000
00000000
00000000
00010100
00000000
00000000
00011000
00000000
00010000
00001000
00000100
00000001
00001000
00000100
00000010
00000001
,
MMMM0200
00000000
00000300
00000000
0002MMMM
00000000
00030000
00000000
00001000
00000000
00000000
00010000
00000000
00000000
01000000
00100000
,
00010000
00000000
00110000
00000000
10000000
00000000
10100000
00000000
00010000
01000000
00100000
10000000
01000000
00100000
00010000
00100000
,
00002000
00000000
00003020
00000000
00002030
00000000
00013000
00001000
,
00010000
00000000
00000100
00000000
00010000
00000000
01000000
00000000
00010000
00000000
00001000
00000000
00010000
00000010
00000100
00000000
,
00000110
00000000
00000000
00000101
00000000
00000000
00001001
00000000
00000011
00000000
00000000
00001010
00000000
00000000
00011000
00000000
,
00010010
00000000
MMMMMMMM
00000000
01001000
00000000
MMMMMMMM
00000000
00001000
00010000
00100000
01000000
00100000
10000000
00010000
00100000
,
01000000
00000000
10000000
00000000
01000000
00000000
01100000
00000000
MMMMMMMM
00000000
00011000
00000000
00010000
00000100
00001000
00000000
,
00001010
00000000
00000010
00000000
00001000
00000000
00001001
00000000
MMMMMMMM
00000000
00000001
00000010
00001000
00010000
00100000
00000000
,
10100000
00000000
00000000
11000000
00000000
00000000
01010000
00000000
00011000
00000000
00000000
00001100
00000000
00000000
00000101
00000000
,
00000011
00000000
00000000
00001010
00000000
00000000
00022000
00000000
00000000
00000000
00033000
00000000
00110000
00000000
00000000
10100000
,
00000000
20020000
00000000
00000000
00000000
00000000
30030000
00000000
,
10000000
00000000
00010000
00100000
01000000
00000000
10000000
00100000
01000000
00000000
00100000
10000000
00010000
00000000
10000000
00000000
,
00100000
01000000
00100000
00010000
00001000
00000100
00000010
00000001
00000010
00000100
00001000
00000100
00000001
00000000
00001000
00000001
,
00000010
00000000
00000100
00001000
00000001
00000000
00000100
00000010
00000100
00000000
00001000
00010000
00001000
00000000
00010000
00000000
,
00000010
00010000
00000010
00000000
00010000
00001000
00010000
00000000
00001000
00100000
00010000
00100000
01000000
00100000
00001000
00010000
,
00000010
00000000
00001000
00000100
00000001
00000000
00000100
00000000
00000010
00000001
00001000
00000000
00000010
00000000
00000100
00000000
,
00000001
00000000
00000100
00001000
00010000
00000000
00100000
00000000
01000000
00010000
10000000
00000000
01000000
00100000
00010000
00000000
,
01000000
00001000
00010000
00000000
00001000
00000010
00000001
00000000
00000011
00000000
00000000
00001010
00000000
00000000
00001000
00000001
,
00000100
00000001
00000010
00000100
00010000
00001000
00100000
01000000
10000000
00000000
00000000
10100000
00000000
00000000
00100000
01000000
,
00010000
00000000
00100000
01000000
00100000
00000000
00010000
10000000
00200000
00000000
10000000
0000MMMM
01300000
00000000
00010000
00000000
,
10000000
01000000
00010000
00001000
00100000
00001000
00010000
00001000
00000010
00000001
00000010
00000100
00001000
00000000
00000001
00000000
,
00001000
00000000
00000001
00000010
00000100
00000000
00001000
00000010
00000200
00000000
00000010
MMMM0000
00000301
00000000
00001000
00000000
,
00000001
00000100
00001000
00000000
00010000
00001000
00010000
00000000
00000100
00010000
00001000
00010000
00100000
01000000
00010000
10000000
,
01000000
10000000
00010000
01000000
00100000
00010000
00001000
00000100
00000010
00001000
00000001
00001000
00000001
00000010
00000200
00000000
,
00000000
00000000
00000000
00000000
00000300
00000000
00000000
00000000
00001000
00000000
00000000
00000001
00000000
00000000
00000010
00001000
,
00020000
00000000
00000000
00000000
00031000
00100000
01000000
10000000
00010000
00000000
00000000
00000000
10000000
00010000
01000000
00100000
,
10000000
00000000
00000000
00000000
00010000
00100000
01000000
10000000
00010000
00000000
10000000
01000000
00100000
00010000
00100000
00001000
,
00010000
01000000
00010000
00001000
00000100
00001000
00010000
00011000
,
MMMMMMMM
00000000
00011000
00000000
MMMMMMMM
00000000
00010000
00000010
00001000
00000001
00000010
00000100
00000010
00000001
00001000
00000010
,
00001000
00000000
00000010
00000000
00000100
00000001
00001000
00000010
00000100
00000000
00000001
00000010
00000100
00001000
00000200
00000000
,
MMMM0000
00000000
00001300
00000000
00000010
00000000
00000100
00000000
00000001
00001000
00000100
00000010
00000002
00000000
00000000
00000000
,
00001003
00000000
00000000
00000000
00000000
00000000
00000001
00000000
00000010
00000000
00000100
00000000
00000020
00000000
00000000
00000000
00000000
00000000
00000001
00000000
00000000
MMMM0000
00000000
00000000
00000230
00000000
00000000
00000000
00000000
00000000
00001000
00000000
00000000
MMMM0000
00000000
00000000
00000310
00000000
00000000
00000001
00000000
00000000
00000100
00000000
00000000
00001000
00000000
00000000
,
00010000
00000000
00000000
00000000
00000000
00000000
00001000
00000000
01000000
00000000
00001000
00000000
02000000
00000000
00000000
00000000
00000000
00000000
00100000
00000000
00000000
0000MMMM
00000000
00000000
03020000
00000000
00000000
00000000
00000000
00000000
10000000
00000000
00000000
0000MMMM
00000000
00000000
01030000
00000000
00000000
00010000
00000000
00000000
01000000
00000000
00000000
00001000
00000000
00000000
,
00010000
00000000
00000000
00000000
00000000
00000000
00001000
00000000
00010000
00000000
00000010
00000000
00002000
00000000
00000000
00000000
00000000
00000000
00000100
00000000
00000000
MMMM0000
00000000
00000000
00003002
00000000
00000000
00000000
00000000
00000000
00000010
00000000
00000000
MMMM0000
00000000
00000000
00001003
00000000
00000000
00000001
00000000
00000000
00000100
00000000
00000000
00001000
00000000
00000000
,
00010000
00100000
10000000
00010000
00100000
01000000
00100000
00010000
10000000
00100000
01000000
00010000
10000000
00000000
00000000
00000000
,
20020000
00000000
00000000
30030000
,
10000000
00100000
MMMMMMMM
00010000
00001000
MMMMMMMM
00000100
00000001
,
00001001
00000000
00000000
00000000
00000001
00000100
00000010
00001000
00000001
00000000
00000000
00000000
00001000
00000100
00000010
00000100
,
MMMM1000
00000000
MMMM0010
00000000
0001MMMM
00000000
MMMM1000
00000000
00010000
00001000
00010000
00001000
00010000
00000000
00000000
00000000
,
01001000
00000000
00001000
00100000
00010000
00000000
10010000
00000000
MMMMMMMM
00000000
10000000
01000000
00100000
00010000
00100000
00000000
,
00101000
00000000
00001000
00010000
00000010
00000000
00001010
00000000
MMMMMMMM
00000000
00001000
00000100
00000010
00000001
00000100
00000001
,
00000101
00000000
00000000
00000011
00000000
00000000
00001010
00000000
00011000
00000000
00000000
01010000
00000000
00000000
11000000
00000000
,
10100000
00000000
00000000
00110000
00000000
00000000
00011000
00000000
MMMMMMMM
00000000
MMMMMMMM
00000000
00001100
00000000
00000000
00000101
,
00000000
00002002
00000000
00000000
00000000
00000000
00003003
00000000
,
00011000
00000000
00000000
00000000
,
MMMMMMMM
00000000
00000000
00000000
00000000
00000000
00000000
00000000
00000000
00000000
00000000
00000000
00000000
00000000
10000000
00010000
,
10010000
00000000
00011000
00000000
,
00010100
00000000
00010000
00000000
00011000
00000000
00001000
00000000
00010000
00001000
00010000
00001000
00010000
00000000
00000000
00000000
,
00001000
00100000
00001000
00010000
00001000
00000000
00000100
00000010
00001000
00000100
00000010
00000000
00000001
00001000
00000001
00000000
,
00000010
00000100
00001000
00000010
00000100
00001000
00010000
00100000
01000000
00010000
00100000
01000000
10000000
00000000
00010000
00000000
,
10000000
00000000
00010000
00100000
10000000
00000000
00100000
00010000
10000000
00100000
00000000
01000000
00010000
00000000
10000000
01000000
,
00100000
01000000
00010000
00001000
00000010
00000100
00000001
00000100
00001000
00000000
00000000
00001001
00000000
00000000
00001000
00000010
,
00000100
00000000
00000001
00000010
00000200
00000000
00001000
MMMM0000
00000310
00000000
00000001
00000100
00000010
00000000
00001000
00000000
,
00000001
00000100
00000010
00000100
00001000
00010000
00001000
00000100
00000010
00000100
00000001
00001000
00000100
00000000
00010000
00000000
,
01000000
00000000
10000000
01000000
00200000
00000000
00010000
0000MMMM
01300000
00000000
10000000
01000000
00010000
00000000
00001000
00000000
,
00012000
00000000
01003000
00000000
00021000
00000000
00030100
00000000
00010000
00001000
00010000
00000010
00001000
00000001
00001000
00000001
,
00000100
00000010
00000100
00001000
00010000
00100000
01000000
00010000
10000000
01000000
00010000
00001000
00010000
01000000
20000000
00000000
,
00000000
00000000
00000000
00000000
30000000
00000000
00000000
00000000
10000000
00000000
00000000
00010000
00000000
00000000
10000000
00100000
,
00020000
00000000
00000000
00000000
00031000
00010000
00001000
00000100
00000001
00000000
00000000
00000000
00001000
00000100
00000010
00000001
,
00001000
00000000
00000000
00000000
00000001
00000100
00001000
00000100
00000001
00000000
00001000
00000100
00000010
00000001
00001000
00000010
,
00000100
00000000
00000000
00000000
00000000
00000000
00000001
00000000
00001000
00000000
00000010
00000000
00000200
00000000
00000000
00000000
00000000
00000000
00000010
00000000
00000000
MMMM0000
00000000
00000000
00000302
00000000
00000000
00000000
00000000
00000000
00000010
00000000
00000000
MMMM0000
00000000
00000000
00001003
00000000
00000000
00000010
00000000
00000000
00010000
00000000
00000000
00001000
00000000
00000000
,
00010000
00000000
00000000
00000000
00000000
00000000
00001000
00000000
00100000
00000000
00010000
00000000
00200000
00000000
00000000
00000000
00000000
00000000
00010000
00000000
00000000
0000MMMM
00000000
00000000
02300000
00000000
00000000
00000000
00000000
00000000
10000000
00000000
00000000
0000MMMM
00000000
00000000
03100000
00000000
00000000
00010000
00000000
00000000
10000000
00000000
00000000
00010000
00000000
00000000
,
01000000
00000000
00000000
00000000
00000000
00000000
00010000
00000000
00100000
00000000
01000000
00000000
20000000
00000000
00000000
00000000
00000000
00000000
00100000
00000000
00000000
0000MMMM
00000000
00000000
30020000
00000000
00000000
00000000
00000000
00000000
01000000
00000000
00000000
0000MMMM
00000000
00000000
10030000
00000000
00000000
01000000
00000000
00000000
00100000
00000000
00000000
00010000
00000000
00000000
,
00100000
00000000
00000000
00000000
00000000
00000000
00001000
00000000
00010000
00000000
00000100
00000000
00002000
00000000
00000000
00000000
00000000
00000000
00000100
00000000
00000000
MMMM0000
00000000
00000000
00003010
00000000
00000000
00000000
00000000
00000000
00001000
00000000
00000000
00000001
00000000
00000000
00000010
00000000
00000000
00000100
00000000
00000000
00001000
00000000
00000000
00000001
00000000
00000000
,
00001000
00000010
00010000
00000000
00001000
00010000
00000100
00000000
00010000
00001000
01000000
00000000
00001000
00100000
00010000
00000000
,
01000000
00010000
10000000
00100000
01000000
00100000
00010000
00001000
00000100
00000001
00001000
00000100
00000010
00000001
00000100
00000010
,
00001000
00000000
MMMMMMMM
00000000
00000001
00000010
00001000
00000000
MMMMMMMM
00000000
00010000
01000000
10000000
00000000
MMMMMMMM
00000000
,
10000000
00100000
00010000
00000000
MMMMMMMM
00000000
00001000
00000100
00000001
00000000
00001000
00000100
00000010
00000001
00000202
00000000
,
00000000
00000000
00000000
MMMM0303
00000000
00000000
00000000
00000000
;
