#TITLE:She is my wife;
#ARTIST:SUPER STAR 満-MITSURU-;
#ARTISTTRANSLIT:SUPER STAR MITSURU;
#GENRE:ONLY ONE BALLAD;
#BANNER:She is my wife.png;
#BACKGROUND:She is my wife-bg.png;
#CDTITLE:./CDTitles/bm IIDX 17 SIRIUS.png;
#MUSIC:She is my wife.ogg;
#SAMPLESTART:61.412;
#SAMPLELENGTH:15;
#BPMS:0=85,68=170;
#STOPS:67.875=1.412;
#STAGE:18;

//--------------- dance-single - Fred-104 ----------------
#NOTES:
     dance-single:
     Fred-104:
     Beginner:
     4:
     :
0000
0000
0000
0000
,
0000
0000
0000
0000
,
0000
0000
0000
0000
,
0000
0000
0000
0000
,
0000
0000
0000
0000
,
1000
0000
1000
0000
,
0001
0000
0001
0000
,
1000
0000
0010
0000
,
0100
0000
0001
0000
,
1000
0000
0000
0000
,
0001
0000
0000
0000
,
1000
0001
1000
0001
,
1000
1000
0001
0001
,
1001
0000
1000
0000
,
0001
0000
0100
0000
,
0010
0000
1000
0000
,
0001
0000
2002
3003
,
0002
0000
0000
0003
,
2000
0000
0000
3000
,
0002
0000
0000
0003
,
1000
1000
0001
0001
,
1000
0000
0010
0000
,
0100
0000
0001
0000
,
1000
0000
0001
0000
,
1001
0000
0110
0000
,
2002
0000
3003
0000
,
0001
0000
0100
0000
,
0001
0001
0001
0000
,
1000
0000
0010
0000
,
0100
0100
0100
0000
,
0001
0000
1000
0000
,
0001
0001
0001
0000
,
1000
0000
0001
0000
,
2000
0000
0000
3000
,
1001
0000
0001
0000
,
1000
0000
0001
0000
,
1001
0000
0000
0000
,
0001
0000
1000
0000
,
1001
0000
0000
0000
,
0001
0000
1000
0000
,
1001
0000
0000
0000
,
1000
0000
0001
0000
,
1001
0000
0000
0000
,
0001
0000
0000
0000
,
1000
0000
0010
0000
,
1000
1000
0001
0001
,
2002
0000
0000
0000
,
3003
0000
0000
0000
,
0001
0000
0100
0000
,
0001
0001
0010
0000
,
0100
0000
1000
0000
,
0001
0001
0001
0001
,
0001
0000
1000
0000
,
0100
0100
0100
0000
,
1000
0000
0001
0000
,
1000
1000
1000
1000
,
2000
3000
0002
0003
,
2000
3000
0002
0003
,
2000
0000
0000
3000
,
0002
0000
0000
0003
,
1000
1000
0001
0001
,
2002
0000
0000
0000
,
3003
0000
0000
0000
;

//--------------- dance-single - Fred-104 ----------------
#NOTES:
     dance-single:
     Fred-104:
     Easy:
     7:
     :
0000
0000
0000
0000
,
0000
0000
0000
0000
,
0000
0000
0000
0000
,
0000
0000
0000
0000
,
0000
0000
0000
0000
,
2000
3100
1000
0010
,
0200
0000
0301
0000
0010
0000
0001
1000
,
0001
0100
0010
1000
,
0001
0100
1000
0010
,
0001
1000
0010
0100
,
0001
0010
0100
1000
,
0001
0000
0100
0100
0010
0010
1000
1000
,
0002
0000
2003
0000
3002
0003
1001
0000
,
1000
0000
0100
0000
0001
0100
1000
0000
,
0001
0000
0100
0000
1000
0100
0001
0000
,
1000
0100
0001
0010
,
1000
0000
0010
1000
2002
0000
0000
3003
,
2002
0000
0000
3003
,
0220
0000
0000
0330
,
2002
0000
0000
3003
,
1000
0000
1000
0000
0001
1000
0001
0000
,
0100
0000
0010
0000
,
1000
0000
0001
0000
,
1000
0100
1000
0001
,
1000
1000
0001
0001
,
2002
0000
3003
0000
,
1000
0100
1000
0010
,
0200
0000
0000
0010
0000
0000
0310
0000
,
0100
0000
0001
1000
,
0001
0100
1000
0100
,
0001
0000
1000
0001
,
1000
0010
0001
0010
,
1000
0000
0001
0000
1000
0100
1000
0000
,
0001
0100
0010
1000
,
1001
0000
0110
0000
,
1001
0000
0001
1000
,
0002
0100
0000
0103
,
0010
1000
0001
1000
,
1001
0000
0000
0001
0000
0000
1000
0000
,
0000
0001
0100
0010
,
0110
0000
0000
0100
0000
0000
0010
0000
,
1000
0100
1000
0001
,
1000
0000
0000
0100
0000
0000
0001
0000
,
1000
0000
0000
0010
0000
0000
0001
0000
,
1000
0010
0100
0001
,
0010
0000
0100
0000
1000
0001
1000
0000
,
1001
0000
0000
0000
,
0220
0000
0330
0000
,
1000
0100
1000
0010
,
0100
0000
0100
0000
0001
0010
0001
0000
,
0100
0100
0010
1000
,
0001
0100
1000
0010
,
0001
1000
0001
0100
,
0100
0000
0010
0000
1000
0100
1000
0000
,
0010
0100
0001
1000
,
0001
0010
0001
1000
,
1001
0000
0110
0000
,
1001
0000
0001
1000
,
0002
0000
0103
0010
,
2000
0000
3010
1000
,
0001
0100
0001
0000
1000
0010
1000
0000
,
0001
0000
0000
0001
0000
0000
0001
0000
1000
0000
0000
1000
0000
0000
2002
0000
,
3003
0000
0000
0000
;

//--------------- dance-single - Fred-104 ----------------
#NOTES:
     dance-single:
     Fred-104:
     Medium:
     10:
     :
0000
0000
0000
0000
,
0000
0000
0000
0000
,
0000
0000
0000
0000
,
0000
0000
0000
0000
,
0000
0000
0000
0000
,
0001
0000
0010
0100
1000
0000
0010
0000
0100
0000
0001
0000
1000
0000
0100
0000
,
1000
0000
0010
0100
0010
0000
1000
0000
0100
0000
0010
0000
0001
0000
0100
0010
,
0100
0000
0001
0000
1000
0000
0001
1000
0010
0000
0000
0100
0000
0000
0010
0000
,
1000
0000
0000
0000
0100
0000
0000
0000
0001
0000
0000
0000
0010
0000
1000
0001
,
1000
0000
0100
0000
0010
0000
0001
1000
0001
0000
0000
0100
0000
0000
0010
0000
,
0100
0000
0001
0000
0010
0000
0100
0000
1000
0000
0010
0100
0010
0000
1000
0000
,
0100
0010
0001
2000
3200
0302
0023
2030
,
3001
0000
0000
0000
0100
0000
0000
0000
0010
0000
0000
0000
0100
0010
0100
0000
,
0001
0010
0100
1000
0010
0100
0001
1000
,
0100
0001
0100
1000
0010
0100
0001
0010
,
0001
0100
0001
0100
1000
0010
1000
0010
,
0001
0000
0100
0010
0100
0000
0001
0000
2002
0000
0000
0000
0000
0000
0000
3003
,
2200
0000
0000
3300
,
0202
0000
0000
0303
,
2002
0000
0000
3003
,
1000
1000
1001
0000
0001
0100
0001
0000
,
1000
0100
0000
0010
0000
0001
0000
1000
,
0010
0100
0000
0010
0000
1000
0000
0100
,
1000
0010
0100
0000
0001
0010
0100
0000
,
1000
0000
0000
1100
0000
0000
0010
0000
0001
0000
0000
0101
0000
0000
0010
0000
,
2002
0000
3003
0000
,
1001
0000
0100
1000
0000
0010
0100
0000
,
0010
0000
0000
1000
0000
0000
0002
0000
0000
0000
1003
0000
0100
0000
0010
0000
,
0001
0000
0000
0000
1000
0000
0100
0000
0001
0000
0000
1000
0000
0000
0010
0000
,
0002
0000
0203
0000
2300
0000
3001
0010
,
1000
0000
0000
0000
0001
0000
1000
0000
0010
0000
0000
1000
0000
0000
0100
0000
,
0010
0000
0000
0000
0001
0000
0100
0000
0010
0000
0000
0100
0000
0000
0001
0000
,
1000
0000
0100
0010
0001
0010
0100
0010
,
0001
0100
0001
0100
1000
0100
0001
0000
,
1001
0000
1000
0010
0100
0000
0010
1000
,
0100
0000
0000
0000
0010
0000
0001
0000
0100
0000
0000
0001
0000
0000
0010
0000
,
0002
0000
1000
0000
0100
0000
1003
0001
,
0200
0000
0000
0000
0010
0000
0000
0000
1300
0000
0000
0001
0000
0000
1000
0000
,
1001
0000
0000
0110
0000
0001
1000
0010
,
0000
0000
0100
0000
0001
0000
0000
0000
0100
0000
0000
0010
0000
0000
0100
0000
,
0101
0000
0000
0011
0000
0001
1000
0010
,
0000
0000
0100
0000
0010
0000
0000
0000
1000
0000
0000
0100
0000
0000
0010
0000
,
0001
0000
1000
0100
0000
0001
0200
0000
,
1300
0000
0001
0100
0000
1000
0200
0000
,
0301
0010
0100
1000
0010
0100
0010
0000
,
1000
0000
0001
0000
0100
0000
0010
0000
1000
0000
0000
1000
0000
0000
0001
0000
,
1001
0000
0000
0000
,
0220
0000
0330
0000
,
1000
0100
1000
0000
0010
1000
0010
0000
,
0100
0010
0100
0000
0001
0010
0001
0000
,
1000
0100
0010
0000
0001
1000
0010
0000
,
0200
0000
0320
0000
1030
0001
1000
0000
,
0001
0010
0100
0000
1000
0010
0100
0000
,
0010
1000
0001
0000
1000
0100
0010
0000
,
0001
0100
1000
0000
0100
0001
0010
0000
,
0100
1000
0010
0100
0001
1000
0001
0000
,
2100
3010
0102
0013
,
2100
0000
0000
0000
3001
0000
0000
0000
1000
0000
0000
0010
0000
0000
0100
0000
,
0020
0000
1000
0000
0001
0000
1030
0010
,
0200
0000
0000
0000
0001
0000
0000
0000
1300
0000
0000
0010
0100
0000
0010
0000
,
1000
0100
0001
0000
1000
0010
0001
0000
,
1000
0000
0000
1010
0000
0000
0100
0000
0001
0000
0000
0011
0000
0000
0100
0000
,
1001
0000
0000
0000
;

//--------------- dance-single - Fred-104 ----------------
#NOTES:
     dance-single:
     Fred-104:
     Hard:
     13:
     :
0000
0000
0000
0000
,
0000
0000
0000
0000
,
0000
0000
0000
0000
,
0000
0000
0000
0000
,
0000
0000
0000
0000
,
0001
0000
0010
0001
0010
0000
0100
0000
1000
0000
0010
0000
0100
0000
0001
0000
,
1000
0000
0100
0010
0100
0000
1000
0000
0010
0000
0100
0000
0001
0000
1000
0001
,
1000
0000
0100
0000
0010
0000
0001
0100
0010
0000
0000
0001
0000
0000
0010
0000
,
1000
0000
0001
1000
0100
0000
1000
0010
0100
0000
0010
0000
1000
0100
0010
0001
,
0100
0000
0010
0000
1000
0000
0001
0010
0100
0000
0000
0001
0000
0000
0100
0000
,
1000
0000
0001
0000
1000
0000
0100
0000
0010
0000
1000
0010
0001
0000
1000
0000
,
0001
0000
0000
0100
0000
0000
0010
0000
0000
1000
0000
1000
0100
0010
0100
0010
0001
0010
0001
1000
0001
1000
0001
1000
,
0001
0000
0000
0000
0100
0000
0000
0000
0010
0000
0000
1000
0100
0010
0001
0000
,
0011
0000
0010
0000
0001
0000
0100
0001
1000
0000
0100
0000
1000
0000
0010
1000
,
0001
0000
0100
0000
0010
0000
1000
0000
0010
0000
0100
0001
0010
0000
0100
0000
,
1000
0000
0010
0000
0001
0000
0100
0000
1000
0000
0100
0000
0001
0000
0010
1000
,
0001
0000
0100
0010
1000
0000
0100
0000
2002
0000
0000
0000
0000
0000
0000
3003
,
2200
0000
0000
3300
,
0202
0000
0000
0303
,
2020
0000
0000
3030
,
0001
0001
1001
0000
0100
0010
0100
0000
,
0001
0010
0100
0010
0001
1000
0010
0000
,
1000
0010
0100
0001
1000
0100
0010
0000
,
0001
0100
0010
0100
0001
0010
0100
1000
,
1100
0000
0000
0010
0000
0000
0001
0100
0001
0000
0000
1001
0000
0000
0100
0010
,
0100
0000
0002
0000
,
1003
0100
1000
0002
0000
0103
0010
0100
,
0001
0000
0000
0010
0000
0000
1000
0000
0001
0000
0000
0000
0100
0000
1000
0001
,
1000
0000
0000
0000
0010
0000
0100
0001
0100
0000
0000
0010
0000
0000
1000
0000
,
2010
0000
0000
0000
0100
0000
0000
0000
3010
0000
0000
1000
0100
0000
0010
0000
,
0001
0000
0000
0000
1000
0000
0100
1000
0100
0000
0000
0001
0000
0000
0100
0000
,
1000
0000
0000
0000
0001
0000
0010
0001
0010
0000
0000
1000
0000
0000
0010
0000
,
0001
0000
0000
0000
0100
0000
0010
1000
0010
0000
0100
0000
0001
0000
1000
0000
,
0001
0100
1000
0100
0001
0010
0100
0000
,
1100
0000
0000
0000
0001
0000
0100
0010
0100
0000
0000
0000
1000
0000
0100
0010
,
0100
0000
0000
0000
0001
0000
1000
0010
0100
0000
0000
0001
0010
0000
0001
0000
,
2000
0010
0001
3100
,
0020
0000
0000
0000
0001
0000
0000
0000
0100
0000
0000
1030
0000
0000
0001
0000
,
1001
0000
0000
0110
0000
0001
1000
0010
,
0000
0000
1000
0000
1100
0000
0000
0000
1010
0000
0000
1000
0000
0000
0001
0100
,
0001
0000
0000
0011
0000
0001
1000
0010
,
0000
0000
0100
0000
0010
0000
0000
0000
1100
0000
0000
0100
0000
0000
0010
0001
,
0010
0000
0001
0100
1000
0001
0020
0000
,
1030
0000
0000
0000
0100
0000
0001
0000
1000
0000
0010
0000
0001
0000
1000
0001
,
1000
0100
0010
0001
0100
0010
1000
0010
,
0100
0001
0010
1000
0010
0100
1000
0001
,
1001
0000
0000
0000
,
0220
0000
0330
0000
,
1000
0000
0100
0000
1000
0000
0010
0000
0100
0000
0001
0000
0010
0100
0010
0000
,
0001
0000
0100
0000
0010
0000
0100
0000
0001
0000
1000
0000
0100
1000
0100
0000
,
0010
0000
0001
0000
1000
0000
0010
0000
0100
0000
0001
0000
0010
0001
0010
0000
,
0001
0000
0100
0000
1000
0000
0100
0000
0001
0000
1000
0001
2000
0000
0000
0000
,
3001
0000
0100
0000
0010
0000
1000
0000
0100
0000
0010
0000
0001
1000
0010
0000
,
0100
0000
0010
0000
1000
0000
0100
0000
0010
0000
0100
0000
1000
0001
0010
0000
,
0001
0000
0100
0000
0010
0000
0100
0001
0100
0000
0010
0000
1000
0100
1000
0000
,
0001
0100
0010
0100
0001
1000
1001
0000
,
1100
0010
0101
0010
,
1001
0000
0000
0000
0100
0000
0000
0000
1000
0000
0000
0010
0000
0000
0100
0000
,
0002
0100
1000
0013
,
0200
0000
0000
0000
1000
0000
0000
0000
0310
0000
0000
0001
1000
0000
0010
0000
,
1000
0000
0100
0000
1000
0000
0010
0000
0100
0001
0100
0001
0100
0000
0000
0000
,
0110
0000
0000
1010
0000
0000
1100
0000
1010
0000
0000
0101
0000
0000
0011
0000
,
1001
0000
0000
0000
;

//--------------- dance-single - Fred-104 ----------------
#NOTES:
     dance-single:
     Fred-104:
     Challenge:
     16:
     :
0000
0000
0000
0000
,
0000
0000
0000
0000
,
0000
0000
0000
0000
,
0000
0000
0000
0000
,
0000
0000
0000
0000
,
1000
0000
0001
0100
0001
0000
0011
0000
0001
0000
0100
0000
0110
0000
0010
0000
,
1000
0000
0001
0100
1000
0000
0001
0000
0010
0000
1000
0000
1001
0000
0001
1000
,
0010
0000
0001
0010
0100
0000
0001
1000
0020
0000
0130
0002
0000
1003
0002
0000
,
1003
0000
0010
0000
0001
0000
0100
0000
1000
0000
0010
0000
0100
0001
0010
0001
,
1000
0000
0001
0010
0100
0000
0001
0100
2000
0000
3001
2000
0000
3010
0200
0000
,
0301
0000
1000
0000
0010
0000
0001
0000
0100
0000
1000
0001
1001
0000
0110
0000
,
1001
0000
0000
0000
0000
0000
0001
0000
0000
1000
0000
0000
0010
0000
0000
0000
0000
0000
1000
0000
0100
0000
1000
0000
0010
0000
1000
0000
0100
0000
0010
0000
0100
0000
0010
0000
0001
0000
0100
0000
0010
0000
1000
0000
0010
0000
0100
0000
,
0002
0000
0000
0000
0000
0000
0000
0000
0203
0000
0000
0000
0000
0000
0000
0000
2300
0000
0000
0000
0000
0000
3010
0001
1000
0000
0001
0000
1000
0000
0000
0000
,
1100
0000
0110
0000
1100
0000
1000
0010
0110
0000
0101
0000
0110
0000
0001
1000
,
1100
0000
0101
0000
1010
0000
1001
0000
0011
0000
0001
0100
1000
0000
0100
0000
,
0002
0000
0023
0000
2030
0000
3200
0000
0302
0000
0203
0000
2300
0000
3010
0001
,
1000
0000
0000
0000
0010
1000
0010
1000
0100
0010
0001
0000
0100
0000
0010
0000
0220
0000
0000
0000
0000
0000
0000
0000
0000
0000
0000
0000
0000
0000
0330
0000
,
2020
0000
0000
3030
,
0202
0000
0000
0303
,
0220
0000
0000
0330
,
1001
1001
1001
0000
0200
0320
0230
0000
,
0301
0010
1000
0010
0001
0010
1000
0010
,
0001
0100
1000
0100
0001
0100
1000
0100
,
0001
0010
0100
1000
0010
0100
0001
0010
0001
0100
0010
1000
0001
1000
0100
0010
,
0001
0000
0000
0101
0000
0000
0010
1000
0001
0000
0000
0110
0000
0000
1000
0001
,
1001
0000
0000
0000
0000
0000
0001
0100
0100
1000
0010
0010
,
0001
0010
0100
2000
0000
3010
0100
1000
,
0100
0000
0010
1000
0000
0100
0010
0000
0002
0000
0000
0000
1003
0000
0001
0100
,
0020
0000
0000
0000
1030
0000
0001
0010
2000
0000
0000
3020
0000
0000
0031
0000
,
0102
0000
0013
0000
2100
0000
3010
0000
0101
0000
0000
0001
1000
0001
0100
0010
,
2000
0000
0000
0000
3001
1000
0100
0001
0200
0000
0000
0320
0000
0000
0031
0000
,
0011
0000
0000
0000
1000
0001
0010
0100
0002
0000
0000
0203
0000
0000
0320
0000
,
0031
0000
0100
0000
0010
0000
1000
0100
0010
0001
0100
0010
1000
0100
0010
0001
,
0200
0000
0001
1300
0200
0000
1000
0301
0100
0001
0010
0100
1000
0000
0001
0000
,
1001
0000
0000
0000
1100
0000
0100
0010
0100
0000
0000
0000
0101
0000
0100
0010
,
0100
0000
0000
0000
1001
0000
0001
1000
0001
0100
0000
0100
0010
0000
1000
0000
,
2100
0000
0010
0000
0001
0000
3100
0020
,
0001
0000
0000
0000
0100
0000
0000
0000
1030
0000
0000
0010
0100
0000
0001
0000
,
1001
0000
0000
0110
0000
0010
1000
0001
,
0000
0000
1100
0000
0101
0000
0000
0000
1010
0000
0000
0011
0000
0000
0100
0010
,
0100
0000
0000
1001
0000
0001
0100
0010
,
0000
0000
1010
0000
0011
0000
0000
0000
1100
0000
0000
0101
0000
0000
1001
0000
,
1000
0100
0001
1000
0010
0001
1000
0001
,
0100
0000
1000
0000
0001
0000
0010
0000
1000
0000
0001
0000
1000
0000
0001
0100
,
0010
0000
1000
0100
0010
0000
0001
0100
0001
0000
0100
1000
0100
0000
0001
0010
,
0001
0010
0100
1000
0010
0100
0001
0010
0001
1000
0100
1000
0010
0100
0001
0000
,
1001
0000
0000
0000
,
0110
0000
0000
0000
0000
0000
0000
0000
1000
0100
0010
0100
1000
0010
0100
0001
,
0100
0000
0001
0010
0100
1000
0000
0010
0000
1000
0000
0010
0100
0001
0100
0001
,
0010
0000
0001
1000
0100
1000
0000
0010
0000
0100
0000
0001
1000
0100
1000
0010
,
0100
0000
0010
1000
0010
0100
0000
0010
0000
1000
0000
0100
0010
0001
0010
0100
,
0010
0000
0001
1000
0010
0000
1000
0001
0010
0000
0100
1000
0010
0100
0001
0010
,
0100
0000
1000
0010
0100
0010
0000
1000
0000
0100
0000
0010
0001
1000
0001
0100
,
0010
0000
0100
0001
0010
0001
0000
1000
0000
0010
0000
0100
0001
0010
0100
1000
,
0010
0000
0100
0000
0001
0000
1000
0100
0010
0001
1000
0001
0100
0010
1000
0001
,
1000
0000
0000
0000
0000
0000
0001
0000
0100
0000
0001
0000
0100
0000
0000
0000
0000
0000
0010
0000
0000
1000
0000
0000
0010
0000
0000
0100
0000
0000
0001
0000
0000
1000
0000
0000
0100
0000
0000
0000
0000
0000
0010
0000
0000
0000
0000
0000
,
0110
0001
1000
0000
0110
1000
0001
0000
,
0110
0000
0001
0000
1000
0000
0000
0000
0001
0100
0000
0010
1000
0000
0001
1000
,
0002
0000
0010
0000
1000
0000
0103
0100
,
0020
0000
0000
0000
1000
0000
0000
0000
0130
0000
0000
0001
1000
0000
0010
0000
,
1000
0100
0010
0001
0010
0100
1000
0010
0100
0001
0010
0100
0020
0000
0000
0030
,
0011
0000
0000
1010
0000
0000
0101
0000
1100
0000
0000
0110
0000
0000
1000
0100
,
0001
0000
0000
0000
;

//--------------- dance-double - Fred-104 ----------------
#NOTES:
     dance-double:
     Fred-104:
     Easy:
     7:
     :
00000000
00000000
00000000
00000000
,
00000000
00000000
00000000
00000000
,
00000000
00000000
00000000
00000000
,
00000000
00000000
00000000
00000000
,
00000000
00000000
00000000
00000000
,
00020000
01030000
00100000
01000000
,
00020000
00000000
10030000
00000000
00010000
00000000
10000000
01000000
,
10000000
01000000
00100000
00010000
,
00100000
00010000
00100000
00001000
,
00010000
00001000
00000010
00000001
,
00001000
00000001
00000100
00001000
,
00010000
00000000
00001000
00100000
00001000
00100000
00010000
10000000
,
02000000
00000000
03200000
00000000
00302000
00003000
00011000
00000000
,
00010000
00000000
00001000
00000000
00010000
00001000
00000010
00000000
,
00001000
00000000
00010000
00000000
00001000
00010000
01000000
00000000
,
00010000
00001000
00000100
00001000
,
00010000
00000000
00100000
00010000
00022000
00000000
00000000
00033000
,
00002002
00000000
00000000
00003003
,
00000220
00000000
00000000
00000330
,
00002002
00000000
00000000
00003003
,
00000001
00000000
00000001
00000000
00000100
00000010
00000100
00000000
,
00000001
00000000
00000100
00000000
,
00001000
00000000
00010000
00000000
,
00100000
10000000
00010000
10000000
,
01000000
01000000
00010000
00010000
,
00022000
00000000
00033000
00000000
,
00001000
00010000
00001000
00010000
,
00000200
00000000
00000000
00001000
00000000
00000000
00001300
00000000
,
00000001
00000000
00000100
00000010
,
00000100
00000001
00000010
00001000
,
00010000
00000000
00001000
00000100
,
00000001
00001000
00000001
00000100
,
00000010
00000000
00010000
00001000
,
00010000
00100000
10000000
00010000
,
10010000
00000000
01100000
00000000
,
10010000
00000000
00010000
00001000
,
00020000
00000000
00001000
00030000
,
00001000
00010000
00000010
00001000
,
00001001
00000000
00000000
00000010
00000000
00000000
00000100
00000000
,
00000000
00000001
00000100
00001000
,
00011000
00000000
00000000
00010000
00000000
00000000
01000000
00000000
,
10000000
00010000
10000000
00100000
,
01000000
00000000
10000000
00000000
,
00100000
00000000
01000000
00000000
,
00010000
01000000
00010000
00100000
,
00001000
00010000
00000010
00001000
,
00001001
00000000
00000000
00000000
,
00000220
00000000
00000330
00000000
,
00010000
00001000
00010000
00001000
,
00100000
00000000
00010000
00000000
10000000
00100000
10000000
00000000
,
00010000
01000000
00100000
10000000
,
00010000
01000000
10000000
00100000
,
00010000
00001000
00010000
00000100
,
00001000
00000000
00000100
00000000
00000010
00000001
00000010
00000000
,
00000001
00000100
00001000
00000100
,
00000001
00000010
00001000
00010000
,
00011000
00000000
01100000
00000000
,
10010000
00000000
10000000
00100000
,
02000000
00000000
03010000
00000000
,
02000000
00000000
03100000
10000000
,
01000000
00100000
01000000
00000000
00100000
00010000
00100000
00000000
,
00001000
00000000
00000000
00001000
00000000
00000000
00001000
00000000
00010000
00000000
00000000
00010000
00000000
00000000
00022000
00000000
,
00033000
00000000
00000000
00000000
;

//--------------- dance-double - Fred-104 ----------------
#NOTES:
     dance-double:
     Fred-104:
     Medium:
     10:
     :
00000000
00000000
00000000
00000000
,
00000000
00000000
00000000
00000000
,
00000000
00000000
00000000
00000000
,
00000000
00000000
00000000
00000000
,
00000000
00000000
00000000
00000000
,
00000001
00000000
00000100
00000010
00000100
00000000
00000001
00000000
00000010
00000000
00000100
00000000
00001000
00000000
00000100
00000000
,
00010000
00000000
00001000
00010000
00001000
00000000
00000010
00000000
00001000
00000000
00010000
00000000
00001000
00000000
01000000
00001000
,
01000000
00000000
00001000
00000000
00010000
00000000
01000000
00010000
00001000
00000000
00000000
00010000
00000000
00000000
00001000
00000000
,
00000100
00000000
00000001
00000000
00001000
00000000
00000001
00000100
,
00000010
00000000
00000100
00000000
00000001
00000000
00000010
00000100
00000010
00000000
00000000
00000001
00000000
00000000
00000100
00000000
,
00001000
00010000
01000000
10000000
00010000
01000000
00100000
10000000
,
01000000
00100000
00001000
00020000
00030200
00000320
00000032
00002003
,
00003001
00000100
00010000
00011000
,
00001000
00100000
00001000
00100000
00010000
01000000
00010000
01000000
,
00100000
10000000
00100000
10000000
01000000
00100000
00001000
00010000
,
00001000
00000010
00000001
00001000
00000001
00000100
00001000
00010000
,
01000000
00000000
00100000
01000000
00100000
00000000
10000000
00000000
20020000
00000000
00000000
00000000
00000000
00000000
00000000
30030000
,
20200000
00000000
00000000
30300000
,
02020000
00000000
00000000
03030000
,
00022000
00000000
00000000
00033000
,
00001000
00001000
00001000
00000000
00010000
00001000
00010000
00000000
,
00001000
00010000
00000000
00001000
00000000
01000000
00000000
00001000
,
00010000
00001000
00000000
00100000
00000000
00001000
00000000
00010000
,
00000010
00010000
00001000
00100000
,
00010000
00000000
00000000
10000000
00000000
00000000
01000000
00000000
00010000
00000000
00000000
00001000
00000000
00000000
00000010
00000000
,
00000022
00000000
00000033
00000000
,
00001001
00000000
00000001
00000100
00000000
00000010
00000100
00000000
,
00000001
00000000
00000000
00001000
00000000
00000000
00000020
00000000
00000000
00000000
00001030
00000000
00010000
00000000
00001000
00000000
,
00100000
00000000
00000000
00000000
00010000
00000000
10000000
00000000
00010000
00000000
00000000
01000000
00000000
00000000
00100000
00000000
,
20000000
00000000
32000000
00000000
03020000
00000000
00130000
10000000
,
00010000
00000000
00000000
00000000
10000000
00000000
00100000
00000000
01000000
00000000
00000000
00100000
00000000
00000000
00001000
00000000
,
00010000
00000000
00000000
00000000
00001000
00000000
00000100
00000000
00000010
00000000
00000000
00000100
00000000
00000000
00010000
00000000
,
00001000
00000000
00100000
00010000
00100000
00010000
10000000
00100000
,
01000000
00010000
10000000
01000000
00100000
00001000
00010000
00000000
,
00011000
00000100
00011000
01000000
,
00011000
00000000
00000000
00000000
00000010
00000000
00000000
00000000
00010000
00000000
00000000
00001000
00000000
00000000
00010000
00000000
,
00002000
00000000
00103000
00001000
,
00020000
00000000
00000000
00000000
00030010
00000000
00000000
00000000
00010000
00000000
00000000
00001000
00000000
00000000
00010000
00000000
,
00011000
00000000
00000000
00101000
00000000
00100000
00010000
10000000
,
00000000
00000000
00010000
00000000
01000000
00000000
00000000
00000000
00100000
00000000
00000000
10000000
00000000
00000000
01000000
00000000
,
01100000
00000000
00000000
00101000
00000000
00001000
00010000
00000010
,
00000000
00000000
00000100
00000000
00000010
00000000
00000000
00000000
00001000
00000000
00000000
00000001
00000000
00000000
00000100
00000000
,
00000020
00000000
00001030
00000200
00000000
00000301
00000200
00000000
,
00020300
00000000
00031000
02000000
00000000
13000000
02000000
00000000
,
03001000
00010000
00001000
00000000
01000000
00010000
00100000
00000000
,
00001000
00000000
00010000
00000000
00000010
00000000
00001000
00000000
00000100
00000000
00000000
00010000
00000000
00000000
00001000
00000000
,
00011000
00000000
00000000
00000000
,
20020000
00000000
30030000
00000000
,
10000000
01000000
00100000
00000000
01000000
10000000
00010000
00000000
,
01000000
00010000
01000000
00000000
00001000
00100000
00001000
00000000
,
00010000
00000100
00001000
00000000
00000001
00000100
00000010
00000000
,
00000200
00000000
00000302
00000000
00000013
00000100
00000010
00000000
,
00000001
00000100
00001000
00000000
00010000
01000000
10000000
00000000
,
00010000
10000000
00100000
00000000
10000000
00100000
00010000
00000000
,
00001000
00000010
00000001
00000000
00001000
00000001
00001000
00000000
,
00000010
00010000
00001000
00010000
01000000
00100000
01000000
00000000
,
10010000
01000000
00011000
00000100
,
00001001
00000000
00000000
00000000
00000010
00000000
00000000
00000000
00010000
00000000
00000000
00001000
00000000
00000000
00100000
00000000
,
00002000
00000000
00010000
00000000
00000010
00000000
00013000
00001000
,
00020000
00000000
00001000
00000000
01030000
00000000
00001000
00010000
,
00000100
00001000
00000001
00000000
00000100
00000010
00001000
00000000
,
00000001
00000000
00000000
00000010
00000000
00000000
00001000
00000000
00010000
00000000
00000000
01000000
00000000
00000000
20020000
00000000
,
30030000
00000000
00000000
00000000
;

//--------------- dance-double - Fred-104 ----------------
#NOTES:
     dance-double:
     Fred-104:
     Hard:
     13:
     :
00000000
00000000
00000000
00000000
,
00000000
00000000
00000000
00000000
,
00000000
00000000
00000000
00000000
,
00000000
00000000
00000000
00000000
,
00000000
00000000
00000000
00000000
,
00001000
00000000
00100000
00001000
00010000
00000000
00001000
00000000
00000010
00000000
00000100
00000000
00001000
00000000
00010000
00000000
,
00001000
00000000
01000000
00001000
01000000
00000000
00001000
00000000
00010000
00000000
00001000
00000000
00000100
00000000
00000001
00001000
,
00000001
00000000
00000100
00000000
00000010
00000000
00001000
00000100
00010000
00000000
00000000
01000000
00000000
00000000
10000000
00000000
,
00010000
00000000
10000000
01000000
00010000
00000000
00001000
00010000
00100000
00000000
10000000
00000000
00010000
01000000
00100000
10000000
,
00010000
00000000
00100000
00000000
10000000
00000000
00100000
01000000
10000000
00000000
00000000
00010000
00000000
00000000
00100000
00000000
,
00001000
00000000
00010000
00000000
00001000
00000000
00000010
00000000
00000001
00000000
00001000
00000001
00000010
00000000
00000001
00000000
,
00000100
00000000
00000000
00000010
00000000
00000000
00010000
00000000
00000000
00001000
00000000
00010000
00001000
00010000
00001000
01000000
00100000
01000000
00100000
10000000
00010000
10000000
00010000
10000000
,
01000000
00000000
00000000
00000000
00001000
00000000
00000000
00000000
00000010
00000000
00000000
00001000
00000001
00000100
00000010
00000000
,
00000110
00000000
00000100
00000000
00000001
00000000
00000100
00001000
00000100
00000000
00001000
00000000
00010000
00000000
00001000
00000010
,
00001000
00000000
00010000
00000000
00100000
00000000
00010000
00000000
00001000
00000000
00000100
00001000
00000100
00000000
00001000
00000000
,
00010000
00000000
01000000
00000000
10000000
00000000
01000000
00000000
00010000
00000000
00001000
00000000
00010000
00000000
00100000
00010000
,
00100000
00000000
00010000
00001000
00000010
00000000
00000001
00000000
00002002
00000000
00000000
00000000
00000000
00000000
00000000
00003003
,
00000220
00000000
00000000
00000330
,
00022000
00000000
00000000
00033000
,
02200000
00000000
00000000
03300000
,
10000000
00010000
10010000
00000000
10000000
00100000
01000000
00000000
,
10000000
01000000
00100000
01000000
10000000
00010000
01000000
00000000
,
00010000
00100000
01000000
00001000
00010000
00000100
00001000
00000000
,
00000001
00000100
00000010
00001000
00000001
00000010
00000100
00010000
,
00011000
00000000
00000000
00001000
00000000
00000000
01000000
00100000
01000000
00000000
00000000
01010000
00000000
00000000
00001000
00010000
,
00001000
00000000
00000020
00000000
,
00000130
00000001
00000010
00000002
00000000
00001003
00000010
00000100
,
00000001
00000000
00000000
00000010
00000000
00000000
00000100
00000000
00010000
00000000
00000000
00000000
00001000
00000000
00010000
00000010
,
00001000
00000000
00000000
00000000
00000010
00000000
00001000
00010000
00001000
00000000
00000000
00100000
00000000
00000000
01000000
00000000
,
12000000
00000000
00000000
00000000
00010000
00000000
00000000
00000000
13000000
00000000
00000000
00100000
01000000
00000000
00100000
00000000
,
00010000
00000000
00000000
00000000
00001000
00000000
00010000
00000010
00010000
00000000
00000000
00001000
00000000
00000000
00000100
00000000
,
00000001
00000000
00000000
00000000
00000010
00000000
00000001
00000010
00000001
00000000
00000000
00000100
00000000
00000000
00001000
00000000
,
00010000
00000000
00000000
00000000
01000000
00000000
00100000
10000000
00100000
00000000
01000000
00000000
00010000
00000000
10000000
00000000
,
00010000
10000000
01000000
00010000
00001000
00000010
00000001
00000000
,
00001001
00000000
00000011
00000100
00001000
00000000
00011000
00000010
,
00010000
00000000
00000000
00000000
00011000
00000000
00100000
00000000
00010000
00000000
00000000
01000000
00100000
00000000
10000000
00000000
,
02000000
00010000
10000000
03100000
,
00002000
00000000
00000000
00000000
00010000
00000000
00000000
00000000
00003010
00000000
00000000
00010000
00000000
00000000
00001000
00000000
,
00011000
00000000
00000000
00000110
00000000
00000001
00001000
00000010
,
00000000
00000000
00000100
00000000
00000110
00000000
00000000
00000000
00000101
00000000
00000000
00000010
00000000
00000000
00001000
00000100
,
00001000
00000000
00000000
00110000
00000000
00010000
10000000
00100000
,
00000000
00000000
01000000
00000000
00100000
00000000
00000000
00000000
11000000
00000000
00000000
01000000
00000000
00000000
00100000
00010000
,
00100000
00000000
00010000
01000000
10000000
01000000
00010000
00000000
,
00001000
00000000
00000000
00000000
00000010
00000000
00000001
00000000
00000010
00000000
00001000
00000000
00010000
00000000
00001000
00010000
,
00001000
00100000
00010000
10000000
00010000
01000000
00100000
10000000
,
01000000
00010000
00001000
00000010
00000001
00000100
00001000
00010000
,
00011000
00000000
00000000
00000000
,
20020000
00000000
30030000
00000000
,
00010000
00100000
01000000
10000000
00010000
01000000
00100000
01000000
,
00010000
00100000
00001000
00010000
00001000
00000010
00000001
00001000
,
00000001
00000100
00001000
00010000
00100000
10000000
00010000
01000000
,
00100000
00000000
10000000
00000000
01000000
00000000
00100000
00000000
00001000
00010000
00001000
00010000
00002000
00000000
00000000
00000000
,
00013000
00001000
00000100
00000001
00001000
00000001
00000010
00000100
,
00001000
00010000
00001000
00000100
00000010
00000001
00000100
00001000
,
00010000
01000000
10000000
00010000
00100000
01000000
00100000
00001000
,
00010000
00001000
00000010
00001000
00010000
00001000
00010000
00000000
,
00011000
01000000
00011000
00000010
,
00011000
00000000
00000000
00000000
00100000
00000000
00000000
00000000
01000000
00000000
00000000
00001000
00000000
00000000
00010000
00000000
,
00002000
00100000
00000010
00013000
,
00002000
00000000
00000000
00000000
01000000
00000000
00000000
00000000
00003100
00000000
00000000
00010000
00001000
00000000
00100000
00000000
,
00001000
00000000
00010000
00000000
00001000
00000000
00100000
00000000
00010000
10000000
00010000
10000000
01000000
00000000
00000000
00000000
,
11000000
00000000
00000000
01010000
00000000
00000000
00011000
00000000
00001010
00000000
00000000
00000011
00000000
00000000
00000110
00000000
,
00001001
00000000
00000000
00000000
;

//--------------- dance-double - Fred-104 ----------------
#NOTES:
     dance-double:
     Fred-104:
     Challenge:
     17:
     :
00000000
00000000
00000000
00000000
,
00000000
00000000
00000000
00000000
,
00000000
00000000
00000000
00000000
,
00000000
00000000
00000000
00000000
,
00000000
00000000
00000000
00000000
,
00000001
00000000
00000010
00001000
00010000
00000000
00100000
00000000
00010000
00000000
00001000
00000000
00000100
00000000
00001000
00000000
,
00010000
00000000
01000000
00010000
00001000
00000000
00010000
00000000
00100000
00000000
00010000
00000000
00001000
00000000
00000100
00001000
,
00010000
00000000
00100000
00000000
00010000
00000000
00001000
00000010
00001000
00000000
00010000
01000000
00000000
00010000
00001000
00000000
,
00010000
00000000
00100000
00010000
00001000
00000000
00000100
00001000
00010000
00000000
00001000
00000010
00001000
00010000
00100000
00010000
,
00001000
00000000
00010000
01000000
10000000
00000000
01000000
00010000
01000000
00000000
00010000
00001000
00000000
00010000
00100000
00000000
,
00010000
00000000
00001000
00000000
00000010
00000000
00001000
00000000
00010000
00000000
00001000
00010000
00011000
00000000
00010010
00000000
,
00011000
00000000
00000000
00000000
00000000
00000000
00010000
00000000
00000000
00000100
00000000
00000000
00001000
00000000
00000000
00000000
00000000
00000000
00000001
00000000
00000010
00000000
00001000
00000000
00000010
00000000
00000001
00000000
00000100
00000000
00001000
00000000
00010000
00000000
00001000
00000000
00000010
00000000
00001000
00000000
00010000
00000000
00100000
00000000
00010000
00000000
00001000
00000000
,
00010000
00000000
00000000
00000000
00000000
00000000
00000000
00000000
00011000
00000000
00000000
00000000
00000000
00000000
00000000
00000000
01100000
00000000
00000000
00000000
00000000
00000000
00010000
10000000
00010000
00000000
01000000
00000000
00100000
00000000
00000000
00000000
,
11000000
00000000
00010000
00000000
00001000
00000000
00000010
00000001
00001001
00000000
00000100
00000000
00010000
00000000
01000000
00100000
,
10100000
00000000
01100000
00000000
00011000
00000000
00000110
00000000
00001001
00000000
00000001
00000100
00001000
00000000
00000100
00000000
,
00000002
00000000
00002003
00000000
00003020
00000000
00002030
00000000
00203000
00000000
00302000
00000000
00003200
00000000
00010300
00001000
,
01000000
00000000
00000000
00000000
00010000
01000000
00010000
01000000
00010000
10000000
01000000
00000000
00010000
00000000
00001000
00000000
00022000
00000000
00000000
00000000
00000000
00000000
00000000
00000000
00000000
00000000
00000000
00000000
00000000
00000000
00033000
00000000
,
00002002
00000000
00000000
00003003
,
00022000
00000000
00000000
00033000
,
20020000
00000000
00000000
30030000
,
10010000
01100000
10010000
00000000
02000000
03002000
00023000
00030000
,
00010000
00000100
00000000
00000001
00000000
00000100
00000000
00010000
,
00001000
00100000
00000000
10000000
00000000
00100000
00000000
00001000
,
00010000
00000100
00010000
00000100
00001000
00000100
00000010
00000001
00000100
00000010
00001000
00000001
00000010
00000100
00001000
00000100
,
00010000
00000000
00000000
00011000
00000000
00000000
01000000
00100000
10000000
00000000
00000000
11000000
00000000
00000000
00100000
00010000
,
01010000
00000000
00000000
00000000
00000000
00000000
10000000
01000000
00010000
00001000
00000010
00000001
,
00001000
00000000
00000100
00000000
00000010
00000000
00000002
00000000
00000000
00000000
00000103
00000000
00000010
00000000
00000001
00000010
,
00000100
00000000
00000001
00000010
00000000
00000100
00010000
00000000
00002000
00000000
00000000
00000000
01003000
00010000
10000000
00010000
,
00200000
00000000
00000000
00000000
01300000
10000000
00100000
01000000
00100000
00000000
01000000
00001000
00000000
00010000
00001000
00000000
,
00012000
00000000
00000000
00000000
00000010
00000000
00000000
00000000
01003000
00000000
00000000
00001000
00010000
00000010
00001000
00000100
,
00010000
00000000
00000000
00000000
00001000
00010000
00001000
00000100
00000001
00000000
00000001
00000010
00000000
00000010
00001000
00000000
,
00011000
00000000
00000000
00000000
00001000
00010000
00100000
00010000
00001000
00000000
00001000
00010000
00000000
00010000
01000000
00000000
,
11000000
00000000
10000000
00000000
00100000
00000000
01000000
00010000
10000000
01000000
00010000
01000000
10000000
01000000
00010000
00001000
,
00010000
00000000
00001000
00010000
00100000
00000000
00010000
00001000
00000010
00001000
00010000
00000000
01000000
00010000
00001000
00000000
,
00001100
00000000
00000000
00000000
00001001
00000000
00000001
00000010
00001000
00000000
00000000
00000000
00011000
00000000
00010000
01000000
,
10000000
00000000
00000000
00000000
01100000
00000000
10000000
00100000
00010000
00001000
00000000
00001000
00000010
00000000
00010000
00000000
,
00002000
00000000
00000010
00000000
00000001
00000000
00003100
00020000
,
00100000
00000000
00000000
00000000
10000000
00000000
00000000
00000000
01030000
00000000
00000000
00010000
00001000
00000000
00010000
00000000
,
00011000
00000000
00000000
00000110
00000000
00000001
00001000
00000001
,
00000000
00000000
00000110
00000000
00001010
00000000
00000000
00000000
00010010
00000000
00000000
01001000
00000000
00000000
00010000
00001000
,
00010000
00000000
00000000
10010000
00000000
10000000
01000000
00010000
,
00000000
00000000
01001000
00000000
00011000
00000000
00000000
00000000
00010010
00000000
00000000
00001010
00000000
00000000
00000001
00001000
,
00000001
00001000
00010000
00001000
00000100
00001000
00010000
00000000
,
00010000
00000000
00001000
00000000
00000001
00000000
00001000
00000000
00000100
00000000
00001000
00000000
00010000
00000000
00000100
00001000
,
00000001
00000010
00000001
00000000
00000010
00000100
00001000
00000000
00010000
00000100
00010000
00001000
00100000
00010000
10000000
00010000
,
00100000
01000000
10000000
00100000
01000000
00010000
10000000
01000000
00100000
00010000
01000000
00001000
00010000
00001000
00010000
00000000
,
00011000
00000000
00000000
00000000
,
00001001
00000000
00000000
00000000
00000000
00000000
00000000
00000000
00000001
00000010
00000100
00001000
00000010
00000100
00001000
00010000
,
00001000
00000000
00100000
00001000
00010000
00001000
00000000
00100000
00000000
00010000
00000000
10000000
00100000
01000000
00010000
10000000
,
01000000
00000000
00100000
00010000
10000000
00100000
00000000
01000000
00000000
00100000
00000000
10000000
01000000
00010000
01000000
10000000
,
00100000
00000000
01000000
00010000
00001000
00010000
00000000
00100000
00000000
00001000
00000000
00010000
00000100
00001000
00000001
00000100
,
00000010
00000000
00001000
00000100
00000001
00000000
00001000
00000010
00000001
00000000
00001000
00000010
00000100
00000001
00000010
00000100
,
00000010
00000000
00000001
00000010
00001000
00010000
00000000
00001000
00000000
00000100
00000000
00001000
00010000
01000000
00010000
00001000
,
00010000
00000000
00100000
00010000
00001000
00010000
00000000
01000000
00000000
00010000
00000000
00001000
00000010
00001000
00010000
00001000
,
00010000
00000000
00001000
00100000
00010000
00000000
10000000
00010000
00100000
01000000
10000000
00100000
01000000
00010000
10000000
00100000
,
01000000
00000000
00000000
00000000
00000000
00000000
00010000
00000000
10000000
00000000
00010000
00000000
01000000
00000000
00000000
00000000
00000000
00000000
00001000
00000000
00000000
00010000
00000000
00000000
00001000
00000000
00000000
00000010
00000000
00000000
00000001
00000000
00000000
00001000
00000000
00000000
00000001
00000000
00000000
00000000
00000000
00000000
00000100
00000000
00000000
00000000
00000000
00000000
,
00001001
00010000
10010000
00001000
,
00001001
00000000
00000000
00000000
00010000
00000000
00000000
00000000
00000010
00010000
00000000
00001000
01000000
00000000
00001000
00000000
,
00020000
00000000
00000010
00000000
00100000
00000000
00030010
00010000
,
00002000
00000000
00000000
00000000
01000000
00000000
00000000
00000000
00003100
00000000
00000000
00010000
00001000
00000000
00100000
00000000
,
00001000
00010000
00100000
10000000
00010000
10000000
01000000
00100000
00001000
00010000
00000100
00000010
00000001
00000000
00000000
00000000
,
00000011
00000000
00000000
00001010
00000000
00000000
00011000
00000000
01010000
00000000
00000000
11000000
00000000
00000000
00010000
10000000
,
10010000
00000000
00000000
00000000
;
