#TITLE:Shamshir;
#ARTIST:Blacklolita;
#GENRE:G-HOUSE;
#BANNER:Shamshir.png;
#BACKGROUND:Shamshir-bg.png;
#CDTITLE:./CDTitles/DANCERUSH STARDOM.png;
#MUSIC:Shamshir.ogg;
#SAMPLESTART:24.889;
#SAMPLELENGTH:15;
#BPMS:0=135;
#STAGE:4;

//--------------- dance-single - Fred-104 ----------------
#NOTES:
     dance-single:
     Fred-104:
     Beginner:
     1:
     :
0000
0000
0000
0000
,
0000
0000
0000
0000
,
0000
0000
0000
0000
,
0000
0000
0000
0000
,
0000
0000
0000
0000
,
0000
0000
0000
0000
,
1000
0000
0000
0000
,
0001
0000
0000
0000
,
1000
0000
0000
0000
,
0002
0000
0000
0003
,
1000
0000
0000
0000
,
0010
0000
0000
0000
,
1000
0000
0000
0000
,
0000
0000
0000
0000
,
0001
0000
0000
0000
,
1000
0000
0000
0000
,
0001
0000
0000
0000
,
2000
0000
3000
0000
,
0001
0000
0000
0000
,
1000
0000
0000
0000
,
0001
0000
0000
0000
,
1000
0000
0000
0000
,
0001
0000
0000
0000
,
0010
0000
0000
0000
,
0001
0000
0000
0000
,
1000
0000
0000
0000
,
0001
0000
0000
0000
,
1000
0000
0000
0000
,
2000
0000
0000
0000
,
3000
0000
0000
0000
,
0001
0000
0000
0000
,
1000
0000
0000
0000
,
0001
0000
0000
0000
,
2000
0000
3000
0000
,
0001
0000
0000
0000
,
0100
0000
0000
0000
,
0001
0000
0000
0000
,
2000
0000
3000
0000
,
0001
0000
0000
0000
,
1000
0000
0000
0000
,
0001
0000
0000
0000
,
1000
0000
0000
0000
,
0001
0000
0000
0000
,
1000
0000
0000
0000
,
0001
0000
0000
0000
,
2000
0000
3000
0000
,
0002
0000
0000
0000
,
0003
0000
0000
0000
,
2000
0000
0000
0000
,
3000
0000
0000
0000
,
0001
0000
0000
0000
,
1000
0000
0000
0000
,
0100
0000
0000
0000
,
2000
0000
3000
0000
,
0010
0000
0000
0000
,
1000
0000
0000
0000
,
0001
0000
0000
0000
,
1000
0000
0000
0000
,
0001
0000
0000
0000
,
1000
0000
0000
0000
,
0001
0000
0000
0000
,
0100
0000
0000
0000
,
0002
0000
0003
0000
,
2000
0000
3000
0000
,
1001
0000
0000
0000
,
2002
0000
0000
0000
,
3003
0000
0000
0000
;

//--------------- dance-single - Fred-104 ----------------
#NOTES:
     dance-single:
     Fred-104:
     Easy:
     5:
     :
0000
0000
0000
0000
,
0000
0000
0000
0000
,
0000
0000
0000
0000
,
0000
0000
0000
0000
,
0000
0000
0000
0000
,
0000
0000
0000
0000
,
0001
0000
0100
0000
,
0001
0000
1000
0010
,
2000
3200
0320
0032
,
1003
0000
0000
0001
0000
0000
1001
0000
,
1000
0010
2000
3000
,
0001
0010
0002
0003
,
0100
0010
0100
0010
,
2000
0000
3000
0000
,
0001
1000
0001
0000
,
0100
0010
1000
0000
,
0010
1000
0100
0000
,
0010
0000
0000
0010
0000
0000
0010
0000
,
0001
1000
0001
0000
,
0100
0010
1000
0000
,
0001
1000
0001
0000
,
1000
0010
1000
1000
,
0001
0100
0010
0000
,
1000
0001
0010
0000
,
0001
0100
0010
0000
,
1000
0000
0000
0001
0000
0000
1000
0000
,
0001
0100
0010
0000
,
1000
0001
0010
0000
,
0001
1000
0001
0100
,
0001
0000
0000
0001
0000
0000
1000
0000
0000
1000
0000
0000
1001
0000
0000
0000
,
2000
0000
0000
0010
3000
0000
0100
0000
,
0002
0000
0000
0010
0003
0000
0100
0000
,
2000
0000
0000
0001
3000
0000
1000
0000
,
0020
0000
0130
0010
,
0200
0000
0000
0001
0300
0000
0010
0000
,
0002
0000
0000
1000
0003
0000
0001
0000
,
0020
0000
0000
0100
0030
0000
1000
0000
,
0002
0000
1003
0001
,
1000
0010
0100
0001
,
0010
0010
0002
0003
,
0100
0001
0010
0001
,
1000
0001
2000
3000
,
0001
0001
0100
0010
,
0100
0001
2000
3000
,
0001
1000
0100
0010
,
0002
0000
0000
0003
,
1000
0010
0200
0300
,
0001
0010
0200
0300
,
1000
0001
0100
0010
,
2000
0000
0002
3003
,
1000
0000
0010
0000
,
1000
0000
0000
0001
0000
0000
1000
0000
,
0001
0010
0001
0100
,
0001
0000
0000
1000
0000
0000
0001
0000
,
0100
0010
1000
0000
,
0010
1000
0001
0000
,
1000
0010
0100
0000
,
0001
0001
1000
0001
,
0100
0010
1000
0000
,
0010
1000
0100
0100
,
1000
0010
0100
0000
,
0001
0000
0000
0100
0000
0000
0001
0000
,
0200
0000
0320
0000
,
2030
0000
3002
0000
,
1003
0000
0000
1000
0000
0000
0001
0000
0000
0001
0000
0000
1000
0000
0000
0000
,
1100
0000
0000
0101
0000
0000
2002
0000
,
3003
0000
0000
0000
;

//--------------- dance-single - Fred-104 ----------------
#NOTES:
     dance-single:
     Fred-104:
     Medium:
     9:
     :
0000
0000
0000
0000
,
0000
0000
0000
0000
,
0000
0000
0000
0000
,
0000
0000
0000
0000
,
0000
0000
0000
0000
,
0000
0000
0000
0000
,
1000
0010
1000
0000
0100
0010
0100
0000
,
1000
0001
0010
0000
0001
0100
0001
0000
,
0100
0010
1000
0000
0001
1000
0001
0000
,
2002
0000
3003
0220
0000
0330
2002
3003
,
1000
0000
0100
0000
1000
0001
0010
0000
,
0001
0000
0100
0000
0010
1000
0001
0000
,
1000
0100
0001
0000
1000
0010
0001
0000
,
2002
0000
0000
3003
,
1001
0000
1000
0000
0100
0010
0001
0000
,
2000
0010
0100
3010
,
0100
0001
0020
0000
0001
0000
1030
0000
,
0001
0100
1000
0000
0001
0010
1000
0000
,
1001
0000
0001
0000
0100
0010
1000
0000
,
0020
1000
0100
1030
,
0001
0100
0010
0000
1000
0001
0010
0000
,
0001
0010
0010
0000
1000
0010
0010
0000
,
1001
0000
1000
0000
0010
1000
0100
0000
,
2000
0001
0010
3001
,
0100
0010
2000
0000
0010
0000
3100
0000
,
0001
0100
0100
0000
1000
0100
0100
0000
,
1001
0000
0001
0000
1000
0100
0010
0000
,
0002
0100
0010
0103
,
0001
0010
0001
0000
1000
0010
1000
0000
,
0002
0000
0000
2003
0000
0000
3002
0000
0000
2003
0000
0000
3001
0000
0100
0000
,
0001
0000
0010
0100
0000
0100
1000
0000
,
1001
0000
1000
0100
0000
0010
0100
0000
,
1000
0000
0100
0010
0000
0001
1000
0000
,
0001
0000
0000
0001
0000
0000
0001
0000
0100
0000
0010
0000
1000
0000
0000
0000
,
1100
0000
0100
0010
0000
0001
0100
0000
,
0110
0000
0010
1000
0000
0010
0100
0000
,
0101
0000
0001
0010
0000
0100
1000
0000
,
0010
0000
0000
0010
0000
0000
0010
0000
0100
0000
0001
0000
2000
0000
0000
0000
,
3001
0000
0010
0001
1000
0001
0100
0000
,
0001
0000
0010
0100
1000
0010
2000
0000
,
3001
0000
1000
0100
0010
0001
2000
0000
,
3001
0100
0001
0000
0100
0010
2000
0000
,
3001
0010
0100
0000
0010
0100
1000
0000
,
0010
1000
0010
1000
0001
1000
0002
0000
,
1003
0010
0100
0000
0010
1000
0100
0010
,
0002
0000
0000
0003
,
0100
0001
0010
0000
0100
1000
0001
0000
,
1000
0100
0001
0000
0100
1000
0010
0000
,
0100
0001
0010
0000
0100
1000
0001
0000
,
2002
0000
0000
3003
,
1000
0000
0000
0000
0010
0000
0100
0000
0001
0000
0000
0001
0000
0000
0001
0000
,
1000
0100
1000
0010
1000
0010
0200
0001
,
0301
0000
1000
0000
0010
1000
0100
0000
,
1000
0001
0010
0100
1000
0010
0100
0001
,
0101
0000
0001
0000
0010
0100
1000
0000
,
0002
1000
0010
1003
,
0100
1000
0001
0000
0010
0001
1000
0000
,
0001
0010
1000
0001
0100
1000
0001
0000
,
1001
0000
0001
0000
0100
0010
1000
0000
,
0200
0000
1000
0000
0310
0000
0100
0001
,
1000
0000
0100
0000
0010
0001
1000
0000
,
0001
0010
0001
1000
0010
1000
0001
0000
,
1000
0100
0010
0000
1000
0010
0100
0000
,
0001
0100
0010
0000
0001
0010
0100
0000
,
1001
0000
0000
0101
0000
0000
1001
0000
0000
1100
0000
0000
0110
0000
0100
0000
,
0001
0100
0010
1000
0100
0010
0022
0000
,
0033
0000
0000
0000
;

//--------------- dance-single - Fred-104 ----------------
#NOTES:
     dance-single:
     Fred-104:
     Hard:
     13:
     :
0000
0000
0000
0000
,
0000
0000
0000
0000
,
0000
0000
0000
0000
,
0000
0000
0000
0000
,
0000
0000
0000
0000
,
0000
0000
0000
0000
,
0001
0010
0001
0100
0010
0100
0001
0001
,
0010
0100
1000
0010
0100
0010
1000
1000
,
0100
1000
0010
0100
0001
1000
0001
0001
,
2002
0000
3003
0220
0000
0330
2002
3003
,
1000
0100
0001
0100
1000
0010
0100
0100
,
0001
0100
1000
0100
0010
1000
0001
0001
,
1000
0100
0010
0001
1000
0001
0100
0010
,
1000
0000
0000
0001
0100
0001
0100
0000
0010
0000
1000
0000
0001
0100
0000
0100
,
0010
0000
0000
0010
1000
0000
0001
0000
0100
0000
0010
0000
0100
0000
0001
0000
,
0010
0001
0000
0001
0100
0000
0010
0000
0100
0010
0000
0010
2000
0000
3002
0000
,
1003
0100
0000
0100
1000
0000
0010
0000
0100
0001
0000
0001
0010
0000
0100
0000
,
1000
0010
1000
0010
1000
0000
0001
1000
0000
0001
1000
0000
0010
0000
0200
0000
,
0301
0000
0000
0001
0010
0000
0100
0000
1000
0000
0010
0000
0100
0000
0001
0000
,
0010
0001
0000
0001
0100
0000
0010
0000
1000
0100
0000
0100
2000
0000
3002
0203
,
0301
0010
0000
0010
0100
0000
0010
0000
0001
0100
0001
0000
1000
0100
1000
0000
,
0001
0000
0200
0300
0200
0300
1000
0000
0020
0030
0020
0030
0001
0000
0000
0000
,
1001
0000
0000
1000
0010
0000
0100
0000
0010
0000
1000
0000
0001
0000
0010
0000
,
0100
0010
0000
0010
0001
0000
1000
0000
0001
0100
0000
0100
0010
0000
1000
0000
,
0001
0010
0000
0001
0100
0000
0010
0000
1000
0100
0000
1000
0100
0000
0010
0000
,
0001
0000
0100
0010
0100
0000
1000
0000
0100
0010
0100
0000
0002
0000
2003
0000
,
3010
0000
0000
0010
0100
0000
0010
0000
1000
0000
0100
0000
0010
0000
0001
0000
,
0100
0010
0000
0010
0100
0000
0001
0000
0010
0001
0000
0001
1000
0000
1000
0000
,
0001
0010
0100
1000
0010
0100
0001
1000
,
1010
0000
0000
0101
0000
0000
1100
0000
0000
0011
0000
0000
1000
0000
0001
0000
,
1000
0000
0000
0100
0010
0000
0001
0000
0000
0100
0010
0000
1000
0000
0001
0000
,
0010
0000
0000
0001
0100
0000
0010
0000
0000
1000
0100
0000
0010
0000
0001
0000
,
1000
0000
0000
0001
0010
0000
0100
0000
0000
1000
0010
0000
0100
0000
0001
0000
,
2000
0000
0000
3020
0000
0000
2030
0000
3010
0000
0100
0000
0001
0010
0001
0010
,
0001
0000
0000
0010
0100
0000
1000
0000
0000
0010
0100
0000
0001
0000
1000
0000
,
0001
0000
0000
0100
0010
0000
1000
0000
0000
0010
0100
0000
0001
0000
0010
0000
,
0001
0000
0000
1000
0100
0000
0010
0000
0000
0100
1000
0000
0001
0000
0100
0000
,
0020
0000
0000
2030
0000
0000
3200
0000
0310
0000
0001
0000
1000
0001
1000
0001
,
1000
0000
0100
1000
0000
0000
0010
0000
0100
0001
0100
0000
0001
0000
0100
0000
,
0001
0000
0010
0001
0010
0000
0001
0000
0100
0010
0100
0000
0002
0000
1003
0100
,
1000
0000
0010
0100
0000
0000
0100
0000
0001
0000
0010
0000
0100
1000
0100
0000
,
1000
0000
0010
0100
0010
0000
0001
0000
0010
0100
0010
0000
2000
0000
3002
0000
,
0103
0000
0001
0010
0000
0000
0010
0000
0100
0000
0010
0000
0001
1000
0010
0000
,
1000
0100
1000
0100
1000
0000
0001
0000
0100
0000
0100
0000
0020
0000
0230
0000
,
0301
0000
1000
0010
0000
0000
0010
0000
0100
0000
0001
0000
1000
0001
1000
0000
,
0001
0100
0010
1000
0001
1000
1001
0000
,
0001
0100
0001
1000
0010
1000
0100
0010
,
0001
0010
0100
1000
0010
0100
0001
1000
,
0001
0010
0001
0000
1000
0010
1000
0000
0001
0100
0001
0000
1000
0010
1000
0000
,
2002
0000
0000
3003
,
1001
0000
0000
1000
0100
0000
0010
0000
0001
0000
0100
0010
0000
0010
0100
0000
,
0001
0000
1000
0010
1000
0000
0001
0000
1000
0100
1000
0000
0200
0300
0200
0300
,
0001
0010
0000
0010
0100
0000
1000
0000
0001
0100
0000
0100
0010
0000
1000
0000
,
0100
0010
0100
0010
0100
0000
1000
0001
0000
1000
0001
0000
2000
0000
3200
0000
,
0310
0000
0000
0001
0100
0000
0010
0000
0100
0001
0000
0001
0010
0000
0100
0000
,
1000
0010
0000
0100
0001
0000
1000
0000
0100
0010
0000
0010
0001
0000
2000
3002
,
1003
0100
0000
0100
1000
0000
0001
0000
0010
0001
0100
0000
0010
1000
0001
0000
,
1000
0000
0200
0300
0200
0300
0001
0000
0020
0030
0020
0030
1000
0001
1000
0000
,
1001
0000
0000
0001
0100
0000
0010
0000
1000
0100
0000
0010
1000
0000
0001
0000
,
0100
0010
0000
0001
1000
0000
0001
0000
0010
0100
0010
0100
1000
0000
1000
0000
,
0001
1000
0000
0010
1000
0000
0100
0000
0010
0100
0000
1000
0010
0000
0100
0000
,
0001
0100
0001
0100
0001
0000
1000
0100
1000
0100
1000
0000
0002
0000
0203
0000
,
0310
1000
0100
1000
0010
0100
0001
0010
,
0001
0100
1000
0100
0001
0100
0010
1000
,
1100
0000
0000
0011
0000
0000
1010
0000
0000
0101
0000
0000
0110
0000
1001
0000
,
0001
0100
0001
0100
0001
0000
1000
0010
1000
0010
1000
0000
2002
0000
0000
0000
,
3003
0000
0000
0000
;

//--------------- dance-single - Fred-104 ----------------
#NOTES:
     dance-single:
     Fred-104:
     Challenge:
     16:
     :
0000
0000
0000
0000
,
0000
0000
0000
0000
,
0000
0000
0000
0000
,
0000
0000
0000
0000
,
0000
0000
0000
0000
,
0000
0000
0000
0000
,
1000
0000
0000
0010
0000
0000
1000
0000
0000
0001
0000
0000
0100
0000
0000
0001
0000
0000
0010
0000
0100
0010
0000
0000
,
0001
0010
0001
1000
0010
0100
0001
0001
,
1000
0000
0000
0010
0000
0000
1000
0000
0000
0100
0000
0000
0010
0000
0000
0100
0000
0000
1000
0000
0001
0100
0000
0000
,
0202
0000
0000
0303
0000
0000
0010
0000
0000
2200
0000
0000
3300
0000
0000
0010
0001
1000
0001
0000
0000
0000
0000
0000
,
1000
0000
0000
0000
0000
0000
0020
0000
0000
0030
0000
0000
0020
0000
0000
0030
0000
0000
0001
0000
0000
0000
0000
0000
0200
0000
0000
0300
0000
0000
0200
0000
0000
0300
0000
0000
1000
0000
0000
0000
0001
0000
0100
0000
0000
0000
0001
0000
,
1000
0000
0200
0300
0200
0300
0001
0000
0020
0030
0020
0030
1000
0100
0010
0000
,
0001
0100
0001
0100
0010
1000
0010
1000
0100
0010
0100
0010
0001
1000
0010
0100
,
0001
0000
0000
1000
0001
0100
1000
0100
0010
1000
0001
0000
0100
0010
0000
0010
,
1000
0000
0000
1000
0001
0000
0010
0000
0100
1000
0000
0010
0100
0000
0001
0010
,
0100
0010
0000
0001
1000
0000
0010
1000
0001
0100
0000
0010
0200
0000
0302
0000
,
1003
0100
0000
0010
0001
0000
0100
0001
0010
0001
0000
1000
0010
0000
0100
0001
,
1000
0100
0001
0100
1000
0000
0001
0100
0000
1000
0100
0000
0010
0000
2000
0000
,
3001
0000
0000
0001
1000
0000
0100
0000
0001
0100
0000
0010
0001
0000
1000
0001
,
0010
0100
0000
0010
0100
0000
1000
0000
0001
0100
0000
0100
2000
0000
3002
2003
,
3001
0100
0000
0010
0100
0000
0001
0000
1000
0100
0010
0001
1000
0010
1000
0100
,
1000
0000
0100
0000
0120
0000
0031
1000
0001
1000
0001
0000
0100
0010
1000
0000
,
1200
0000
0000
1300
0010
0000
0100
0000
0001
0010
0000
1000
0001
0000
0100
1000
,
0001
1000
0000
0100
0010
0000
0001
0000
0100
0001
0010
0001
0100
0000
0100
0000
,
0001
0010
0000
1000
0010
0000
0100
0000
1000
0001
0000
0100
0010
0000
1000
0000
,
0001
0100
0001
0100
1000
0000
1000
0100
1000
0100
0001
0000
0002
2003
3020
0000
,
0130
0000
0000
0100
0010
0000
1000
0000
0100
0010
0000
0001
1000
0000
0001
0100
,
0001
0100
0000
0010
1000
0000
0010
0000
0100
0001
1000
0001
1000
0000
1000
0000
,
0001
0000
0010
0001
0000
0010
0001
0000
0100
0010
0000
0100
0010
0000
1000
0100
0000
0010
0001
0000
0100
0010
0000
2000
,
0002
0000
0003
0002
0000
3000
2000
0000
0003
0002
0000
3000
2003
0000
3002
0000
,
1003
0100
0000
0100
0001
0000
0001
0100
0000
0100
1000
0000
0001
1000
0001
1000
,
0001
0100
0000
0100
1000
0000
1000
0100
0000
0100
0001
0000
1000
0001
1000
0001
,
1000
0010
0000
0010
0001
0000
0001
0010
0000
0010
1000
0000
0001
1000
0001
1000
,
0002
0000
0000
0203
0000
0000
0320
0000
1030
0100
0010
0001
2000
3002
2003
3002
,
1003
0100
0010
0001
0100
0000
1000
0100
0001
0010
0100
0000
1000
0100
0010
0001
,
1000
0010
0100
1000
0100
0000
0001
1000
0010
0001
0010
0000
0100
0001
1000
0001
,
1000
0100
0001
0100
1000
0000
0001
0100
1000
0100
0001
0000
1000
0001
0100
0001
,
0020
0000
0000
0032
0000
0000
2003
0000
3001
0100
0010
1000
0200
0320
0230
0320
,
0130
0000
1000
0001
0010
0000
0001
0100
0001
0100
0010
0000
1000
0100
0010
0000
,
0001
1000
0001
0100
0001
0000
0100
0000
0010
1000
0100
0000
0120
0000
0031
1000
,
0001
0000
1000
0010
0000
0100
0001
1000
0001
0010
1000
0000
0010
0001
0100
0000
,
0001
0100
0001
0100
0010
0000
1000
0100
1000
0100
0010
0000
0002
0000
2003
0000
,
3001
0000
0010
0001
0000
1000
0001
1000
0010
0100
0001
0000
1000
0001
0100
0000
,
0001
0010
0000
0100
0001
0000
0100
0000
1000
0001
1000
0000
0002
0000
2003
0000
,
3001
0000
0100
0001
0000
0010
0001
1000
0001
0100
0010
0001
0010
1000
0001
0000
,
1000
0100
0001
0100
0010
0001
1000
0000
0001
0000
1000
0000
0002
0000
0000
0000
,
1003
0000
0100
0010
0100
0000
1000
0000
0010
0001
0010
0000
1000
0000
0100
0010
,
0001
0000
0100
1000
0100
0000
0001
0000
0010
0100
0010
0000
0001
0100
0010
0000
,
1000
0100
1000
0100
0010
0100
0010
0100
0010
0001
0010
0001
0010
0100
1000
0001
,
1000
0000
0001
0000
1000
0100
0000
0100
0010
0001
1000
0001
0100
0010
1000
0001
,
0010
0000
0000
1000
0010
0100
0010
0001
0010
0000
1000
0001
0100
0001
1000
0000
,
0001
0100
1000
0100
0001
0000
1000
0100
0001
0100
2000
0000
0000
0000
3000
0000
,
1000
0100
0000
0010
1000
0000
0010
0000
0001
1000
0000
0100
0010
0000
0100
0000
,
1000
0100
0010
0001
1000
0000
0001
0100
0000
1000
0100
0000
0010
0000
2000
0000
,
3001
0000
0000
0010
0001
0000
1000
0000
0001
0100
0000
0010
1000
0000
0001
0100
,
0010
0100
0000
0001
0010
0000
0100
0000
1000
0010
0100
0001
0020
0000
0032
2003
,
3001
0010
0000
0100
0001
0000
0100
0000
0010
0001
1000
0010
1000
0010
0100
0010
,
1000
0000
0001
0010
0100
0000
1000
0010
0100
0001
1000
0000
0001
1000
0001
0000
,
1001
0000
0000
1000
0010
0000
0100
0000
0001
0010
0000
0100
0010
0000
0001
1000
,
0010
0100
0000
0001
0010
0000
0001
0000
1000
0100
0001
0100
1000
0000
1000
0000
,
0001
0100
0000
0010
0001
0000
0010
1000
0001
0010
0000
0010
0100
0000
1000
0001
,
1000
0001
0100
1000
0100
0000
0010
1000
0100
0010
0001
0000
2000
3002
0023
0000
,
0031
0000
0100
0001
0000
0100
0001
0000
0010
0100
0000
1000
0100
0000
1000
0010
0000
1000
0001
0000
1000
0010
0000
1000
,
0100
0000
0000
0000
0010
0000
0001
0000
0000
0000
0100
0000
0010
0000
0000
0000
1000
0000
0100
0000
0000
0000
0010
0000
0001
0000
0000
0000
1000
0000
0010
0000
0000
0000
0100
0000
0001
0000
0000
0000
0000
0000
1000
0000
0000
0001
0000
0000
,
1000
0000
0000
1100
0000
0000
0101
0000
0000
0011
0000
0000
1010
0000
0001
0000
,
1000
0100
0001
0100
0010
0000
0001
0100
1000
0100
0010
0000
2002
0000
0000
0000
,
3003
0000
0000
0000
;

//--------------- dance-double - Fred-104 ----------------
#NOTES:
     dance-double:
     Fred-104:
     Easy:
     5:
     :
00000000
00000000
00000000
00000000
,
00000000
00000000
00000000
00000000
,
00000000
00000000
00000000
00000000
,
00000000
00000000
00000000
00000000
,
00000000
00000000
00000000
00000000
,
00000000
00000000
00000000
00000000
,
10000000
00000000
00010000
00000000
,
10000000
00000000
01000000
00100000
,
00002000
00023000
00032000
00023000
,
00030100
00000000
00000000
00000010
00000000
00000000
00001001
00000000
,
00000001
00000100
00000020
00000030
,
00001000
00000100
00000020
00000030
,
00000001
00000100
00001000
00010000
,
00002000
00000000
00003000
00000000
,
00010000
00001000
00010000
00000000
,
00001000
00100000
00001000
00000000
,
00100000
00010000
00100000
00000000
,
00010000
00000000
00000000
10000000
00000000
00000000
00010000
00000000
,
10000000
00100000
10000000
00000000
,
00100000
01000000
00100000
00000000
,
10000000
01000000
00100000
00000000
,
00001000
00010000
00001000
00010000
,
00001000
00000100
00000010
00000000
,
00000001
00001000
00000001
00000000
,
00000100
00000010
00001000
00000000
,
00000001
00000000
00000000
00000100
00000000
00000000
00000010
00000000
,
00000100
00000001
00001000
00000000
,
00000010
00001000
00010000
00000000
,
00001000
00010000
00100000
00010000
,
00001000
00000000
00000000
00001000
00000000
00000000
00010000
00000000
00000000
00010000
00000000
00000000
00011000
00000000
00000000
00000000
,
00020000
00000000
00000000
00100000
00030000
00000000
01000000
00000000
,
00200000
00000000
00000000
01000000
00300000
00000000
10000000
00000000
,
02000000
00000000
00000000
10000000
03000000
00000000
00100000
00000000
,
02000000
00000000
03001000
00010000
,
00002000
00000000
00000000
00010000
00003000
00000000
00000100
00000000
,
00002000
00000000
00000000
00000001
00003000
00000000
00001000
00000000
,
00000002
00000000
00000000
00000100
00000003
00000000
00001000
00000000
,
00020000
00000000
00130000
10000000
,
00010000
10000000
01000000
00100000
,
00010000
01000000
00200000
00300000
,
01000000
00010000
10000000
01000000
,
00010000
00001000
00020000
00030000
,
00001000
00010000
00001000
00000010
,
00000001
00001000
00000002
00000003
,
00000100
00001000
00010000
00001000
,
00020000
00000000
00000000
00030000
,
00001000
00010000
00200000
00300000
,
10000000
01000000
00200000
00300000
,
00001000
00010000
00001000
00010000
,
00002000
00000000
00020000
00033000
,
00010000
00000000
00001000
00000000
,
00010000
00000000
00000000
00000010
00000000
00000000
00001000
00000000
,
00000010
00001000
00000010
00000100
,
00000001
00000000
00000000
00000100
00000000
00000000
00000001
00000000
,
00000010
00000100
00001000
00000000
,
00000100
00010000
00001000
00000000
,
00100000
00010000
00100000
00000000
,
01000000
10000000
01000000
10000000
,
00100000
10000000
00010000
00000000
,
10000000
01000000
00100000
01000000
,
10000000
00100000
00010000
00000000
,
00001000
00000000
00000000
00010000
00000000
00000000
00001000
00000000
,
00000020
00000000
00000032
00000000
,
00002003
00000000
00003200
00000000
,
00010300
00000000
00000000
00010000
00000000
00000000
00001000
00000000
00000000
00001000
00000000
00000000
00010000
00000000
00000000
00000000
,
00001000
00000000
00000000
00010000
00000000
00000000
00022000
00000000
,
00033000
00000000
00000000
00000000
;

//--------------- dance-double - Fred-104 ----------------
#NOTES:
     dance-double:
     Fred-104:
     Medium:
     9:
     :
00000000
00000000
00000000
00000000
,
00000000
00000000
00000000
00000000
,
00000000
00000000
00000000
00000000
,
00000000
00000000
00000000
00000000
,
00000000
00000000
00000000
00000000
,
00000000
00000000
00000000
00000000
,
00001000
00010000
00001000
00000000
00100000
00010000
00100000
00000000
,
00001000
00100000
00010000
00000000
10000000
01000000
00100000
00000000
,
00001000
00010000
00000100
00000000
00001000
00000001
00000100
00000000
,
00000220
00000000
00000330
00002002
00000000
00003003
00000220
00000330
,
00000001
00000000
00000100
00000000
00001000
00010000
00100000
00000000
,
10000000
00000000
01000000
00000000
00010000
00001000
00000010
00000000
,
00000001
00000100
00000001
00000000
00001000
00000100
00010000
00000000
,
00022000
00000000
00000000
00033000
,
00011000
00000000
00010000
00000000
01000000
00100000
01000000
00000000
,
00020000
00100000
00001000
00130000
,
00001000
00010000
00002000
00000000
01000000
00000000
00003100
00000000
,
00010000
00001000
00010000
00000000
00000100
00001000
00000001
00000000
,
00001001
00000000
00001000
00000000
00000010
00010000
00001000
00000000
,
00020000
01000000
00001000
01030000
,
00001000
00010000
00100000
00000000
10000000
00010000
10000000
00000000
,
00010000
01000000
01000000
00000000
10000000
01000000
01000000
00000000
,
10010000
00000000
10000000
00000000
01000000
00100000
00001000
00000000
,
00020000
00001000
00100000
00031000
,
00010000
00001000
00020000
00000000
01000000
00000000
00030100
00000000
,
00010000
00001000
00000010
00000000
00001000
00010000
00100000
00000000
,
00011000
00000000
00010000
00000000
00001000
00000100
00000001
00000000
,
00002000
00000001
00000100
00003001
,
00000100
00000010
00000100
00000000
00010000
00001000
00010000
00000000
,
00002000
00000000
00000000
00023000
00000000
00000000
00032000
00000000
00000000
00023000
00000000
00000000
00031000
00000000
00010000
00000000
,
00100000
00000000
01000000
10000000
00000000
00010000
10000000
00000000
,
10010000
00000000
10000000
01000000
00000000
00100000
00001000
00000000
,
00010000
00000000
00000100
00001000
00000000
00000001
00000010
00000000
,
00000001
00000000
00000000
00000001
00000000
00000000
00000001
00000000
00000100
00000000
00000010
00000000
00000100
00000000
00000000
00000000
,
00001001
00000000
00000001
00000010
00000000
00001000
00010000
00000000
,
00011000
00000000
00001000
00010000
00000000
01000000
10000000
00000000
,
10010000
00000000
10000000
00100000
00000000
00010000
00100000
00000000
,
01000000
00000000
00000000
01000000
00000000
00000000
01000000
00000000
00010000
00000000
10000000
00000000
00020000
00000000
00000000
00000000
,
00130000
00000000
01000000
00001000
00010000
00001000
00100000
00000000
,
00001000
00000000
00010000
00000100
00001000
00000100
00000020
00000000
,
00000031
00000000
00000100
00001000
00010000
00001000
00020000
00000000
,
01030000
10000000
01000000
00000000
00010000
10000000
00020000
00000000
,
10030000
00100000
01000000
00000000
00010000
00100000
00001000
00000000
,
00010000
00001000
00010000
00001000
00000100
00000010
00000200
00000000
,
00000310
00000001
00001000
00000000
00000001
00000010
00001000
00010000
,
00002000
00000000
00000000
00003000
,
00010000
00100000
01000000
00000000
00100000
00010000
00001000
00000000
,
00010000
00001000
00000010
00000000
00001000
00010000
00100000
00000000
,
00010000
00001000
00000100
00000000
00001000
00010000
01000000
00000000
,
02200000
00000000
00000000
03300000
,
10000000
00000000
00000000
00000000
01000000
00000000
00100000
00000000
00001000
00000000
00000000
00010000
00000000
00000000
00001000
00000000
,
00010000
00001000
00000100
00001000
00010000
01000000
00020000
00001000
,
00031000
00000000
00000100
00000000
00001000
00010000
00100000
00000000
,
00010000
00001000
00000010
00001000
00010000
00001000
00000100
00000000
,
00000110
00000000
00000010
00000000
00000001
00000100
00001000
00000000
,
00020000
00001000
00100000
00031000
,
00010000
00001000
00000010
00000000
00001000
00010000
00100000
00000000
,
00010000
00001000
00000100
00000000
00001000
00010000
01000000
00000000
,
01100000
00000000
00100000
00000000
10000000
00100000
10000000
00000000
,
00200000
00000000
01000000
00000000
01300000
00000000
00001000
00010000
,
00001000
00000000
00010000
00000000
00000100
00001000
00000001
00000000
,
00001000
00000100
00000010
00000001
00000100
00000010
00000100
00000000
,
00000001
00000010
00000100
00000000
00001000
00000100
00010000
00000000
,
00001000
00100000
00010000
00000000
00100000
01000000
10000000
00000000
,
10010000
00000000
00000000
00110000
00000000
00000000
10010000
00000000
00000000
10100000
00000000
00000000
01100000
00000000
00100000
00000000
,
10000000
01000000
00010000
00001000
00000010
00000001
00002002
00000000
,
00003003
00000000
00000000
00000000
;

//--------------- dance-double - Fred-104 ----------------
#NOTES:
     dance-double:
     Fred-104:
     Hard:
     13:
     :
00000000
00000000
00000000
00000000
,
00000000
00000000
00000000
00000000
,
00000000
00000000
00000000
00000000
,
00000000
00000000
00000000
00000000
,
00000000
00000000
00000000
00000000
,
00000000
00000000
00000000
00000000
,
10000000
01000000
00100000
00010000
01000000
00100000
01000000
01000000
,
00001000
00010000
00000100
00010000
00001000
01000000
00001000
00001000
,
00010000
00000100
00001000
00000100
00000010
00000001
00001000
00000001
,
00000202
00000000
00000303
00002200
00000000
00003300
00022000
00033000
,
00001000
00000000
00010000
00000000
00100000
00000000
10000000
00000000
01000000
00000000
00010000
00000000
00001000
00010000
00001000
00000000
,
00010000
00000000
00001000
00000000
00000100
00000000
00000001
00000000
00000010
00000000
00000100
00000000
00010000
00001000
00010000
00000000
,
00001000
00100000
00010000
00100000
00001000
00010000
00000010
00001000
,
00000001
00000000
00000000
00000010
00000001
00001000
00000001
00000000
00000100
00000000
00000010
00000000
00001000
00000100
00000000
00010000
,
00001000
00000000
00000000
00001000
00010000
00000000
01000000
00000000
00010000
00000000
00000000
00010000
00001000
00000000
00010000
00000000
,
00000100
00001000
00000000
00000100
00001000
00000000
00000001
00000000
00000100
00000010
00000000
00000010
00000200
00000000
00000302
00000000
,
00001003
00000100
00000000
00000010
00000001
00000000
00000100
00000000
00000010
00001000
00000000
00000100
00010000
00000000
00001000
00000000
,
00010000
00001000
00010000
00001000
00010000
00000000
00001000
00100000
00000000
01000000
10000000
00000000
00020000
00000000
02030000
00000000
,
03100000
00000000
00000000
00100000
10000000
00000000
01000000
00000000
00100000
00000000
00010000
00000000
00100000
00000000
01000000
00000000
,
00100000
00001000
00000000
00010000
00001000
00000000
00000010
00000000
00000001
00000100
00000000
00000010
00000200
00000000
00000302
00002003
,
00003001
00000010
00000000
00000010
00000100
00000000
00001000
00000000
00000100
00010000
00001000
00000000
00100000
00010000
10000000
00000000
,
00010000
00000000
00200000
00300000
00200000
00300000
10000000
00000000
02000000
03000000
02000000
03000000
00010000
10000000
00010000
00000000
,
10010000
00000000
00000000
10000000
01000000
00000000
00100000
00000000
01000000
00000000
00100000
00000000
00001000
00000000
00010000
00000000
,
00001000
00010000
00000000
00001000
00000010
00000000
00000100
00000000
00000001
00000010
00000000
00000100
00000010
00000000
00000001
00000000
,
00001000
00000010
00000000
00000100
00000010
00000000
00001000
00000000
00000100
00010000
00000000
00001000
00010000
00000000
00001000
00000000
,
00100000
00000000
00001000
00010000
00001000
00000000
00000010
00000000
00001000
00010000
00001000
00000000
00200000
00000000
00302000
00000000
,
00013000
00000000
00000000
00001000
00010000
00000000
00000100
00000000
00001000
00000000
00000100
00000000
00000010
00000000
00000001
00000000
,
00000100
00000001
00000000
00000001
00000010
00000000
00000001
00000000
00000010
00000100
00000000
00000100
00010000
00000000
00010000
00000000
,
00001000
00010000
00100000
10000000
00010000
10000000
01000000
00100000
,
00110000
00000000
00000000
00101000
00000000
00000000
00010010
00000000
00000000
00001010
00000000
00000000
00000010
00000000
00000100
00000000
,
00000001
00000000
00000000
00000100
00001000
00000000
00010000
00000000
00000000
01000000
10000000
00000000
00010000
00000000
10000000
00000000
,
01000000
00000000
00000000
00100000
00001000
00000000
00010000
00000000
00000000
00000100
00001000
00000000
00000010
00000000
00000100
00000000
,
00000001
00000000
00000000
00000010
00001000
00000000
00010000
00000000
00000000
00100000
10000000
00000000
00010000
00000000
01000000
00000000
,
00200000
00000000
00000000
02300000
00000000
00000000
03020000
00000000
10030000
00000000
01000000
00000000
10000000
00100000
10000000
00100000
,
01000000
00000000
00000000
00100000
00001000
00000000
00010000
00000000
00000000
00000100
00000010
00000000
00000001
00000000
00001000
00000000
,
00000001
00000000
00000000
00000100
00000010
00000000
00010000
00000000
00000000
00001000
00100000
00000000
01000000
00000000
10000000
00000000
,
00010000
00000000
00000000
01000000
10000000
00000000
00010000
00000000
00000000
00100000
10000000
00000000
00010000
00000000
01000000
00000000
,
00200000
00000000
00000000
02300000
00000000
00000000
03002000
00000000
00013000
00000000
00000100
00000000
00001000
00000001
00001000
00000001
,
00001000
00000000
00000010
00000100
00000000
00000000
00000010
00000000
00001000
00000100
00000010
00000000
00000001
00000000
00000100
00000000
,
00000001
00000000
00000010
00000000
00001000
00000000
00010000
00000000
01000000
00000000
10000000
00000000
00020000
00000000
10030000
00010000
,
10000000
00000000
01000000
00100000
00000000
00000000
00010000
00000000
01000000
00000000
00001000
00000000
00010000
00000000
00001000
00000000
,
00010000
00001000
00000010
00000001
00000100
00001000
00020000
00032000
,
00013000
00000000
00001000
00100000
00000000
00000000
00010000
00000000
00100000
00000000
01000000
00000000
00100000
00000000
00010000
00000000
,
10000000
00100000
10000000
00100000
01000000
00000000
00010000
00000000
10000000
00000000
10000000
00000000
00200000
00000000
02300000
00000000
,
03010000
00000000
00100000
00001000
00000000
00000000
00010000
00000000
00000100
00000000
00001000
00000000
00000001
00000100
00000001
00000000
,
00001000
00000100
00000010
00000001
00000100
00001000
00011000
00000000
,
00001000
00010000
00100000
10000000
01000000
00010000
00001000
00010000
,
00001000
00000010
00000001
00000100
00001000
00010000
00001000
00010000
,
00001000
00100000
00010000
00000000
10000000
00100000
01000000
00000000
00010000
10000000
01000000
00000000
00100000
00010000
00001000
00000000
,
00022000
00000000
00000000
00033000
,
00000110
00000000
00000000
00000010
00000001
00000000
00001000
00000000
00000001
00000000
00000100
00000010
00000000
00000010
00000100
00000000
,
00000001
00000100
00000001
00000100
00000010
00000000
00001000
00000100
00001000
00000100
00000010
00000000
00000002
00000000
00002003
00000000
,
00003001
00000000
00000000
00000010
00000100
00000000
00001000
00000000
00000100
00000010
00000000
00000001
00000100
00000000
00000010
00000000
,
00001000
00000100
00001000
00000100
00001000
00000000
00000100
00010000
00000000
00001000
00010000
00000000
00002000
00000000
00203000
00000000
,
00310000
00000000
00000000
00010000
01000000
00000000
00100000
00000000
01000000
00100000
00000000
00100000
10000000
00000000
01000000
00000000
,
00100000
01000000
00000000
01000000
10000000
00000000
00010000
00000000
01000000
00100000
00000000
10000000
00100000
00000000
02000000
03020000
,
01030000
00100000
00000000
00100000
01000000
00000000
00001000
00000000
00010000
00001000
00010000
00000000
00000100
00001000
00000100
00000000
,
00001000
00000000
00000010
00000000
00000001
00000000
00001000
00000000
00000100
00000000
00000001
00000000
00001000
00000001
00001000
00000000
,
00001001
00000000
00000000
00000001
00000010
00000000
00000100
00000000
00001000
00000100
00000000
00010000
00001000
00000000
00010000
00000000
,
00001000
00100000
00000000
00001000
00010000
00000000
00001000
00000000
01000000
00100000
01000000
00100000
01000000
00000000
00010000
00000000
,
10000000
01000000
00000000
00100000
00010000
00000000
01000000
00000000
00010000
00100000
00000000
00010000
01000000
00000000
00100000
00000000
,
10000000
01000000
10000000
01000000
10000000
00000000
00010000
01000000
00010000
01000000
00010000
00000000
02000000
00000000
03200000
00000000
,
10300000
01000000
00100000
00001000
00010000
00000100
00000010
00000001
,
00000100
00001000
00010000
00100000
10000000
00010000
01000000
00100000
,
10100000
00000000
00000000
01100000
00000000
00000000
01010000
00000000
00000000
00101000
00000000
00000000
00001000
00000000
00010000
00000000
,
00000010
00001000
00000010
00001000
00000100
00000000
00000010
00000001
00000010
00000001
00000100
00000000
00000220
00000000
00000000
00000000
,
00000330
00000000
00000000
00000000
;

//--------------- dance-double - Fred-104 ----------------
#NOTES:
     dance-double:
     Fred-104:
     Challenge:
     16:
     :
00000000
00000000
00000000
00000000
,
00000000
00000000
00000000
00000000
,
00000000
00000000
00000000
00000000
,
00000000
00000000
00000000
00000000
,
00000000
00000000
00000000
00000000
,
00000000
00000000
00000000
00000000
,
00000001
00000000
00000000
00000010
00000000
00000000
00001000
00000000
00000000
00000001
00000000
00000000
00000100
00000000
00000000
00001000
00000000
00000000
00000001
00000000
00000100
00000001
00000000
00000000
,
00001000
00000100
00000010
00001000
00010000
00100000
10000000
10000000
,
00010000
00000000
00000000
01000000
00000000
00000000
00100000
00000000
00000000
01000000
00000000
00000000
10000000
00000000
00000000
01000000
00000000
00000000
00010000
00000000
10000000
00010000
00000000
00000000
,
02200000
00000000
00000000
03300000
00000000
00000000
00001000
00000000
00000000
00022000
00000000
00000000
00033000
00000000
00000000
00000010
00000100
00000010
00000100
00000000
00000000
00000000
00000000
00000000
,
00000001
00000000
00000000
00000000
00000000
00000000
00000200
00000000
00000000
00000300
00000000
00000000
00000200
00000000
00000000
00000300
00000000
00000000
00001000
00000000
00000000
00000000
00000000
00000000
00000020
00000000
00000000
00000030
00000000
00000000
00000020
00000000
00000000
00000030
00000000
00000000
00000001
00000000
00000000
00000000
00000100
00000000
00000010
00000000
00000000
00000000
00001000
00000000
,
00000100
00000000
00002000
00003000
00002000
00003000
01000000
00000000
00020000
00030000
00020000
00030000
00001000
00010000
00001000
00000000
,
00010000
00100000
00010000
00100000
01000000
10000000
01000000
10000000
00010000
01000000
00010000
01000000
00100000
10000000
00100000
10000000
,
01000000
00000000
00000000
00100000
00001000
00010000
00001000
00000010
00000001
00001000
00000001
00000000
00000100
00000010
00000000
00000010
,
00001000
00000000
00000000
00000001
00000100
00000000
00000010
00000000
00001000
00000010
00000000
00000001
00000010
00000000
00001000
00000001
,
00000100
00000001
00000000
00000010
00000100
00000000
00010000
00001000
00010000
00100000
00000000
01000000
00200000
00000000
00320000
00000000
,
00031000
00010000
00000000
00001000
00010000
00000000
00001000
00000010
00000100
00000010
00000000
00001000
00000100
00000000
00010000
00001000
,
00010000
01000000
00010000
01000000
00010000
00000000
10000000
01000000
00000000
00010000
01000000
00000000
10000000
00000000
00020000
00000000
,
10030000
00000000
00000000
01000000
00100000
00000000
00010000
00000000
01000000
00100000
00000000
00100000
01000000
00000000
00010000
10000000
,
00010000
00100000
00000000
01000000
00100000
00000000
00010000
00000000
01000000
00001000
00000000
00010000
00002000
00000000
00003200
00000320
,
00000130
00000001
00000000
00000010
00000001
00000000
00000010
00000000
00000100
00001000
00000100
00010000
00001000
00100000
00010000
00100000
,
01000000
00000000
10000000
00000000
12000000
00000000
13000000
00100000
01000000
00010000
10000000
00000000
01000000
00100000
00001000
00000000
,
00012000
00000000
00000000
00013000
00000010
00000000
00001000
00000000
00000100
00000010
00000000
00000010
00000001
00000000
00001000
00000001
,
00000010
00000001
00000000
00000001
00000100
00000000
00000010
00000000
00001000
00010000
00001000
00010000
01000000
00000000
00100000
00000000
,
10000000
00010000
00000000
10000000
01000000
00000000
00100000
00000000
01000000
10000000
00000000
00100000
01000000
00000000
00010000
00000000
,
01000000
00010000
01000000
00010000
00100000
00000000
00001000
00010000
00000010
00001000
00000010
00000000
00002000
00003002
00000203
00000000
,
00000301
00000000
00000000
00000010
00000100
00000000
00000010
00000000
00000001
00000100
00000000
00001000
00000100
00000000
00000001
00000010
,
00000001
00000100
00000000
00000010
00001000
00000000
00010000
00000000
00001000
00100000
00010000
10000000
00010000
00000000
01000000
00000000
,
00100000
00000000
10000000
01000000
00000000
00100000
00001000
00000000
00010000
00000100
00000000
00001000
00000010
00000000
00000100
00000001
00000000
00001000
00000100
00000000
00000010
00000001
00000000
00002000
,
00000002
00000000
00000003
00000002
00000000
00003000
00002000
00000000
00000003
00000002
00000000
00003000
00002003
00000000
00003002
00000000
,
00001003
00000100
00000000
00000010
00000001
00000000
00001000
00000010
00000000
00000100
00000001
00000000
00000100
00000010
00000100
00010000
,
00001000
00100000
00000000
00100000
00010000
00000000
01000000
00100000
00000000
00100000
10000000
00000000
00010000
01000000
00010000
01000000
,
00100000
10000000
00000000
10000000
01000000
00000000
00100000
00001000
00000000
00001000
00010000
00000000
00001000
00010000
00001000
00010000
,
00002000
00000000
00000000
00023000
00000000
00000000
00030020
00000000
00001030
00000100
00000010
00000001
00000200
00000320
00000230
00000320
,
00001030
00000001
00000100
00001000
00010000
00000000
00001000
00010000
00100000
10000000
00010000
00000000
10000000
01000000
00010000
01000000
,
10000000
01000000
00010000
00001000
00010000
00000000
00001000
00010000
00001000
00000010
00000001
00000000
00001000
00000001
00000100
00000010
,
00001000
00000100
00000010
00000100
00001000
00000000
00010000
01000000
00100000
01000000
00010000
00000000
00001000
00010000
00001000
00010000
,
00002000
00000000
00000000
00203000
00000000
00000000
00320000
00000000
10030000
01000000
00100000
00010000
02000000
03200000
02300000
03200000
,
10300000
00000000
00010000
00100000
00010000
00000000
01000000
00100000
01000000
00010000
01000000
00000000
00010000
10000000
00100000
00000000
,
10000000
00010000
01000000
00001000
00010000
00000000
00001000
00000000
00010000
00001000
00000010
00000000
00000210
00000000
00000301
00001000
,
00000001
00000000
00000100
00000010
00000000
00001000
00000001
00000010
00000100
00001000
00000100
00000000
00000010
00000001
00001000
00000000
,
00000010
00010000
00001000
00010000
00100000
00000000
01000000
00010000
00001000
00010000
00000100
00000000
00020000
00000000
00032000
00000000
,
00013000
00000000
00001000
00100000
00000000
00010000
10000000
00100000
01000000
00010000
10000000
00000000
00010000
00100000
01000000
00000000
,
10000000
00100000
00000000
01000000
00010000
00000000
10000000
00000000
01000000
00100000
00001000
00000000
00020000
00000000
00032000
00000000
,
00013000
00000000
00000010
00001000
00000000
00000010
00000100
00000010
00001000
00000100
00000010
00000001
00000100
00000010
00000100
00000000
,
00000001
00000010
00000100
00000010
00000001
00000100
00001000
00000000
00010000
00000000
00100000
00000000
20000000
00000000
00000000
00000000
,
30010000
00000000
00100000
10000000
00100000
00000000
00010000
00000000
00001000
00010000
00001000
00000000
00010000
00000000
01000000
10000000
,
01000000
00000000
00010000
01000000
00010000
00000000
00001000
00000000
00010000
00001000
00000010
00000000
00001000
00010000
00001000
00000000
,
00010000
00000010
00001000
00000010
00000100
00000001
00000010
00000001
00001000
00000001
00000100
00000001
00000010
00000001
00001000
00000001
,
00000100
00000000
00000001
00000000
00000010
00000100
00000000
00000100
00010000
00001000
00100000
00001000
00010000
00001000
01000000
00010000
,
00100000
00000000
00000000
10000000
00100000
01000000
00100000
00010000
00100000
00000000
10000000
00010000
10000000
01000000
00100000
00000000
,
00010000
00100000
01000000
00100000
00010000
00000000
00001000
00000010
00000100
00000010
00002000
00000000
00000000
00000000
00003000
00000000
,
00010000
00001000
00000000
00100000
01000000
00000000
00100000
00000000
00010000
00000100
00000000
00001000
00000100
00000000
00000010
00000000
,
00000001
00000100
00000001
00000100
00001000
00000000
00000100
00000001
00000000
00000010
00000100
00000000
00000010
00000000
00000002
00000000
,
00001003
00000000
00000000
00000100
00010000
00000000
00001000
00000000
00010000
01000000
00000000
01000000
10000000
00000000
00010000
00100000
,
01000000
00100000
00000000
00100000
00010000
00000000
00001000
00000000
00010000
00000100
00001000
00000100
00000020
00000000
00000032
00002003
,
00003001
00000100
00000000
00001000
00000100
00000000
00000010
00000000
00001000
00000001
00001000
00000010
00000100
00001000
00010000
00001000
,
00010000
00000000
00001000
00100000
00010000
00000000
01000000
00100000
10000000
00100000
01000000
00000000
00010000
10000000
00010000
00000000
,
10010000
00000000
00000000
10000000
01000000
00000000
00010000
00000000
01000000
00100000
00000000
00010000
10000000
00000000
01000000
00100000
,
01000000
00010000
00000000
01000000
10000000
00000000
00010000
00000000
01000000
00001000
00010000
00001000
00000010
00000000
00000100
00000000
,
00000001
00000010
00000000
00000100
00001000
00000000
00000001
00001000
00000100
00000010
00000000
00000010
00000001
00000000
00000100
00000010
,
00001000
00000100
00010000
00001000
00100000
00000000
00010000
01000000
00001000
00010000
00000010
00000000
00020000
00032000
00023000
00000000
,
00031000
00000000
00100000
00010000
00000000
01000000
00010000
00000000
00100000
01000000
00000000
10000000
01000000
00000000
00100000
00010000
00000000
01000000
00100000
00000000
01000000
00001000
00000000
00010000
,
00001000
00000000
00000000
00000000
00010000
00000000
00000010
00000000
00000000
00000000
00001000
00000000
00000100
00000000
00000000
00000000
00001000
00000000
00000001
00000000
00000000
00000000
00000010
00000000
00000100
00000000
00000000
00000000
00000010
00000000
00000001
00000000
00000000
00000000
00001000
00000000
00000001
00000000
00000000
00000000
00000000
00000000
00000100
00000000
00000000
00000010
00000000
00000000
,
00001000
00000000
00000000
00001001
00000000
00000000
00010010
00000000
00000000
01001000
00000000
00000000
10010000
00000000
00010000
00000000
,
10000000
01000000
00010000
00001000
00000010
00000000
00000001
00000100
00001000
00010000
00100000
00000000
20020000
00000000
00000000
00000000
,
30030000
00000000
00000000
00000000
;
