#VERSION:0.83;
#TITLE:世界の果てに約束の凱歌を -ReUnion-;
#ARTIST:OSTER project feat. かなたん;
#TITLETRANSLIT:Sekai no hate ni yakusoku no gaika wo -ReUnion-;
#ARTISTTRANSLIT:OSTER project feat. Kanata.N;
#GENRE:BRAVE ANTHEM;
#BANNER:Sekai no hate ni yakusoku no gaika wo -ReUnion-.png;
#BACKGROUND:Sekai no hate ni yakusoku no gaika wo -ReUnion--bg.png;
#CDTITLE:./CDTitles/bm IIDX 28 BISTROVER.png;
#MUSIC:Sekai no hate ni yakusoku no gaika wo -ReUnion-.ogg;
#SAMPLESTART:88.263;
#SAMPLELENGTH:15;
#BPMS:0=200,264=100,279=200;
#STOPS:279=0.3;
#BGSTAGE:31;

//--------------- dance-single - Fred-104 ----------------
#NOTEDATA:;
#STEPSTYPE:dance-single;
#DESCRIPTION:Fred-104;
#DIFFICULTY:Beginner;
#METER:3;
#CREDIT:Fred-104;
#NOTES:
0000
0000
0000
0000
,
0000
0000
0000
0000
,
0000
0000
0000
0000
,
0000
0000
0000
0000
,
0000
0000
0000
0000
,
1000
0000
0000
0000
,
0000
0000
0000
0000
,
0001
0000
0000
0000
,
0000
0000
0000
0000
,
1000
0000
0000
1000
,
0000
0000
1000
0000
,
0001
0000
0000
0001
,
0000
0000
0001
0000
,
1000
0000
0000
1000
,
0000
0000
1000
0000
,
0001
0000
0000
0000
,
0001
0000
0000
0000
,
1000
0000
0000
1000
,
0000
0000
1000
0000
,
0001
0000
0000
0001
,
0000
0000
0001
0000
,
0100
0000
0000
0100
,
0000
0000
0100
0000
,
0010
0000
0000
0010
,
0000
0000
0010
0000
,
0110
0000
0000
0000
,
0000
0000
0000
0000
,
0001
0000
0000
0000
,
0000
0000
0000
0000
,
1000
0000
0000
0000
,
0001
0000
0000
0000
,
1000
0000
0000
0000
,
0001
0000
0000
0000
,
2000
0000
0000
3000
,
0001
0000
0000
0000
,
0010
0000
0000
0000
,
0100
0000
0000
0000
,
1000
0000
0000
0000
,
0001
0000
0000
0000
,
1000
0000
0000
0000
,
0001
0000
0000
0000
,
1000
0000
0000
0000
,
0001
0000
0000
0000
,
1000
0000
0000
0000
,
0010
0000
0000
0000
,
1000
0000
0000
0000
,
0001
0000
0000
0000
,
1000
0000
0000
0000
,
0001
0000
0000
0000
,
1000
0000
0000
0000
,
0001
0000
0000
0000
,
0000
0000
0000
0000
,
1000
0000
0000
0000
,
0000
0000
0000
0000
,
0001
0000
0001
0000
,
1000
0000
1000
0000
,
0001
0000
0001
0000
,
1000
0000
1000
0000
,
0001
0000
0000
0000
,
1000
0000
0000
0000
,
0001
0000
0000
0000
,
0100
0000
0000
0000
,
0001
0000
0000
0000
,
1000
0000
0000
0000
,
0001
0000
0001
0000
,
1000
0000
1000
0000
,
2000
0000
0000
0000
,
0000
0000
0000
3000
,
0002
0000
0000
0000
,
0000
0000
0000
0003
,
1000
0000
0000
0000
,
0001
0000
0000
0000
,
1000
0000
0000
0000
,
0010
0000
0000
0000
,
1000
0000
0000
0000
,
0001
0000
0000
0000
,
0010
0000
0000
0000
,
0100
0000
0000
0000
,
0100
0000
0000
0000
,
1000
0000
0000
0000
,
0001
0000
0000
0000
,
1000
0000
0000
0000
,
0001
0000
0000
0000
,
1000
0000
0000
0000
,
0001
0000
0000
0000
,
1000
0000
0000
0000
,
2002
0000
0000
0000
,
0000
0000
0000
0000
,
0000
0000
0000
0000
,
3003
0000
0000
0000
,
0001
0000
0000
0001
,
0000
0000
0001
0000
,
1000
0000
1000
0000
,
0001
0001
0001
0001
,
2002
0000
0000
0000
,
0000
0000
0000
0000
,
0000
0000
0000
0000
,
0000
0000
0000
0000
,
3003
0000
0000
0000
;

//--------------- dance-single - Fred-104 ----------------
#NOTEDATA:;
#STEPSTYPE:dance-single;
#DESCRIPTION:Fred-104;
#DIFFICULTY:Easy;
#METER:9;
#CREDIT:Fred-104;
#NOTES:
0000
0000
0000
0000
,
0000
0000
0000
0000
,
0000
0000
0000
0000
,
0000
0000
0000
0000
,
0000
0000
0000
0000
,
1000
0000
0001
0000
,
0100
0000
0010
0100
,
0110
0000
1001
0000
,
0001
0100
0010
1000
,
0001
0000
0000
0010
0000
0000
0100
0000
,
0000
1000
0000
0000
0010
0100
0010
0000
,
1000
0000
0000
0100
0000
0000
0010
0000
,
0000
0001
0000
0000
0100
0010
0100
0000
,
0001
0000
0000
0100
0000
0000
0010
0000
,
0000
1000
0000
0000
0100
0010
0100
0000
,
1000
0000
0000
0001
0000
0100
0010
0100
,
0000
0010
0000
0010
0000
0010
0100
0000
,
0001
0000
0000
0010
0000
0000
1000
0000
,
0000
0010
0000
0000
0001
1000
0001
0000
,
1000
0000
0000
0010
0000
0000
0001
0000
,
0000
0010
0000
0000
1000
0001
1000
0000
,
0001
0000
0000
0100
0000
0000
1000
0000
,
0000
0100
0000
0000
0001
1000
0001
0000
,
0010
0000
0000
0100
0000
0000
1000
0000
,
0000
0001
1000
0000
0001
0100
0001
0000
,
2001
0000
3200
0000
,
0320
0000
0000
0032
0000
0000
0000
0000
,
1003
0000
0001
0000
0100
0100
0000
0010
,
0000
0100
0000
0001
0000
1001
0000
0000
,
1000
0000
0000
0100
0001
0000
0000
0100
,
1000
0000
0000
0002
0000
0000
0000
0000
,
0103
0000
0100
0000
0010
0010
0000
0100
,
0000
0100
0000
0010
0000
0110
0000
0000
,
2002
0000
0000
3003
,
0001
0010
0001
0001
,
1000
0000
0001
0000
0100
0000
0010
1000
,
0010
0100
0100
0001
,
1000
0000
0100
0000
0010
0000
0001
0010
,
0001
1000
0001
0001
,
0100
0000
0010
0000
1000
0000
0100
1000
,
0100
0010
0001
1000
,
0001
0000
0100
0010
0100
0000
0010
0000
,
1001
1000
0100
0010
,
0001
0000
1000
0000
0010
0000
0100
0010
,
0100
0001
0010
0100
,
1000
0000
0001
0000
0100
0010
0100
0000
,
0001
0010
0100
0010
,
0001
0000
1000
0001
1000
0000
0100
0000
,
0010
0010
0001
0001
,
1000
0010
1000
0000
0001
0010
0001
0000
,
1000
0000
0000
0100
0000
0000
0010
0000
,
0000
0001
0000
0000
1000
0000
0001
0000
,
0100
0000
0000
0010
0000
0000
1000
0000
,
0000
0001
0000
0000
0010
0000
0100
0000
,
1100
0000
0101
0000
,
0011
0000
1010
1000
,
0001
0010
0100
1000
,
2002
3003
0220
0330
,
0002
0000
0023
0000
,
0130
0000
1000
0000
0001
0000
0100
0010
,
0100
0000
0000
0001
0000
0000
1000
0000
,
0100
0100
0010
0001
,
0011
0000
0000
0011
0000
0000
0001
0000
,
1010
0000
0000
1010
0000
0000
1000
0000
,
0001
0001
0100
0001
,
1000
0100
0010
0001
,
2002
0000
0000
0000
,
0000
0000
0000
3003
,
2000
0000
3002
0000
0013
0010
0001
0000
,
1000
0000
0010
0000
0100
0100
0000
0100
0000
0001
0000
1001
0000
0000
0000
0000
,
1000
1000
0100
0010
,
0001
0001
1000
1000
,
0001
0001
0100
0100
,
0010
0000
0010
0000
0100
0001
0100
0000
,
0010
0000
1000
0100
,
0010
0000
0001
0100
,
0010
0000
1000
0000
,
0001
0000
1000
0000
0001
1000
0001
0000
,
0010
0010
0100
1000
,
0001
0001
0100
0010
,
0100
0001
1000
0100
,
1000
0100
0001
0100
,
1000
0000
0001
0000
,
0100
0010
0100
0100
,
0001
1000
0001
0100
,
0020
0000
0200
0330
,
2002
0000
0000
0000
,
0000
0000
0000
0000
,
0000
0000
0000
0000
,
0000
0000
0000
3003
,
1000
0000
0000
0100
0000
0000
0001
0000
,
0000
0010
0000
0000
1000
0000
0100
0000
,
0010
0000
0010
0000
0001
0000
1000
1000
,
0000
0001
0000
0100
0000
0010
0100
0000
,
2002
0000
0000
0000
,
0000
0000
0000
0000
,
0000
0000
0000
0000
,
0000
0000
0000
0000
,
3003
0000
0000
0000
;

//--------------- dance-single - Fred-104 ----------------
#NOTEDATA:;
#STEPSTYPE:dance-single;
#DESCRIPTION:Fred-104;
#DIFFICULTY:Medium;
#METER:13;
#CREDIT:Fred-104;
#NOTES:
0000
0000
0000
0000
,
0000
0000
0000
0000
,
0000
0000
0000
0000
,
0000
0000
0000
0000
,
0000
0000
0000
0000
,
1001
0000
0110
0000
,
1000
0000
0001
0100
0010
0000
0110
0000
,
1000
0100
1000
0000
0001
0100
0001
0000
,
1000
0001
1000
0001
1000
0001
1000
0000
,
0001
0010
0000
0010
0100
0000
0100
1000
,
0000
1000
0001
0000
0110
0000
1001
0000
,
1000
0010
0000
0010
0100
0000
0100
0001
,
0000
0001
1000
0000
1100
0000
0011
0000
,
0001
0010
0000
0100
1000
0000
0001
0100
,
0000
0010
1000
0000
0110
0000
1001
0000
,
0001
0001
0000
1000
0100
0010
0100
0010
,
0000
0110
0000
0110
0000
0001
1000
0000
,
0001
0010
0000
0100
1000
0000
0010
1000
,
0000
0100
0010
0000
0001
1000
0010
0000
,
1000
0001
0000
0100
0010
0000
0100
0001
,
0000
0010
0100
0000
1000
0001
0100
0000
,
0001
1000
0000
0100
1000
0000
0010
0100
,
0000
0010
1000
0000
0100
0010
0001
0000
,
0010
0100
0000
0100
0010
0000
0010
0010
,
0000
0100
1000
0001
0100
0010
1000
0000
,
1002
0000
0000
1003
0200
0000
0000
0310
,
0100
0001
0100
2000
0000
0000
0000
0000
,
3001
0000
0010
0000
1000
0001
0000
0100
,
0000
1000
0000
0001
0000
1001
0000
0000
,
1000
0000
0100
0001
0100
0000
1000
0001
,
0100
1000
0100
0001
0000
0000
0000
1000
,
0001
0000
0010
0000
1000
0001
0000
0100
,
0000
0010
0001
1000
0001
0100
0010
1000
,
0002
0000
0000
0003
,
1000
0100
1000
0100
0010
0001
0010
0001
,
1000
0010
0100
0001
0100
0010
1000
0000
,
0001
0010
0001
0010
0100
1000
0100
1000
,
0001
0010
0100
1000
0001
0100
0010
0000
,
1000
0010
1000
0010
0100
0001
0100
0001
,
0010
0100
1000
0001
0100
0010
0100
0000
,
0001
1000
0100
0010
0001
1000
0010
1000
,
0001
0000
0010
0100
1000
0000
1001
0000
,
0001
0100
0010
0100
0001
0100
0010
1000
,
0001
0010
0100
0010
0100
1000
0001
0000
,
1000
0100
1000
0001
1000
0100
1000
0001
,
0100
0010
1000
0001
0010
0100
0010
0000
,
0001
1000
0010
1000
0001
1000
0100
1000
,
0001
0100
0010
1000
0100
0010
0001
0000
,
0100
0010
0100
0010
1000
0001
1000
0001
,
0010
0100
1000
0001
0100
0010
0100
0000
,
0001
0010
0000
1000
0010
0000
0100
0001
,
0000
0100
1000
0000
0110
0000
1001
0000
,
1000
0010
0000
0001
0010
0000
0100
1000
,
0000
0100
0001
0000
0110
0000
1001
0000
,
0001
0000
0010
0100
1000
0000
1100
0000
,
1001
0000
0001
0100
0010
0000
0110
0000
,
1010
0101
1100
0011
,
2002
0000
3003
0100
0220
0000
0330
0000
,
2000
0010
3002
0100
,
2003
0000
0100
0000
3100
0010
0001
0000
,
1001
0000
0001
0100
0000
0010
1000
0020
,
0001
1000
0100
0001
,
1030
0000
0000
0001
0000
0000
0011
0000
0000
0000
0001
0000
0000
0100
0000
0000
,
0010
0000
0000
1000
0000
0000
1001
0000
0000
0000
0001
0000
0000
1000
0000
0000
,
0100
1000
0100
1000
0001
0100
0010
1000
,
0010
0100
0001
0010
0100
1000
0001
0000
,
2002
0000
0000
0000
,
0000
0000
0000
3003
,
1000
0000
0000
0100
0010
0000
0000
0001
1000
0010
1000
0100
0000
0010
0100
0010
,
0001
0000
0001
0000
1000
0010
0000
0100
0000
0101
0000
1001
0000
0000
0000
0000
,
0001
0000
0000
0001
0000
0000
0001
0000
0010
0000
0100
0000
1000
0000
0001
0000
,
0100
0000
0000
0100
0000
0000
0100
0000
0010
0000
0000
0010
0000
0000
0010
0000
,
1000
0000
0000
1000
0000
0000
1000
0000
0001
0000
0000
0001
0000
0000
0001
0000
,
0010
0000
0000
0100
0000
0000
1000
0000
1001
0000
0000
0000
0001
1000
0001
1000
,
0001
0000
0000
0010
0000
0000
0100
0000
0100
0000
0000
0000
1000
0000
0001
0000
,
0100
0000
0000
0010
0000
0000
1000
0000
1000
0000
0000
0000
0001
0000
1000
0000
,
0001
0000
0000
0010
0000
0000
1000
0000
0001
0000
0000
0100
0000
0000
0010
0000
,
0001
0000
0000
0001
0000
0000
0001
0000
1000
0001
1000
0001
1000
0000
0000
0000
,
0100
0000
0000
0100
0000
0000
0100
0000
0000
0000
0010
0000
0001
0000
1000
0000
,
0010
0100
0001
1000
0100
0000
0110
0000
,
0001
0000
0000
0100
0000
0000
1000
0000
0001
0000
0000
0010
0000
0000
1000
0000
,
0001
0000
0000
0010
0000
0000
0100
0000
1000
0001
1000
0001
1000
0000
0000
0000
,
0001
0010
1000
0000
1000
0010
0001
0000
,
0001
0100
1000
0000
1000
0100
0001
0000
,
0010
0000
0000
0000
0010
0000
0000
0000
0110
0000
0000
0001
0000
0000
1000
0000
,
0200
0000
0020
0330
,
2002
0000
0000
0000
,
0000
0000
0000
0000
,
0000
0000
0000
0000
,
0000
0000
0000
3003
,
0001
0010
0000
0100
1000
0000
0001
0100
,
0000
0010
1000
0000
0110
0000
1001
0000
,
0001
0010
0100
1000
0001
0100
0010
1000
,
0001
1000
0100
0001
0100
0010
0100
1000
,
0002
0000
0000
0000
,
0000
0000
0000
0000
,
0000
0000
0000
0000
,
0000
0000
0000
0000
,
0003
0000
0000
0000
;

//--------------- dance-single - Fred-104 ----------------
#NOTEDATA:;
#STEPSTYPE:dance-single;
#DESCRIPTION:Fred-104;
#DIFFICULTY:Hard;
#METER:17;
#CREDIT:Fred-104;
#NOTES:
0000
0000
0000
0000
,
0000
0000
0000
0000
,
0000
0000
0000
0000
,
0000
0000
0000
0000
,
0000
0000
0000
0000
,
1100
0000
0011
1000
,
1001
0000
0000
0000
1000
0000
0100
0010
0100
0000
0000
0000
1000
0000
0000
0000
,
0001
0010
0100
1000
0001
0100
1000
0100
,
0001
0000
1000
0100
1000
0001
0100
0001
0100
0001
1000
0001
1000
0000
0000
0000
,
0001
0011
0000
1000
1010
0000
0001
0101
,
0000
0000
1000
0000
1100
0000
0000
0000
0001
0000
1000
0000
0100
0010
0001
0000
,
1000
1010
0000
0001
0011
0000
1000
1100
,
0000
0000
0001
0000
0101
0000
1000
0100
1000
0100
0010
0100
0010
0001
0010
0001
,
0010
0011
0000
0100
1100
0000
0001
0101
,
0000
0000
1000
0000
1100
0000
0000
0000
0001
0000
0010
0000
0100
1000
0001
0000
,
1000
1100
0000
0001
0101
1000
0100
0110
,
0000
0000
0110
0000
0000
0000
0110
0000
0000
0000
0010
0001
1000
0000
0000
0000
,
0001
0100
0010
0001
0010
0000
0100
0001
,
0010
0100
0001
0000
0100
0010
0001
1000
,
0001
0100
1000
0100
0010
0000
1000
0100
,
0001
0000
0100
0000
0010
0000
0000
0000
0001
0000
1000
0001
0100
0010
1000
0000
,
0001
0010
0010
1000
0010
0010
0001
0100
,
0100
0000
1000
0000
0100
0000
0100
0000
0001
0000
1000
0100
0010
0001
1000
0000
,
1010
1001
0000
0011
1001
0000
1100
1001
,
0000
0000
1000
0000
0010
0000
0100
0001
1000
0001
1000
0001
1000
0001
0010
0100
,
2000
0000
0000
3001
0200
0000
0000
1300
,
0100
0010
1000
0002
0000
0000
0000
0000
,
1003
0000
0100
0000
0001
0100
0000
0110
,
0000
0011
0000
1001
0000
1010
0000
0000
,
0001
0000
1000
0000
0100
0000
0010
0001
0010
0000
0001
0000
1000
0000
0001
1000
,
0001
0100
1000
0001
1000
0100
0010
1000
,
1001
0000
1100
0000
0100
0010
0000
0011
,
0000
0000
0001
0000
0100
0000
0010
0000
1000
0001
1000
0001
0010
0100
0010
0100
,
2000
0000
0000
3000
,
0001
0100
1000
0001
0010
0100
1000
0100
,
0001
0000
1000
0000
0100
0000
0010
0000
0001
0000
1000
0000
0010
0100
0010
0100
,
0001
1000
0100
0001
0100
0010
1000
0001
,
0100
0000
1000
0000
0001
0000
0010
0000
0100
0000
1000
0000
0001
1000
0010
1000
,
0001
1000
0100
0001
1000
0010
0100
0010
,
0001
0000
1000
0000
0100
0000
0001
0000
1000
0000
0010
0000
0001
0010
0100
1000
,
0001
0100
1000
0001
0010
0100
0001
1000
,
0100
0000
0000
0000
0010
0000
0001
0000
1001
0000
0000
0000
0001
1000
0001
1000
,
0001
0000
0010
0000
0100
0000
1000
0000
0001
0000
0100
0000
0001
1000
0100
0010
,
0001
0000
1000
0000
0010
0100
0001
0000
1000
0000
0001
0000
0010
0100
1000
0100
,
0010
0000
0001
0000
1000
0000
0010
0000
0100
0000
0010
0000
1000
0001
0010
0100
,
1000
0000
0001
0000
0100
0000
1000
0100
0010
0000
0100
0000
0001
1000
0100
0010
,
0001
0000
1000
0000
0001
0000
0010
0000
0100
0000
1000
0000
0001
0100
0010
0100
,
0001
0000
1000
0000
0100
0000
0010
0001
1000
0000
0010
0000
0100
0001
1000
0001
,
0010
0010
0100
0100
1000
1000
0001
0001
,
0100
0000
0001
1000
0100
1000
0001
0100
0010
1000
0001
0010
0100
0000
1000
0000
,
0001
0101
0000
1000
1100
0000
0001
0011
,
0000
1000
1010
0000
0001
0100
0010
1000
,
0100
0110
0000
0010
0011
0000
0001
0101
,
0000
1000
1100
0000
0001
1000
0001
1000
,
1100
0000
0001
0100
0110
0000
0010
0000
,
1001
0000
1000
0100
0110
0000
0011
0001
,
1001
1100
0101
0011
,
2020
0000
3030
0001
2002
0000
3003
0000
,
0001
0010
0100
1000
0001
0100
0010
1000
,
0100
0010
1000
0001
0100
0010
0001
1000
,
0001
0100
1000
0001
0010
0100
0010
1000
,
0001
0000
1000
0000
0100
0000
1000
0000
0010
1000
0010
0000
1010
0000
1000
0000
,
1001
0000
0000
0101
0000
0000
1001
0000
0000
0000
0001
0000
0100
0010
0000
0000
,
1010
0000
0000
1001
0000
0000
0011
0000
0000
0000
1000
0000
0100
0010
0001
0000
,
1000
1000
0001
0001
0100
0100
0010
0010
,
1000
0001
1000
0001
0010
0100
0010
0100
1000
0001
0100
0010
1000
0010
0100
0001
,
2000
0000
0000
0000
,
0000
0000
0000
3000
,
0001
0000
0000
0100
1000
0000
0000
0100
0001
1000
0100
0001
0100
1000
0001
0100
,
0010
0000
0010
0000
0100
0100
0000
0010
0010
0100
0110
0110
0000
0000
0000
0000
,
1100
0000
0100
0010
0000
0100
0010
0000
0001
0000
1000
0000
1010
0000
0000
0000
,
0001
0000
0010
0100
0000
0010
0100
0000
1000
0000
0001
0100
0000
0001
0100
0000
,
0010
0000
1000
0001
0000
1000
0001
0000
0010
0000
0100
1000
0000
0100
1000
0000
,
0001
0000
0000
0100
0000
0000
0010
0000
1000
0001
1000
0001
0010
0100
1000
0001
,
0100
0000
0000
0010
0000
0000
1000
0000
0001
0010
0100
1000
0001
0100
0001
0100
,
0001
0000
0000
1000
0000
0000
0100
0000
0010
0100
1000
0001
0100
0010
0100
0010
,
0100
0000
0000
0101
0000
0000
1000
0001
0100
0000
0000
0011
0000
0000
0001
1000
,
0010
0000
0000
0110
0000
0000
0110
0000
0100
0010
0100
0010
0100
0000
0000
0000
,
0001
0000
1000
0100
0000
1000
0100
0000
0010
0000
0001
1000
0010
0000
1000
0000
,
0001
0000
0010
0000
1000
0000
0010
0000
0001
1000
0001
0100
0010
1000
0001
0010
,
0001
0000
0100
0010
0000
1000
0010
0000
1000
0000
0100
0010
0000
0001
1000
0000
,
0001
0000
0100
0001
0000
1000
0001
0000
0010
0100
0010
0100
1000
0001
1000
0001
,
0100
0100
0010
0010
1000
1000
0001
0001
,
0010
0000
0010
0000
0100
0000
0100
0000
1000
0001
0010
0001
1000
0010
0100
0001
,
0100
0000
0000
0000
0100
0000
0000
0000
0110
0000
0000
0001
0000
0000
0100
1000
,
0200
0000
0020
0330
,
2002
0000
0000
0000
,
0000
0000
0000
0000
,
0000
0000
0000
0000
,
0000
0000
0000
3003
,
1000
0100
0001
1000
0010
0001
0100
0010
,
0001
0000
1000
0000
0100
0000
0010
0000
1000
0000
0100
0010
0001
1000
0001
0000
,
1000
0010
0100
1000
0001
0010
1000
0001
,
0010
0000
0100
1000
0001
0100
0001
1000
0100
0010
0100
1000
0010
0100
0001
1000
,
0200
0000
0000
0000
,
0000
0000
0000
0000
,
0000
0000
0000
0000
,
0000
0000
0000
0000
,
0300
0000
0000
0000
;

//--------------- dance-double - Fred-104 ----------------
#NOTEDATA:;
#STEPSTYPE:dance-double;
#DESCRIPTION:Fred-104;
#DIFFICULTY:Easy;
#METER:9;
#CREDIT:Fred-104;
#NOTES:
00000000
00000000
00000000
00000000
,
00000000
00000000
00000000
00000000
,
00000000
00000000
00000000
00000000
,
00000000
00000000
00000000
00000000
,
00000000
00000000
00000000
00000000
,
10000000
00000000
00010000
00000000
,
10000000
00000000
00100000
00010000
,
00011000
00000000
00011000
00000000
,
00010000
00000000
00001000
00000000
00000100
00000001
00000100
00000000
,
00000001
00000000
00000000
00000010
00000000
00000000
00000100
00000000
,
00000000
00010000
00000000
00000000
00001000
00000000
00010000
00000000
,
00001000
00000000
00000000
01000000
00000000
00000000
00010000
00000000
,
00000000
01000000
00000000
00000000
00010000
00000000
00100000
00000000
,
01000000
00000000
00000000
10000000
00000000
00000000
00100000
00000000
,
00000000
00010000
00000000
00000000
00100000
00000000
00010000
00000000
,
00001000
00000000
00000000
00010000
00000000
00001000
00010000
00001000
,
00000000
00001000
00000000
00001000
00000000
00010000
00010000
00000000
,
00001000
00000000
00000000
00010000
00000000
00000000
00000010
00000000
,
00000000
00010000
00000000
00000000
00001000
00000000
00010000
00000000
,
00000100
00000000
00000000
00001000
00000000
00000000
00000100
00000000
,
00000000
00001000
00000000
00000000
00000001
00000000
00000100
00000000
,
00000010
00000000
00000000
00001000
00000000
00000000
00000001
00000000
,
00000000
00000010
00000000
00000000
00000100
00000000
00010000
00000000
,
00001000
00000000
00000000
00010000
00000000
00000000
00100000
00000000
,
01000000
00000000
00010000
00000000
00100000
01000000
00100000
00000000
,
10020000
00000000
20030000
00000000
,
32000000
00000000
00000000
03200000
00000000
00000000
00300000
00000000
,
00001000
00000000
00001000
00000000
00010000
00010000
00000000
00001000
,
00000000
00000100
00000000
00000001
00000000
00001001
00000000
00000000
,
00000001
00000000
00000000
00000001
00000010
00000000
00000000
00000010
,
00000100
00000000
00000000
00020000
00000000
00000000
00000000
00000000
,
00031000
00000000
00001000
00000000
00010000
00010000
00000000
00001000
,
00000000
01000000
00000000
00010000
00000000
00110000
00000000
00000000
,
20020000
00000000
00000000
30030000
,
10000000
10000000
01000000
00100000
,
01000000
00000000
00100000
00000000
00001000
00000000
00010000
00001000
,
00010000
00001000
00001000
00010000
,
00000100
00000000
00001000
00000000
00000100
00000000
00000010
00000001
,
00000010
00000001
00001000
00000010
,
00000100
00000000
00001000
00000000
00010000
00000000
00001000
00010000
,
00001000
01000000
00010000
01000000
,
00001000
00000000
00010000
00001000
00010000
00000000
00001000
00000000
,
00011000
00010000
00001000
00000100
,
00000001
00000000
00001000
00000000
00000100
00000000
00000010
00000001
,
00000010
00000100
00010000
00001000
,
01000000
00000000
00010000
00000000
01000000
00000000
00001000
00010000
,
00001000
00100000
00010000
00100000
,
01000000
00000000
10000000
00010000
10000000
00000000
00100000
00000000
,
00010000
00001000
00010000
00001000
,
00010000
00000010
00010000
00000000
00000010
00001000
00000010
00000000
,
00001000
00000000
00000000
00000001
00000000
00000000
00000100
00000000
,
00000000
00001000
00000000
00000000
00010000
00000000
00100000
00000000
,
01000000
00000000
00000000
00010000
00000000
00000000
00100000
00000000
,
00000000
01000000
00000000
00000000
10000000
00000000
00100000
00000000
,
10100000
00000000
00110000
00000000
,
01010000
00000000
11000000
10000000
,
01000000
00100000
00001000
00010000
,
00022000
00033000
02200000
03300000
,
00010000
10000000
00010000
10000000
,
01000000
00010000
00001000
00010000
,
00000100
00000000
00000000
00001000
00000000
00000000
00000001
00000000
,
00000100
00000000
00001000
00000000
00010000
00001000
00010000
00000000
,
00011000
00000000
00000000
00011000
00000000
00000000
00001000
00000000
,
00011000
00000000
00000000
00011000
00000000
00000000
00010000
00000000
,
00001000
00100000
00001000
00010000
,
00001000
00000010
00000100
00000010
,
00000022
00000000
00000000
00000000
,
00000000
00000000
00000000
00000033
,
00000002
00000000
00000203
00000000
00001300
00010000
00100000
00000000
,
01000000
00000000
00010000
00000000
10000000
01000000
00000000
00100000
00000000
00001000
00000000
00011000
00000000
00000000
00000000
00000000
,
00010000
00010000
00001000
00000100
,
00000001
00000010
00000100
00001000
,
00001000
00000100
00010000
00001000
,
00010000
00000000
00001000
00000000
01000000
00010000
01000000
00000000
,
00001000
00000000
00010000
00100000
,
10000000
00000000
01000000
00010000
,
00001000
00000000
00010000
00000000
,
00001000
00000000
00000010
00000000
00000001
00001000
00000001
00000000
,
00001000
00001000
00000001
00000010
,
00000100
00000100
00010000
00001000
,
00010000
00010000
00100000
01000000
,
00010000
00100000
10000000
00100000
,
00010000
00000000
01000000
00000000
,
00001000
00000000
00010000
00000000
,
00001000
00001000
00010000
00010000
,
00002000
00000000
00020000
00033000
,
00022000
00000000
00000000
00000000
,
00000000
00000000
00000000
00000000
,
00000000
00000000
00000000
00000000
,
00000000
00000000
00000000
00033000
,
00010000
00000000
00000000
00001000
00000000
00000000
00000100
00000000
,
00000000
00000001
00000000
00000000
00000010
00000000
00001000
00000000
,
00010000
00000000
01000000
00000000
10000000
00000000
00010000
00010000
,
00000000
01000000
00000000
00100000
00000000
10000000
00010000
00000000
,
20020000
00000000
00000000
00000000
,
00000000
00000000
00000000
00000000
,
00000000
00000000
00000000
00000000
,
00000000
00000000
00000000
00000000
,
30030000
00000000
00000000
00000000
;

//--------------- dance-double - Fred-104 ----------------
#NOTEDATA:;
#STEPSTYPE:dance-double;
#DESCRIPTION:Fred-104;
#DIFFICULTY:Medium;
#METER:13;
#CREDIT:Fred-104;
#NOTES:
00000000
00000000
00000000
00000000
,
00000000
00000000
00000000
00000000
,
00000000
00000000
00000000
00000000
,
00000000
00000000
00000000
00000000
,
00000000
00000000
00000000
00000000
,
00001001
00000000
00000110
00000000
,
00000001
00000000
00000010
00001000
00010000
00000000
00011000
00000000
,
00001000
00010000
01000000
00000000
00100000
00010000
01000000
00000000
,
00100000
10000000
01000000
00100000
00010000
00100000
00001000
00000000
,
00010000
00001000
00000000
00001000
00000010
00000000
00000010
00000001
,
00000000
00000001
00001000
00000000
00000110
00000000
00001001
00000000
,
00000001
00000100
00000000
00000100
00001000
00000000
00001000
00010000
,
00000000
00010000
00100000
00000000
01100000
00000000
01010000
00000000
,
10000000
01000000
00000000
01000000
00010000
00000000
00010000
00001000
,
00000000
00001000
00010000
00000000
00011000
00000000
00010010
00000000
,
00010000
00010000
00000000
00001000
00000010
00000100
00010000
00001000
,
00000000
00011000
00000000
01100000
00000000
00010000
10000000
00000000
,
00010000
01000000
00000000
10000000
01000000
00000000
00010000
00100000
,
00000000
01000000
00010000
00000000
00001000
00010000
00001000
00000000
,
00010000
00001000
00000000
00000100
00000010
00000000
00001000
00000001
,
00000000
00000010
00000100
00000000
00010000
00001000
00010000
00000000
,
00001000
00010000
00000000
00100000
01000000
00000000
00100000
10000000
,
00000000
01000000
00100000
00000000
00001000
00010000
00001000
00000000
,
00010000
00001000
00000000
00001000
00010000
00000000
00010000
00010000
,
00000000
00001000
00000100
00000001
00001000
00000100
00000010
00000001
,
00002001
00000000
00000000
00003001
00000200
00000000
00000000
00001300
,
00010000
00100000
01000000
00200000
00000000
00000000
00000000
00000000
,
10300000
00000000
01000000
00000000
00100000
00001000
00000000
00010000
,
00000000
00001000
00000000
00000100
00000000
00000110
00000000
00000000
,
00001000
00000000
00000001
00000100
00001000
00000000
00000100
00000001
,
00001000
00000100
00000001
00000100
00000000
00000000
00000000
00010000
,
00001000
00000000
00010000
00000000
00100000
10000000
00000000
00010000
,
00000000
00100000
01000000
00010000
00001000
00010000
00100000
00010000
,
00002000
00000000
00000000
00003000
,
00010000
00001000
00010000
00001000
00000100
00000010
00000100
00000001
,
00001000
00000100
00000010
00001000
00010000
00000000
00011000
00000000
,
00001000
00010000
00001000
00010000
01000000
00100000
00010000
01000000
,
00100000
00010000
00001000
00000100
00000001
00000000
00001001
00000000
,
00001000
00000010
00000100
00001000
00010000
00001000
01000000
00010000
,
00100000
00010000
10000000
00100000
01000000
00000000
01010000
00000000
,
10000000
01000000
00100000
00010000
01000000
00001000
00010000
00000000
,
00001000
00000000
00010000
00001000
00011000
00000000
00000101
00000000
,
00001000
00000100
00000010
00000100
00001000
00000010
00000100
00000010
,
00001000
00000001
00000010
00000100
00000010
00001000
00010000
00001000
,
01000000
00010000
00100000
00001000
01000000
00010000
00100000
00010000
,
10000000
00100000
01000000
00100000
00010000
00001000
00010000
00000000
,
00000010
00001000
00000010
00000100
00000010
00001000
00000100
00000010
,
00000001
00001000
00000010
00000100
00001000
00010000
00001000
00000000
,
00010000
01000000
00100000
10000000
00100000
00010000
10000000
00100000
,
00010000
00001000
00010000
00000010
00010000
00001000
00010000
00000000
,
00001000
00010000
00000000
00100000
01000000
00000000
00100000
00010000
,
00000000
00001000
00010000
00000000
00011000
00000000
00010010
00000000
,
00010000
00001000
00000000
00000010
00000100
00000000
00000010
00001000
,
00000000
00010000
00001000
00000000
00011000
00000000
01001000
00000000
,
00001000
00000000
00010000
01000000
00100000
00000000
00110000
00000000
,
11000000
00000000
00100000
00001000
00010000
00000000
00010100
00000000
,
00011000
00001010
00000011
00001100
,
00001001
00000000
00000001
00000100
00001000
00000000
00011000
00000000
,
00001000
00100000
00001000
00000000
00001000
00010000
00001000
00000000
,
00010000
00000010
00010000
00000000
00010000
00001000
00010000
00000000
,
00011000
00000000
00001000
00010000
00000000
00100000
10000000
00010000
,
00200000
10000000
01000000
00310000
,
10000000
00000000
00000000
01000000
00000000
00000000
01100000
00000000
00000000
00000000
00001000
00000000
00000000
00010000
00000000
00000000
,
00000010
00000000
00000000
00001000
00000000
00000000
00000101
00000000
00000000
00000000
00001000
00000000
00000000
00000001
00000000
00000000
,
00000100
00000001
00000100
00000010
00000100
00001000
00010000
00001000
,
01000000
00010000
10000000
00010000
00100000
01000000
00100000
00000000
,
00022000
00000000
00000000
00000000
,
00000000
00000000
00000000
00033000
,
00002000
00000000
00000000
00000000
00023000
00000000
00000000
00000000
00130000
01000000
00100000
01000000
00000000
00010000
10000000
00000000
,
01000000
00000000
01000000
00000000
00100000
00100000
00000000
00001000
00000000
00010000
00000000
00001010
00000000
00000000
00000000
00000000
,
00000001
00000000
00000000
00000010
00000000
00000000
00000100
00000000
00001000
00000000
00000010
00000000
00000100
00000000
00001000
00000000
,
00010000
00000000
00000000
00001000
00000000
00000000
01000000
00000000
00001000
00000000
00000000
00010000
00000000
00000000
00000100
00000000
,
00010000
00000000
00000000
00001000
00000000
00000000
00100000
00000000
00010000
00000000
00000000
00100000
00000000
00000000
01000000
00000000
,
10000000
00000000
00000000
10000000
00000000
00000000
10000000
00000000
00010000
10000000
00010000
10000000
00010000
00000000
00000000
00000000
,
10000000
00000000
00000000
01000000
00000000
00000000
00100000
00000000
00001000
00000000
00000000
00000000
00010000
00000000
00010000
00000000
,
00000100
00000000
00000000
00001000
00000000
00000000
00000001
00000000
00000100
00000000
00000000
00000000
00000010
00000000
00000010
00000000
,
00001000
00000000
00000000
00000001
00000000
00000000
00000010
00000000
00001000
00000000
00000000
00010000
00000000
00000000
00100000
00000000
,
01000000
00000000
00000000
01000000
00000000
00000000
01000000
00000000
00010000
10000000
00010000
10000000
00010000
00000000
00000000
00000000
,
00100000
00000000
00000000
00100000
00000000
00000000
00100000
00000000
00000000
00000000
01000000
00000000
10000000
00000000
00100000
00000000
,
10000000
01000000
00010000
00001000
00010000
00000000
00011000
00000000
,
00010000
00000000
00000000
00001000
00000000
00000000
00000010
00000000
00000100
00000000
00000000
00000010
00000000
00000000
00000001
00000000
,
00001000
00000000
00000000
00000001
00000000
00000000
00000100
00000000
00001000
00010000
00001000
00010000
00001000
00000000
00000000
00000000
,
00010000
00001000
00000010
00000000
00000010
00001000
00010000
00000000
,
00010000
00001000
00000100
00000000
00000100
00001000
00010000
00000000
,
00010000
00000000
00000000
00000000
00001000
00000000
00000000
00000000
00011000
00000000
00000000
00001000
00000000
00000000
00010000
00000000
,
00000020
00000000
00002000
00003030
,
00002002
00000000
00000000
00000000
,
00000000
00000000
00000000
00000000
,
00000000
00000000
00000000
00000000
,
00000000
00000000
00000000
00003003
,
00000001
00000010
00000000
00000100
00010000
00000000
00001000
00100000
,
00000000
00001000
00010000
00000000
00010010
00000000
00011000
00000000
,
00001000
00010000
00001000
00010000
01000000
10000000
01000000
00100000
,
00010000
10000000
00100000
00010000
00001000
00000100
00000010
00000000
,
00002002
00000000
00000000
00000000
,
00000000
00000000
00000000
00000000
,
00000000
00000000
00000000
00000000
,
00000000
00000000
00000000
00000000
,
00003003
00000000
00000000
00000000
;

//--------------- dance-double - Fred-104 ----------------
#NOTEDATA:;
#STEPSTYPE:dance-double;
#DESCRIPTION:Fred-104;
#DIFFICULTY:Hard;
#METER:17;
#CREDIT:Fred-104;
#NOTES:
00000000
00000000
00000000
00000000
,
00000000
00000000
00000000
00000000
,
00000000
00000000
00000000
00000000
,
00000000
00000000
00000000
00000000
,
00000000
00000000
00000000
00000000
,
00011000
00000000
00010010
00000010
,
00001001
00000000
00000000
00000000
00001000
00000000
00000001
00000100
00000001
00000000
00000000
00000000
00001000
00000000
00000000
00000000
,
00000100
00000010
00001000
00010000
01000000
00100000
00010000
00100000
,
01000000
00000000
10000000
00010000
01000000
00010000
01000000
00010000
10000000
00010000
10000000
01000000
00100000
00000000
00000000
00000000
,
00001000
00011000
00000000
00010000
00010010
00000000
00001000
00011000
,
00000000
00000000
00010000
00000000
00010100
00000000
00000000
00000000
00010000
00000000
00001000
00000000
00000100
00000010
00000100
00000000
,
00000001
00001001
00000000
00001000
00001100
00000000
00001000
00001001
,
00000000
00000000
00000001
00000000
00000101
00000000
00000001
00001000
00000100
00000000
00010000
00001000
00010000
00001000
00010000
00000000
,
00001000
00101000
00000000
00010000
00010010
00000000
00001000
01001000
,
00000000
00000000
00010000
00000000
00010100
00000000
00000000
00000000
00001000
00000000
00010000
00000000
01000000
00100000
01000000
00000000
,
10000000
10010000
00000000
00010000
01010000
10000000
01000000
01100000
,
00000000
00000000
00011000
00000000
00000000
00000000
00000110
00000000
00000000
00000000
00000001
00001000
00000001
00000000
00001000
00000000
,
00000001
00000010
00001000
00010000
01000000
00000000
10000000
00100000
,
00010000
00001000
00000100
00000000
00000001
00001000
00000010
00001000
,
00000001
00000100
00001000
00010000
00100000
00000000
10000000
01000000
,
00010000
00000000
00001000
00000000
00000010
00000000
00000000
00000000
00000001
00000000
00000100
00000010
00001000
00000001
00001000
00000000
,
00000100
00000010
00001000
00010000
01000000
00100000
00010000
01000000
,
00100000
00000000
00010000
00000000
00001000
00000000
00000100
00000000
00000010
00000000
00010000
00001000
00010000
00001000
00010000
00000000
,
00011000
00011000
00000000
01001000
01001000
00000000
00010100
00010100
,
00000000
00000000
00010000
00000000
00001000
00000000
01000000
00010000
10000000
00000000
01000000
00100000
00010000
00100000
00001000
00000000
,
00020000
00000000
00000000
00031000
00000020
00000000
00000000
00000130
,
00001000
00000001
00000100
00002000
00000000
00000000
00000000
00000000
,
00013000
00000000
00100000
00000000
01000000
00010000
00000000
11000000
,
00000000
01010000
00000000
00011000
00000000
00011000
00000000
00000000
,
00010000
00001000
00000100
00000001
00000010
00000100
00001000
00000010
,
00000100
00001000
00010000
00100000
01000000
10000000
01000000
00010000
,
10010000
00000000
11000000
00000000
01000000
00010000
00000000
00011000
,
00000000
00000000
00010000
00000000
00001000
00000000
00000100
00000000
00000001
00001000
00000001
00001000
00000100
00000010
00000100
00000010
,
00000002
00000000
00000000
00000003
,
00001000
00000100
00000001
00001000
00000010
00000100
00000001
00000100
,
00001000
00000001
00000100
00010000
01000000
00001000
00010000
00100000
,
10000000
00010000
01000000
10000000
01000000
00100000
00010000
10000000
,
01000000
00010000
10000000
01000000
00010000
00001000
00000010
00000100
,
00001000
00000010
00000100
00001000
00000001
00000010
00000100
00000010
,
00001000
00000100
00000010
00001000
00010000
01000000
00100000
00010000
,
10000000
00100000
00010000
00001000
00000100
00000010
00001000
00010000
,
01000000
00000000
00100000
00000000
10000000
00000000
01000000
00000000
01100000
00000000
00000000
00000000
00001000
00010000
00001000
00010000
,
00001000
00000000
00010000
00000000
00100000
00000000
01000000
00000000
00100000
00000000
10000000
00000000
00010000
10000000
00010000
10000000
,
01000000
00000000
00100000
00000000
00001000
00000000
00010000
00000000
00001000
00000000
00000100
00000000
00000010
00001000
00000010
00001000
,
00000001
00000000
00000010
00000000
00000100
00000000
00000010
00000000
00001000
00000000
00010000
00000000
00001000
01000000
00001000
01000000
,
00001000
00010000
00000010
00000000
00000010
00010000
00001000
00000000
00100000
00000000
00010000
00000000
10000000
00100000
10000000
00100000
,
01000000
00000000
10000000
00000000
01000000
00000000
00100000
00000000
00010000
00000000
00001000
00000000
00000100
00000001
00000100
00000001
,
00001000
00000000
00000100
00000000
00000010
00000000
00000001
00001000
00000010
00000000
00010000
00000000
00001000
00010000
00001000
00010000
,
00001000
00001000
00010000
00010000
00100000
00100000
10000000
10000000
,
01000000
00000000
00100000
00010000
00100000
00001000
00010000
00000010
00001000
00000010
00000100
00000001
00001000
00000000
00000100
00000000
,
00000010
00000001
00000000
00000100
00001000
00000000
00010000
00100000
,
00000000
10000000
01000000
00000000
00010000
00001000
00010000
00000000
,
00001000
00000100
00000000
00000001
00000010
00000000
00001000
00010000
,
00000000
01000000
10000000
00000000
00100000
00010000
00011000
00000000
,
00011000
00000000
00000100
00010000
00011000
00000000
01001000
00000000
,
10010000
00000000
10000000
01000000
01100000
00000000
00011000
00001000
,
00101000
00010010
01001000
00010100
,
00022000
00000000
00033000
00000010
00000220
00000000
00000330
00000000
,
00000001
00000010
00000100
00001000
00000010
00000100
00001000
00010000
,
00000100
00001000
00010000
00100000
00001000
00010000
01000000
10000000
,
00010000
01000000
00100000
00010000
10000000
01000000
00010000
10000000
,
00100000
00000000
00010000
00000000
00001000
00000000
00000100
00000000
00000001
00000010
00000001
00000000
00000010
00000000
00000100
00000000
,
00001100
00000000
00000000
00000101
00000000
00000000
00001010
00000000
00000000
00000000
00010000
00000000
00001000
00010000
00000000
00000000
,
00101000
00000000
00000000
00010010
00000000
00000000
01001000
00000000
00000000
00000000
01000000
00000000
00010000
01000000
00100000
00000000
,
10000000
01000000
00100000
00001000
00010000
00000100
00000010
00000001
,
00001000
00000001
00001000
00000001
00000100
00000010
00001000
00000010
00010000
00001000
00010000
00001000
01000000
00010000
10000000
01000000
,
00200000
00000000
00000000
00000000
,
00000000
00000000
00000000
00300000
,
00010000
00000000
00000000
01000000
10000000
00000000
00000000
01000000
00010000
10000000
01000000
00010000
00001000
00000100
00000001
00000010
,
00001000
00000000
00010000
00000000
00100000
10000000
00000000
10000000
00010000
00010000
10000000
10010000
00000000
00000000
00000000
00000000
,
10010000
00000000
10000000
01000000
00000000
10000000
01000000
00000000
00100000
00000000
00001000
00000000
00011000
00000000
00000000
00000000
,
00010000
00000000
00000100
00001000
00000000
00000100
00001000
00000000
00000001
00000000
00000100
00000010
00000000
00000100
00000010
00000000
,
00000100
00000000
00001000
00010000
00000000
00001000
00010000
00000000
01000000
00000000
00100000
00010000
00000000
00100000
00010000
00000000
,
10000000
00000000
00000000
00100000
00000000
00000000
00010000
00000000
00001000
00010000
00001000
00010000
00000010
00001000
00000100
00000010
,
00000001
00000000
00000000
00000100
00000000
00000000
00001000
00000000
00010000
00001000
01000000
00001000
00010000
00001000
00100000
00010000
,
10000000
00000000
00000000
00100000
00000000
00000000
00010000
00000000
00001000
00010000
00000100
00010000
00001000
01000000
00010000
01000000
,
00001000
00000000
00000000
00011000
00000000
00000000
00010000
00001000
00000100
00000000
00000000
00000101
00000000
00000000
00000001
00000010
,
00000100
00000000
00000000
00001100
00000000
00000000
00010100
00000000
00010000
00001000
00010000
00001000
00010000
00000000
00000000
00000000
,
00001000
00000000
00010000
00100000
00000000
01000000
00010000
00000000
10000000
00000000
01000000
10000000
00010000
00000000
00100000
00000000
,
01000000
00000000
00010000
00000000
00001000
00000000
00000100
00000000
00000010
00001000
00000001
00000010
00000100
00000000
00000000
00000000
,
00001000
00000000
00000001
00000100
00000000
00001000
00010000
00000000
00001000
00000000
00100000
00001000
00000000
00010000
00001000
00000000
,
01000000
00000000
00001000
00010000
00000000
00001000
00100000
00000000
00010000
10000000
00010000
10000000
00100000
01000000
00010000
10000000
,
01000000
01000000
00100000
00100000
00001000
00001000
00000010
00000010
,
00000100
00000000
00000100
00000000
00001000
00000000
00001000
00000000
00000001
00000010
00000100
00001000
00000100
00010000
00001000
00010000
,
00001000
00000000
00000000
00000000
00010000
00000000
00000000
00000000
00011000
00000000
00000000
00001000
00000000
00000000
00010000
00100000
,
02000000
00000000
00020000
03030000
,
20020000
00000000
00000000
00000000
,
00000000
00000000
00000000
00000000
,
00000000
00000000
00000000
00000000
,
00000000
00000000
00000000
30030000
,
10000000
01000000
00000000
00010000
00001000
00000000
00000010
00000001
,
00000000
00000100
00001000
00000000
00010000
00001000
00011000
00000000
,
00001000
00010000
01000000
00100000
10000000
00100000
00010000
01000000
,
00100000
00000000
00010000
00001000
00010000
00001000
00000010
00000100
00000010
00000001
00001000
00000010
00010000
00001000
00100000
00001000
,
00020000
00000000
00000000
00000000
,
00000000
00000000
00000000
00000000
,
00000000
00000000
00000000
00000000
,
00000000
00000000
00000000
00000000
,
00030000
00000000
00000000
00000000
;
