#VERSION:0.83;
#TITLE:さらさ;
#ARTIST:BEMANI Sound Team "PON";
#TITLETRANSLIT:Sarasa;
#ARTISTTRANSLIT:PON;
#GENRE:TOWA;
#BANNER:Sarasa.png;
#BACKGROUND:Sarasa-bg.png;
#CDTITLE:./CDTitles/jubeat beyond the Ave.png;
#MUSIC:Sarasa.ogg;
#SAMPLESTART:49.517;
#SAMPLELENGTH:15;
#BPMS:0=168;
#BGSTAGE:3;

//--------------- dance-single - Fred-104 ----------------
#NOTEDATA:;
#STEPSTYPE:dance-single;
#DESCRIPTION:Fred-104;
#DIFFICULTY:Beginner;
#METER:3;
#CREDIT:Fred-104;
#NOTES:
0000
0000
0000
0000
,
0000
0000
0000
0000
,
0000
0000
0000
0000
,
0000
0000
0000
0000
,
0000
0000
0000
0000
,
1000
0000
1000
0000
,
0001
0000
0000
0000
,
0100
0000
0001
0000
,
2000
0000
0000
3000
,
0001
0000
0001
0000
,
0010
0000
0000
0000
,
0100
0000
1000
0000
,
0002
0000
0000
0003
,
1000
0000
0000
0010
,
0000
0000
0001
0000
,
0001
0000
0000
0100
,
0000
0000
1000
0000
,
1000
0000
0000
0001
,
0000
0000
0100
0000
,
0100
0000
0000
0010
,
0000
0000
0010
0000
,
1000
0000
0001
0000
,
0010
0000
0010
0000
,
0100
0000
0000
0000
,
0100
0000
0100
0000
,
1000
0000
0000
0001
,
0000
0000
1000
0000
,
0001
0000
1000
0000
,
0200
0000
0000
0300
,
0100
0000
0010
0000
,
0002
0000
0000
0003
,
0001
0000
0000
1000
,
0000
0000
0001
0000
,
1001
0000
0000
0000
,
0000
0000
0000
0000
,
1000
0000
1000
0000
,
0100
0000
0100
0000
,
0001
0000
0001
0000
,
0010
0000
1000
0000
,
0001
0000
0001
0000
,
0100
0000
0100
0000
,
1000
0000
0010
0000
,
0001
0000
1000
0000
,
0001
0000
0000
0001
,
0000
0000
0010
0000
,
0100
0000
0000
0100
,
0000
0000
1000
0000
,
0001
0000
1000
0000
,
0001
0000
0000
0000
,
1000
0000
0000
0001
,
0000
0000
1000
0000
,
0001
0000
0001
0000
,
0020
0000
0000
0030
,
0010
0000
0100
0000
,
2000
0000
0000
3000
,
0001
0000
1000
0000
,
0002
0000
0000
0003
,
0100
0000
0010
0000
,
0200
0000
0000
0300
,
0001
0000
0001
0000
,
1000
0000
1000
0000
,
0100
0000
0100
0000
,
0020
0000
0030
0000
,
0001
0000
0001
0000
,
1000
0000
1000
0000
,
0002
0000
0003
0000
,
1000
0000
1000
0000
,
0100
0000
0001
0000
,
0001
0000
0000
0000
,
0001
0000
0100
0000
,
0010
0000
0000
0000
,
0100
0000
0100
0000
,
1000
0000
1000
0000
,
0002
0000
0003
0000
,
1000
0000
0000
1000
,
0000
0000
1000
0000
,
0001
0000
0000
1001
;

//--------------- dance-single - Fred-104 ----------------
#NOTEDATA:;
#STEPSTYPE:dance-single;
#DESCRIPTION:Fred-104;
#DIFFICULTY:Easy;
#METER:7;
#CREDIT:Fred-104;
#NOTES:
0000
0000
0000
0000
,
0000
0000
0000
0000
,
0000
0000
0000
0000
,
0000
0000
0000
0000
,
0000
0000
0000
0000
,
0001
0010
0010
0100
,
1000
0001
1001
0000
,
1000
1000
0010
0100
,
0001
0000
0000
0001
0000
0000
0001
0000
,
1000
0100
0010
0100
,
0100
1000
1001
0000
,
0001
0100
1000
0100
,
0002
0003
2000
3000
,
0001
0000
0000
0010
0000
0000
0100
0000
,
0000
1000
0000
0000
0001
0000
1000
0000
,
0010
0000
0000
0100
0000
0000
0001
0000
,
0000
1000
0000
0000
0100
0000
0010
0000
,
0001
0000
0000
1000
0000
0000
0010
0000
,
0000
1000
0000
0000
0100
0000
1000
0000
,
0001
0000
0000
0100
0000
0000
0001
0000
,
0010
0000
0010
0000
0001
1000
0001
0000
,
0100
0000
0000
0010
0000
0000
0100
0000
,
0010
0000
0010
0000
1000
0001
1000
0000
,
0100
0000
0000
0010
0000
0000
0001
0000
,
0000
0100
0000
0000
0010
0000
0010
0000
,
0100
0000
0000
0001
0000
0000
1000
0000
,
0000
0100
0000
0000
0020
0000
0032
0000
,
0013
0010
0001
0100
,
0020
0000
0130
0100
,
0001
0010
0100
0100
,
2000
0000
3001
1000
,
0001
0000
0000
1000
0000
0000
0010
0000
,
0000
1000
0000
0000
0001
0000
1000
0000
,
2002
0000
0000
0000
,
3000
0000
0003
0000
,
1100
0000
1100
0000
,
0011
0000
0011
0000
,
0001
1000
0001
0100
,
0110
0000
1001
0000
,
0101
0000
0101
0000
,
1010
0000
1010
0000
,
0001
1000
0001
0010
,
0100
0100
2000
3000
,
0001
0000
0000
1000
0000
0000
0001
0000
,
0000
0100
0000
0000
0010
0000
0010
0000
,
0100
0000
0000
0001
0000
0000
1000
0000
,
0000
0100
0000
0000
0010
0000
0100
0000
,
1000
0000
0000
0001
0000
0000
0100
0000
,
0000
0010
0000
0100
0000
2002
0000
3003
,
0001
1000
0100
0100
,
0010
0000
0002
2003
,
3001
0001
0100
0100
,
1000
0100
0001
0000
,
1000
1000
0100
0100
,
0001
0100
1000
0000
,
0001
0001
0010
0010
,
1000
0010
0001
1000
,
0002
0000
0003
1000
2000
0000
3000
0001
,
0001
1000
2002
3003
,
1010
0000
1010
0000
,
0101
0000
0101
0000
,
0001
1000
0001
0010
,
0100
0010
0110
0000
,
1100
0000
1100
0000
,
0011
0000
0011
0000
,
0001
1000
0001
0100
,
0110
0000
1001
0000
,
0001
0100
0010
1000
,
0001
0001
0010
0100
,
1000
0001
2002
3003
,
0110
0000
1001
0000
,
1000
0100
0010
0100
,
1000
0000
0000
0001
0000
0000
0100
0000
,
0010
0100
1001
0000
,
0001
0000
0000
0100
0000
0000
0010
0000
,
0000
1000
0000
0000
0100
0000
0010
0000
,
0001
0000
0000
0100
0000
0000
0010
0000
,
0000
1001
0000
0000
0000
0000
0000
0000
;

//--------------- dance-single - Fred-104 ----------------
#NOTEDATA:;
#STEPSTYPE:dance-single;
#DESCRIPTION:Fred-104;
#DIFFICULTY:Medium;
#METER:11;
#CREDIT:Fred-104;
#NOTES:
0000
0000
0000
0000
,
0000
0000
0000
0000
,
0000
0000
0000
0000
,
0000
0000
0000
0000
,
0000
0000
0000
0000
0000
0000
1000
0010
,
2000
0000
3001
0100
0002
0000
1003
0100
,
0010
0000
0011
0000
1000
0001
0100
0010
,
0200
0000
0310
1000
0002
0000
0023
0000
,
0130
0000
0000
0100
0000
0000
0010
0000
0000
0010
0000
0000
1001
0000
0000
0000
,
0002
0000
0013
1000
0002
0000
0103
1000
,
0001
0110
1010
1001
,
1000
0100
0002
0000
1003
0010
0002
0000
,
0013
0100
1000
0001
0100
0010
1000
0000
,
0001
0000
0000
0010
0000
0000
0100
0000
0000
0000
1000
0000
1000
0000
0000
0010
,
0000
0100
0000
0001
0001
1000
0010
0000
,
0100
0000
0000
0100
0000
0000
0001
0000
0000
0000
1000
0000
0100
0000
0000
0100
,
0000
0010
0000
0001
0001
1000
0010
0100
,
0001
0000
0000
1000
0000
0000
0100
0000
0000
0000
0010
0000
0010
0000
0000
0100
,
0000
1000
0000
0001
0100
0010
1000
0001
,
0010
0000
0000
0100
0000
0000
0010
0000
0000
0000
0001
0000
0001
0000
0100
0000
,
0020
0000
0230
0000
1300
0100
0001
1000
,
0100
0000
0000
0010
0000
0000
0001
0000
0000
0000
1000
0000
1000
0000
0001
0000
,
0020
0000
0230
0000
0310
1000
0010
0001
,
1000
0000
0000
0010
0000
0000
0100
0000
0000
0001
0000
0000
1000
0000
0000
0100
,
0000
0000
0010
0000
0000
0001
0000
0000
1000
0000
0000
0001
0000
0000
0100
0000
,
0010
0000
0000
1000
0000
0000
0100
0000
0000
0000
0010
0000
0010
0000
0000
0001
,
0000
0100
0000
0010
0020
0000
2030
0000
,
3002
0000
0013
0100
0001
0000
0101
0000
,
0100
1000
0100
1000
0001
0100
0010
0001
,
0011
0000
0010
1000
0001
0000
0011
0000
,
1000
0100
1000
0001
0100
0010
1000
1000
,
0001
0000
0000
0010
0000
0000
0100
0000
0000
0000
1000
0000
0001
0000
0100
0000
,
0000
0000
0010
0000
0000
0010
0000
0000
0100
0000
0000
0100
0000
0000
0001
0000
,
1000
2002
0000
0000
,
3000
0000
0000
0000
0003
0000
1000
0010
,
0200
0000
0301
0010
0200
0000
1300
0001
,
0100
0000
1100
0000
0100
0010
1000
0100
,
0020
0000
0031
1000
0010
1000
0001
0010
,
0200
0000
1300
0001
1000
0000
1001
0000
,
0002
0000
0013
1000
0002
0000
0103
0010
,
0001
0000
0101
0000
1100
0000
0100
0010
,
2000
0000
3100
0010
0100
0010
0001
1000
,
0020
0000
0031
0010
1000
0000
1001
0000
,
0001
0000
0000
0010
0000
0000
0100
0000
0000
0000
1000
0000
1000
0000
0000
0010
,
0000
0100
0001
1000
0100
0010
0001
0100
,
0010
0000
0000
1000
0000
0000
0001
0000
0000
0000
1000
0000
1000
0000
0000
0000
,
0100
0100
0000
0010
0010
0001
1000
0001
,
1000
0000
0000
0010
0000
0000
1000
0000
0000
0000
0001
0000
0001
0000
0000
0010
,
0000
0100
0000
1000
0000
2002
0000
3003
,
0001
0000
0000
0100
0000
0000
0010
0000
0010
0000
0000
0000
1000
0000
0000
0000
,
0001
1000
0100
0000
0110
0000
1001
0000
,
2000
3200
0302
0203
,
2300
0000
3200
0000
0310
0100
1000
0001
,
2000
3020
0032
0023
,
2030
0000
3020
0000
0130
0001
1000
0001
,
0200
2300
3200
0302
,
0013
1000
0020
0000
0031
0100
2000
0000
,
3100
0001
1000
0100
0001
0100
1000
0010
,
0100
0100
0100
0100
0110
0000
1010
0000
,
1001
0110
1100
0011
,
1000
0001
0010
0000
1010
0000
1000
0010
,
0200
0000
1300
0001
0100
0010
1000
0100
,
0010
0000
0011
0000
1001
0000
0001
0100
,
2000
0000
3001
0010
2000
0000
3100
0010
,
0001
0100
0010
0000
1001
0000
0110
0000
,
0001
0010
0100
1000
0010
0100
0001
1000
,
0200
0000
0301
0100
2000
0000
3001
0100
,
1000
0000
1100
0000
0100
0001
1000
0100
,
0010
0001
1000
0010
0100
0001
0200
0000
,
0310
0000
0110
0000
1001
0000
0001
1000
,
0200
0000
0301
1000
0020
0000
0130
1000
,
0001
0100
0010
1000
0100
0010
0100
1000
,
0002
0000
0103
0010
0100
1000
0100
0001
,
1000
0000
0100
0000
0010
0000
0001
0000
1000
0000
0000
1000
0000
0000
1000
0000
,
0001
0000
0000
0100
0000
0000
0110
0000
0000
0000
0100
0000
0100
0000
0000
0001
,
0000
1001
0000
0100
0100
0010
0001
1000
,
0010
0000
0000
0100
0000
0000
0101
0000
0000
0000
0001
0000
1000
0000
0000
0100
,
0000
1001
0000
0000
0000
0000
0000
0000
;

//--------------- dance-single - Fred-104 ----------------
#NOTEDATA:;
#STEPSTYPE:dance-single;
#DESCRIPTION:Fred-104;
#DIFFICULTY:Hard;
#METER:14;
#CREDIT:Fred-104;
#NOTES:
0000
0000
0000
0000
,
0000
0000
0000
0000
,
0000
0000
0000
0000
,
0000
0000
0000
0000
,
0000
0000
0000
0000
0000
0000
1000
0100
,
0020
0000
0031
0100
0020
0000
1030
0100
,
0010
0000
1010
0000
0010
0001
1000
0001
,
0200
0000
1300
0100
0001
1000
0100
0010
,
0011
0000
0000
0001
0000
0000
1010
0000
0000
0001
0000
0000
1000
0000
0001
0000
,
0200
0000
1300
0100
0002
0000
0013
0001
,
0100
0000
1100
0000
0101
0000
0100
0010
,
1000
0001
1000
0001
1000
0000
0001
1000
0200
0000
0320
0000
0230
0000
0320
0000
,
0031
0000
1000
0000
0010
0000
0100
0000
0001
1000
0001
1000
0001
1000
0001
0000
,
1000
0000
0000
0100
0000
0000
0110
0000
0000
0000
0001
0010
0001
0000
0000
1000
,
0000
0000
1010
0000
0000
0000
0100
0001
0100
0000
0100
0000
0010
0000
0010
0000
,
1000
0000
0000
0001
0000
0000
0011
0000
0000
0000
0010
0100
0010
0000
0000
0001
,
0000
0000
1001
0000
0000
0000
1000
0010
1000
0000
0010
0000
0100
0001
0100
0001
,
0100
0000
0000
0001
0000
0000
1001
0000
0000
0000
1000
0100
1000
0000
0000
0001
,
0000
0000
0101
0000
0000
0000
0100
0010
1000
0010
1000
0000
0001
0100
0001
0000
,
1000
0000
0000
0100
0000
0000
0110
0000
0000
0000
0001
1000
0001
0000
0100
0000
,
0020
0000
1030
0010
0001
1000
0100
0010
,
1000
0000
0001
0000
0010
0000
0110
0000
0000
0000
0100
1000
0100
0000
1000
0000
,
0010
0000
0100
0000
0001
0000
1000
0000
0001
1000
0001
1000
0100
0000
0010
0000
,
0100
0000
0000
1000
0000
0000
1001
0000
0000
0001
0010
0000
0100
0000
0000
1000
,
0000
0000
1001
0000
0000
1000
0010
1000
0010
0000
0100
0001
0000
1000
0001
0000
,
1000
0000
0000
0100
0000
0000
0110
0000
0000
0000
0001
1000
0001
0000
0000
0100
,
0000
0000
0110
0000
0000
0000
1000
0001
2000
0000
0000
0000
3002
0000
0000
0000
,
1003
0001
0010
0100
0001
0100
1000
0001
,
0100
0000
0010
0000
1000
0000
0001
0000
0010
0100
0010
0000
0001
1000
0001
0000
,
1000
0001
0100
0010
0001
0010
0100
0001
,
1000
0000
0100
0010
0100
0000
1000
0000
0001
0100
0001
0000
1000
0010
1000
0000
,
0001
0000
0000
0010
0000
0000
0110
0000
0000
0000
1000
0001
1000
0001
1000
0000
,
0000
0000
1010
0000
0000
0010
0000
0000
0110
0000
0000
0001
0000
0000
1000
0000
,
0200
0020
0000
0000
,
0300
0000
0000
0000
0030
0000
0001
0100
,
2000
0000
3001
0010
2000
0000
3100
0010
,
1010
0000
0110
0000
0011
0001
1000
0010
,
0002
0000
1003
0100
0001
0010
0100
0010
,
0011
0000
0001
0000
1000
0000
0010
0000
0100
0001
0100
0000
0010
1000
0010
0000
,
2000
0000
3001
0010
2000
0000
3001
0100
,
1000
0000
0010
0000
1000
0000
0010
0100
0010
0000
1000
0000
0001
0000
0010
0000
,
0200
0000
0301
1000
0010
0100
1000
0001
,
0100
0000
0010
0000
1000
0001
1000
0001
0010
0000
0100
0000
0010
0100
0010
0100
,
0010
0000
0000
0001
0000
0000
1001
0000
0000
0000
0010
1000
0010
0000
0000
0100
,
0000
0000
0000
0101
0000
0000
0001
0000
1000
0000
0001
0000
1000
0000
0100
0000
0010
0000
0100
0000
0010
0000
0001
0000
,
1000
0000
0000
0010
0000
0000
0110
0000
0000
0000
0100
0001
0100
0000
0000
0000
,
0001
1000
0001
0000
0000
0000
0010
0100
0010
0000
0010
0000
0100
0000
0100
0000
,
2000
0000
0000
0000
0000
0000
3000
0001
,
0010
0100
1000
0010
0000
2002
0000
3003
,
1000
0000
0000
0010
0000
0000
0101
0000
0000
0000
0001
1000
0002
0000
0000
0000
,
0000
0000
0013
0100
0010
0000
0001
0000
0200
0000
0000
0000
0320
0000
0000
0000
,
1030
0000
0100
1000
0100
0000
1000
0001
1000
0000
0100
1000
0100
0000
1000
0001
,
1000
0000
0100
0010
0100
0000
0010
0001
0010
0000
0100
0010
0100
0000
0010
0001
,
0010
0000
0001
1000
0001
0000
0010
0001
0010
0000
0001
1000
0001
0000
0010
0001
,
0010
0000
0001
1000
0001
0000
0010
0001
0020
0000
0032
0000
0203
0000
0320
0000
,
1030
0000
0010
1000
0010
0000
1000
0001
1000
0000
0010
1000
0010
0000
1000
0001
,
1000
0000
0001
0100
0001
0000
1000
0001
1000
0000
0001
0100
0001
0000
1000
0001
,
1000
0000
0010
0100
0010
0000
0100
0001
0100
0000
0001
1000
0001
0000
0010
0000
,
0100
0100
0010
0010
0011
0000
1000
0010
,
0002
0000
1003
0100
0002
0000
0013
0100
,
1100
0000
0110
0000
0010
1000
0010
0001
,
0200
0000
0310
0100
1000
0100
0001
1000
,
1100
0000
0101
0000
1001
0000
1000
0010
,
0200
0000
1300
0100
0020
0000
1030
0100
,
0010
0001
0010
0001
1000
0000
0001
0000
0100
0000
0000
0000
1001
0000
0000
0000
,
0001
0000
0010
0000
0001
0000
1000
0100
1000
0000
0001
1000
0001
0000
0100
0010
,
0200
0000
0301
0010
2000
0000
3001
0100
,
1100
0000
0011
0000
0001
1000
0001
0100
,
0110
0000
1010
0000
0001
1000
0100
0000
,
0110
0000
1001
0000
1000
0001
0010
1000
,
0002
0000
0103
0010
0002
0000
0103
0010
,
0001
1000
0001
1000
0001
0000
0100
0000
0010
0000
1000
0000
0100
0000
0010
0000
,
0001
1000
0001
0000
0100
0000
0010
0000
1000
0001
1000
0000
0100
0000
0010
0000
,
0001
0000
0000
0000
1000
0000
0000
0000
0001
0000
0000
0000
1000
0000
0000
0000
0010
0000
0000
0000
0100
0000
0000
0000
0001
0000
0000
0000
0000
0000
0000
0000
0000
0001
0000
0000
0000
0000
0000
0000
0000
0000
0001
0000
0000
0000
0000
0000
,
1000
0000
0000
1100
0000
0000
1001
0000
0000
0000
1000
0100
1000
0000
0000
1001
,
0000
0000
0011
0000
0000
0000
0010
0100
0010
0000
0100
1000
0100
0000
1000
0000
,
0001
0000
0000
0101
0000
0000
0101
0000
0000
0000
0010
1000
0010
0000
0000
0110
,
0000
1001
0000
0000
0000
0000
0000
0000
;

//--------------- dance-double - Fred-104 ----------------
#NOTEDATA:;
#STEPSTYPE:dance-double;
#DESCRIPTION:Fred-104;
#DIFFICULTY:Easy;
#METER:7;
#CREDIT:Fred-104;
#NOTES:
00000000
00000000
00000000
00000000
,
00000000
00000000
00000000
00000000
,
00000000
00000000
00000000
00000000
,
00000000
00000000
00000000
00000000
,
00000000
00000000
00000000
00000000
,
00010000
00010000
00001000
00001000
,
00000100
00000001
00001001
00000000
,
00000001
00000010
00001000
00010000
,
00001000
00000000
00000000
00001000
00000000
00000000
00001000
00000000
,
00010000
00010000
00001000
00001000
,
01000000
00100000
10010000
00000000
,
10000000
01000000
00010000
00001000
,
00020000
00030000
00002000
00003000
,
00010000
00000000
00000000
00010000
00000000
00000000
00000100
00000000
,
00000000
00000100
00000000
00000000
00000010
00000000
00000001
00000000
,
00001000
00000000
00000000
00001000
00000000
00000000
00000010
00000000
,
00000000
00000010
00000000
00000000
00010000
00000000
00001000
00000000
,
00010000
00000000
00000000
00010000
00000000
00000000
00000100
00000000
,
00000000
00000100
00000000
00000000
00010000
00000000
00001000
00000000
,
00100000
00000000
00000000
01000000
00000000
00000000
10000000
00000000
,
00010000
00000000
00010000
00000000
01000000
00001000
01000000
00000000
,
00001000
00000000
00000000
00010000
00000000
00000000
00000100
00000000
,
00001000
00000000
00001000
00000000
00000001
00000010
00000001
00000000
,
00001000
00000000
00000000
00000100
00000000
00000000
00000010
00000000
,
00000000
00001000
00000000
00000000
00010000
00000000
00010000
00000000
,
00001000
00000000
00000000
00100000
00000000
00000000
00010000
00000000
,
00000000
10000000
00000000
00000000
00200000
00000000
02300000
00000000
,
03001000
00010000
00000100
00010000
,
00002000
00000000
00013000
00010000
,
00001000
00000100
00000001
00000010
,
00000200
00000000
00010300
00001000
,
01000000
00000000
00000000
00100000
00000000
00000000
10000000
00000000
,
00000000
01000000
00000000
00000000
00010000
00000000
00001000
00000000
,
00022000
00000000
00000000
00000000
,
00003000
00000000
00030000
00000000
,
00011000
00000000
00010010
00000000
,
00000010
00001000
00000001
00000000
,
00000110
00000000
00001000
00000001
,
00000100
00001000
00010000
00000000
,
00011000
00000000
00101000
00000000
,
00001000
00010000
00001000
01000000
,
00100000
00000000
00000000
00100000
00000000
00000000
01000000
00000000
,
00010000
10000000
02000000
03000000
,
00100000
00000000
00000000
00001000
00000000
00000000
00010000
00000000
,
00000000
00001000
00000000
00000000
00000100
00000000
00000001
00000000
,
00000010
00000000
00000000
00000100
00000000
00000000
00010000
00000000
,
00000000
00001000
00000000
00000000
00100000
00000000
01000000
00000000
,
10000000
00000000
00000000
00100000
00000000
00000000
00010000
00000000
,
00000000
00001000
00000000
00010000
00000000
00022000
00000000
00033000
,
00010000
00001000
00000010
00000001
,
00001000
00000001
00000200
00000320
,
00000130
00000100
00001000
00001000
,
00010000
00000000
00010000
00000000
00001000
00100000
00001000
00000000
,
00010000
00010000
00001000
00001000
,
01000000
00000000
01000000
00000000
00100000
10000000
00100000
00000000
,
01000000
01000000
00001000
00001000
,
00010000
00001000
00010000
00000000
00000100
00001000
00000100
00000000
,
00002000
00000000
00003000
00000001
00000002
00000000
00000003
00000100
,
00000100
00000010
00002002
00003003
,
00000011
00000000
00001010
00000000
,
00001000
00010000
00001000
00100000
,
01100000
00000000
10010000
00000000
,
00010000
10000000
01000000
00010000
,
00011000
00000000
00001010
00000000
,
00001000
00010000
00000010
00001000
,
00000001
00000000
00000000
00000010
00000000
00000000
00001000
00000000
,
00011000
00000000
01001000
00000000
,
00001000
00010000
00001000
01000000
,
00100000
01000000
00010000
10000000
,
01000000
00010000
00022000
00033000
,
00010100
00000000
00001100
00000000
,
00000100
00010000
00001000
00010000
,
00000100
00000000
00000000
00000010
00000000
00000000
00000001
00000000
,
00000100
00000010
00001001
00000000
,
00000001
00000000
00000000
00000010
00000000
00000000
00000100
00000000
,
00000000
00010000
00000000
00000000
00001000
00000000
01000000
00000000
,
00001000
00000000
00000000
00010000
00000000
00000000
00000010
00000000
,
00000000
00001001
00000000
00000000
00000000
00000000
00000000
00000000
;

//--------------- dance-double - Fred-104 ----------------
#NOTEDATA:;
#STEPSTYPE:dance-double;
#DESCRIPTION:Fred-104;
#DIFFICULTY:Medium;
#METER:11;
#CREDIT:Fred-104;
#NOTES:
00000000
00000000
00000000
00000000
,
00000000
00000000
00000000
00000000
,
00000000
00000000
00000000
00000000
,
00000000
00000000
00000000
00000000
,
00000000
00000000
00000000
00000000
00000000
00000000
00000001
00001000
,
00000020
00000000
00001030
00000001
00000020
00000000
00000130
00010000
,
00001000
00000000
00011000
00000000
00010000
00100000
10000000
00010000
,
00200000
00000000
01300000
10000000
00020000
00000000
02030000
00000000
,
03100000
00000000
00000000
00010000
00000000
00000000
00001000
00000000
00000000
00000010
00000000
00000000
00001001
00000000
00000000
00000000
,
00002000
00000000
00003001
00000100
00002000
00000000
00003100
00001000
,
00010000
00110000
10100000
10010000
,
00020000
10000000
00130000
00000000
00020000
10000000
01030000
00000000
,
00010000
01000000
00001000
00000000
00010000
00001000
00100000
00000000
,
01000000
00000000
00000000
10000000
00000000
00000000
00010000
00000000
00000000
00000000
01000000
00000000
00100000
00000000
00000000
10000000
,
00000000
01000000
00000000
00100000
00001000
00010000
00001000
00000000
,
00010000
00000000
00000000
00000010
00000000
00000000
00001000
00000000
00000000
00000000
00000100
00000000
00000010
00000000
00000000
00000001
,
00000000
00000100
00000000
00001000
00010000
00001000
01000000
00000000
,
00010000
00000000
00000000
00100000
00000000
00000000
00001000
00000000
00000000
00000000
00010000
00000000
00010000
00000000
00000000
00001000
,
00000000
00000100
00000000
00000010
00001000
00000001
00000010
00000100
,
00010000
00000000
00000000
00001000
00000000
00000000
00010000
00000000
00000000
00000000
00001000
00000000
00001000
00000000
01000000
00000000
,
00020000
00000000
20030000
00000000
31000000
00100000
00001000
00000000
,
00010000
00000000
00000000
00100000
00000000
00000000
10000000
00000000
00000000
00000000
01000000
00000000
01000000
00000000
00100000
00000000
,
02000000
00000000
03020000
00000000
00031000
00010000
00000100
00000000
,
00010000
00000000
00000000
00001000
00000000
00000000
00000010
00000000
00000000
00000001
00000000
00000000
00001000
00000000
00000000
00000001
,
00000000
00000000
00000100
00000000
00000000
00001000
00000000
00000000
00010000
00000000
00000000
00010000
00000000
00000000
00010000
00000000
,
00001000
00000000
00000000
00010000
00000000
00000000
00100000
00000000
00000000
00000000
10000000
00000000
10000000
00000000
00000000
01000000
,
00000000
00100000
00000000
00001000
00002000
00000000
00023000
00000000
,
00031000
00010000
00001000
00000000
00010000
00000100
00010000
00000000
,
00000100
00001000
00000100
00001000
00000100
00000010
00000001
00000000
,
00001000
00000010
00001000
00000000
00000010
00010000
00000010
00000000
,
00010000
00001000
00010000
00001000
00100000
01000000
10000000
00000000
,
00010000
00000000
00000000
01000000
00000000
00000000
00100000
00000000
00000000
00000000
10000000
00000000
00010000
00000000
00100000
00000000
,
00000000
00000000
00001000
00000000
00000000
00001000
00000000
00000000
00010000
00000000
00000000
00010000
00000000
00000000
00010000
00000000
,
00001000
00022000
00000000
00000000
,
00003000
00000000
00000000
00000000
00030000
00000000
00001000
00010000
,
00000020
00000000
00001030
00000001
00000020
00000000
00000130
00001000
,
00000001
00000000
00000110
00000000
00001001
00000000
00000001
00000010
,
00002000
00000000
00013000
00001000
01000000
00010000
00100000
00000000
,
02000000
00000000
13000000
00000000
00010000
01000000
00100000
00010000
,
00002000
00000000
00013000
00000100
00002000
00000000
00003010
00010000
,
00001000
00000000
00011000
00000000
01010000
00000000
01000000
10000000
,
00010000
00000000
01000000
00100000
00000000
00100000
10000000
00010000
,
00100000
00000000
01000000
00010000
00001000
00000000
00011000
00000000
,
00010000
00000000
00000000
00010000
00000000
00000000
00010000
00000000
00000000
00000000
00001000
00000000
00001000
00000000
00000000
00100000
,
00000000
00100000
01000000
10000000
00010000
01000000
00100000
00000000
,
10000000
00000000
00000000
10000000
00000000
00000000
01000000
00000000
00000000
00000000
00010000
00000000
00010000
00000000
00000000
00000000
,
00001000
00001000
00000000
00010000
00010000
00000010
00010000
00001000
,
00100000
00000000
00000000
00010000
00000000
00000000
01000000
00000000
00000000
00000000
00100000
00000000
00100000
00000000
00000000
10000000
,
00000000
01000000
00000000
00010000
00000000
00022000
00000000
00033000
,
00010000
00000000
00000000
00000100
00000000
00000000
00001000
00000000
00001000
00000000
00000000
00000000
00000100
00000000
00000000
00000000
,
00000010
00000001
00000100
00000000
00001100
00000000
00011000
00000000
,
00002000
00023000
00230000
00320000
,
00032000
00000000
00023000
00000000
01030000
00010000
00002000
00000000
,
00023000
00230000
00320000
00032000
,
00003200
00000000
00002300
00000000
00013000
00001000
00000010
00001000
,
00020000
00032000
00003020
00000032
,
00002003
00003002
00000203
00002300
,
00013000
00001000
00100000
00010000
10000000
00100000
01000000
00010000
,
10000000
10000000
01000000
01000000
01010000
00000000
00010000
00001000
,
00020000
00000000
00030100
00001000
00000002
00000000
00000103
00000010
,
00000100
00000000
00001100
00000000
00011000
00000000
00010000
00001000
,
00200000
00000000
01300000
10000000
00010000
01000000
00100000
00000000
,
10100000
00000000
01010000
00000000
10010000
00000000
10000000
01000000
,
00200000
00000000
00301000
00010000
00200000
00000000
10300000
01000000
,
00010000
00001000
00010000
00000000
00011000
00000000
00001010
00000000
,
00000011
00000000
00000001
00000100
00001000
00000001
00000010
00001000
,
00000200
00000000
00000310
00000001
00000200
00000000
00001300
00010000
,
00001000
00000000
00011000
00000000
00010000
00100000
01000000
00010000
,
10000000
01000000
00010000
01000000
10000000
00010000
02000000
00000000
,
03100000
00010000
00001000
00010000
00000010
00010000
00001000
00010000
,
00000200
00000000
00000310
00000001
00002000
00000000
00003010
00000100
,
00001000
00010000
00001000
00100000
00010000
10000000
00100000
01000000
,
00020000
00000000
10030000
01000000
00000000
00010000
00001000
00010000
,
00100000
00000000
00010000
00000000
00001000
00000000
00010000
00000000
00001000
00000000
00000000
00001000
00000000
00000000
00001000
00000000
,
00010000
00000000
00000000
00000100
00000000
00000000
00000110
00000000
00000000
00000000
00000010
00000000
00000001
00000000
00000000
00001000
,
00000000
00001010
00000000
00000001
00000010
00000100
00010000
00001000
,
00100000
00000000
00000000
00010000
00000000
00000000
01010000
00000000
00000000
00000000
01000000
00000000
00001000
00000000
00000000
00010000
,
00000000
00011000
00000000
00000000
00000000
00000000
00000000
00000000
;

//--------------- dance-double - Fred-104 ----------------
#NOTEDATA:;
#STEPSTYPE:dance-double;
#DESCRIPTION:Fred-104;
#DIFFICULTY:Hard;
#METER:14;
#CREDIT:Fred-104;
#NOTES:
00000000
00000000
00000000
00000000
,
00000000
00000000
00000000
00000000
,
00000000
00000000
00000000
00000000
,
00000000
00000000
00000000
00000000
,
00000000
00000000
00000000
00000000
00000000
00000000
00010000
00001000
,
00200000
00000000
00310000
01000000
00002000
00000000
00013000
00000100
,
00000010
00000000
00001010
00000000
00000010
00000001
00000100
00001000
,
00020000
00000000
01030000
00010000
00001000
00010000
00100000
10000000
,
01000000
00000000
00000000
01100000
00000000
00000000
00001000
00000000
00000000
00011000
00000000
00000000
00010000
00000000
00000010
00000000
,
00000200
00000000
00001300
00000100
00000020
00000000
00001030
00000100
,
00000010
00000000
00000011
00000000
00000101
00000000
00000100
00001000
,
00010000
00001000
00010000
00000000
00001000
00000000
01000000
00100000
02000000
00000000
03020000
00000000
02030000
00000000
03020000
00000000
,
10030000
00000000
01000000
00000000
00010000
00000000
00001000
00000000
00010000
00001000
00010000
00001000
00010000
00001000
00010000
00000000
,
00000100
00000000
00000000
00001000
00000000
00000000
00001001
00000000
00000000
00000000
00000001
00000010
00000001
00000000
00000000
00000010
,
00000000
00000000
00001010
00000000
00000000
00000000
00001000
00010000
00001000
00000000
00001000
00000000
00100000
00000000
00100000
00000000
,
00010000
00000000
00000000
01000000
00000000
00000000
01001000
00000000
00000000
00000000
00001000
00010000
00001000
00000000
00000000
00000100
,
00000000
00000000
00000110
00000000
00000000
00000000
00000010
00001000
00000010
00000000
00001000
00000000
00000001
00000010
00000001
00000010
,
00000100
00000000
00000000
00010000
00000000
00000000
00011000
00000000
00000000
00000000
00001000
01000000
00001000
00000000
00000000
00100000
,
00000000
00000000
00110000
00000000
00000000
00000000
00010000
10000000
00010000
10000000
01000000
00000000
00100000
00010000
00100000
00000000
,
00001000
00000000
00000000
00010000
00000000
00000000
01000000
00000000
00100000
00000000
00010000
00000000
10000000
00000000
00100000
00000000
,
00020000
00000000
00031000
00000010
00000001
00000100
00001000
00010000
,
00001000
00000000
00010000
00000000
00000100
00000000
00000110
00000000
00000000
00000000
00000001
00001000
00000001
00000000
00001000
00000000
,
00000010
00000000
00010000
00000000
00001000
00000000
00100000
00000000
01000000
10000000
01000000
00000000
00100000
00000000
00001000
00000000
,
00010000
00000000
00000000
00000100
00000000
00000000
00000110
00000000
00000000
00000010
00000001
00000000
00001000
00000000
00000000
00000010
,
00000000
00000000
00000110
00000000
00000000
00000100
00001000
00000100
00001000
00000000
00010000
00001000
00000000
00010000
00001000
00000000
,
00100000
00000000
00000000
01000000
00000000
00000000
01010000
00000000
00000000
00000000
00010000
01000000
00010000
00000000
00000000
01000000
,
00000000
00000000
11000000
00000000
00000000
00000000
10000000
01000000
00200000
00000000
00000000
00000000
00302000
00000000
00000000
00000000
,
00013000
00000100
00000001
00001000
00000010
00000100
00001000
00000001
,
00000100
00000000
00001000
00000000
00010000
00000000
00100000
00000000
01000000
00010000
01000000
00000000
00100000
10000000
00100000
00000000
,
10000000
00010000
00100000
01000000
00010000
00001000
00000010
00000100
,
00001000
00000000
00000010
00001000
00000010
00000000
00010000
00000000
00001000
00010000
00001000
00000000
00100000
00010000
00100000
00000000
,
00001000
00000000
00000000
00010000
00000000
00000000
00010010
00000000
00000000
00000000
00000010
00001000
00000010
00001000
00000010
00000000
,
00000000
00000000
00000101
00000000
00000000
00000001
00000000
00000000
00001000
00000000
00000000
00000100
00000000
00000000
00000010
00000000
,
00002000
00020000
00000000
00000000
,
00003000
00000000
00000000
00000000
00030000
00000000
00001000
00010000
,
02000000
00000000
13000000
00100000
00020000
00000000
00031000
00010000
,
00011000
00000000
01010000
00000000
11000000
10000000
00010000
01000000
,
00200000
00000000
00310000
00001000
00000100
00000010
00010000
00000010
,
00001010
00000000
00001000
00000000
00000001
00000000
00000010
00000000
00000100
00001000
00000100
00000000
00010000
00001000
00010000
00000000
,
00002000
00000000
00013000
00100000
20000000
00000000
31000000
00100000
,
00001000
00000000
00010000
00000000
00000100
00000000
00010000
00000100
00001000
00000000
00000001
00000000
00000100
00000000
00000010
00000000
,
00002000
00000000
00003100
00000010
00001000
00010000
00001000
00100000
,
00010000
00000000
10000000
00000000
00100000
01000000
00100000
00000000
10000000
00000000
01000000
00000000
00010000
00001000
00010000
00001000
,
00010000
00000000
00000000
00000100
00000000
00000000
00000110
00000000
00000000
00000000
00000010
00000001
00000010
00000000
00000000
00000001
,
00000000
00000000
00000000
00001001
00000000
00000000
00001000
00000000
00000001
00000000
00001000
00000000
00000001
00000000
00000010
00000000
00000100
00000000
00001000
00000000
00000100
00000000
00010000
00000000
,
00001000
00000000
00000000
00100000
00000000
00000000
00110000
00000000
00000000
00000000
00010000
10000000
00010000
00000000
00000000
01000000
,
00000000
00000000
01001000
00000000
00000000
00000000
00001000
00010000
00001000
00000000
00010000
00000000
00000010
00000000
00001000
00000000
,
00000020
00000000
00000000
00000000
00000000
00000000
00000030
00000001
,
00001000
00000100
00000010
00010000
00000000
00022000
00000000
00033000
,
00001000
00000000
00000000
00010000
00000000
00000000
00110000
00000000
00000000
00000000
00100000
10000000
00200000
00000000
00000000
00000000
,
00000000
00000000
10300000
00010000
10000000
00000000
01000000
00000000
00020000
00000000
00000000
00000000
00032000
00000000
00000000
00000000
,
00013000
00000000
00001000
00010000
00001000
00000000
00100000
00010000
00100000
00000000
00001000
00010000
00001000
00000000
00010000
00000000
,
00000100
00000000
00000010
00000001
00000010
00000000
00000100
00001000
00000100
00000000
00000010
00000001
00000010
00000000
00000001
00000000
,
00001000
00000000
00000010
00010000
00000010
00000000
00010000
00001000
00010000
00000000
00001000
01000000
00001000
00000000
01000000
00000000
,
00100000
00000000
10000000
00010000
10000000
00000000
01000000
00100000
02000000
00000000
03020000
00000000
00032000
00000000
00003020
00000000
,
00000031
00000000
00001000
00000001
00001000
00000000
00000010
00001000
00000010
00000000
00001000
00000001
00001000
00000000
00000010
00010000
,
00000010
00000000
00010000
00001000
00010000
00000000
00001000
00100000
00001000
00000000
00010000
00001000
00010000
00000000
00001000
01000000
,
00001000
00000000
01000000
00100000
01000000
00000000
00100000
10000000
00100000
00000000
10000000
00010000
10000000
00000000
01000000
00000000
,
00010000
00010000
00001000
00001000
00011000
00000000
00010000
00001000
,
00000200
00000000
00000301
00000100
00002000
00000000
00013000
00001000
,
00001010
00000000
00000011
00000000
00000001
00000100
00001000
00010000
,
00200000
00000000
10300000
01000000
00010000
10000000
00100000
00001000
,
00011000
00000000
00001010
00000000
00011000
00000000
00010000
00000010
,
00000200
00000000
00001300
00000001
00000020
00000000
00002030
00000001
,
00003010
00000100
00000010
00000100
00000010
00000000
00001000
00000000
00010000
00000000
00000000
00000000
00011000
00000000
00000000
00000000
,
00001000
00000000
00100000
00000000
00010000
00000000
10000000
00100000
10000000
00000000
00010000
01000000
00010000
00000000
00100000
01000000
,
00200000
00000000
00301000
00010000
00000100
00000000
00000010
00001000
,
00011000
00000000
00110000
00000000
00100000
10000000
01000000
00010000
,
00011000
00000000
00010100
00000000
00000100
00001000
00000001
00000100
,
00000110
00000000
00011000
00000000
00010000
00001000
00000010
00001000
,
00020000
00000000
00130000
10000000
02000000
00000000
03010000
00001000
,
00010000
00000000
00100000
01000000
00100000
00000000
10000000
00000000
01000000
00000000
00010000
00000000
00001000
00000000
00010000
00000000
,
00000100
00001000
00000100
00000000
00000010
00000000
00000001
00000000
00001000
00000010
00001000
00000000
00000010
00000000
00000100
00000000
,
00001000
00000000
00000000
00000000
00010000
00000000
00000000
00000000
00001000
00000000
00000000
00000000
00100000
00000000
00000000
00000000
00010000
00000000
00000000
00000000
00100000
00000000
00000000
00000000
01000000
00000000
00000000
00000000
00000000
00000000
00000000
00000000
00000000
01000000
00000000
00000000
00000000
00000000
00000000
00000000
00000000
00000000
01000000
00000000
00000000
00000000
00000000
00000000
,
10000000
00000000
00000000
00100000
00000000
00000000
00110000
00000000
00000000
00000000
00010000
00001000
00010000
00000000
00000000
00001000
,
00000000
00000000
00001100
00000000
00000000
00000000
00000100
00000001
00000100
00000000
00000001
00000010
00000001
00000000
00001000
00000000
,
00000010
00000000
00000000
00000100
00000000
00000000
00001100
00000000
00000000
00000000
00001000
00010000
00001000
00000000
00000000
01000000
,
00000000
10010000
00000000
00000000
00000000
00000000
00000000
00000000
;
