#VERSION:0.83;
#TITLE:Sakura Luminance(kors k Remix);
#ARTIST:Remixed by kors k;
#BANNER:Sakura Luminance(kors k Remix).png;
#BACKGROUND:Sakura Luminance(kors k Remix)-bg.png;
#CDTITLE:./CDTitles/Sakura Luminance.png;
#MUSIC:Sakura Luminance(kors k Remix).ogg;
#SAMPLESTART:87.529;
#SAMPLELENGTH:15;
#DISPLAYBPM:85:170;
#BPMS:0=170,36=340,40=170,40.5=85,41=170,247.5=85,248=170;
#STOPS:40=0.088,40.25=0.088,247=0.176;
#TIMESIGNATURES:0=4=4,36=5=4,41=4=4,245=3=4,247=4=4;
#BGSTAGE:16;

//--------------- dance-single - Fred-104 ----------------
#NOTEDATA:;
#STEPSTYPE:dance-single;
#DESCRIPTION:Fred-104;
#DIFFICULTY:Beginner;
#METER:4;
#CREDIT:Fred-104;
#NOTES:
0000
0000
0000
0000
,
0000
0000
0000
0000
,
0000
0000
0000
0000
,
0000
0000
0000
0000
,
0000
0000
0000
0000
,
1000
0000
0000
0000
,
0001
0000
0000
0000
,
0100
0000
0000
0000
,
0001
0000
0000
0000
,
2000
0000
0000
0000
,
3000
1000
0000
0000
,
0000
0001
0000
0100
,
0000
0001
0000
0000
,
0000
0001
0000
1000
,
0000
0010
0000
0000
,
0000
1000
0000
0100
,
0000
1000
0000
0000
,
0000
0001
0000
1000
,
0000
0001
0000
0000
,
0001
0000
0000
0001
,
0000
0100
0000
0000
,
0100
0000
0000
0100
,
0000
0010
0000
0000
,
0010
0000
0000
0010
,
0000
1000
0000
0000
,
1000
0000
0000
1000
,
0000
0001
0000
1000
,
0000
0001
0000
0100
,
0000
0001
0000
0010
,
0000
0001
0000
1000
,
1000
1000
0000
0001
,
0000
0100
0000
0010
,
0000
0100
0000
0001
,
0000
1000
0000
0001
,
0001
0001
0000
1000
,
0000
0010
0000
1000
,
0000
0100
0000
0010
,
0000
0001
0000
1000
,
1000
1000
0000
0001
,
0000
1000
0000
0001
,
0000
1000
0000
0001
,
0000
0100
0100
0100
,
0100
0200
0000
0000
,
0000
0000
0000
0000
,
0000
0300
0000
0000
,
0000
0000
0000
0000
,
0000
0020
0000
0000
,
0000
0000
0000
0000
,
0000
0000
0000
0000
,
0000
0030
0000
0000
,
0000
0100
0000
0001
,
0000
1000
0000
0001
,
0000
1000
0000
1000
,
0000
0100
0000
0100
,
0000
1000
0000
1000
,
0000
0010
0000
0010
,
0000
0100
0000
0100
,
0000
0001
0000
0001
,
0000
1000
0000
0001
,
0000
1000
0000
0001
,
0000
1000
1000
1000
,
1000
1001
0000
0000
,
0001
0000
0100
0000
,
0001
0000
0010
0000
,
0001
0000
1000
0000
,
0001
0000
0010
0010
,
0001
0000
1000
0000
,
0001
0000
0100
0010
,
0100
0000
0001
0000
,
1000
0000
0001
1000
,
0001
0000
0000
0100
,
0000
0000
1000
0000
,
0100
0000
0000
0001
,
0000
0000
0010
0000
,
0001
0000
0000
0010
,
0000
0000
1000
0000
,
0010
0000
0000
0001
,
0000
0000
1000
0001
,
2002
0000
0000
0000
,
3003
0000
0000
0000
;

//--------------- dance-single - Fred-104 ----------------
#NOTEDATA:;
#STEPSTYPE:dance-single;
#DESCRIPTION:Fred-104;
#DIFFICULTY:Easy;
#METER:8;
#CREDIT:Fred-104;
#NOTES:
0000
0000
0000
0000
,
0000
0000
0000
0000
,
0000
0000
0000
0000
,
0000
0000
0000
0000
,
0000
0000
0000
0000
,
1000
0010
1000
1000
,
0001
1000
0001
0000
,
0100
0100
0010
0100
,
0001
1000
0001
0000
,
2000
0000
0000
0000
,
3001
1000
0001
0000
0001
0000
0100
0000
,
0000
0010
0000
0000
0100
0000
0001
0000
,
0000
1000
0001
1000
,
0000
0010
0000
0000
0100
0000
0110
0000
,
0000
0001
1000
0001
,
0000
0010
0000
0000
0001
0000
0100
0000
,
0000
0010
0100
0001
,
0000
1000
0000
0000
0010
0000
1001
0000
,
0000
1000
0100
0010
,
0001
0100
0010
2000
,
3000
0001
0010
0100
,
1000
0010
0100
0002
,
0003
1000
0100
0001
,
0100
1000
0010
2000
,
3000
0001
0010
1000
,
0010
0001
1000
0001
,
1001
1000
0010
1000
,
0000
0100
0000
0100
0000
0000
0010
0000
,
0000
0001
0000
0001
0000
0000
0100
0000
,
0000
0010
0000
0010
0000
0000
0100
0000
,
0001
1000
0001
0100
,
0000
0010
0000
0010
0000
0000
0100
0000
,
0000
0001
0000
0001
0000
0000
1000
0000
,
0000
0100
0000
0100
0000
0000
1000
0000
,
0010
0000
0100
0010
0100
0000
0010
0000
,
0000
1000
0000
1000
0000
0000
0001
0000
,
0000
0010
0000
0010
0000
0000
0001
0000
,
0000
0100
0000
0100
0000
0000
0001
0000
,
1000
1001
0000
0110
,
0000
1001
0000
0110
,
0000
0001
0001
1000
,
1000
0010
0100
0010
,
0100
0002
0000
0000
,
0000
0000
0000
0000
,
0000
0003
0000
0000
,
0000
0000
0000
0000
,
0000
2000
0000
0000
,
0000
3200
0000
0000
,
0000
0320
0000
0000
,
0000
0032
0000
0103
,
0000
0001
0010
0001
,
0001
1000
0010
0100
,
0000
0010
0010
1000
,
0100
1000
0001
1000
,
0000
0100
0100
0010
,
0001
0100
0010
0100
,
0000
0001
0001
0100
,
0100
0010
0010
1000
,
1000
0100
0100
0010
,
0010
0001
0100
0010
,
1000
0000
0001
0010
0001
0000
1000
0100
,
1000
0000
0000
0000
0001
0000
0000
1000
0000
0000
0001
0000
1001
0000
0000
0000
,
1000
0000
0010
0000
1000
0000
0000
0100
,
0000
0010
0001
0100
,
0001
0000
0010
0000
0001
0000
0000
0100
,
0000
0010
0110
0000
,
0100
0000
0001
0000
0100
0000
0000
0010
,
0000
0100
0001
1000
,
0010
0000
1000
0000
0100
0000
0000
0010
,
0000
0001
1001
1000
,
0001
0100
1000
0100
,
0001
0010
0002
0003
,
0001
0010
1000
0010
,
0001
0100
0002
0003
,
1000
0100
0010
0100
,
1000
0010
0100
0010
,
0100
0001
0010
0001
,
0100
0010
0100
0000
0001
1000
0001
0000
,
2002
0000
0000
0000
,
3003
0000
0000
0000
;

//--------------- dance-single - Fred-104 ----------------
#NOTEDATA:;
#STEPSTYPE:dance-single;
#DESCRIPTION:Fred-104;
#DIFFICULTY:Medium;
#METER:12;
#CREDIT:Fred-104;
#NOTES:
0000
0000
0000
0000
,
0000
0000
0000
0000
,
0000
0000
0000
0000
,
0000
0000
0000
0000
,
0000
0000
0000
0000
,
1000
0000
0010
1000
0100
1000
0001
1000
,
0100
0010
0001
1000
,
0001
0000
0100
0010
0100
0001
1000
0100
,
1000
0010
1000
0001
0100
0001
1000
0100
,
0020
0000
0000
0000
,
0032
1003
0001
0010
0001
1000
0001
0100
,
0010
0100
0000
0001
0010
0100
1000
0010
,
0100
0000
0001
1000
0100
1000
0001
1000
,
0010
1000
0000
0010
0100
0001
1000
0001
,
0010
0000
0001
0100
0001
1000
0100
0010
,
0001
1000
0000
0010
1000
0010
0100
0001
,
0100
0000
0010
1000
0010
0100
0001
0010
,
0100
0010
0001
1000
0001
0100
0010
1000
,
0200
0300
0000
0200
0300
0000
0001
0000
0000
0010
0000
0000
1000
0000
0000
0010
0000
0000
0001
0000
0000
0000
0000
0000
,
0001
0100
1000
0100
0001
0000
0001
0010
,
0001
1000
0001
0010
1000
0010
0001
0000
,
0001
0100
1000
0100
0001
1000
0100
0010
,
0110
0000
0001
0100
1000
0100
0001
0000
,
1000
0100
0001
0100
1000
0000
0001
1000
,
0001
0100
0001
0010
1000
0010
0001
1000
,
0010
0001
0010
1000
0001
0100
0010
1000
,
0001
0000
1000
0010
1000
0100
1000
0001
,
0010
0002
0003
0200
0300
0001
0010
0100
,
0010
0002
0003
2000
3000
0010
1000
0100
,
1000
0020
0030
0200
0300
0001
1000
0001
,
0100
0000
0001
0010
0100
1000
0010
0100
,
0010
2000
3000
0002
0003
0100
0010
1000
,
0100
0020
0030
0200
0300
1000
0001
1000
,
0010
0200
0300
0002
0003
1000
0100
0010
,
0001
0000
1000
1000
1000
0001
0100
0010
,
1000
0200
0300
0002
0003
0100
0010
0001
,
1000
0002
0003
0200
0300
0010
0001
0010
,
1000
0002
0003
0200
0300
0010
1000
0001
,
1000
0000
1001
0000
1000
0100
0100
0000
,
0001
0010
0010
0000
1000
0010
0010
0000
,
0001
0100
0100
1000
0010
0100
0001
1000
,
0100
0010
0001
0001
0100
0100
0010
0010
,
1000
1000
2002
0000
0000
0000
0000
0000
,
0000
0000
0000
0000
,
0000
3003
0000
0000
,
0000
0000
0000
0000
,
0000
0002
0000
0000
,
0000
0203
0000
0000
,
0000
0320
0000
0000
,
0000
2030
0000
3001
,
1000
0000
1001
0000
0001
0100
0001
0010
,
0001
0000
0100
0010
1000
0000
0010
1000
,
0001
0000
1000
0000
0100
0010
0001
1000
,
0010
0000
0100
0001
1000
0000
0001
1000
,
0010
0000
0110
0000
0001
0010
0100
1000
,
0010
0000
0100
0010
1000
0000
0001
0010
,
0100
1000
0001
0000
1000
0100
0001
0000
,
1000
0010
0001
0000
1000
0100
0001
0100
,
1000
0001
1000
0100
1000
0000
0001
0100
,
0001
0000
0100
0010
1000
0000
0010
0100
,
0001
0000
1000
0100
0010
0001
1000
0100
,
0010
0000
0000
0000
0000
0000
0000
0000
0001
0000
0000
0000
0000
0000
0000
0000
1000
0000
0000
0000
0000
0000
0000
0000
0000
0000
0000
0000
0001
0000
0000
0000
0000
0000
0000
0000
0000
0000
0000
0000
0100
0000
0000
0000
0000
0000
0000
0000
0220
0330
0000
0000
0000
0000
0000
0000
1001
0000
0000
0000
1000
0000
0000
0000
,
0001
1000
0010
1000
0001
1000
0100
0010
,
0000
0001
0100
0010
1000
0010
0100
0000
,
0010
1000
0100
1000
0010
0100
0010
1000
,
0000
0100
0010
0001
1000
0000
1001
0000
,
0001
1000
0100
1000
0001
0100
0010
1000
,
0000
0010
1000
0100
0010
0100
1000
0000
,
0001
1000
0010
0100
0001
0100
0010
0100
,
0000
0001
0010
0001
1000
0000
0002
2003
,
3001
0100
1000
0100
0010
0000
1000
0100
,
0001
0100
0010
0000
0001
1000
0002
0103
,
0001
0010
1000
0010
0100
0000
1000
0010
,
0001
0010
0100
0010
1000
0001
1001
0000
,
0001
0100
1000
0100
0001
0010
0001
0010
,
1000
0010
0001
0100
0001
0010
0100
1000
,
0001
0100
0010
0100
0001
1000
0100
0010
,
0001
0100
0010
0001
0010
0100
0020
1030
,
2002
0000
0000
0000
,
3003
0000
0000
0000
;

//--------------- dance-single - Fred-104 ----------------
#NOTEDATA:;
#STEPSTYPE:dance-single;
#DESCRIPTION:Fred-104;
#DIFFICULTY:Hard;
#METER:16;
#CREDIT:Fred-104;
#NOTES:
0000
0000
0000
0000
,
0000
0000
0000
0000
,
0000
0000
0000
0000
,
0000
0000
0000
0000
,
0000
0000
0000
0000
,
0001
0000
0000
0000
0001
0000
0000
0000
0001
1000
0000
1000
0100
0010
0000
0010
,
0100
0000
0000
0000
0100
0000
0000
0000
0100
0000
0000
0000
1000
0000
0001
0010
,
0001
0000
0100
0000
0010
0000
1000
0000
0001
0010
0001
0010
0100
1000
0100
1000
,
0001
0000
0100
0010
0100
0000
0001
0010
0001
0000
1000
0001
1000
0000
0001
1000
,
0002
0000
0000
0000
,
0203
0300
0000
0000
0200
0300
0000
0000
2000
0000
0000
0000
0000
0000
0000
0000
3001
0000
0000
0000
0000
0000
0000
0000
0010
0000
0000
0000
0000
0000
0000
0000
0001
0000
0000
0000
0000
0000
0000
0000
1000
0000
0000
0000
0001
0000
0000
0000
0010
0000
0000
0000
0000
0000
0000
0000
0100
0000
0000
0000
0000
0000
0000
0000
,
1000
0000
0010
0000
0000
0000
1000
0100
0010
0100
1000
0000
0001
0000
0100
0000
,
0010
0000
0100
0000
0001
0000
0010
0000
0100
0000
1000
0001
0010
0000
0001
0000
,
0100
0000
0010
0000
0000
0000
0100
0001
0010
0000
0100
0000
1000
0000
0001
0100
,
0010
0000
0100
0000
0001
0000
1000
0001
0010
0000
0001
1000
0100
0000
0010
0001
,
1000
0000
0010
0000
0000
0000
0100
0001
0100
0010
0100
0000
0001
0000
1000
0000
,
0010
0000
0100
0000
0001
0000
1000
0010
0100
0000
0001
0010
0100
0000
0010
0001
,
1000
0000
0001
1000
0001
0000
0100
0000
1000
0000
0100
0000
0001
0000
0001
0000
,
1001
0000
1000
0010
1000
0000
0100
0010
0001
0000
0100
0000
0110
0000
0000
0000
,
0001
0000
0100
0010
1000
0000
0100
0000
0110
0000
0000
0000
0001
0000
0100
0010
,
1000
0000
0100
0000
1000
0000
0100
0010
0001
0000
1000
0000
1010
0000
1000
0001
,
0100
0000
0001
0000
0010
0000
0100
0000
1000
0000
0001
1000
0010
0000
1000
0000
,
1100
0000
0000
0000
1100
0000
1000
0100
0010
0000
0001
0000
0101
0000
0000
0000
,
0011
0000
0001
0100
0010
0000
1000
0000
1010
0000
0010
0000
0110
0000
0100
0000
,
1001
0000
0000
0000
0000
0000
0001
0000
0000
1000
0000
0000
0001
0000
0000
0000
0000
0000
1000
0000
0010
0000
1000
0000
0010
0000
0000
0000
0000
0000
0100
0000
0000
0000
0000
0000
0101
0000
0000
0000
0000
0000
0001
0000
0000
0000
0000
0000
,
1000
0000
0100
1000
0010
0000
0100
0001
0010
0000
0100
0000
1000
0000
0001
0000
,
1000
0001
1000
0001
1000
0000
0010
0100
0010
0000
1000
0100
1000
0000
0001
0010
,
0001
0000
0010
0100
1000
0000
0001
0010
0100
0000
1000
0010
1000
0000
0001
0100
,
0001
0000
1000
0010
0100
0000
0001
1000
0010
0000
0100
0001
0100
0000
0001
0010
,
0001
0000
1000
0001
0100
0000
0010
1000
0001
0000
0010
0100
0010
0000
0001
1000
,
0010
0000
1000
0001
0100
0000
0010
1000
0010
0000
0100
0001
0100
0000
0001
0010
,
0001
0000
0010
0001
0100
0000
0010
1000
0001
0000
1000
0100
1000
0000
0001
0100
,
0001
0000
1000
0001
0010
0000
0100
1000
0001
0000
0100
0010
0100
0000
0001
1000
,
0001
0000
1000
0001
0010
0000
0100
0010
0001
0000
0100
0010
0100
0000
0001
1000
,
0001
0000
2000
0000
3001
0000
0001
0000
1001
0000
1000
0001
0010
0000
0001
1000
,
0100
0000
1000
0100
1000
0000
0001
0100
0001
0000
1000
0001
0010
0000
0100
1000
,
0001
0000
0100
0010
0100
0000
0001
1000
0001
0000
0010
0100
1000
0000
0001
1000
,
0010
0000
1000
0010
1000
0000
0001
0010
0001
0000
0100
0001
0010
0000
0100
1000
,
0001
0000
1000
0000
0001
0100
0001
0100
0010
0000
1000
0000
0100
0010
0100
0010
,
0001
0000
1000
0000
0001
0100
0010
1000
0010
0000
0100
0000
0001
1000
0100
0010
,
0001
0000
1000
0000
0001
0100
0001
0000
1000
0010
1000
0000
0001
0010
0001
0000
,
1000
0100
1000
0000
0001
0000
0001
0000
1000
0000
1000
0000
0001
0010
0100
1000
,
0010
0100
0001
1000
0002
0000
0000
0000
0000
0000
0000
0000
0000
0000
0000
0000
,
0000
0000
0000
0000
,
0000
0203
0000
0000
,
0000
0000
0000
0000
,
0000
0320
0000
0000
,
0000
2030
0000
0000
,
0000
3200
0000
0000
,
0000
0320
0000
0031
,
1000
1001
0001
0001
,
0100
0010
0000
0100
0010
0000
0000
0000
0010
0000
0000
0000
0010
0000
0000
0000
,
1000
0000
0001
1000
0100
0000
0000
0000
0100
0000
0000
0000
0100
0000
0000
0000
,
0010
0001
0000
0010
0001
0000
0000
0000
0001
0000
0000
0000
0001
0000
0100
0000
,
0010
1000
0010
1000
0001
0000
0000
0000
0100
0000
0001
0000
0010
0100
0000
1000
,
0000
0001
0000
0100
0010
0000
1000
0000
0100
0000
0010
0000
1000
0000
0010
0000
,
0001
0000
1000
0001
1000
0000
0000
0000
0100
0000
0010
0000
0011
0000
0000
0000
,
0100
0010
1010
0000
1000
0100
1100
1000
,
0001
0100
0101
0001
0100
0010
1000
0100
,
0110
0010
0001
1000
0001
0100
0010
1000
,
1001
0000
0001
0000
1000
0010
1000
0010
0100
0001
0100
0001
1000
0100
0010
0001
,
0010
0000
0000
0000
0100
0000
0000
0000
1000
0000
0000
0000
0001
0000
0000
0000
0100
0000
0000
0000
0000
0000
0000
0000
0001
0000
0000
0000
0010
0000
0000
0000
0000
0000
0000
0000
0010
0000
0000
0000
1000
0000
0000
0000
0000
0000
0000
0000
2002
3003
0000
0000
0000
0000
0000
0000
0110
0000
0000
0000
0001
0000
1000
0000
,
0001
0000
0000
0000
0000
0000
0000
0000
0020
0030
0000
0000
0000
0000
0000
0000
0020
0030
0000
0000
0000
0000
0000
0000
1000
0000
0000
0000
0001
0000
0000
0000
1000
0000
0000
0000
0000
0000
0000
0000
0001
0000
0000
0000
0000
0000
0000
0000
0100
0000
0000
0000
0000
0000
0000
0000
0010
0000
0000
0000
0000
0000
0000
0000
,
1000
0000
0001
0010
0100
1000
0001
0000
1000
0000
0010
0000
0001
0000
0010
0000
,
1000
0000
0000
0000
0000
0000
0000
0000
0200
0300
0000
0000
0000
0000
0000
0000
0200
0300
0000
0000
0000
0000
0000
0000
0001
0000
0000
0000
1000
0000
0000
0000
0001
0000
0000
0000
0000
0000
0000
0000
1000
0000
0000
0000
0000
0000
0000
0000
0001
0000
0000
0000
0000
0000
0000
0000
0100
0000
0000
0000
0000
0000
0000
0000
,
0010
0000
0100
0001
0010
0000
0100
0000
1000
0000
0010
1000
0001
0000
0100
0001
,
1000
0000
0000
0000
0000
0000
0000
0000
0020
0030
0000
0000
0000
0000
0000
0000
0020
0030
0000
0000
0000
0000
0000
0000
0001
0000
0000
0000
1000
0000
0000
0000
0100
0000
0000
0000
0000
0000
0000
0000
1000
0000
0000
0000
0000
0000
0000
0000
0010
0000
0000
0000
0000
0000
0000
0000
0100
0000
0000
0000
0000
0000
0000
0000
,
0001
0000
0010
0001
1000
0001
0100
0000
0001
0000
0100
0000
1000
0000
0100
0000
,
0001
0000
0000
0000
0000
0000
0000
0000
0020
0030
0000
0000
0000
0000
0000
0000
0020
0030
0000
0000
0000
0000
0000
0000
1000
0000
0000
0000
0001
0000
0000
0000
0010
0000
0000
0000
0000
0000
0000
0000
0100
0000
0000
0000
0010
0000
0000
0000
0001
0000
0000
0000
0000
0000
0000
0000
1000
0000
0000
0000
0000
0000
0000
0000
,
0001
1000
0010
0100
0101
0000
0002
2003
,
3001
0000
0010
0001
1000
0000
0010
0000
0110
0000
0100
0001
1000
0000
0100
0010
,
0001
0000
1000
0000
1010
0000
0010
0000
0100
0000
0010
1000
0001
0010
0001
0010
,
0100
0000
1000
0001
0010
0000
0001
0000
0100
0000
0010
0000
0110
0000
0100
0001
,
1000
0000
0001
1000
0010
0000
2000
0000
3100
0010
0001
0000
1001
0000
0000
0000
,
1000
0000
0100
0001
0100
0000
1000
0000
0001
0000
0100
1000
0100
0000
0001
0010
,
0100
0000
1000
0001
0010
0000
1000
0010
0001
0000
1000
0010
0100
0000
0001
1000
,
0001
0000
0100
0000
0010
0000
1000
0000
0100
0000
1000
0001
0010
0001
1000
0010
,
1000
0100
1000
0001
0100
0001
1000
0001
0010
0100
1000
0001
0100
0000
0000
0000
,
2002
0000
0000
0000
,
3003
0000
0000
0000
;

//--------------- dance-double - Fred-104 ----------------
#NOTEDATA:;
#STEPSTYPE:dance-double;
#DESCRIPTION:Fred-104;
#DIFFICULTY:Easy;
#METER:8;
#CREDIT:Fred-104;
#NOTES:
00000000
00000000
00000000
00000000
,
00000000
00000000
00000000
00000000
,
00000000
00000000
00000000
00000000
,
00000000
00000000
00000000
00000000
,
00000000
00000000
00000000
00000000
,
00010000
00001000
00010000
00010000
,
00000010
00010000
00001000
00000000
,
00010000
00010000
00001000
01000000
,
00001000
00010000
00001000
00000000
,
00020000
00000000
00000000
00000000
,
00031000
00010000
00001000
00000000
00010000
00000000
00000100
00000000
,
00000000
00001000
00000000
00000000
00000001
00000000
00000100
00000000
,
00000000
00000010
00000100
00000001
,
00000000
00001000
00000000
00000000
00000010
00000000
00000110
00000000
,
00000000
00010000
00001000
00100000
,
00000000
00010000
00000000
00000000
01000000
00000000
00100000
00000000
,
00000000
01000000
00010000
10000000
,
00000000
01000000
00000000
00000000
00100000
00000000
10010000
00000000
,
00000000
10000000
01000000
00010000
,
00001000
00000100
00000001
00002000
,
00003000
00000001
00000010
00001000
,
00010000
00100000
10000000
00020000
,
00030000
10000000
01000000
00010000
,
00001000
00000010
00000100
00002000
,
00003000
00000001
00000100
00001000
,
00010000
00100000
01000000
00010000
,
10010000
10000000
01000000
00100000
,
00000000
00001000
00000000
00001000
00000000
00000000
00010000
00000000
,
00000000
00000010
00000000
00000010
00000000
00000000
00001000
00000000
,
00000000
00000100
00000000
00000100
00000000
00000000
00010000
00000000
,
00001000
00000100
00000001
00001000
,
00000000
00000001
00000000
00000001
00000000
00000000
00000010
00000000
,
00000000
00000100
00000000
00000100
00000000
00000000
00010000
00000000
,
00000000
00001000
00000000
00001000
00000000
00000000
00100000
00000000
,
00010000
00000000
10000000
00100000
10000000
00000000
00010000
00000000
,
00000000
01000000
00000000
01000000
00000000
00000000
00100000
00000000
,
00000000
10000000
00000000
10000000
00000000
00000000
01000000
00000000
,
00000000
00100000
00000000
00100000
00000000
00000000
00001000
00000000
,
00010000
00011000
00000000
00000110
,
00000000
00011000
00000000
01100000
,
00000000
00010000
00010000
00001000
,
00001000
00000010
00000010
00000100
,
00000100
00020000
00000000
00000000
,
00000000
00000000
00000000
00000000
,
00000000
00030000
00000000
00000000
,
00000000
00000000
00000000
00000000
,
00000000
00002000
00000000
00000000
,
00000000
00203000
00000000
00000000
,
00000000
00320000
00000000
00000000
,
00000000
20030000
00000000
30100000
,
00000000
01000000
01000000
00010000
,
10000000
01000000
00010000
00001000
,
00000000
00010000
00001000
00000010
,
00000100
00010000
00010000
00001000
,
00000000
00010000
00010000
00001000
,
00000010
00000001
00000100
00001000
,
00000000
00010000
00010000
01000000
,
01000000
10000000
10000000
00010000
,
00010000
01000000
01000000
00100000
,
00100000
01000000
00001000
00010000
,
00000100
00000000
00001000
00000010
00000100
00000000
00000001
00001000
,
00000010
00000000
00000000
00000000
00010000
00000000
00000000
00001000
00000000
00000000
00010000
00000000
00011000
00000000
00000000
00000000
,
00010000
00000000
00001000
00000000
00100000
00000000
00000000
00010000
,
00000000
10000000
00100000
01000000
,
00010000
00000000
10000000
00000000
01000000
00000000
00000000
00100000
,
00000000
00001000
00011000
00000000
,
00010000
00000000
00001000
00000000
00000010
00000000
00000000
00001000
,
00000000
00010000
00000100
00001000
,
00000100
00000000
00010000
00000000
00001000
00000000
00000000
01000000
,
00000000
00001000
00011000
00010000
,
00001000
00010000
01000000
00010000
,
00001000
00010000
00002000
00003000
,
00010000
00001000
00000010
00001000
,
00010000
00001000
00020000
00030000
,
00001000
00010000
00100000
00010000
,
00001000
00010000
00001000
00010000
,
00000100
00010000
00001000
00010000
,
00001000
00100000
00010000
00000000
10000000
00100000
01000000
00000000
,
02200000
00000000
00000000
00000000
,
03300000
00000000
00000000
00000000
;

//--------------- dance-double - Fred-104 ----------------
#NOTEDATA:;
#STEPSTYPE:dance-double;
#DESCRIPTION:Fred-104;
#DIFFICULTY:Medium;
#METER:13;
#CREDIT:Fred-104;
#NOTES:
00000000
00000000
00000000
00000000
,
00000000
00000000
00000000
00000000
,
00000000
00000000
00000000
00000000
,
00000000
00000000
00000000
00000000
,
00000000
00000000
00000000
00000000
,
00001000
00000000
00010000
00001000
00010000
00100000
01000000
00010000
,
01000000
00000000
00100000
00000000
10000000
00100000
01000000
00000000
,
00100000
00000000
10000000
01000000
00010000
00001000
00010000
00000100
,
00000010
00000001
00001000
00000010
00000100
00000000
00000001
00001000
,
00000200
00000000
00000000
00000000
,
00020300
00030010
00010000
00001000
00100000
00001000
00010000
00001000
,
01000000
00010000
00000000
00100000
01000000
10000000
00100000
01000000
,
00010000
00000000
10000000
00100000
10000000
01000000
00100000
00010000
,
00100000
00001000
00000000
00010000
00001000
00000010
00000100
00001000
,
00000001
00000000
00001000
00000001
00000010
00000001
00001000
00000001
,
00000010
00000100
00000000
00000010
00000001
00000100
00001000
00010000
,
00001000
00000000
01000000
00100000
10000000
00010000
00100000
01000000
,
10000000
00010000
00000000
10000000
01000000
00010000
00001000
00000000
,
00100000
00001000
00010000
00001000
00000010
00001000
00010000
00000000
,
00001000
00010000
00100000
00010000
00001000
00000000
00010000
00000100
,
00001000
00000010
00010000
00001000
00000100
00001000
00010000
00000000
,
00001000
00010000
01000000
00010000
00001000
00010000
00001000
00010000
,
00011000
00000000
00010000
00001000
00000010
00001000
00010000
00000000
,
00001000
00010000
01000000
00010000
00001000
00000000
00010000
00000010
,
00001000
00000100
00010000
00001000
00000010
00000001
00001000
00000100
,
00000010
00000001
00000100
00001000
00010000
00100000
01000000
00010000
,
10010000
00000000
00010000
01000000
00010000
00100000
00010000
10000000
,
01000000
00200000
00300000
00002000
00003000
00010000
00001000
00000010
,
00000100
00002000
00003000
00000002
00000003
00000010
00000100
00010000
,
00001000
00200000
00300000
00020000
00030000
01000000
00010000
00100000
,
01000000
00000000
10000000
01000000
00010000
00001000
00010000
01000000
,
10000000
00200000
00300000
00020000
00030000
00001000
00010000
00100000
,
10000000
00020000
00030000
02000000
03000000
00001000
00010000
00000100
,
00001000
00000002
00000003
00000200
00000300
00000010
00001000
00000001
,
00000010
00000100
00000010
00000010
00000010
00000001
00001000
00000001
,
00000100
00002000
00003000
00020000
00030000
00100000
01000000
00010000
,
10000000
02000000
03000000
00200000
00300000
01000000
00010000
00001000
,
00000010
00000200
00000300
00002000
00003000
00000001
00000100
00000010
,
00001000
00000100
00000110
00000000
00000001
00000100
00001000
00000000
,
00010000
00100000
10000000
00000000
10000000
01000000
00010000
00000000
,
00001000
00000010
00000001
00001000
00000001
00000100
00000010
00001000
,
00000100
00000010
00000001
00000001
00000100
00000100
00001000
00001000
,
00010000
00010000
00022000
00000000
00000000
00000000
00000000
00000000
,
00000000
00000000
00000000
00000000
,
00000000
00033000
00000000
00000000
,
00000000
00000000
00000000
00000000
,
00000000
00002000
00000000
00000000
,
00000000
00203000
00000000
00000000
,
00000000
00320000
00000000
00000000
,
00000000
20030000
00000000
31000000
,
00100000
00000000
00011000
00000000
00010000
00001000
00000010
00000100
,
00001000
00010000
00100000
00000000
01000000
00000000
00010000
00001000
,
00010000
00000000
00001000
00000000
00000100
00000010
00001000
00000010
,
00000100
00000001
00001000
00000001
00000010
00000100
00000010
00000001
,
00001000
00000000
00001001
00000000
00000001
00000100
00001000
00010000
,
00100000
00000000
01000000
00010000
10000000
00010000
00100000
01000000
,
00100000
00001000
00011000
00000000
00010000
00001000
00000010
00000000
,
00001000
00010000
01000000
00000000
00010000
00001000
00010000
00000100
,
00001000
00000001
00001000
00000100
00000010
00000000
00000001
00000010
,
00000100
00000000
00010000
00001000
00100000
00000000
00010000
10000000
,
00100000
00000000
10000000
01000000
00100000
00010000
01000000
00001000
,
00010000
00000000
00001000
00000000
00000010
00000000
00000000
00000001
00000000
00000000
00001000
00000000
00001001
00000000
00000001
00000100
,
00000001
00000010
00000100
00001000
00000001
00000100
00001000
00010000
,
00000000
00100000
10000000
00010000
01000000
00100000
10000000
00000000
,
00010000
00100000
10000000
00100000
00010000
10000000
01000000
00010000
,
00000000
00001000
00000010
00000100
00001000
00000001
00000100
00000000
,
00000001
00000010
00000100
00000001
00000100
00001000
00000001
00000010
,
00000000
00000100
00000010
00001000
00010000
01000000
00100000
00010000
,
01000000
00100000
10000000
00010000
00100000
01000000
00100000
00001000
,
00000000
00010000
00001000
00000100
00000001
00001000
00000001
00001000
,
00000001
00000100
00001000
00010000
00100000
00000000
10000000
01000000
,
00010000
00001000
00000010
00000000
00000001
00001000
00001001
00000000
,
00000001
00000010
00001000
00010000
01000000
00000000
10000000
00100000
,
00010000
00001000
00000100
00000001
00001000
00000001
00001001
00000000
,
00000001
00000100
00000010
00000100
00001000
00010000
00100000
01000000
,
00010000
10000000
00010000
00100000
01000000
00100000
00010000
10000000
,
01000000
00010000
01000000
00010000
00001000
00010000
00001000
00000010
,
00000001
00001000
00000001
00000100
00001000
00010000
00001000
00000000
,
00022000
00000000
00000000
00000000
,
00033000
00000000
00000000
00000000
;

//--------------- dance-double - Fred-104 ----------------
#NOTEDATA:;
#STEPSTYPE:dance-double;
#DESCRIPTION:Fred-104;
#DIFFICULTY:Hard;
#METER:16;
#CREDIT:Fred-104;
#NOTES:
00000000
00000000
00000000
00000000
,
00000000
00000000
00000000
00000000
,
00000000
00000000
00000000
00000000
,
00000000
00000000
00000000
00000000
,
00000000
00000000
00000000
00000000
,
00010000
00000000
00000000
00000000
00010000
00000000
00000000
00000000
00010000
00001000
00000000
00001000
00010000
00000010
00000000
00000010
,
00001000
00000000
00000000
00000000
00001000
00000000
00000000
00000000
00000001
00000000
00000000
00000000
00000100
00000000
00000010
00000100
,
00000010
00000000
00001000
00000000
00000001
00000000
00000010
00000000
00000100
00001000
00000100
00000000
00010000
00001000
00010000
00000000
,
00000010
00000000
00001000
00000010
00001000
00000000
00000100
00010000
00000100
00000000
00010000
00001000
00010000
00000000
00001000
01000000
,
00002000
00000000
00000000
00000000
,
00023000
00030000
00000000
00000000
00002000
00003000
00000000
00000000
00020000
00000000
00000000
00000000
00000000
00000000
00000000
00000000
00031000
00000000
00000000
00000000
00000000
00000000
00000000
00000000
00010000
00000000
00000000
00000000
00000000
00000000
00000000
00000000
01000000
00000000
00000000
00000000
00000000
00000000
00000000
00000000
00100000
00000000
00000000
00000000
00010000
00000000
00000000
00000000
00100000
00000000
00000000
00000000
00000000
00000000
00000000
00000000
01000000
00000000
00000000
00000000
00000000
00000000
00000000
00000000
,
10000000
00000000
00010000
00000000
00000000
00000000
01000000
00100000
01000000
00010000
01000000
00000000
00100000
00000000
10000000
00000000
,
01000000
00000000
00010000
00000000
00001000
00000000
00010000
00000000
00000100
00000000
00000010
00000001
00000010
00000000
00000001
00000000
,
00001000
00000000
00000001
00000000
00000000
00000000
00000100
00000010
00000100
00000000
00001000
00000000
00010000
00000000
00100000
01000000
,
00010000
00000000
10000000
00000000
00010000
00000000
01000000
00000000
00100000
00000000
01000000
00010000
01000000
00000000
00001000
00000000
,
00010000
00000000
00000100
00000000
00000000
00000000
00010000
00001000
00010000
00000010
00001000
00000000
00000100
00000000
00000010
00000000
,
00000001
00000000
00001000
00000000
00000010
00000000
00000100
00000000
00000010
00000000
00001000
00000001
00001000
00000000
00000010
00000000
,
00010000
00000000
00001000
00010000
00001000
00000000
00010000
00000000
01000000
00000000
10000000
00000000
00010000
00000000
01000000
00000000
,
01100000
00000000
00100000
10000000
00100000
00000000
10000000
01000000
00100000
00000000
00001000
00000000
00010000
00000000
00000000
00000000
,
00000010
00000000
00001000
00000100
00010000
00000000
00001000
00000000
00000010
00000000
00000000
00000000
00000001
00000000
00001000
00000100
,
00000010
00000000
00000001
00000000
00000100
00000000
00001000
00010000
00001000
00000000
00100000
00000000
01000000
00000000
10000000
00010000
,
01000000
00000000
00100000
00000000
01000000
00000000
00010000
00000000
10000000
00000000
01000000
00010000
00001000
00000000
00000010
00000000
,
00000100
00000000
00000000
00000000
00001100
00000000
00001000
00000100
00000010
00000000
00000001
00000000
00000101
00000000
00000000
00000000
,
00000110
00000000
00000010
00001000
00000100
00000000
00010000
00000000
00011000
00000000
00001000
00000000
01001000
00000000
01000000
00000000
,
01010000
00000000
00000000
00000000
00000000
00000000
00010000
00000000
00000000
00100000
00000000
00000000
00001000
00000000
00000000
00000000
00000000
00000000
00010000
00000000
00001000
00000000
00010000
00000000
00001000
00000000
00000000
00000000
00000000
00000000
00010000
00000000
00000000
00000000
00000000
00000000
00010100
00000000
00000000
00000000
00000000
00000000
00000100
00000000
00000000
00000000
00000000
00000000
,
00001000
00000000
00000001
00000100
00000001
00000000
00001000
00000100
00001000
00000000
00000001
00000000
00000010
00000000
00001000
00000000
,
00010000
00001000
01000000
00000000
00010000
00000000
00100000
01000000
00100000
00000000
00010000
10000000
00010000
00000000
10000000
01000000
,
10000000
00000000
02000000
00000000
03100000
00000000
00002000
00000000
00013000
00000000
00000100
00001000
00000100
00000000
00001000
00000010
,
00001000
00000000
00000020
00000000
00000031
00000000
00000020
00000000
00000130
00000000
00000001
00001000
00000001
00000000
00000010
00000100
,
00000010
00000000
00000002
00000000
00000103
00000000
00002000
00000000
00013000
00000000
01000000
00100000
00010000
00000000
01000000
00100000
,
10000000
00000000
00200000
00000000
10300000
00000000
01000000
10000000
00010000
00000000
01000000
00010000
00100000
00000000
00001000
00010000
,
00000010
00000000
00002000
00000000
00003100
00000000
00000020
00000000
00000031
00000000
00000010
00000001
00001000
00000000
00000010
00001000
,
00000100
00000000
00020000
00000000
00031000
00000000
00000020
00000000
00001030
00000000
00010000
00001000
01000000
00000000
00010000
00100000
,
00001000
00000000
00020000
00000000
01030000
00000000
00020000
00000000
00031000
00000000
00100000
00001000
00010000
00000000
00001000
00000000
,
00010000
00000000
00000200
00000000
00001300
00000000
00001000
00000000
00001100
00000000
00001000
00000010
00001000
00000000
00000100
00010000
,
00001000
00000000
02000000
00000000
03001000
00000000
00020000
00000000
00031000
00000000
00100000
00010000
01000000
00000000
00001000
00010000
,
00000100
00000000
00002000
00000000
00003100
00000000
00000020
00000000
00000031
00000000
00001000
00000001
00000010
00000000
00000001
00001000
,
00000100
00000000
00000020
00000000
00000031
00000000
00000200
00000000
00001300
00000000
00010000
00100000
01000000
00000000
00010000
10000000
,
00010000
00000000
10000000
00000000
01000000
10000000
01000000
10000000
01000000
00000000
00100000
00000000
00001000
00010000
00001000
00010000
,
00001000
00000000
01000000
00000000
00010000
00100000
00001000
00010000
00000010
00000000
00001000
00000000
00000100
00001000
00000001
00000100
,
00000010
00001000
00000001
00000001
00000100
00000100
00001000
00001000
,
00010000
00000000
00010000
00000000
01000000
00000000
01000000
00000000
00100000
00000000
00100000
00000000
00010000
10000000
01000000
10000000
,
01000000
00100000
00010000
00100000
00002000
00000000
00000000
00000000
00000000
00000000
00000000
00000000
00000000
00000000
00000000
00000000
,
00000000
00000000
00000000
00000000
,
00000000
00023000
00000000
00000000
,
00000000
00000000
00000000
00000000
,
00000000
00030020
00000000
00000000
,
00000000
00002030
00000000
00000000
,
00000000
00003002
00000000
00000000
,
00000000
00000203
00000000
00000310
,
00001000
00001100
00000100
00000100
,
00000010
00000001
00000000
00000001
00001000
00000000
00000000
00000000
00001000
00000000
00000000
00000000
00001000
00000000
00000000
00000000
,
00000100
00000000
00010000
00001000
00010000
00000000
00000000
00000000
00010000
00000000
00000000
00000000
00010000
00000000
00000000
00000000
,
00001000
00100000
00000000
00100000
00010000
00000000
00000000
00000000
00010000
00000000
00000000
00000000
10000000
00000000
00100000
00000000
,
01000000
00010000
01000000
00010000
10000000
00000000
00000000
00000000
00100000
00000000
10000000
00000000
01000000
00100000
00000000
00001000
,
00000000
00010000
00000000
00100000
10000000
00000000
01000000
00000000
00010000
00000000
00001000
00000000
00010000
00000000
00000100
00000000
,
00000010
00000000
00000001
00001000
00000001
00000000
00000000
00000000
00000100
00000000
00000010
00000000
00001010
00000000
00000000
00000000
,
00010000
00001000
00011000
00000000
00001000
00100000
00110000
00010000
,
10000000
00100000
10000000
01000000
00100000
00001000
00010000
00001000
,
01001000
01000000
00001000
00010000
00000100
00010000
00001000
00010000
,
00010010
00000000
00000010
00000000
00001000
00000010
00001000
00000000
00000001
00000100
00000001
00000000
00001000
00000100
00000010
00000001
,
00000100
00000000
00000000
00000000
00000010
00000000
00000000
00000000
00001000
00000000
00000000
00000000
00000100
00000000
00000000
00000000
00001000
00000000
00000000
00000000
00000000
00000000
00000000
00000000
00000001
00000000
00000000
00000000
00000010
00000000
00000000
00000000
00000000
00000000
00000000
00000000
00000010
00000000
00000000
00000000
00001000
00000000
00000000
00000000
00000000
00000000
00000000
00000000
00002002
00003003
00000000
00000000
00000000
00000000
00000000
00000000
00000110
00000000
00000000
00000000
00000001
00000000
00001000
00000000
,
00000001
00000000
00000000
00000000
00000000
00000000
00000000
00000000
00000200
00000300
00000000
00000000
00000000
00000000
00000000
00000000
00000200
00000300
00000000
00000000
00000000
00000000
00000000
00000000
00001000
00000000
00000000
00000000
00000001
00000000
00000000
00000000
00000010
00000000
00000000
00000000
00000000
00000000
00000000
00000000
00000100
00000000
00000000
00000000
00000000
00000000
00000000
00000000
00010000
00000000
00000000
00000000
00000000
00000000
00000000
00000000
00001000
00000000
00000000
00000000
00000000
00000000
00000000
00000000
,
00000000
00000000
00100000
00001000
00010000
00001000
01000000
00000000
00010000
00000000
00100000
00000000
01000000
00000000
10000000
00000000
,
00010000
00000000
00000000
00000000
00000000
00000000
00000000
00000000
00200000
00300000
00000000
00000000
00000000
00000000
00000000
00000000
00200000
00300000
00000000
00000000
00000000
00000000
00000000
00000000
10000000
00000000
00000000
00000000
01000000
00000000
00000000
00000000
00100000
00000000
00000000
00000000
00000000
00000000
00000000
00000000
00010000
00000000
00000000
00000000
00000000
00000000
00000000
00000000
01000000
00000000
00000000
00000000
00000000
00000000
00000000
00000000
00001000
00000000
00000000
00000000
00000000
00000000
00000000
00000000
,
00000000
00000000
00010000
00001000
00000010
00000000
00000100
00000000
00001000
00000000
00000010
00000100
00000001
00000000
00001000
00000000
,
00000100
00000000
00000000
00000000
00000000
00000000
00000000
00000000
00020000
00030000
00000000
00000000
00000000
00000000
00000000
00000000
00020000
00030000
00000000
00000000
00000000
00000000
00000000
00000000
01000000
00000000
00000000
00000000
00001000
00000000
00000000
00000000
00010000
00000000
00000000
00000000
00000000
00000000
00000000
00000000
00001000
00000000
00000000
00000000
00000000
00000000
00000000
00000000
00000010
00000000
00000000
00000000
00000000
00000000
00000000
00000000
00000100
00000000
00000000
00000000
00000000
00000000
00000000
00000000
,
00000000
00000000
00001000
00000010
00000100
00000010
00001000
00000000
00000100
00000000
00010000
00000000
00001000
00000000
01000000
00000000
,
00010000
00000000
00000000
00000000
00000000
00000000
00000000
00000000
00200000
00300000
00000000
00000000
00000000
00000000
00000000
00000000
00200000
00300000
00000000
00000000
00000000
00000000
00000000
00000000
10000000
00000000
00000000
00000000
00010000
00000000
00000000
00000000
00100000
00000000
00000000
00000000
00000000
00000000
00000000
00000000
00010000
00000000
00000000
00000000
01000000
00000000
00000000
00000000
00001000
00000000
00000000
00000000
00000000
00000000
00000000
00000000
00010000
00000000
00000000
00000000
00000000
00000000
00000000
00000000
,
00001000
00000010
00000001
00001000
00001001
00000000
00000002
00002003
,
00003010
00000000
00000100
00000001
00000010
00000000
00000100
00000000
00001100
00000000
00000100
00010000
00001000
00000000
00010000
00001000
,
00100000
00000000
00010000
00000000
01010000
00000000
01000000
00100000
10000000
00000000
00100000
10000000
01000000
10000000
01000000
00100000
,
01000000
00000000
10000000
00100000
00010000
00000000
00001000
00000000
00010000
00000000
00000010
00000000
00000110
00000000
00000100
00000001
,
00001000
00000000
00000001
00000010
00000100
00000000
00000020
00000000
00000031
00000010
00000100
00000000
00001100
00000000
00000000
00000000
,
00010000
00000000
00001000
00000010
00001000
00000000
00010000
00000000
00001000
00000000
00010000
01000000
00010000
00000000
00001000
00010000
,
00001000
00000000
00010000
00000100
00001000
00000000
00000010
00010000
00001000
00000000
00100000
00010000
01000000
00000000
00001000
00010000
,
00001000
00000000
00100000
00000000
00010000
00000000
10000000
00000000
00010000
00000000
00100000
01000000
10000000
01000000
10000000
00010000
,
01000000
00010000
00100000
00001000
00010000
00000100
00001000
00000100
00000010
00000001
00001000
00000001
00000100
00000000
00000000
00000000
,
00002002
00000000
00000000
00000000
,
00003003
00000000
00000000
00000000
;
