#TITLE:SYNC-ANTHEM;
#ARTIST:Tatsh feat. 星野奏子;
#ARTISTTRANSLIT:Tatsh feat. Kanako Hoshino;
#GENRE:LATIN EURO;
#BANNER:SYNC-ANTHEM.png;
#BACKGROUND:SYNC-ANTHEM-bg.png;
#CDTITLE:./CDTitles/bm IIDX 20 tricoro.png;
#MUSIC:SYNC-ANTHEM.ogg;
#SAMPLESTART:52.313;
#SAMPLELENGTH:15;
#BPMS:0=160,265=166;
#STOPS:264=0.37;
#TIMESIGNATURES:0=4=4,260=5=4,265=4=4;
#STAGE:27;

//--------------- dance-single - Fred-104 ----------------
#NOTES:
     dance-single:
     Fred-104:
     Beginner:
     5:
     :
0000
0000
0000
0000
,
0000
0000
0000
0000
,
0000
0000
0000
0000
,
0000
0000
0000
0000
,
0000
0000
0000
0000
,
0000
0000
0000
0000
,
0000
0000
0000
0000
,
1000
0000
0001
0100
,
0001
0000
0100
0010
,
0100
0000
0001
0001
,
1000
0000
0001
1000
,
0001
0000
0100
0010
,
0100
0000
0001
0001
,
1000
0000
0010
0100
,
0010
0000
1000
0000
,
0002
0000
0000
0000
,
1003
1000
0010
0010
,
0100
0000
0000
0010
0000
0000
0000
0000
,
0100
0000
0000
0001
0000
0000
0000
0000
,
2000
0000
0000
0000
,
3001
0001
0100
0010
,
0100
0000
0000
0001
0000
0000
0000
0000
,
0100
0000
0000
0010
0000
0000
0100
0000
,
0100
0000
0001
0000
,
1000
0010
0100
0000
,
0001
0000
1000
0000
,
0100
1000
0100
0000
,
0010
0000
0000
0001
0000
0000
1000
0000
,
0001
0000
0000
1000
0000
0000
0001
0000
,
0100
0000
0000
0010
0000
0000
0100
0000
,
0001
0000
1000
0001
,
1001
0000
0100
0000
,
0010
0000
0001
0000
,
1000
1000
0001
0001
,
1000
0000
0000
1001
0000
0000
0000
0000
,
1000
0000
0010
0000
,
0100
0100
0001
0000
,
1000
0000
0001
0000
,
0100
0010
0100
0100
,
0100
0000
0001
0000
,
1000
0001
1000
1000
,
0100
0000
1000
0000
,
0001
1000
0001
1000
,
0001
0000
0100
0000
,
0010
0000
0100
0100
,
0100
0000
0001
0000
,
1000
0000
0001
1000
,
0001
0001
0000
0000
,
1000
1000
0000
0000
,
0010
0010
0000
0000
,
0100
0000
0100
0000
,
0001
0000
0000
1000
0000
0000
0001
0000
,
1000
1000
2000
3000
,
0002
0003
2002
3003
,
0001
0001
0001
0000
,
0100
0100
0100
0200
,
0310
0010
0020
0030
,
0200
0300
0220
0330
,
0100
0100
0200
0300
,
0020
0030
0220
0330
,
1001
0000
0001
0000
,
1000
0000
0010
0000
,
0110
0000
0100
0000
,
0001
0000
1000
0000
,
0001
1000
0001
0000
,
0100
0010
0200
0000
,
0000
0300
0000
0000
0000
0000
0000
0000
0000
0000
0000
0000
0000
0000
0000
0000
0001
0000
0000
0000
0000
0000
0000
0000
0000
0000
0000
0000
0000
0000
0000
0000
0000
0000
0000
0000
0000
0000
0000
0000
0000
0000
0000
0000
0000
0000
0000
0000
0001
0000
0000
0000
0000
0000
0000
0000
0000
0000
0000
0000
0000
0000
0000
0000
,
0000
1000
0000
0010
,
0000
0100
0000
0001
,
0000
1000
1000
2000
,
3000
0001
0000
1000
,
0000
0001
0000
0100
,
0000
0000
0001
0000
0000
1000
0000
0000
,
0002
0000
0000
0000
,
0003
1000
0000
0010
,
0100
0100
0000
0001
,
0001
0100
0000
0010
,
0100
0010
0000
1000
,
0000
2002
0000
3003
,
0000
1000
0000
1000
,
0000
0001
0000
0001
,
0000
1000
1000
0001
,
0001
1001
0000
0000
;

//--------------- dance-single - Fred-104 ----------------
#NOTES:
     dance-single:
     Fred-104:
     Easy:
     8:
     :
0000
0000
0000
0000
,
0000
0000
0000
0000
,
0000
0000
0000
0000
,
0000
0000
0000
0000
,
0000
0000
0000
0000
,
0000
0000
0000
0000
,
0000
0000
0000
0000
,
1000
0000
0000
0010
0000
0000
0100
0000
,
0001
0000
0000
0010
0000
0000
0100
0000
,
1000
0000
0000
0001
0000
0000
1000
0000
,
0001
0000
0100
0100
,
0010
0100
0001
1000
,
1000
0010
0100
0100
,
0001
1000
0001
0100
,
0001
0000
0001
0000
1000
0001
1000
0000
,
0002
0000
0203
0000
,
0310
1000
0100
1000
,
0001
0000
0000
1000
0000
0000
0001
0000
,
0100
0000
0000
0100
0000
0000
0100
0000
0000
0000
0000
0000
0000
0000
0000
0000
,
0020
0000
0230
0000
,
0301
0100
0010
1000
,
0100
0000
0000
1000
0000
0000
0001
0000
,
1000
0000
0000
0001
0000
0000
1001
0000
0000
0000
0000
0000
0100
0000
0000
0000
,
0001
0000
0100
0000
,
0010
0000
0000
1000
0000
0000
0100
0000
0000
0000
0000
0000
0000
0000
0000
0000
,
1000
0000
0001
0000
,
0100
0000
0000
0100
0000
0000
0100
0000
0000
0000
0000
0000
0010
0000
0000
0000
,
1000
0000
0000
0010
0000
0000
0100
0000
,
0001
0000
0000
0100
0000
0000
0002
0000
0000
0000
0000
0000
1003
0000
0000
0000
,
0010
0000
0000
0100
0000
0000
0001
0000
,
1000
0010
0100
0100
,
0001
0000
0000
1000
0000
0000
0010
0000
,
0100
0000
0000
0010
0000
0000
0100
0000
,
0001
0000
0000
1000
0000
0000
0001
0000
,
1000
0000
0000
0001
0000
0000
2002
0000
0000
0000
0000
0000
3003
0000
0000
0000
,
0001
0100
0010
1000
,
0010
0000
1000
0000
0001
0100
0001
0010
,
0001
0100
0100
0010
,
2000
0000
0000
0000
3001
1000
0001
0000
,
0100
0010
1000
0100
,
0020
0000
0000
0000
0031
1000
0001
0000
,
0100
0100
0010
0010
,
1000
0010
1000
0000
0001
0010
0001
0000
,
1001
1000
0010
0100
,
0001
0000
0100
0000
0010
0100
0010
0000
,
1000
0100
0010
0010
,
0001
0100
0001
0000
1000
0100
1000
0000
,
1000
1100
0000
0100
,
0001
0101
0000
0010
,
1000
1010
0000
0001
,
0010
0001
1000
0001
,
0100
0000
0000
0010
0000
0000
1001
0000
,
1000
0100
1000
0010
,
0000
0000
0100
0000
0000
0010
0000
0000
0100
0000
0000
0010
0000
0000
0000
0000
,
0100
0001
1000
0010
,
1000
0001
1000
0000
0001
0100
0001
0000
,
0100
0010
1000
0001
,
1000
0000
0000
0001
0000
0000
1000
0000
0000
0001
0000
0000
1000
0000
0000
0000
,
0010
1000
0010
0000
0100
0001
0100
0000
,
0001
0000
1000
0000
0001
0000
0000
0000
1000
0000
0000
1000
0000
0000
0001
0000
,
2000
3000
0020
0030
,
0200
0300
0002
0003
,
2000
3000
0200
0300
,
0020
0030
0002
0003
,
1000
0010
0100
0001
,
1000
0100
1000
0000
0001
0100
0001
0200
,
0000
0300
0000
0000
0000
0000
0000
0000
0000
0000
0000
0000
0000
0000
0000
0000
0001
0000
0000
0000
0000
0000
0000
0000
0000
0000
0000
0000
0000
0000
0000
0000
0001
0000
0000
0000
0000
0000
0000
0000
0000
0000
0000
0000
0000
0000
0000
0000
0100
0000
0000
0000
0000
0000
0000
0000
0000
0000
0000
0000
0000
0000
0000
0000
,
0010
1000
0010
0110
,
0000
0100
0001
1000
,
0100
0010
0001
1001
,
0000
0001
0100
0010
,
0100
0001
1000
0010
,
0100
0000
0002
0000
0000
2003
0000
0000
,
3020
0000
0130
0010
0100
0000
0001
0100
,
0001
0000
0000
0000
1000
0000
0000
1000
0000
0000
2000
0000
0000
0000
0000
0000
,
3010
0000
0000
0000
0100
0000
0000
0100
0000
0000
0200
0000
0000
0000
0000
0000
,
0301
0000
0000
0000
0010
0000
0000
0010
0000
0000
0020
0000
0000
0000
0000
0000
,
0031
0000
1000
0000
0010
0100
0010
0000
,
1000
0001
2000
0000
0000
0000
0000
0000
,
3000
0001
0010
0100
,
1000
0000
0001
0100
0001
0000
0100
0010
,
0100
0000
0010
1000
0010
0000
1000
0100
,
1000
1001
0000
0000
;

//--------------- dance-single - Fred-104 ----------------
#NOTES:
     dance-single:
     Fred-104:
     Medium:
     12:
     :
0000
0000
0000
0000
,
0000
0000
0000
0000
,
0000
0000
0000
0000
,
0000
0000
0000
0000
,
0000
0000
0000
0000
,
0000
0000
0000
0000
,
0000
0000
0000
0000
,
0001
0000
0000
0100
0000
0000
0010
0000
0000
0100
0000
0000
0001
0000
0010
0000
,
0100
0000
0000
1000
0000
0000
0010
0000
0100
0000
0001
0000
0100
0000
0000
0000
,
0001
0000
0000
0010
0000
0000
0100
0000
0000
1000
0000
0000
0010
0000
0100
0000
,
0010
0000
0000
1000
0000
0000
0100
0000
1000
0000
0001
0000
2000
0000
0000
0000
,
3010
0000
0000
0100
0000
0000
0001
0000
0000
0100
0000
0000
0010
0000
0100
0000
,
0001
0000
0000
0010
0000
0000
0100
0000
1000
0000
0100
0000
0001
0000
0100
0000
,
0010
0000
0000
1000
0000
0000
0100
0000
0000
1000
0000
0000
0010
0000
0100
0000
,
0001
0000
0000
1000
0000
0000
0100
0000
0001
0000
0100
0000
1000
0000
0001
0000
,
2000
0010
0100
3010
,
1000
0100
0010
0000
0001
1000
0010
0000
,
0200
0000
0301
0200
0000
1300
0200
0000
,
0301
0000
0000
1000
0000
0000
1001
0000
0000
0000
0010
0000
0100
0000
0001
0000
,
0200
0010
1000
0310
,
0100
0001
0010
0000
0100
1000
0001
0000
,
0020
0000
0031
0020
0000
1030
0020
0000
,
0031
0000
0000
1000
0000
0000
1001
0000
0000
0000
0010
0000
0100
0000
0001
0000
,
1000
0000
0000
1000
0100
0000
0000
0100
,
0010
0000
0000
0001
0000
0000
1000
0000
0001
0000
0000
0000
0100
0000
0000
0000
,
0010
0000
0000
0010
0100
0000
0000
0100
,
0001
0000
0000
0100
0000
0000
0010
0000
0000
0000
1000
0000
0100
0000
1000
0000
,
0010
0100
0010
0100
0001
0100
0001
0000
,
1000
0100
0010
0001
1000
0001
0100
0000
,
0001
0100
0010
1000
0010
0100
0001
0000
,
2000
0010
3001
1001
,
1000
0000
0000
0100
0000
0000
1100
0000
0000
0000
0010
0000
0100
0000
0001
0000
,
0100
0000
0000
0001
0000
0000
0011
0000
0000
0000
0010
0000
0100
0000
1000
0000
,
0001
0000
0000
0100
0000
0000
0110
0000
0000
0000
1000
0000
0100
0000
0010
0000
,
0001
0000
0000
1000
0000
0000
2002
0000
0000
0000
0000
0000
3003
0000
0001
0000
,
0100
0010
0100
0010
0100
0000
0001
0010
,
0000
0100
1000
0001
0100
0000
0010
0100
,
0001
0100
0010
0100
0001
0000
1000
0100
,
0010
0001
0000
0100
0000
0110
0000
0010
,
1000
0100
1000
0001
0100
0000
0001
0010
,
1000
0010
0001
1000
0000
0010
0100
0001
,
0020
0000
0230
0000
1300
0010
0100
0001
,
1000
0100
0010
0001
1000
0010
0100
0000
,
0001
0100
0010
0100
0001
0000
1000
0100
,
0010
0100
0000
1000
0000
0010
0100
0010
,
0100
0001
0010
0001
0100
0000
0001
0010
,
1000
0010
0001
1000
0000
0010
0100
0001
,
0100
0000
0110
0000
0010
1000
0100
0000
,
0010
0000
0011
0000
0001
1000
0010
0000
,
1000
0000
1100
0000
0010
0001
1000
0000
,
0001
0000
0100
0010
1000
0000
0100
0000
,
1200
0000
0000
0320
0000
0000
0230
0000
,
0301
0000
0100
0000
0010
0000
0000
1000
0000
1000
0000
0000
0100
0000
0010
0000
,
0001
0000
0200
0000
0000
0320
0000
0000
2030
0000
0000
3002
0000
0000
0000
0000
,
0103
0000
0010
0000
0100
0000
0000
0001
0000
0001
0000
0000
0100
0000
0010
0000
,
1000
0100
1000
0001
1000
0001
2000
0000
,
3001
0000
0100
0000
0010
0000
0000
1000
0000
1000
0000
0000
0010
0000
0100
0000
,
0001
0010
0000
0001
0000
0000
0200
0000
0000
0320
0000
0000
1030
0000
0000
0100
,
1000
0000
0010
0000
0100
0000
0000
0010
0000
0100
0000
0000
0001
0000
0100
0000
,
0010
0000
1000
0000
0001
0000
0010
0000
0001
0000
0000
0110
0000
0000
0100
0000
,
2000
0000
3001
0010
2000
0000
3001
0100
,
2000
0000
3001
0010
2000
0000
3001
0100
,
0020
0000
1030
0100
0020
0000
0031
0100
,
0020
0000
1030
0010
0200
0000
0301
0010
,
0100
0000
1000
0000
0010
0100
0001
1000
,
0100
0000
0010
0000
0001
0000
1000
0000
0001
1000
0001
1000
0001
1000
0001
2000
,
0000
3000
0000
0000
0000
0000
0000
0000
0000
0000
0000
0000
0000
0000
0000
0000
0001
0000
0000
0000
0000
0000
0000
0000
0000
0000
0000
0000
0100
0000
0000
0000
0000
0000
0000
0000
0000
0000
0000
0000
0010
0000
0000
0000
0000
0000
0000
0000
1000
0000
0000
0000
0000
0000
0000
0000
0000
0000
0000
0000
0100
0000
0000
0000
,
0000
0000
0010
0000
0001
0000
0000
1000
0000
0000
0010
0000
0100
0000
0000
0000
,
0110
0000
0000
0000
0001
0000
0000
0010
0000
0000
0100
0000
0010
0000
0000
0001
,
0000
1000
1010
0000
0101
0000
1001
0000
,
0100
0000
0010
0000
0100
0000
0000
0001
0000
0000
0010
0000
0001
0000
0000
1000
,
0000
0000
0010
0000
0100
0000
0000
0001
0000
0000
1000
0000
0010
0000
0000
0000
,
0100
0000
0022
0000
0033
2200
0000
3300
,
2002
0000
3003
0000
0001
0000
0100
0000
0010
0000
0100
0000
0001
1000
0001
1000
,
0001
0000
1000
0000
0010
0000
0000
1000
0000
0000
0200
0000
0000
0000
0310
0000
,
0001
0010
0001
0000
1000
0000
0000
0100
0000
0000
0002
0000
0000
0000
0103
0000
,
1000
0010
1000
0000
0001
0000
0000
0010
0000
0000
0200
0000
0000
0000
1300
0010
,
1000
0000
0001
0000
0100
0000
0001
0010
0001
0000
1000
0000
0001
0000
0100
0010
,
0100
0001
2000
0000
0010
0000
3001
0000
,
1001
0000
0001
0100
0010
0100
0001
0010
,
0100
1000
0001
0010
0100
0010
1000
0010
,
0100
0010
0001
1000
0100
0010
0100
0001
,
0100
1000
1001
0000
0000
0000
0000
0000
;

//--------------- dance-single - Fred-104 ----------------
#NOTES:
     dance-single:
     Fred-104:
     Hard:
     16:
     :
0000
0000
0000
0000
,
0000
0000
0000
0000
,
0000
0000
0000
0000
,
0000
0000
0000
0000
,
0000
0000
0000
0000
,
0000
0000
0000
0000
,
0000
0000
0000
0000
,
0001
0000
0010
0100
0000
0010
0001
0000
0010
0200
0000
0000
0310
0000
0001
1000
,
0001
0000
0100
0010
0000
1000
0010
0000
0100
0001
0000
0100
0010
0100
0001
0000
,
1000
0000
0100
0010
0000
0001
0010
0000
0001
2000
0000
0000
3100
0000
0010
0100
,
1000
0000
0001
0100
0000
0010
1000
0000
0001
0100
0001
0100
0010
1000
0010
0000
,
1000
0000
0100
0010
0000
0001
0100
0000
0010
2000
0000
0000
3001
0000
0100
0010
,
1000
0000
0100
0010
0000
0001
1000
0000
0010
0100
0000
0001
0010
0001
1000
0000
,
0001
0000
0100
1000
0000
0100
0010
0000
1000
0200
0000
0000
0310
0000
0001
1000
,
0001
0000
0001
0100
0000
0010
1000
0000
0100
0010
0100
1000
0001
0100
0001
0000
,
1000
0010
0100
0001
0010
0100
1000
0200
,
0001
0000
1000
0000
0310
0001
1000
0010
,
0200
0010
0010
2300
0000
0001
3001
0100
,
0010
0000
1000
0001
0000
0100
0010
0000
1000
0100
0010
0001
1000
0100
1000
0000
,
0001
0000
0010
0100
0010
0000
0100
0000
1000
0000
0001
0100
0001
0000
0020
0000
,
1000
0000
0001
0000
0130
0010
1000
0001
,
1000
0000
0100
0000
0001
0000
0100
0000
2000
0000
3020
0000
0230
0000
0302
0003
,
1001
0000
0000
1100
0000
0000
0101
0000
0000
0000
0100
0010
0100
0001
0010
0100
,
1000
0000
1020
0000
0230
0000
0302
2003
,
3020
0000
0000
2030
0000
0000
3002
0000
1003
0000
0100
0000
0010
0000
0001
0000
,
1001
0021
0230
2300
,
3002
0000
0000
0203
0000
0000
2300
0000
0000
0000
3100
0001
0010
0100
0010
0100
,
1000
0000
0010
0000
0100
0000
0001
0000
1000
0100
1000
0010
0100
0000
0100
0000
,
0002
0000
0000
0023
0000
0000
0230
0000
0000
1300
0000
0000
0001
0000
0100
0010
,
1000
0000
0010
0100
0000
0100
0001
0000
1000
0100
0000
0100
0010
0000
0001
0000
,
1000
0000
0001
0100
0000
0010
0100
0000
0001
0100
0000
0010
1000
0000
0001
0000
,
0011
0000
0000
0101
0000
0000
0011
0000
0000
0000
0101
0000
0100
0000
0001
0000
,
1100
0000
0000
0101
0000
0000
1100
0000
0000
0000
0101
0000
0010
0000
0100
0000
,
1010
0000
0000
1100
0000
0000
1010
0000
0000
0000
1100
0000
0100
0000
0001
0000
,
0101
0000
0000
1100
0000
0000
2002
0000
0000
0000
0000
0000
3003
0000
0001
0000
,
1000
0000
0000
0000
0000
0000
0000
0000
0010
0000
0000
0000
0100
0000
0000
0000
0010
0000
0000
0000
0000
0000
0000
0000
1000
0000
0000
0000
0000
0000
0000
0000
0002
0000
0000
0000
0000
0000
0000
0000
0000
0000
0000
0000
0000
0000
0000
0000
0203
0300
0000
0000
0000
0000
0000
0000
0200
0300
0000
0000
0000
0000
0000
0000
,
1000
0000
0001
0000
0100
0000
0010
0000
0100
0001
0100
0010
0100
0000
0001
0000
,
1000
0100
0010
1000
0020
0000
0031
1000
,
0001
0000
0010
0000
0100
0000
0001
0000
0100
0010
0001
0010
0001
0000
1000
0000
,
0001
0000
0000
0000
0000
0000
0000
0000
0100
0000
0000
0000
0010
0000
0000
0000
0100
0000
0000
0000
0000
0000
0000
0000
0001
0000
0000
0000
0000
0000
0000
0000
2000
0000
0000
0000
0000
0000
0000
0000
0000
0000
0000
0000
0000
0000
0000
0000
3020
0030
0000
0000
0000
0000
0000
0000
0020
0030
0000
0000
0000
0000
0000
0000
,
0001
0100
0010
0001
0010
1000
0001
0100
,
0002
0000
0203
0000
0310
1000
0100
0010
,
0001
0100
0001
0100
0010
0100
0010
0100
0010
1000
0010
1000
0100
1000
0100
1000
,
0001
0000
1000
0100
0010
0000
0001
0000
0102
0000
0000
0000
0103
0000
0010
0000
,
1000
0010
0100
0000
0010
0000
0001
0010
0100
0000
0001
0000
1000
0100
1000
0000
,
0001
0000
0100
0010
1000
0000
0100
0000
1200
0000
0000
0000
1300
0000
0001
0000
,
0010
0001
1000
0000
0100
0000
1000
0100
0010
0000
0001
0000
0100
0000
0010
0000
,
0110
0000
0100
0001
0100
0000
0000
0000
0101
0000
0100
0000
0010
0000
1000
0000
,
1100
0000
1000
0100
0010
0000
0000
0000
0011
0000
0010
0000
0001
0000
1000
0000
,
1010
0000
0010
0100
0001
0000
0000
0000
1000
0100
0010
0000
0001
0000
0100
0001
,
2000
0000
3010
0100
0101
0000
1001
0000
,
0001
0100
0001
0100
0010
0000
1000
0100
1000
0100
0010
0000
1001
0000
0000
0000
,
0011
0000
0010
0000
0100
0000
1000
0010
0000
0100
0000
0001
0100
0000
0010
0000
,
1000
0000
0001
0000
1000
0100
0000
0010
0001
0100
0000
0020
0000
0000
0000
0000
,
0031
0000
0010
0000
1000
0000
0001
0100
0000
1000
0000
0100
0010
0000
1000
0000
,
0001
1000
0100
1000
0010
1000
0001
1000
0100
1000
0010
0100
0001
2000
0000
0000
,
3100
0000
1000
0000
0001
0000
1000
0100
0000
0010
0000
0100
0001
0000
0100
0000
,
1000
0001
0100
0010
0000
1000
0010
0000
0100
0001
0000
1000
0100
0000
1000
0001
,
0010
0000
0100
0000
1000
0000
0001
0010
0000
0010
0000
1000
0010
0000
0100
0000
,
0001
0000
0000
0000
0001
0000
0000
0000
1000
0100
0010
0001
0100
0010
1000
0100
,
1000
0000
0000
0000
0001
0100
0010
0000
1000
0000
0000
0000
1000
0100
0010
0000
,
0001
0000
0000
0000
1000
0010
0100
0000
0001
0000
0000
0000
0001
0010
0100
0000
,
1000
0000
0000
0000
1000
0100
0001
0000
0200
0000
0000
0000
1300
0010
0002
0000
,
0023
0000
2030
0000
3001
0100
0020
0000
0230
0000
0000
0000
0301
0100
0010
0000
,
1000
0100
1000
0000
0001
0100
0001
0000
1000
0010
1000
0000
0001
0100
0001
0000
,
1000
0010
1000
0010
0100
0001
0100
0001
1000
0100
0010
0001
1000
0001
0010
0200
,
0000
0300
0000
0000
0000
0000
0000
0000
0000
0000
0000
0000
0000
0000
0000
0000
1001
0000
0000
0000
0000
0000
0000
0000
1000
0000
0000
0000
0100
0000
0000
0000
0000
0000
0000
0000
0100
0000
0000
0000
0001
0000
0000
0000
0000
0000
0000
0000
1001
0000
0000
0000
0000
0000
0000
0000
0001
0000
0000
0000
0100
0000
0000
0000
,
0000
0100
1000
0000
1001
0000
1000
0010
0000
0010
0001
0000
1001
0000
0000
0000
,
0110
0000
0000
0000
1001
0000
0001
0010
0000
0010
1000
0000
1001
0000
1000
0010
,
0000
0010
0001
0000
1001
0000
0000
0000
1100
0000
0000
0000
0101
0000
0100
0000
,
0010
0000
1000
0000
0001
0000
0010
0001
0000
1000
0001
1000
0100
0000
0010
0001
,
0000
0100
0010
0100
0001
0000
0010
1000
0000
0010
0001
1000
0010
0000
0100
0001
,
0200
0000
0000
0000
0301
0010
0001
0010
0200
0000
1300
0010
1000
0010
0200
0000
,
0301
1000
0001
0000
2000
0000
3010
0100
0002
0000
0013
0100
1000
0010
0100
0001
,
0100
0010
1000
0001
0200
0000
0000
0320
0000
0000
0230
0000
0000
0000
0302
0000
,
0103
0010
1000
0100
0020
0000
0000
0032
0000
0000
2003
0000
0000
0000
3200
0000
,
1300
0010
1000
0001
0200
0000
0000
0320
0000
0000
0230
0000
0000
0000
0301
0010
,
0100
1000
0001
1000
0200
0000
1300
0100
1000
0001
0100
0001
2000
0000
3001
0010
,
0001
1000
0010
1000
0002
0000
0000
0000
0000
0000
0000
0000
0000
0000
0000
0000
,
0003
0000
0000
0000
0001
0100
0001
0100
0010
1000
0010
1000
0001
0010
0001
0010
,
0100
1000
0100
1000
0001
0100
0010
0100
0001
0100
0010
1000
0100
0010
0001
0010
,
0100
1000
0010
0100
0001
0100
0010
1000
0100
0010
0100
1000
0001
0100
0010
0100
,
0001
1000
0100
0010
0001
0000
0000
0000
0000
0000
0000
0000
0000
0000
0000
0000
;

//--------------- dance-single - Fred-104† ----------------
#NOTES:
     dance-single:
     Fred-104†:
     Challenge:
     18:
     :
0000
0000
0000
0000
,
0000
0000
0000
0000
,
0000
0000
0000
0000
,
0000
0000
0000
0000
,
0000
0000
0000
0000
,
0000
0000
0000
0000
,
0000
0000
0000
0000
,
1100
0000
1000
0100
0000
0100
0001
0000
1000
0020
0000
0000
0031
0000
0001
1000
,
0001
0000
0001
0100
0000
0100
1000
0000
0001
0010
0000
0010
1000
0001
1000
0000
,
1001
0000
1000
0100
0000
0100
0001
0000
1000
0020
0000
0000
0031
0000
0001
1000
,
0001
0000
0001
0100
0000
1000
0100
0000
0001
0100
1000
0100
0010
0100
0001
1000
,
0001
0000
0001
0100
0000
0100
1000
0000
0001
0020
0000
0000
1030
0000
1000
0001
,
1000
0000
1000
0100
0000
0100
0001
0000
1000
0010
0000
0010
0001
1000
0001
0000
,
1001
0000
0001
0100
0000
0100
1000
0000
0001
0020
0000
0000
1030
0000
1000
0001
,
1000
0000
1000
0100
0000
0001
0100
0000
1000
0010
0100
0010
0001
0010
0100
0010
,
1000
0000
0001
0010
0100
0000
1000
0000
0001
0000
0100
0010
1000
0000
0100
0000
,
0010
0000
0001
0100
0001
0000
0100
0010
0100
0000
0010
1000
0010
0000
1000
0000
,
0001
1000
0100
0000
0010
0000
0100
1000
0001
0000
0100
0000
0010
1000
0001
0000
,
1000
0000
0000
0000
0000
0000
0000
0000
0001
0000
0000
0000
0100
0000
0000
0000
0000
0000
0000
0000
0010
0000
0000
0000
1000
0000
0000
0000
0000
0000
0000
0000
0001
0000
0000
0000
1000
0000
0000
0000
0200
0300
0000
0000
0200
0300
0000
0000
0001
0000
0000
0000
0020
0030
0000
0000
0020
0030
0000
0000
1000
0000
0000
0000
,
0001
0000
1000
0010
0100
0000
0010
0000
1000
0000
0100
0010
0001
0000
1000
0000
,
0001
0000
0100
1000
0100
0000
0001
0010
0001
0000
1000
0001
1000
0000
0001
0000
,
1000
0100
0010
0000
0100
0000
0001
0100
2000
0000
3200
0000
0320
0000
0230
0300
,
1100
0000
0000
0101
0000
0000
1010
0000
1001
0000
0001
0100
0010
1000
0100
0010
,
0001
0000
0000
0000
0000
0000
0000
0000
0000
0000
0000
0000
0000
0000
0000
0000
1020
0000
0000
0000
0000
0000
0000
0000
0000
0000
0000
0000
0000
0000
0000
0030
0210
0000
0000
0000
0000
0000
0000
0000
0000
0000
0000
0000
0000
0000
0000
0300
0101
0000
0000
0000
0000
0000
0000
0000
0001
0000
0000
0000
0000
0000
0000
0000
,
2000
0000
0000
3200
0000
0000
0302
0000
0103
0000
1000
0000
1001
0000
0001
0000
,
0100
0000
0000
0000
0000
0000
0000
0000
0000
0000
0000
0000
0000
0000
0000
0000
0120
0000
0000
0000
0000
0000
0000
0000
0000
0000
0000
0000
0000
0000
0000
0030
1020
0000
0000
0000
0000
0000
0000
0000
0000
0000
0000
0000
0000
0000
0000
0030
0011
0000
0000
0000
0000
0000
0000
0000
0001
0000
0000
0000
0000
0000
0000
0000
,
2000
0000
0000
3020
0000
0000
0032
0000
0000
0000
0013
0100
0001
1000
0100
0010
,
0001
0000
0100
0010
0000
1000
0010
0000
0100
0001
0000
0100
0010
0000
1000
0001
,
1000
0000
0100
0010
0000
0010
0001
0000
0100
1000
0000
0100
0001
0000
1000
0010
,
0100
0000
0001
0010
0000
0010
1000
0000
0001
0100
0000
0100
1000
0000
0001
0100
,
0010
0000
1000
0100
0000
0100
0001
0000
1000
0010
0100
0001
1000
0000
0010
0000
,
1100
0000
0000
1010
0000
0000
1100
0000
0000
0010
0100
0000
0001
0000
0010
0000
,
0100
0010
0000
0010
0001
0000
0100
0010
0000
0010
1000
0000
0001
0000
1000
0000
,
0001
0100
0001
0010
0001
0100
0010
1000
0100
0010
0001
0010
0100
1000
0010
0100
,
0001
0100
1000
0001
0010
1000
0001
0100
0020
0000
0000
0000
0000
0000
1030
0000
,
1001
0000
0000
0000
0000
0000
0000
0000
0001
0000
0000
0000
0100
0000
0000
0000
0010
0000
0000
0000
0000
0000
0000
0000
1000
0000
0000
0000
0000
0000
0000
0000
2100
0000
0000
0000
0000
0000
0000
0000
0000
0000
0000
0000
0000
0000
0000
0000
3020
0030
0000
0000
0000
0000
0000
0000
0020
0030
0000
0000
0000
0000
0000
0000
,
0001
0000
1000
0000
0001
0000
0010
0000
0001
0010
1000
0010
0001
0000
1000
0000
,
0001
0000
0000
0000
0000
0000
0000
0000
1000
0000
0000
0000
0010
0000
0000
0000
0100
0000
0000
0000
0000
0000
0000
0000
0001
0000
0000
0000
0000
0000
0000
0000
0012
0000
0000
0000
0000
0000
0000
0000
0000
0000
0000
0000
0000
0000
0000
0000
0203
0300
0000
0000
0000
0000
0000
0000
0200
0300
0000
0000
0000
0000
0000
0000
,
1000
0010
0100
0000
0010
0000
0001
0010
0100
0001
1000
0100
1000
0000
0001
0000
,
1010
0000
0010
0100
0001
0000
1000
0000
1002
0000
0000
0000
0103
0000
0010
0000
,
1000
0100
0001
0000
0100
0000
1000
0100
0010
0000
0001
0000
0100
0010
0100
0000
,
0201
0000
0000
0000
0000
0000
0000
0000
0000
0000
0000
0000
0000
0000
0000
0300
1200
0000
0000
0000
0000
0000
0000
0000
0000
0000
0000
0000
0000
0000
0000
0300
0101
0000
0000
0000
0000
0000
0000
0000
0100
0000
0000
0000
0000
0000
0000
0000
0010
0000
0000
0000
0000
0000
0000
0000
1000
0000
0000
0000
0000
0000
0000
0000
,
0001
0010
0100
1000
0010
0100
0001
1000
0001
0100
1000
0100
0010
1000
0100
0010
,
0001
0100
0010
0001
0010
0000
1000
0000
1002
0000
0000
0000
1003
0000
0100
0000
,
1000
0001
0010
0000
1000
0000
0010
0001
1000
0000
0001
0000
0100
0010
1000
0000
,
0001
0010
0100
1000
0001
0000
0100
0000
0120
0000
0000
0000
1030
0000
0001
0000
,
1000
0100
0001
0000
0100
0000
1000
0010
0001
0000
0010
1000
0001
0000
1000
0000
,
0001
0010
0001
0010
1001
0000
0000
0000
0001
0000
0100
0000
0010
0000
1000
0000
,
0010
0100
0010
0100
1001
0000
0000
0000
1000
0000
0100
0000
0010
0000
0001
0000
,
1000
0100
1000
0100
1001
0000
0000
0000
0001
0100
0010
0000
1000
0010
0100
0001
,
0100
0000
0001
0010
0100
0000
0100
0000
2000
0000
0010
0000
3002
0000
0010
0000
,
1003
0000
0000
0000
0100
0000
0000
0000
0010
0000
0000
0000
0001
0000
0000
0000
1000
0000
0000
0000
0000
0000
0000
0000
0001
0000
0000
0000
0010
0000
0000
0000
0100
0000
0000
0000
1000
0000
0000
0000
0001
0000
0000
0000
0000
0000
0000
0000
0001
0000
0000
0000
1000
0000
0000
0000
0200
0300
0000
0000
0200
0300
0000
0000
,
0001
0000
0010
0000
0100
0000
1000
0010
0000
0100
0000
0001
0100
0000
0010
0000
,
1000
0000
0001
0000
1000
0100
0000
0010
0001
1000
0000
0020
0000
0000
0000
0000
,
0031
0000
0010
0000
0100
0000
0001
1000
0000
0010
0000
0100
0001
0000
1000
0000
,
0001
0100
1000
0100
0010
1000
0100
0010
0001
0100
0010
0001
0010
2000
0000
0000
,
3001
0000
0010
0000
0001
0000
1000
0100
0000
0010
0000
0100
1000
0000
0001
0000
,
1000
0010
1000
0010
0000
0100
1000
0000
0100
0001
0000
1000
0001
0000
1000
0001
,
0100
0000
0010
0000
1000
0000
0100
0010
0001
0100
0000
0100
0010
0000
0010
0000
,
1000
0000
0010
0100
0000
0100
0001
0000
1000
0100
0010
0100
0001
0100
1000
0010
,
0100
0000
0000
0000
0001
0100
1000
0100
0001
0000
0000
0000
1000
0100
0001
0100
,
1000
0000
0000
0000
0001
0010
1000
0010
0001
0000
0000
0000
1000
0010
0001
0010
,
1000
0000
0000
0000
0001
0010
0100
1000
0020
0000
0000
0000
0130
0001
1000
0100
,
0002
0000
0203
0000
1300
0010
0100
0001
0200
0000
0000
0000
0301
0010
0100
1000
,
0001
0100
0001
0010
0100
1000
0010
0100
0001
1000
0100
0010
0001
0100
0001
0100
,
0010
0000
0000
1000
0000
0000
0100
0000
0000
0010
0000
0000
0100
0000
0000
1000
0000
0000
0010
0000
0000
0100
0000
0000
0001
0000
0000
0100
0000
0000
0010
0000
0000
1000
0000
0000
0001
0000
0010
0000
0100
0000
1000
0000
0010
0000
0200
0000
,
0000
0300
0000
0000
0000
0000
0000
0000
0000
0000
0000
0000
0000
0000
0000
0000
1001
0000
0000
0000
0000
0000
0000
0000
0100
0000
0000
0000
1000
0000
0000
0000
0000
0000
0000
0000
0100
0000
0000
0000
0001
0000
0000
0000
1000
0000
0000
0000
0001
0000
0000
0000
0000
0000
0000
0000
0010
0000
0000
0000
1000
0000
0000
0000
,
0000
0010
0001
1000
0001
0000
0100
1000
0000
0100
0001
1000
0001
0000
0100
0010
,
1000
0100
0010
0001
1000
0000
0100
0001
0000
0100
1000
0001
1000
0000
0010
0001
,
0000
0010
1000
0001
1000
0000
0001
0100
0010
0000
0100
0010
1000
0000
0010
0100
,
0001
0100
0010
1000
0001
0000
0001
0010
0000
0010
1000
0010
0001
0000
0001
0100
,
0000
0100
1000
0100
0001
0000
0001
0010
0000
0010
0100
1000
0010
0000
0100
0001
,
0010
0000
0100
0000
1000
0100
0010
0001
1000
0000
0001
0100
0010
1000
0100
0000
,
0010
0001
1000
0000
0001
0100
0010
0001
0010
0100
0001
1000
0100
0010
1000
0010
,
0100
1000
0001
1000
0001
0000
0100
0010
0000
1000
0001
0000
0000
0000
1100
0000
,
0100
0010
0001
1000
0001
0000
0010
0100
0000
0010
0001
0000
0000
0000
0011
0000
,
0001
0010
0100
1000
0001
0000
0100
0010
0000
1000
0010
0000
0100
0000
0001
0100
,
0010
0000
0000
0000
1000
0000
0000
0000
0001
0000
0000
0000
0010
0000
0000
0000
0001
0000
0000
0000
1000
0000
0000
0000
0200
0300
0000
0000
0200
0300
0000
0000
0001
0000
0000
0000
0010
0000
0000
0000
0100
0000
0000
0000
1000
0000
0000
0000
0001
0000
0000
0000
0100
0000
0000
0000
0020
0030
0000
0000
0020
0030
0000
0000
,
0001
0100
1000
0100
0002
0000
0000
0000
0000
0000
0000
0000
0000
0000
0000
0000
,
0000
0000
0000
0000
1003
0100
0010
0100
1000
0001
0100
1000
0100
0010
0100
0001
,
1000
0100
0001
0100
0010
0001
1000
0010
0100
1000
0100
0010
1000
0010
0001
1000
,
0010
0100
0001
0100
1000
0010
0100
1000
0100
0001
1000
0010
0100
0001
1000
0100
,
1000
0100
0010
0001
0010
0100
1000
0000
0000
0000
0000
0000
0000
0000
0000
0000
0000
0000
0000
0000
0000
0000
0000
0000
;

//--------------- dance-double - Fred-104 ----------------
#NOTES:
     dance-double:
     Fred-104:
     Easy:
     9:
     :
00000000
00000000
00000000
00000000
,
00000000
00000000
00000000
00000000
,
00000000
00000000
00000000
00000000
,
00000000
00000000
00000000
00000000
,
00000000
00000000
00000000
00000000
,
00000000
00000000
00000000
00000000
,
00000000
00000000
00000000
00000000
,
00001000
00010000
00001000
00100000
,
00010000
00000000
10000000
00000000
00010000
01000000
00100000
00000000
,
01000000
00100000
10000000
01000000
,
00100000
00000000
00010000
00000000
01000000
00100000
01000000
00000000
,
00001000
00010000
00100000
00001000
,
00010000
00000000
00000010
00000000
00001000
00000100
00000010
00000000
,
00001000
00000001
00000100
00000010
,
00000100
00000000
00000001
00000000
00000100
00000010
00000100
00000010
,
00000200
00000000
00000000
00000000
,
00000301
00000010
00001000
00010000
,
00200000
00000000
00000000
20300000
00000000
00000000
30010000
01000000
,
00100000
00000000
00000000
10000000
00000000
00000000
20020000
00000000
00000000
00000000
00000000
00000000
30030000
00000000
00000000
00000000
,
02000000
00000000
00000000
00000000
,
03010000
10000000
01000000
00010000
,
00002000
00000000
00000000
00003200
00000000
00000000
00000310
00000001
,
00001000
00000000
00000000
00000001
00000000
00000000
00001001
00000000
00000000
00000000
00000000
00000000
00000000
00000000
00000000
00000000
,
00011000
00001000
00100000
00010000
,
10000000
00000000
00000000
00100000
00000000
00000000
02000000
00000000
00000000
00000000
00000000
00000000
03000000
00000000
00000000
00000000
,
10010000
00010000
01000000
00100000
,
10000000
00000000
00000000
01000000
00000000
00000000
00100000
00000000
00000000
00000000
00001000
00000000
00010000
00000000
00001000
00000000
,
00010000
00000100
00001000
00000010
,
00010000
00000000
00000000
00000100
00000000
00000000
00010000
00000000
00000000
00000000
00000000
00000000
00001000
00000000
00010000
00000000
,
00001000
00000000
00000000
00100000
00000000
00000000
00001000
00000000
,
00010000
00000000
00001000
00100000
00010000
00000000
10010000
00000000
,
10000000
00000000
00000000
10000000
00000000
00000000
01000000
00000000
,
00100000
00000000
00000000
00001000
00000000
00000000
00010000
00000000
,
00000010
00000000
00000000
00001000
00000000
00000000
00000100
00000000
,
00010000
00000000
00000000
00001000
00000000
00000000
00022000
00000000
00000000
00000000
00000000
00000000
00033000
00000000
00000000
00000000
,
00001000
00010000
00100000
10000000
,
00010000
00000000
01000000
00000000
00010000
10000000
00010000
00000000
,
01000000
00100000
10000000
00100000
,
00010000
00000000
00001000
00000000
00000010
00000100
00000010
00000000
,
00000001
00000010
00000100
00000010
,
00000001
00000000
00000100
00000000
00001000
00000100
00001000
00000000
,
00020000
00000000
01030000
00100000
,
10000000
00100000
10000000
00000000
00010000
01000000
00010000
00000000
,
10000000
01000000
00100000
00001000
,
00010000
00000000
00100000
00000000
01000000
00100000
01000000
00000000
,
00010000
00100000
00001000
00010000
,
00000010
00000000
00001000
00000000
00000100
00010000
00000100
00000000
,
00010000
00000000
00011000
00000000
00001000
00000010
00000100
00000000
,
00000010
00000000
00000110
00000000
00000001
00000100
00001000
00000000
,
00010000
00000000
00011000
00000000
00001000
00100000
00010000
00000000
,
10000000
01000000
00010000
00001000
,
00000100
00000000
00000000
00000010
00000000
00000000
00000110
00000000
,
00000010
00000001
00000100
00000010
,
00000000
00000000
00000100
00000000
00000000
00001000
00000000
00000000
00010000
00000000
00000000
00001000
00000000
00000000
00000000
00000000
,
00100000
10000000
01000000
00100000
,
01000000
00010000
00001000
00011000
,
00000100
00000001
00000010
00000100
,
00000010
00000000
00000000
00001000
00000000
00000000
00010000
00000000
00000000
00010000
00000000
00000000
00011000
00000000
00000000
00000000
,
01000000
10000000
00100000
01000000
,
00100000
00000000
00000000
00000000
00010000
00000000
00000000
00000000
00001000
00000000
00000000
00010000
00000000
00000000
00001000
00000000
,
00000020
00000030
00000200
00000300
,
00000002
00000003
00000020
00000030
,
00000200
00000300
00020000
00030000
,
00002000
00003000
00200000
00300000
,
00010000
01000000
00100000
10000000
,
00010000
01000000
00100000
00000000
10000000
01000000
00100000
00002000
,
00000000
00003000
00000000
00000000
00000000
00000000
00000000
00000000
00000000
00000000
00000000
00000000
00000000
00000000
00000000
00000000
00010000
00000000
00000000
00000000
00000000
00000000
00000000
00000000
00000000
00000000
00000000
00000000
00010000
00000000
00000000
00000000
00000000
00000000
00000000
00000000
00000000
00000000
00000000
00000000
00010000
00000000
00000000
00000000
00000000
00000000
00000000
00000000
00001000
00000000
00000000
00000000
00000000
00000000
00000000
00000000
00000000
00000000
00000000
00000000
00001000
00000000
00000000
00000000
,
00000000
00001000
00010000
00000000
00001000
00000000
00000100
00000000
,
00000001
00000000
00000000
00000000
00000100
00000000
00000000
00000100
00000000
00000000
00000100
00000000
00000010
00000000
00000000
00000010
,
00000000
00000010
00001000
00000000
00000001
00000000
00002002
00000000
,
00003003
00000000
00000000
00000000
00000001
00000000
00000000
00000001
00000000
00000000
00000100
00000000
00001000
00000000
00000000
00001000
,
00000000
00000000
00010000
00000000
00001000
00000000
00000000
00010000
00000000
00000000
00010000
00000000
01000000
00000000
00000000
00000000
,
00100000
00000000
20000000
00000000
00000000
30200000
00000000
00000000
,
02300000
00000000
03010000
01000000
00010000
00000000
10000000
00100000
,
10000000
00000000
00000000
00000000
00010000
00000000
00000000
01000000
00000000
00000000
00200000
00000000
00000000
00000000
00000000
00000000
,
01300000
00000000
00000000
00000000
00001000
00000000
00000000
00010000
00000000
00000000
00002000
00000000
00000000
00000000
00000000
00000000
,
00013000
00000000
00000000
00000000
00000010
00000000
00000000
00001000
00000000
00000000
00000200
00000000
00000000
00000000
00000000
00000000
,
00000310
00000000
00000001
00000000
00000100
00000001
00000100
00000000
,
00000010
00001000
00000200
00000000
00000000
00000000
00000000
00000000
,
00000300
00000000
00010000
00001000
00010000
00000000
00001000
00100000
,
00001000
00000000
00100000
00010000
10000000
00000000
00010000
10000000
,
01000000
00000000
00100000
00001000
00010000
00000000
00000100
00001000
,
00000001
00001001
00000000
00000000
;

//--------------- dance-double - Fred-104 ----------------
#NOTES:
     dance-double:
     Fred-104:
     Medium:
     12:
     :
00000000
00000000
00000000
00000000
,
00000000
00000000
00000000
00000000
,
00000000
00000000
00000000
00000000
,
00000000
00000000
00000000
00000000
,
00000000
00000000
00000000
00000000
,
00000000
00000000
00000000
00000000
,
00000000
00000000
00000000
00000000
,
00010000
00000000
00000000
01000000
00000000
00000000
00100000
00000000
00000000
10000000
00000000
00000000
01000000
00000000
00100000
00000000
,
00001000
00000000
00000000
00010000
00000000
00000000
00000100
00000000
00001000
00000000
00000001
00000000
00000100
00000000
00000000
00000000
,
00000001
00000000
00000000
00000010
00000000
00000000
00000100
00000000
00000000
00000010
00000000
00000000
00000001
00000000
00001000
00000000
,
00000010
00000000
00000000
00000100
00000000
00000000
00000010
00000000
00010000
00000000
00001000
00000000
00001000
00000000
00001000
00000000
,
00100000
00000000
00000000
00010000
00000000
00000000
10000000
00000000
00000000
00100000
00000000
00000000
01000000
00000000
00010000
00000000
,
10000000
00000000
00000000
01000000
00000000
00000000
00100000
00000000
00001000
00000000
00010000
00000000
00001000
00000000
00000100
00000000
,
00000010
00000000
00000000
00001000
00000000
00000000
00000010
00000000
00000000
00000001
00000000
00000000
00001000
00000000
00000001
00000000
,
00000100
00000000
00000000
00000010
00000000
00000000
00001000
00000000
00000100
00000000
00010000
00000000
00001000
00000000
00010000
00000000
,
00002000
00100000
00010000
00103000
,
00001000
00010000
00200000
00000000
00301000
00010000
00000020
00000000
,
00020030
00000000
00000000
00032000
00000000
00000000
00003100
00000010
,
00000001
00000000
00000000
00001000
00000000
00000000
00000020
00000000
00000000
00000000
00010030
00000000
00001000
00000000
00010000
00000000
,
00020000
00000100
00001000
00030100
,
00010000
00001000
00000200
00000000
00001300
00010000
02000000
00000000
,
03020000
00000000
00000000
02030000
00000000
00000000
03100000
10000000
,
01000000
00000000
00000000
00100000
00000000
00000000
00110000
00000000
00000000
00000000
00001000
00000000
00010000
00000000
00000010
00000000
,
00001000
00000000
00000000
00001000
00000001
00000000
00000000
00000001
,
00000100
00000000
00000000
00001000
00000000
00000000
00010000
00000000
00000000
00000000
01000000
00000000
10000000
00000000
01000000
00000000
,
00100000
00000000
00000000
00100000
00001000
00000000
00000000
00001000
,
00010000
00000000
00000000
00000100
00000000
00000000
00001000
00000000
00000000
00000000
00000001
00000000
00000100
00000000
00000010
00000000
,
00001000
00000000
00000001
00000010
00000000
00001000
00010000
00000000
,
00001000
00000000
00000000
00000100
00000000
00000000
00000001
00000000
00000000
00000000
00000100
00000000
00000010
00000000
00001000
00000000
,
00000001
00000000
00000010
00000001
00000000
00001000
00000001
00000000
,
00001000
00000100
00000010
00000001
00001000
00000000
00001010
00000000
,
00000010
00000000
00000000
00010000
00000000
00000000
00011000
00000000
00000000
00000000
00100000
00000000
00010000
00000000
10000000
00000000
,
00010000
00000000
00000000
01000000
00000000
00000000
01100000
00000000
00000000
00000000
00100000
00000000
10000000
00000000
01000000
00000000
,
00100000
00000000
00000000
00001000
00000000
00000000
00101000
00000000
00000000
00000000
00001000
00000000
00010000
00000000
00000010
00000000
,
00001000
00000000
00000000
00000100
00000000
00000000
00000220
00000000
00000000
00000000
00000000
00000000
00000330
00000000
00000100
00000000
,
00000001
00000100
00000010
00000100
00000002
00000000
00000103
00000010
,
00001000
00000001
00000010
00000100
00010000
00000000
00001000
00010000
,
00000100
00010000
00001000
00010000
00100000
00000000
01000000
10000000
,
00010000
01000000
00000000
00100000
00000000
01100000
00000000
01000000
,
00010000
10000000
01000000
00100000
00001000
00000000
00010000
00001000
,
00010000
00000010
00001000
00000010
00000000
00000100
00000001
00001000
,
00000020
00000000
00000100
00000000
00000031
00001000
00000001
00000100
,
00000010
00001000
00000001
00000010
00000100
00010000
00001000
00000000
,
00100000
00001000
00010000
00001000
01000000
00000000
00010000
00100000
,
01000000
10000000
00000000
10010000
00000000
00010000
01000000
00100000
,
10000000
01000000
00100000
00001000
00010000
00000000
01000000
00010000
,
00001000
00000100
00001000
00010000
00000000
00100000
00010000
00001000
,
00000010
00000000
00000011
00000000
00000001
00000100
00000010
00000000
,
00001000
00000000
00001100
00000000
00000100
00010000
00001000
00000000
,
00100000
00000000
00110000
00000000
00010000
10000000
01000000
00000000
,
00100000
00000000
00001000
00010000
00000010
00000000
00010000
00000000
,
00012000
00000000
00000000
00203000
00000000
00000000
00320000
00000000
,
00130000
00000000
01000000
00000000
00100000
00000000
00000000
10000000
00000000
10000000
00000000
00000000
01100000
00000000
00000000
00000000
,
00010000
00000000
00001000
00000000
00000000
00010000
00000000
00000000
00000010
00000000
00000000
00000200
00000000
00000000
00000000
00000000
,
00000310
00000000
00000100
00000000
00000010
00000000
00000000
00000001
00000000
00001000
00000000
00000000
00001001
00000000
00000000
00000000
,
00001000
00010000
00001000
00100000
00010000
00100000
20000000
00000000
,
30100000
00000000
00010000
00000000
10000000
00000000
00000000
01000000
00000000
01000000
00000000
00000000
00010000
00000000
00000000
00000000
,
00010000
00001000
00000000
00010000
00000000
00000000
00000010
00000000
00000000
00000100
00000000
00000000
00000001
00000000
00000000
00000100
,
00000010
00000000
00000100
00000000
00000010
00000000
00000000
00001000
00000000
00000001
00000000
00000000
00000100
00000000
00000010
00000000
,
00001000
00000000
00010000
00000000
00001000
00000000
00000000
00000000
00100000
00000000
00000000
00100000
00000000
00000000
00010000
00000000
,
20000000
00000000
31000000
00100000
00002000
00000000
00013000
00100000
,
02000000
00000000
03010000
00001000
00000200
00000000
00000310
00001000
,
00020000
00000000
00130000
00010000
00002000
00000000
00003100
00000010
,
00000002
00000000
00000103
00001000
00020000
00000000
01030000
10000000
,
00010000
01000000
00100000
10000000
01000000
00100000
00001000
00010000
,
00000100
00000000
00001000
00000000
00000001
00000000
00000100
00000000
00000001
00001000
00000001
00001000
00000001
00001000
00000001
00002000
,
00000000
00003000
00000000
00000000
00000000
00000000
00000000
00000000
00000000
00000000
00000000
00000000
00000000
00000000
00000000
00000000
00000001
00000000
00000000
00000000
00000000
00000000
00000000
00000000
00000000
00000000
00000000
00000000
00000010
00000000
00000000
00000000
00000000
00000000
00000000
00000000
00000000
00000000
00000000
00000000
00000100
00000000
00000000
00000000
00000000
00000000
00000000
00000000
00001000
00000000
00000000
00000000
00000000
00000000
00000000
00000000
00000000
00000000
00000000
00000000
00000010
00000000
00000000
00000000
,
00000000
00000000
00000100
00000000
00000010
00000000
00000000
00001000
00000000
00000000
00000100
00000000
00010000
00000000
00001000
00000000
,
00010000
00000000
00000000
00000000
00001000
00000000
00000000
00100000
00000000
00000000
01000000
00000000
10000000
00000000
00000000
00010000
,
00000000
01000000
00100000
00000000
10000000
00000000
10010000
00000000
,
00100000
00000000
01000000
00000000
00010000
00000000
00000000
10000000
00000000
00000000
01000000
00000000
00010000
00000000
00000000
00001000
,
00000000
00000000
00000100
00000000
00000001
00000000
00000000
00000100
00000000
00000000
00000010
00000000
00001000
00000000
00000000
00000000
,
00000001
00000100
00000020
00000000
00000000
00002030
00000000
00000000
,
00023000
00000000
00000000
00000000
00130000
00000000
10000000
00000000
00010000
00000000
01000000
00000000
00010000
01000000
00010000
01000000
,
00100000
00000000
10000000
00000000
02000000
00000000
00000000
03200000
00000000
00000000
02300000
00000000
00000000
00000000
13000000
00000000
,
00100000
01000000
00100000
00000000
00002000
00000000
00000000
00023000
00000000
00000000
00030200
00000000
00000000
00000000
00001300
00000000
,
00000010
00000100
00000010
00000000
00002000
00000000
00000000
00003002
00000000
00000000
00000203
00000000
00000000
00000000
00000310
00000100
,
00000010
00000000
00001000
00000000
00000001
00000000
00000010
00000001
00000010
00000000
00000100
00000000
00010000
00000000
00001000
00010000
,
00001000
01000000
00002000
00000000
00010000
00000000
00003100
00000000
,
00011000
00000000
00001000
00010000
00001000
00010000
01000000
00100000
,
10000000
01000000
00100000
00001000
00010000
00100000
00010000
00001000
,
00000100
00000001
00000100
00001000
00000001
00000010
00001000
00010000
,
00001000
00011000
00000000
00000000
;

//--------------- dance-double - Fred-104 ----------------
#NOTES:
     dance-double:
     Fred-104:
     Hard:
     17:
     :
00000000
00000000
00000000
00000000
,
00000000
00000000
00000000
00000000
,
00000000
00000000
00000000
00000000
,
00000000
00000000
00000000
00000000
,
00000000
00000000
00000000
00000000
,
00000000
00000000
00000000
00000000
,
00000000
00000000
00000000
00000000
,
00000001
00000000
00000001
00000100
00000000
00000100
00000010
00000000
00000010
00002000
00000000
00000000
00003100
00000000
00010000
00001000
,
00010000
00000000
00001000
00100000
00000000
00100000
00010000
00000000
00010000
10000000
00000000
10000000
01000000
00100000
01000000
00000000
,
00100000
00000000
00100000
00010000
00000000
00010000
10000000
00000000
10000000
00200000
00000000
00000000
01300000
00000000
00001000
00010000
,
00001000
00000000
00010000
00000100
00000000
00000100
00001000
00000000
00000010
00001000
00000010
00001000
00000100
00010000
00001000
00000000
,
00100000
00000000
00001000
00010000
00000000
00010000
00100000
00000000
01000000
20000000
00000000
00000000
30010000
00000000
01000000
00100000
,
01000000
00000000
00010000
10000000
00000000
10000000
01000000
00000000
01000000
00100000
00000000
00100000
00001000
00010000
00001000
00000000
,
00010000
00000000
00000100
00001000
00000000
00001000
00000010
00000000
00000100
00000020
00000000
00000000
00001030
00000000
00000001
00000010
,
00000100
00000000
00000010
00000001
00000000
00000001
00001000
00000000
00000001
00000100
00000010
00001000
00000010
00000100
00000001
00000000
,
00000100
00000001
00000100
00001000
00000100
00000010
00001000
00000100
,
00020000
00000100
01000000
00030100
,
00010000
00001000
01000000
00100000
00010000
01000000
10000000
01000000
,
00100000
00000000
00010000
10000000
00000000
10000000
00010000
00000000
10000000
01000000
00100000
00000000
00001000
00010000
00001000
00000000
,
00100000
00001000
00010000
00100000
10000000
00010000
00100000
01000000
,
00020000
00000100
01000000
00030100
,
00010000
00001000
00010000
00000010
00001000
00000010
00000100
00000001
,
00000101
00000000
00000000
00001100
00000000
00000000
00000101
00000000
00000000
00000000
00000100
00000010
00000100
00000000
00000001
00000000
,
00001001
00000000
00000120
00000000
00002030
00000000
00003200
00020300
,
00032000
00000000
00000000
00023000
00000000
00000000
02030000
00000000
03100000
00000000
10000000
00000000
01000000
00000000
00100000
00000000
,
00110000
10200000
00302000
00023000
,
00030200
00000000
00000000
00002300
00000000
00000000
00003002
00000000
00000000
00000000
00000103
00000010
00000100
00000010
00000100
00000010
,
00000100
00000001
00000010
00000100
00010000
00001000
00000010
00001000
,
00020000
00000000
00000000
00001000
00000000
00000000
00130000
00000000
00000000
00010000
00000000
00000000
10000000
00000000
00100000
00000000
,
01000000
00100000
10000000
00100000
00010000
00001000
00000100
00010000
,
00001000
00000010
00000001
00001000
00001010
00000000
00000101
00000000
,
00000011
00000000
00000000
00000110
00000000
00000000
00001100
00000000
00000000
00000000
00011000
00000000
00001000
00000000
00000100
00000000
,
00000010
00001000
00000000
00000010
00001000
00000000
00000100
00000000
00010000
00000000
00010000
00000000
01000000
00000000
00000000
00000000
,
10100000
00000000
00000000
01100000
00000000
00000000
01010000
00000000
00000000
00000000
00011000
00000000
00010000
00000000
01000000
00000000
,
00100000
00000000
00000000
10000000
00000000
00000000
20020000
00000000
00000000
00000000
00000000
00000000
30030000
00000000
00010000
00000000
,
00001000
00000000
01000000
00100000
01000000
00000000
00001000
00000000
00020000
00000000
00000000
00000000
00130000
00000000
00001000
00000000
,
00010000
00000000
00000100
00000000
00001000
00000000
00000010
00000000
00010000
00001000
00010000
00001000
00010000
00000000
00000010
00000000
,
00001000
00000100
00010000
00001000
02000000
00000000
03001000
00010000
,
00100000
00000000
01000000
00000000
00001000
00000000
00010000
00000000
00000100
00001000
00000100
00000010
00000100
00000000
00000010
00000000
,
00001000
00000000
00010000
00001000
00010000
00000000
00100000
00000000
02000000
00000000
00000000
00000000
03001000
00000000
00010000
00000000
,
01000000
00001000
00010000
00000100
00001000
00010000
00000010
00020000
,
00100000
00000000
00000010
00030000
00010000
00001000
00100000
00010000
,
01000000
00000000
00010000
01000000
00010000
00000000
10000000
01000000
10000000
01000000
00100000
01000000
00100000
00001000
00010000
00001000
,
00010000
00000000
00000100
00001000
00000100
00000000
00000010
00000000
00000110
00000000
00000000
00000000
00000010
00000000
00000001
00000000
,
00001000
00000001
00000010
00000000
00000100
00000000
00000010
00000001
00001000
00000000
00000001
00000000
00000010
00000100
00001000
00000000
,
00010000
00000000
00001000
00010000
00001000
00000000
00010000
00000000
00010100
00000000
00000000
00000000
00000100
00000000
00010000
00000000
,
00001000
01000000
00001000
00000000
00100000
00000000
00010000
01000000
00010000
00000000
01000000
00000000
01000000
00000000
00100000
00000000
,
01100000
00000000
01000000
00100000
01000000
00000000
00000000
00000000
00010000
00000000
10000000
00000000
01000000
00000000
00010000
00000000
,
00011000
00000000
00010000
00001000
00010000
00000000
00000000
00000000
00000100
00000000
00001000
00000000
00000001
00000000
00000100
00000000
,
00000110
00000000
00000010
00001000
00000010
00000000
00000000
00000000
00000100
00000000
00000010
00000000
00000100
00000000
00000001
00000000
,
00000020
00000000
00000031
00000100
00001100
00000000
00011000
00000000
,
00010000
00001000
00010000
00000000
00001000
00000000
00000100
00000010
00000100
00000000
00000001
00000000
00001000
00000000
00000010
00000000
,
00000100
00000000
00000010
00000000
00001000
00000000
00000001
00000100
00000000
00000100
00000000
00001000
00000100
00000000
00000010
00000000
,
00001000
00000000
00000002
00000000
00000000
00000203
00000000
00000000
00002300
00000000
00000000
00023000
00000000
00000000
00000000
00000000
,
00031000
00000000
00100000
00000000
00010000
00000000
00100000
10000000
00000000
01000000
00000000
01000000
00100000
00000000
00010000
00000000
,
10000000
01000000
10000000
00000000
00100000
01000000
00010000
00000000
01000000
00010000
00100000
00001000
00010000
00000020
00000000
00000000
,
00001030
00000000
00001000
00000000
00000100
00000000
00010000
00000100
00000000
00010000
00000000
00001000
00100000
00000000
01000000
00000000
,
00100000
00001000
00000000
00010000
00001000
00000000
00100000
00000000
00001000
00010000
00000000
00010000
00001000
00000000
00000100
00000010
,
00000100
00000000
00000010
00000000
00000001
00000000
00001000
00000100
00000000
00000100
00000000
00000001
00000100
00000000
00000010
00000000
,
00001000
00000000
00000000
00010000
00000000
00000000
00100000
00000000
01000000
00100000
01000000
00010000
01000000
00010000
01000000
00100000
,
01000000
00000000
00000000
00000000
10000000
00010000
01000000
00000000
00100000
00000000
00000000
00000000
00001000
00010000
00001000
00000000
,
00000010
00000000
00000000
00000000
00000100
00000001
00000010
00000000
00000100
00000000
00000000
00000000
00000010
00000001
00000100
00000000
,
00000010
00000000
00000000
00000000
00001000
00000001
00000010
00000000
00000200
00000000
00000000
00000000
00010300
00001000
00200000
00000000
,
00320000
00000000
02030000
00000000
03100000
01000000
00200000
00000000
20300000
00000000
00000000
00000000
31000000
00100000
00010000
00000000
,
10000000
00100000
01000000
00000000
00010000
00100000
00001000
00000000
00010000
00000100
00001000
00000000
00000010
00000100
00000001
00000000
,
00001000
00000100
00001000
00000100
00000010
00000001
00000010
00000001
00001000
00000010
00001000
00000010
00010000
00001000
00010000
00002000
,
00000000
00003000
00000000
00000000
00000000
00000000
00000000
00000000
00000000
00000000
00000000
00000000
00000000
00000000
00000000
00000000
00010000
00000000
00000000
00000000
00000000
00000000
00000000
00000000
00010000
00000000
00000000
00000000
00100000
00000000
00000000
00000000
00000000
00000000
00000000
00000000
00100000
00000000
00000000
00000000
10000000
00000000
00000000
00000000
00000000
00000000
00000000
00000000
10000000
00000000
00000000
00000000
00000000
00000000
00000000
00000000
10000000
00000000
00000000
00000000
00100000
00000000
00000000
00000000
,
00000000
00100000
00010000
00000000
00001000
00000000
00001000
00000010
00000000
00000010
00000001
00000000
00001000
00000000
00000001
00000000
,
00000100
00000000
00000010
00000000
00001000
00000000
00000001
00000100
00000000
00000100
00001000
00000000
00001000
00000000
00010000
01000000
,
00000000
01000000
10000000
00000000
10100000
00000000
00000000
00000000
01010000
00000000
00000000
00000000
10010000
00000000
10000000
00000000
,
01000000
00000000
00100000
00000000
00001000
00000000
00010000
00000100
00000000
00001000
00000100
00000000
00000010
00000000
00000001
00000010
,
00000000
00001000
00000010
00000000
00000001
00000000
00000100
00000010
00000000
00001000
00000010
00000000
00010000
00000000
00000100
00001000
,
00000100
00000010
00000220
00000000
00000330
00022000
00000000
00033000
,
02200000
00000000
03300000
00000000
00010000
01000000
00010000
01000000
00100000
10000000
00100000
10000000
01000000
00100000
01000000
00100000
,
00010000
10000000
01000000
00100000
00002000
00000000
00000000
00023000
00000000
00000000
00230000
00000000
00000000
00000000
00302000
00000000
,
00013000
00000100
00001000
00000100
00000020
00000000
00000000
00000032
00000000
00000000
00002003
00000000
00000000
00000000
00003020
00000000
,
00000130
00000001
00000100
00000010
00002000
00000000
00000000
00003200
00000000
00000000
00020300
00000000
00000000
00000000
00031000
00100000
,
00010000
10000000
00010000
01000000
00100000
00000000
10000000
01000000
00100000
01000000
10000000
01000000
00100000
00000000
00001000
00010000
,
00001000
00100000
00001000
00010000
00000020
00000000
00000000
00000000
00001000
00000000
00000000
00000000
00000031
00000000
00000000
00000000
,
00001001
00000000
00000000
00000000
00000001
00000100
00000001
00000100
00000010
00001000
00000010
00001000
00000100
00010000
00000100
00010000
,
00001000
00100000
00001000
00100000
00010000
01000000
00010000
01000000
00100000
10000000
00100000
10000000
01000000
00100000
01000000
00100000
,
00010000
00001000
00010000
00001000
00000100
00000010
00000100
00000010
00000001
00001000
00000001
00001000
00000001
00000010
00000100
00010000
,
00001000
00100000
01000000
10000000
00010000
00000000
00000000
00000000
00000000
00000000
00000000
00000000
00000000
00000000
00000000
00000000
;

//--------------- dance-double - Fred-104† ----------------
#NOTES:
     dance-double:
     Fred-104†:
     Challenge:
     18:
     :
00000000
00000000
00000000
00000000
,
00000000
00000000
00000000
00000000
,
00000000
00000000
00000000
00000000
,
00000000
00000000
00000000
00000000
,
00000000
00000000
00000000
00000000
,
00000000
00000000
00000000
00000000
,
00000000
00000000
00000000
00000000
,
00011000
00000000
00001000
00010000
00000000
00010000
00100000
00000000
00001000
00020000
00000000
00000000
00030010
00000000
00010000
00001000
,
00010000
00000000
00001000
00010000
00000000
00010000
01000000
00000000
00001000
00010000
00000000
00010000
00000100
00001000
00000100
00000000
,
00010000
00000000
00001000
00010000
00000000
01000000
00010000
00000000
00001000
00020000
00000000
00000000
00031000
00000000
00010000
00001000
,
00010000
00000000
00001000
00000010
00000000
00001000
00010000
00000000
00001000
00010000
00001000
00100000
00001000
00010000
00001000
00000000
,
00011000
00000000
00010000
00001000
00000000
00001000
00000010
00000000
00010000
00002000
00000000
00000000
00103000
00000000
00001000
00010000
,
00001000
00000000
00010000
00001000
00000000
00001000
00000100
00000000
00010000
00001000
00000000
00001000
01000000
00010000
01000000
00000000
,
00001000
00000000
00010000
00001000
00000000
00000100
00001000
00000000
00010000
00002000
00000000
00000000
00013000
00000000
00001000
00010000
,
00001000
00000000
00010000
00100000
00000000
00010000
00001000
00000000
00010000
00001000
00010000
00000010
00010000
00001000
00010000
00000000
,
00001000
00000000
00100000
00010000
10000000
00000000
00100000
00000000
01000000
00000000
00010000
10000000
01000000
00000000
00100000
00000000
,
00001000
00010000
00001000
00000000
00000100
00000010
00000100
00000000
00000001
00000100
00000001
00000000
00001000
00000100
00001000
00000000
,
00000001
00000010
00000100
00000000
00001000
00000000
00000100
00000010
00000001
00000000
00001000
00000000
00000001
00000100
00001000
00000000
,
00010000
00000000
00001000
00010000
00000000
00010000
00100000
00000000
10000000
00010000
00100000
01000000
10000000
00010000
01000000
00010000
,
10000000
00000000
00100000
01000000
00010000
00000000
00100000
00000000
01000000
00000000
00100000
10000000
00010000
00000000
00100000
00000000
,
00001000
00010000
00001000
00000000
00010000
00000100
00010000
00000000
00000010
00000100
00000010
00000000
00001000
00000001
00001000
00000000
,
00000001
00000100
00001000
00000000
00000100
00000000
00000001
00000010
00000200
00000000
00002300
00000000
00023000
00000000
00032000
00003000
,
00011000
00000000
00000000
00110000
00000000
00000000
10100000
00000000
10010000
00000000
00010000
01000000
00100000
01000000
00010000
10000000
,
00010000
00000000
00000000
00000000
00000000
00000000
00000000
00000000
00000000
00000000
00000000
00000000
00000000
00000000
00000000
00000000
10200000
00000000
00000000
00000000
00000000
00000000
00000000
00000000
00000000
00000000
00000000
00000000
00000000
00000000
00000000
00300000
02100000
00000000
00000000
00000000
00000000
00000000
00000000
00000000
00000000
00000000
00000000
00000000
00000000
00000000
00000000
03000000
01010000
00000000
00000000
00000000
00000000
00000000
00000000
00000000
00010000
00000000
00000000
00000000
00000000
00000000
00000000
00000000
,
00002000
00000000
00000000
00003200
00000000
00000000
00000302
00000000
00000103
00000000
00001000
00000000
00000001
00000000
00000010
00000000
,
00001010
00000000
00000000
00000000
00000000
00000000
00000000
00000000
00000000
00000000
00000000
00000000
00000000
00000000
00000000
00000000
00021000
00000000
00000000
00000000
00000000
00000000
00000000
00000000
00000000
00000000
00000000
00000000
00000000
00000000
00000000
00030000
00210000
00000000
00000000
00000000
00000000
00000000
00000000
00000000
00000000
00000000
00000000
00000000
00000000
00000000
00000000
00300000
10100000
00000000
00000000
00000000
00000000
00000000
00000000
00000000
10000000
00000000
00000000
00000000
00000000
00000000
00000000
00000000
,
00020000
00000000
00000000
02030000
00000000
00000000
03200000
00000000
00000000
00000000
10300000
01000000
00010000
01000000
10000000
00010000
,
10000000
00000000
00010000
00100000
00000000
00100000
01000000
00000000
10000000
00100000
00000000
00100000
01000000
00000000
00010000
00000000
,
00100000
00000000
01000000
00010000
00000000
00010000
00001000
00000000
00000100
00000010
00000000
00000010
00001000
00000000
00010000
00000000
,
00100000
00000000
10000000
00100000
00000000
00010000
00100000
00000000
10000000
01000000
00000000
00010000
01000000
00000000
00100000
00000000
,
00001000
00000000
00010000
00000100
00000000
00001000
00000010
00000000
00000100
00000001
00001000
00000001
00000100
00000000
00000010
00000000
,
00000101
00000000
00000000
00000011
00000000
00000000
00000101
00000000
00000000
00000010
00001000
00000000
00000001
00000000
00000010
00000000
,
00000100
00001000
00000000
00000001
00000010
00000000
00001000
00010000
00000000
00010000
00100000
00000000
10000000
00000000
00010000
00000000
,
01000000
00100000
01000000
00100000
10000000
00100000
01000000
00010000
00100000
01000000
00100000
00001000
00010000
00000100
00001000
00000010
,
00000100
00000001
00000010
00000100
00010000
00001000
00100000
00010000
02000000
00000000
00000000
00000000
00000000
00000000
03100000
00000000
,
00001000
00000000
00010000
00001000
00000010
00000000
00000001
00000000
00002001
00000000
00000000
00000000
00003001
00000000
00000100
00000000
,
00001000
00010000
01000000
00000000
00010000
00000000
00001000
00000100
00000010
00000001
00001000
00000010
00000100
00000000
00000010
00000000
,
00010000
00000000
00001000
00010000
00100000
00000000
10000000
00000000
20010000
00000000
00000000
00000000
30010000
00000000
01000000
00000000
,
10000000
01000000
00010000
00000000
10000000
00000000
00100000
00010000
00100000
10000000
00010000
10000000
01000000
00000000
00100000
00000000
,
00010000
00000000
00001000
00010000
00000100
00000000
00000010
00000000
00000012
00000000
00000000
00000000
00001003
00000000
00000100
00000000
,
00000001
00000100
00001000
00000000
00000100
00000000
00000001
00000010
00001000
00000000
00010000
00000000
00100000
00000000
10000000
00000000
,
10020000
00000000
00000000
00000000
00000000
00000000
00000000
00000000
00000000
00000000
00000000
00000000
00000000
00000000
00000000
00030000
00012000
00000000
00000000
00000000
00000000
00000000
00000000
00000000
00000000
00000000
00000000
00000000
00000000
00000000
00000000
00003000
00001001
00000000
00000000
00000000
00000000
00000000
00000000
00000000
00000001
00000000
00000000
00000000
00000000
00000000
00000000
00000000
00000100
00000000
00000000
00000000
00000000
00000000
00000000
00000000
00000010
00000000
00000000
00000000
00000000
00000000
00000000
00000000
,
00000100
00000001
00000100
00000010
00001000
00000010
00000100
00000010
00001000
00000100
00010000
00001000
00100000
00010000
01000000
00100000
,
10000000
01000000
10000000
00010000
01000000
00000000
00100000
00000000
20100000
00000000
00000000
00000000
30100000
00000000
01000000
00000000
,
00010000
00100000
10000000
00000000
00100000
00000000
00001000
00010000
00001000
00000000
00000100
00000000
00000010
00000100
00000010
00000000
,
00000001
00000100
00000001
00000100
00000010
00000000
00001000
00000000
00002100
00000000
00000000
00000000
00003001
00000000
00000100
00000000
,
00000001
00000100
00001000
00000000
00010000
00000000
00001000
00010000
01000000
00000000
10000000
01000000
00010000
00000000
01000000
00000000
,
00010000
10000000
00010000
10000000
01100000
00000000
00000000
00000000
00010000
00000000
10000000
00000000
01000000
00000000
00100000
00000000
,
00001000
00010000
00001000
00010000
00011000
00000000
00000000
00000000
00001000
00000000
00000100
00000000
00000001
00000000
00000100
00000000
,
00001000
00000010
00001000
00000010
00001001
00000000
00000000
00000000
00000001
00000100
00000010
00000000
00001000
00000100
00000010
00000001
,
00001000
00000000
00000010
00010000
00001000
00000000
00010000
00000000
00002000
00000000
00000000
00000000
00023000
00000000
00000000
00000000
,
01030000
00100000
10000000
01000000
00100000
00000000
00001000
00010000
00000100
00001000
00000010
00000000
00010000
00001000
00000100
00000000
,
00000001
00000000
00000010
00000000
00000100
00000000
00010000
00001000
00000000
00001000
00000000
00010000
00000100
00000000
00010000
00000000
,
00001000
00000000
01000000
00000000
00010000
00100000
00000000
00100000
10000000
00100000
00000000
00020000
00000000
00000000
00000000
00000000
,
01030000
00000000
00100000
00000000
10000000
00000000
00010000
01000000
00000000
10000000
00000000
01000000
00100000
00000000
01000000
00000000
,
00010000
01000000
00010000
00100000
00001000
00010000
00000100
00001000
00000100
00000010
00000001
00001000
00000001
00000200
00000000
00000000
,
00000310
00000000
00001000
00000000
00000100
00000000
00010000
00001000
00000000
00001000
00000000
00100000
00010000
00000000
10000000
00000000
,
00010000
01000000
00000000
01000000
10000000
00000000
01000000
00000000
00100000
00010000
00000000
00100000
01000000
00000000
00100000
10000000
,
00010000
00000000
01000000
00000000
00100000
00000000
01000000
00010000
00100000
00001000
00000000
00010000
00000010
00000000
00000010
00000000
,
00001000
00000000
00000001
00000100
00000000
00000010
00000100
00000000
00000001
00000010
00000100
00010000
00001000
00100000
01000000
10000000
,
00020000
00000000
00000000
00000000
10030000
01000000
00010000
00001000
00020000
00000000
00000000
00000000
00031000
00000100
00000001
00001000
,
00000002
00000000
00000000
00000000
00001003
00000001
00000010
00001000
00020000
00000000
00000000
00000000
00130000
10000000
00010000
10000000
,
00200000
00000000
00000000
00000000
00301000
00010000
00000010
00001000
00000002
00000000
00000203
00000000
00000301
00000010
00000100
00001000
,
00000200
00000000
00020300
00000000
00031000
00010000
00000010
00010000
00002000
00000000
00000000
00000000
00103000
00010000
10000000
00100000
,
01000000
00010000
01000000
00100000
10000000
01000000
00100000
00010000
00100000
01000000
00001000
00010000
00000100
00001000
00000100
00001000
,
00000010
00000100
00000001
00000010
00000100
00001000
00000100
00000010
00000001
00000100
00001000
00010000
00100000
10000000
00010000
02000000
,
00000000
03000000
00000000
00000000
00000000
00000000
00000000
00000000
00000000
00000000
00000000
00000000
00000000
00000000
00000000
00000000
10010000
00000000
00000000
00000000
00000000
00000000
00000000
00000000
00010000
00000000
00000000
00000000
01000000
00000000
00000000
00000000
00000000
00000000
00000000
00000000
10000000
00000000
00000000
00000000
01000000
00000000
00000000
00000000
00010000
00000000
00000000
00000000
00100000
00000000
00000000
00000000
00000000
00000000
00000000
00000000
10000000
00000000
00000000
00000000
00100000
00000000
00000000
00000000
,
00000000
00010000
00100000
10000000
00100000
00000000
00001000
00010000
00000000
00000100
00001000
00000100
00000010
00000000
00000001
00000100
,
00001000
00000100
00000001
00000000
00001000
00000000
00000001
00000010
00000000
00001000
00000010
00000001
00001000
00000000
00000001
00000010
,
00000000
00000100
00010000
00001000
00100000
00000000
00010000
01000000
00100000
00000000
10000000
01000000
00100000
00000000
00010000
01000000
,
10000000
01000000
00010000
00000000
10000000
00000000
00100000
01000000
00000000
00100000
10000000
00100000
01000000
00000000
00001000
00010000
,
00000000
00001000
00100000
00001000
00010000
00000000
00000100
00001000
00000000
00000100
00000010
00000001
00001000
00000000
00000001
00000010
,
00001000
00000000
00000010
00000000
00000001
00000010
00000100
00010000
00001000
00000000
00100000
00010000
10000000
00100000
01000000
00000000
,
00010000
10000000
01000000
00000000
10000000
00100000
01000000
00010000
00100000
00001000
00010000
00100000
00010000
00001000
01000000
00001000
,
00010000
00000100
00001000
00000100
00000010
00000000
00000001
00000010
00000000
00000010
00001000
00000000
00000000
00000000
00001010
00000000
,
00000010
00000001
00001000
00000010
00000100
00000000
00000001
00000100
00000000
00000100
00001000
00000000
00000000
00000000
00011000
00000000
,
00010000
00100000
01000000
00100000
10000000
00000000
00010000
01000000
00000000
01000000
00100000
00000000
10000000
00000000
00010000
01000000
,
10000000
00000000
00000000
00000000
01000000
00000000
00000000
00000000
00010000
00000000
00000000
00000000
10000000
00000000
00000000
00000000
01000000
00000000
00000000
00000000
00200000
00300000
00000000
00000000
00200000
00300000
00000000
00000000
10000000
00000000
00000000
00000000
01000000
00000000
00000000
00000000
00100000
00000000
00000000
00000000
00001000
00000000
00000000
00000000
00010000
00000000
00000000
00000000
00001000
00000000
00000000
00000000
00000020
00000030
00000000
00000000
00000020
00000030
00000000
00000000
00000001
00000000
00000000
00000000
,
00001000
00000010
00000100
00000001
00002000
00000000
00000000
00000000
00000000
00000000
00000000
00000000
00000000
00000000
00000000
00000000
,
00000000
00000000
00000000
00000000
00003001
00000100
00001000
00000100
00000001
00000100
00000010
00001000
00000001
00000010
00001000
00010000
,
00001000
00010000
00100000
10000000
00010000
01000000
00100000
01000000
10000000
01000000
00100000
10000000
00100000
00010000
00001000
00010000
,
00001000
00000010
00000001
00001000
00000001
00000100
00000010
00001000
00000001
00000010
00000100
00010000
00001000
00100000
00010000
10000000
,
00010000
00100000
01000000
10000000
00100000
01000000
00010000
00000000
00000000
00000000
00000000
00000000
00000000
00000000
00000000
00000000
00000000
00000000
00000000
00000000
00000000
00000000
00000000
00000000
;
