#TITLE:SUPER FURY;
#ARTIST:REDALiCE;
#BANNER:SUPER FURY.png;
#BACKGROUND:SUPER FURY-bg.png;
#CDTITLE:./CDTitles/SEVEN's CODE.png;
#MUSIC:SUPER FURY.ogg;
#SAMPLESTART:41.739;
#SAMPLELENGTH:15;
#BPMS:0=115,10=57.5,10.5=115,11=230,34=460,35=230,36=460,52=230,60=460,220=230,235=460,300=230,308=460,356=230,400=460,416=230,480=115,498=230,500=115,506=230,510=460,542=230,550=460,598=230,607=115,607.5=57.5,608=230,618=115,618.5=57.5,619=115,620=460,696=230;
#STOPS:34=0.033,34.25=0.032,34.5=0.033,34.75=0.032,235=0.13,498=0.131,498.5=0.131,499=0.13,499.5=0.066,499.75=0.065,608=0.782,619=0.261,619.5=0.13,619.75=0.066,619.875=0.065;
#TIMESIGNATURES:0=4=4,504=6=4,510=4=4,606=3=4,609=4=4,617=3=4,620=4=4;
#BGSTAGE:28;

//--------------- dance-single - Fred-104 ----------------
#NOTES:
     dance-single:
     Fred-104:
     Beginner:
     8:
     :
0000
0000
0000
0000
,
0000
0000
0000
0000
,
0000
0000
0000
0000
,
1000
0000
0000
0000
,
0001
0000
0000
0000
,
0100
0000
0000
0000
,
0001
0000
0000
0000
,
1000
0000
1000
0000
,
0001
0000
0002
0003
,
1000
0000
1000
0000
,
1000
0000
0000
0000
,
0001
0000
0001
0000
,
0001
0000
0000
0000
,
2000
0000
0000
0000
,
3002
0000
0000
0003
,
0100
0000
0100
0000
,
0100
0000
0000
0000
,
0010
0000
0010
0000
,
0010
0000
0000
0000
,
1000
0000
1000
0000
,
1000
0000
0000
0000
,
0001
0000
0001
0000
,
0001
0000
0000
0000
,
1000
0000
1000
0000
,
0100
0000
0100
0000
,
0010
0000
0010
0000
,
0001
0000
1000
0000
,
0002
0000
0000
0000
,
2003
0000
0000
0000
,
3001
0000
0001
0000
,
1000
0000
1000
0000
,
0100
0000
0100
0000
,
0100
0000
0000
0000
,
0010
0000
0000
0000
,
0001
0000
0000
0000
,
1000
0000
1000
0000
,
1000
0000
0000
0000
,
0001
0000
0000
0000
,
0100
0000
0000
0000
,
0010
0000
0000
0000
,
0010
0000
0000
0000
,
1000
0000
0001
0000
,
0100
0000
0100
0000
,
0010
0000
0000
0000
,
1000
0000
0000
0000
,
0001
0000
0001
0000
,
0010
0000
0100
0000
,
1000
0000
0000
0000
,
0001
0000
0000
0000
,
1000
0000
1000
0000
,
0001
0000
0100
0000
,
0010
0000
0000
0000
,
0100
0000
0000
0000
,
0001
0000
1000
0000
,
1001
0000
0000
0000
,
1001
0000
0000
0000
,
0110
0000
0000
0000
,
1001
0000
0000
0000
,
0110
0000
0000
0000
,
0001
0000
0001
0000
,
1000
0000
1000
0000
,
0010
0000
0010
0000
,
0100
0000
0100
0000
,
0001
0000
1000
0000
,
0001
0000
0010
0000
,
0100
0000
1000
0000
,
0001
0000
0000
0000
,
1000
0000
0000
0100
,
0000
0000
0100
0000
,
0010
0000
0000
0001
,
0000
0000
0001
0000
,
1000
0000
0000
0001
,
0000
0000
0100
0000
,
0001
0000
1000
0000
,
1001
0000
0000
0000
,
0002
0000
0000
0000
,
2003
0000
0000
3000
,
0100
0000
0100
0000
,
0010
0000
0010
0000
,
0001
0000
1000
0000
,
0001
0000
0000
0000
,
1000
0000
0000
0000
,
0100
0000
0000
0000
,
0001
0000
0000
0000
,
0010
0000
0000
0000
,
1000
0000
1000
0000
,
0001
0000
0001
0000
,
1001
0000
0000
0000
,
0000
0000
0000
0000
,
1000
0000
0000
0001
,
0000
0000
1000
0000
,
0001
0000
0010
0000
,
0100
0100
0200
0300
,
0100
0000
0000
1000
,
0000
0000
0001
0000
,
1000
0000
0001
0000
,
2000
0000
0000
3000
,
0001
0000
1000
0000
,
0001
0000
1000
0000
,
0002
0000
0000
0003
,
2000
0000
0000
0000
,
0000
0000
0000
3000
,
0002
0000
0000
0000
,
0000
0000
0003
0000
,
1001
0000
0001
0000
,
0100
0000
0010
0010
,
0020
0030
0020
0030
,
0200
0300
0200
0300
,
0001
0000
1000
0000
,
0100
0000
1000
1000
,
2000
3000
0002
0003
,
2002
0000
3003
0000
,
0002
0003
2000
3000
,
0002
0003
0200
0300
,
0020
0030
2000
3000
,
0001
0010
0100
1000
,
0002
0003
2000
3000
,
0020
0030
0200
0300
,
1001
0000
0000
0000
,
0110
0000
0000
0000
,
2002
0000
0000
0000
,
0000
0000
0000
0000
,
0000
0000
0000
3003
,
0001
0001
0001
0001
,
1000
1000
1001
0000
,
0002
0000
0000
0000
,
0003
0000
0000
0000
,
0000
0000
1000
0000
,
0000
1000
0000
0000
,
0001
0000
0100
0000
,
0000
0100
0000
0000
,
0010
0000
0100
0000
,
0000
0001
0000
0000
,
1000
0000
0001
0000
,
0001
0000
1000
0000
,
1000
0000
0200
0000
,
0000
0000
0320
0000
,
0000
0030
0001
0000
,
1000
0000
0001
0000
,
0100
0000
0010
0000
,
0010
0000
0110
0000
,
0000
0000
0001
0000
,
0000
0010
0000
0000
,
0100
0000
1000
0000
,
0000
0001
0000
0000
,
0100
0000
0010
0000
,
0010
0000
0010
0000
,
0000
0000
0100
0000
,
0000
0000
1001
0000
,
0000
0000
1000
0000
,
0001
0000
1000
0000
,
0100
0000
1000
0000
,
0000
0001
0000
0100
,
0000
0001
0000
1000
,
0000
0001
0000
0000
,
1000
0000
1000
0000
,
0100
0000
0100
0000
,
0010
0000
0010
0000
,
0001
0000
0001
0000
,
1000
0000
1000
0000
,
0001
0000
0001
0000
,
0100
0000
0010
0000
,
0110
0000
0000
0000
,
1000
0000
1000
0000
,
0001
0000
0001
0000
,
0010
0000
0100
0000
,
1000
0000
0001
0000
,
0100
0000
0010
0000
,
1000
0000
0001
0000
,
1000
0000
0000
0000
,
0001
0000
0000
0000
,
2002
0000
0000
0000
,
0000
0000
0000
0000
,
0000
0000
0000
0000
,
3003
0000
0000
0000
;

//--------------- dance-single - Fred-104 ----------------
#NOTES:
     dance-single:
     Fred-104:
     Easy:
     11:
     :
0000
0000
0000
0000
,
0000
0000
0000
0000
,
0000
0000
0000
0000
,
1000
0000
1000
0000
1000
0000
0000
1001
,
0000
0000
0001
1000
,
0001
0000
0001
0000
0001
0000
0000
1001
,
0000
0000
0000
0000
,
0110
0000
0110
0000
0001
0000
1000
0100
,
0000
0100
0010
0000
0002
0000
1003
0000
,
0001
0000
0001
0000
,
0100
0000
0100
0000
,
0010
0000
0010
0000
,
1000
0000
0001
0000
,
1000
0100
0110
0010
,
0001
0000
1000
0000
0010
0100
0010
0000
,
1000
0000
1000
0000
,
0010
0000
0010
0000
,
0100
0000
0100
0000
,
0001
0000
0001
0000
,
1000
0000
0100
0000
,
0010
0000
0001
0000
,
1000
0000
0001
0000
,
1001
0000
0000
0000
,
0001
0000
0001
0000
,
0010
0000
0010
0000
,
0100
0000
0100
0000
,
1000
0000
0001
0000
,
1000
0000
0010
0000
,
0100
0000
0001
0000
,
1000
0000
0100
0000
,
0010
0000
0001
0000
,
1000
0000
1000
0000
,
0001
0000
0000
1001
,
0000
0000
0001
0000
,
1000
0000
0100
0000
,
0010
0000
0010
0000
,
0001
0000
0000
0011
,
0000
0001
0000
1000
,
0001
0000
0000
0000
,
1002
0000
1000
0000
,
1000
0000
0000
1000
,
0000
0000
0003
0000
,
0100
0000
0100
0000
,
2001
0000
0001
0000
,
0001
0000
0000
0001
,
0000
0000
3000
0000
,
1000
0000
0100
0000
,
0210
0000
0010
0000
,
0010
0000
0000
0310
,
0000
0000
0001
0000
,
1000
0000
0001
0000
,
0100
0000
0010
0000
,
0100
0000
0000
0110
,
0000
0000
0001
0000
,
1000
0000
0001
0000
,
1000
0000
0000
1000
0000
0000
1000
0000
,
2002
0000
3003
0000
,
0001
0000
0000
0001
0000
0000
0001
0000
,
2002
0000
0000
3003
,
1000
0000
1000
0000
,
0100
0000
0100
0000
,
0010
0000
0010
0000
,
0001
0000
0001
0000
,
1000
0000
0001
0000
,
0100
0000
0000
0010
,
0000
0000
0110
0000
,
0000
0000
0000
0000
,
0001
0000
0000
0010
,
0000
0000
1000
0000
,
0001
0000
0000
0100
,
0000
0000
1000
0000
,
0001
0000
0000
0010
,
0000
0000
0100
0000
,
1000
0000
1000
0000
,
0001
0000
0100
0000
,
0110
0000
0010
0000
1000
0000
0001
0010
,
0000
0010
0100
0000
1000
0000
0001
0000
,
0100
0000
0100
0000
,
0010
0000
0010
0000
,
1000
0000
0001
0000
,
1001
0000
0000
0000
,
1000
0000
0000
0100
,
0000
0000
0001
0000
,
1000
0000
0000
0010
,
0000
0000
0001
0000
,
1000
0000
0100
0000
,
0010
0000
0000
0001
,
0000
0001
0000
0001
,
1000
0000
0000
0000
,
0001
0001
0000
1000
,
1000
0000
0010
0010
,
0100
0001
1000
0100
,
0010
0100
0010
0000
0001
0000
1001
0000
,
1000
1000
0000
0100
,
0100
0000
0010
0010
,
0001
0000
1000
0000
,
0001
1000
1001
0000
,
1000
0000
0100
0000
,
1000
1000
0001
0001
,
0100
0010
0100
0001
,
1000
0000
0100
0000
,
0010
0000
0001
0000
,
2000
0000
0000
0000
,
0002
0000
3003
0000
,
2000
0000
0000
0100
0000
0000
0100
0000
0000
0000
0000
3001
,
0000
1000
0100
0010
,
0002
0000
2003
0000
,
3010
0010
0100
0100
,
0002
0000
0000
0010
0000
0000
0010
0000
0000
0000
0000
1000
,
0003
0001
0100
0010
,
0100
0100
0001
1000
,
2002
0000
3003
0000
,
1000
0000
0000
0000
0000
0100
0000
0000
0000
0010
0000
0000
,
0001
0001
1000
1000
,
0002
0000
2003
0000
,
3100
0010
0001
1000
,
0001
0000
0010
0000
,
1000
0000
0100
0000
,
0001
0001
1000
0000
,
0100
0100
0010
0001
,
2002
0000
0000
0000
,
0000
0000
0000
0000
,
0000
0000
0000
3003
,
0001
0001
0010
0010
0100
0100
1000
1000
,
0001
0100
0010
1000
0001
0010
0110
0000
,
2002
0000
0000
0000
,
3003
0000
0000
0000
,
0000
0000
0001
0000
,
0000
0010
0000
0000
,
0100
0000
1000
0000
,
0000
0010
0000
0000
,
0100
0000
0001
0000
,
0000
1000
0000
0000
,
0100
0000
0010
0000
,
0010
0000
0001
0000
,
1000
0000
1001
0001
,
0100
0000
0010
1000
0000
1000
0100
0000
,
0010
0001
1000
0001
,
1000
0000
0001
0000
,
0000
0100
0000
0000
,
0110
0000
0000
0000
,
0001
0000
1000
0000
,
0000
0100
0000
0000
,
0001
0000
1000
0000
,
0000
0010
0000
0000
,
0100
0000
1000
0000
,
0100
0000
0010
0000
,
0000
0001
0000
1000
,
0000
0001
0001
0000
,
1001
0000
1000
0100
,
0010
0001
0100
0010
,
1000
0001
1000
0000
2002
0000
0000
0000
,
3003
0001
0010
0100
,
1000
0000
0010
0000
0100
0000
0001
1000
,
0001
2002
0000
3003
,
0001
0000
0001
0000
,
0010
0000
0010
0000
,
0100
0000
0100
0000
,
1000
0001
1000
0000
,
0010
0000
0010
0000
,
0100
0000
0100
0000
,
0001
0000
0001
0000
,
1000
0001
1000
0000
,
0001
0010
0001
0000
,
1000
0010
1000
0000
,
0001
0100
0001
0000
,
1000
0100
1000
0000
,
0001
0010
0001
0010
,
0100
1000
0100
1000
,
0000
0001
0100
0010
,
1000
0001
1000
0000
,
1001
0000
1001
0000
,
0001
0010
0100
1000
,
0000
0001
1000
0000
,
1001
0000
0000
0000
;

//--------------- dance-single - Fred-104 ----------------
#NOTES:
     dance-single:
     Fred-104:
     Medium:
     14:
     :
0000
0000
0000
0000
,
0000
0000
0000
0000
,
0000
0000
0000
0000
,
0001
0000
0001
0000
1000
0100
1000
0100
,
0000
0010
0100
0000
1000
0000
1001
0000
,
0001
0000
0001
0000
1000
0010
1000
0010
,
0000
0100
0010
0000
0110
0000
1001
0000
,
1010
0000
0101
0000
1000
0100
0010
0100
,
0000
1000
0001
0000
0200
0000
0310
0000
,
0100
0000
0010
0000
,
1000
0000
0001
0000
,
0010
0100
1000
0001
,
0100
0010
1000
0001
,
0010
0000
0110
0000
1001
0000
1000
0100
,
1000
0001
0100
0010
1000
0001
0010
0000
,
0100
0000
1000
0000
,
0001
0100
0010
1000
,
0000
0100
0010
0000
,
0001
0000
1000
0001
,
0100
0010
1000
0001
,
0010
0100
0010
0001
,
0000
0001
1000
0001
,
0100
0000
1001
0000
,
1000
0000
0100
0000
,
0001
0100
1000
0000
,
0001
1000
0100
0001
,
0100
0010
0001
1000
,
0001
0100
0010
1000
,
0010
0100
0010
1000
,
0001
0010
0100
1000
,
0001
0100
0010
0000
,
0110
0000
1001
0000
,
1000
0100
0010
0001
,
0000
1000
0001
0000
,
0101
0000
1010
0000
,
0110
0000
1001
0000
,
1000
0001
0100
0010
,
0000
1000
0000
0001
,
0010
0000
0110
0000
,
1002
0000
1000
0000
,
1000
0000
0000
0010
,
0000
0000
0010
0000
,
0100
0000
0103
0000
,
0120
0000
1000
0000
,
1000
0000
0000
0001
,
0000
0000
1030
0000
,
1001
0000
1100
0000
,
0110
0000
1001
0000
,
0001
0010
0100
1000
,
0000
0010
0100
0000
,
0101
0000
1010
0000
,
0011
0000
1100
0000
,
1000
0001
0100
0010
,
0000
0100
0001
0000
,
1000
0000
1001
0000
,
0001
0000
0000
0010
0000
0000
0110
0000
0000
0100
0000
0000
1000
0000
0001
0000
,
0200
0000
0020
0330
,
1000
0000
0000
0010
0000
0000
0110
0000
0000
0100
0000
0000
0001
0000
1000
0000
,
0200
0000
0000
0310
,
0001
0000
0011
0000
,
1000
0000
1010
0000
,
0001
0100
1000
0000
,
0001
0010
1000
0000
,
0001
0010
0200
0000
,
1300
0001
0100
0020
,
0000
1030
0100
0000
,
0110
0000
0010
0001
,
1000
0001
0100
0002
,
0000
1003
0010
1000
,
0100
1000
0001
0200
,
0000
0301
0010
0100
,
0010
0001
1000
0020
,
0000
0130
0001
1000
,
0100
0010
0001
0100
,
0010
1000
0001
0000
,
1100
0000
0101
0000
1100
0000
1000
0100
,
0000
0100
0010
0000
0011
0000
1001
0000
,
1000
1000
1000
0000
,
0001
0000
1000
0020
,
0000
0130
0002
0000
,
1003
0000
0001
0010
,
0100
1000
0100
2000
,
0000
3001
1000
0001
,
0100
0010
0100
0002
,
0000
1003
0100
0010
,
0100
1000
0001
0100
,
0010
1000
0001
1000
,
0000
1001
0000
0100
,
0110
0000
0000
0000
,
1001
1100
0000
0101
,
1001
0000
0110
1001
,
0001
0010
0100
0000
1000
0001
0100
0000
,
0010
1000
0001
0000
0110
0000
1001
0000
,
1010
0011
0000
0101
,
1100
0000
0110
1001
,
0001
0010
0200
0000
0302
0000
0203
0000
,
1300
0001
0100
1000
0100
0010
0100
0000
,
0010
0010
0100
0100
,
0001
1000
0001
1000
0100
0010
0001
1000
,
0020
0230
0302
2003
,
3100
0010
0001
0000
,
0100
0010
1000
0000
,
0002
0000
0000
0000
,
2000
0000
3003
0000
,
1000
0000
0000
0100
0000
0000
1000
0000
0001
0000
0000
0020
,
0000
0000
0130
0010
0000
0000
0001
0000
1000
0001
0000
0000
,
2000
0001
3002
0100
,
0103
0000
0010
0100
0000
0000
0001
0000
1000
0001
0000
0000
,
1000
0000
0000
0100
0000
0000
0010
0000
0002
0000
0000
2003
,
0000
0000
3010
0100
0000
0000
0010
0000
0000
1000
0000
0000
,
0001
0000
0001
0100
0000
0000
0010
0000
0010
1000
0000
0001
,
2000
0000
0000
3000
,
0001
0000
0001
0010
0000
0100
0000
0000
1000
0001
0000
0000
,
0100
0000
0010
0100
0000
0001
1000
0000
0000
0100
0000
0000
,
0020
0000
0230
0000
,
1300
0000
0001
0010
0000
0000
0100
0000
0010
0001
0000
0000
,
1000
0000
0100
0000
0010
0000
0001
0000
0010
0000
0100
0000
,
1000
0000
0001
0000
0100
0000
0010
0000
1000
0000
0001
0000
,
0020
0230
2300
3002
,
0203
0000
0000
0320
0000
0000
1030
0001
1000
0001
0000
0000
,
2002
0000
0000
0000
,
0000
0000
0000
0000
,
0000
0000
0000
3003
,
1000
0100
1000
0100
0010
0001
0010
0001
1000
0010
1000
0010
0100
0001
0100
0001
,
2000
0000
0000
0000
0000
0000
0000
0000
3200
0000
0000
0000
0000
0000
0000
0000
0302
0000
0000
0000
0000
0000
0000
0000
0023
0000
0000
0000
0000
0000
0000
0000
2030
3000
0000
0000
0000
0000
0000
0000
0220
0330
0000
0000
0000
0000
0000
0000
2002
3003
0000
0000
0000
0000
0000
0000
0002
0003
0000
0000
2000
3000
0000
0000
,
0002
0000
0000
0000
,
0003
0000
0000
0000
,
0000
0000
1000
0100
,
0010
0100
0000
1000
,
0001
0100
0010
1000
,
0001
0010
0000
0100
,
0010
0001
1000
0010
,
0100
0010
0000
1000
,
0100
0010
0001
1000
,
0010
0100
0001
1000
,
0001
0000
1010
0011
,
1010
0000
1000
0001
0000
0001
0010
0000
,
0110
1001
0001
0100
,
1000
0000
0100
0001
,
1000
0200
0000
0310
,
0200
0000
1300
0000
,
0001
1000
0001
0010
,
0100
2000
0000
3010
,
0100
0001
1000
0100
,
0010
0200
0000
1300
,
0010
0100
0001
1000
,
0100
0010
0001
0010
,
0100
1000
0000
1001
,
0000
0001
0100
0000
,
0110
0000
0010
1000
,
1001
0001
0010
0100
,
1000
0100
0001
0100
2000
0000
0000
0000
,
3000
1000
0001
0101
,
0100
0000
0010
0000
1000
0000
0001
0100
,
1000
0000
0100
0000
0002
0000
0000
0000
0000
0000
0000
0003
0220
0330
2002
3003
,
0001
0000
1000
0000
,
0001
0000
0010
0100
,
0000
1000
0001
0000
,
0100
0000
0010
0000
,
1000
0000
0001
0000
,
0010
0000
0100
0010
,
0000
0001
1000
0000
,
0001
0000
1001
0000
,
1000
0100
1000
0000
,
0100
0010
0100
0000
,
0010
0001
0010
0000
,
0001
1000
0001
0000
,
0100
0010
1000
0001
,
0010
0100
1000
0001
,
0000
0100
0010
1000
,
0001
0010
0100
1000
,
1001
0000
0110
0000
,
1000
0100
0001
0100
,
0000
1000
0001
0000
,
1001
0000
0000
0000
;

//--------------- dance-single - Fred-104 ----------------
#NOTES:
     dance-single:
     Fred-104:
     Hard:
     17:
     :
0000
0000
0000
0000
,
0000
0000
0000
0000
,
0000
0000
0000
0000
,
1000
0000
1000
0000
1000
0100
0010
0001
,
0000
0001
0101
0000
0110
0000
1010
0000
,
0001
0000
0001
0000
0001
0100
0010
1000
,
0000
0001
1001
0000
0110
0000
1001
0000
,
1100
0000
0000
0000
0011
0000
0000
0000
1000
0000
0001
0000
0100
0010
0100
0000
,
0000
0000
0000
0000
0000
0000
0000
0000
0001
0000
0000
0000
0000
0000
0000
0000
1001
0000
0000
0000
0000
0000
0000
0000
0000
0000
0000
0000
0000
0000
0000
0000
0002
0003
0000
0000
2000
3000
0000
0000
0002
0003
0000
0000
2000
3000
0000
0000
0002
0000
0000
0000
0000
0000
0000
0000
0000
0000
0000
0000
0000
0000
0000
0000
,
1003
0000
1100
0000
,
0001
1000
0100
0001
,
0100
0010
0001
0100
,
0010
0001
0010
1000
,
0001
0000
1001
0000
1000
0010
1000
0001
,
0010
0100
1000
0100
0020
0000
0032
0000
,
1003
0000
0001
0100
0001
0000
1000
0000
,
0001
0010
0001
0000
0010
0000
0100
0000
,
1000
0001
0100
0010
,
1000
0001
1000
0001
1000
0000
0000
0000
,
0001
1000
0100
0110
,
0000
0010
0001
1001
,
0000
0101
0000
1010
,
1100
0000
0002
2003
,
3100
0000
0110
0000
,
0001
0100
0001
1000
,
0100
0010
1000
0010
,
0001
1000
0100
1000
,
0001
0100
1000
0100
,
0001
0100
1000
0100
,
0010
1000
0100
0010
,
0001
1000
1001
0000
,
0110
0000
1001
0000
,
1010
0010
0100
0101
,
0000
0000
0001
1000
0001
0000
0000
0000
,
1000
0100
0010
0100
,
1000
1000
1100
0000
,
1000
0001
0100
0101
,
0000
1010
0000
0011
,
0110
0000
1000
0001
,
1001
0000
0110
0000
,
0001
1000
0100
0110
,
0000
0100
1100
0000
,
0001
1000
0010
0100
,
0101
0000
1001
0000
,
1000
0001
1000
1100
,
0000
0100
0010
0000
,
0110
0000
0001
0010
,
0011
0000
1001
0000
,
0001
0000
0010
0000
0100
1000
0100
0000
,
0000
0000
1000
0010
1000
0000
0001
0100
,
0001
0000
1000
0100
0010
0000
0000
0000
,
0011
0000
1001
0000
,
0001
0000
0100
0000
0001
1000
0100
0000
,
0000
0010
1001
0000
,
0001
1000
0001
1000
0002
0000
0003
0000
,
1100
0000
0000
0001
0000
0000
0101
0000
0000
1000
0000
0000
0100
0000
0010
0000
,
0022
0000
0033
0000
,
0011
0000
0000
1000
0000
0000
1010
0000
0000
0001
0000
0000
0010
0000
0100
0000
,
1000
0000
0000
0000
0000
0000
0000
0000
0001
0000
0000
0000
0000
0000
0000
0000
1000
0000
0000
0000
0000
0000
0000
0000
0001
0000
0000
0000
0000
0000
0000
0000
0100
0000
0000
0000
0000
0000
0000
0000
0000
0000
0000
0000
0000
0000
0000
0000
0220
0330
0000
0000
0000
0000
0000
0000
0000
0000
0000
0000
0000
0000
0000
0000
,
0001
0010
2000
0000
,
3001
0100
2000
0000
,
3001
0100
0010
0001
,
1000
0100
0020
0000
,
1030
0000
0100
0010
0001
0000
1000
0000
,
0010
0100
0010
2000
,
0000
3001
1001
0000
,
1000
0000
0100
0000
1000
0001
1000
0001
,
1000
0001
0100
2000
,
0000
3100
0010
0100
,
0001
1000
0100
0002
,
0000
0103
0010
0100
,
1000
0010
0100
2000
,
0000
3100
0010
1000
,
0001
0010
0001
0000
1000
0010
1000
0000
,
0001
1000
1001
0000
,
2100
0000
0001
0000
0100
0000
3010
1010
,
0000
0001
0011
0000
0101
0000
1001
0000
,
0001
0100
0001
0100
0010
0000
1000
0000
,
0001
0010
0100
2000
,
0000
3001
0101
0000
,
1000
0000
0100
0000
0010
0100
0010
0100
,
1000
0001
0100
2000
,
0000
3001
0010
0100
,
0001
1000
0001
0020
,
0000
0130
0001
1000
,
0010
0001
1000
0010
,
0100
0000
0001
0000
1000
0001
1000
0000
,
0000
0011
0000
1010
,
0101
0000
2002
3003
,
1010
0110
1001
0011
,
0110
0000
0000
0000
1001
0000
0000
0000
1000
0000
0100
0000
0010
0000
0100
1000
,
0100
0000
0010
0000
0001
0000
1000
0010
1000
0000
0001
0000
0010
0000
0100
1000
,
0001
1000
0001
0000
0110
0000
1001
0000
,
0101
0110
1001
1100
,
0110
0000
0000
0000
1001
0000
0000
0000
0001
0000
0010
0000
0100
0000
1000
0001
,
1000
0010
0200
0000
0302
0000
2003
0000
,
3001
0100
0001
0100
0010
0000
0100
0000
1000
0000
0100
0000
0010
0000
0000
0000
,
0100
0100
0010
0010
,
0100
0010
1000
0001
0100
0010
1000
0001
,
0010
0100
0010
0100
1000
0001
1000
0010
0100
0001
1000
0100
,
2000
0000
3200
0000
,
0320
0000
0032
0000
,
2003
0000
0000
0000
,
0002
0000
3003
0000
,
1001
0000
0001
0010
0000
0010
0100
0000
0100
2000
0000
3020
,
0000
0000
0031
0010
0100
0010
1000
0000
0001
1000
0100
1000
,
0200
1000
0320
0001
,
0130
0000
1000
0001
0000
0100
0001
0000
1000
0001
1000
0100
,
0010
0000
0010
0100
0000
0100
2000
0000
3200
0000
0000
0302
,
0000
0000
0103
0010
0001
1000
0001
0000
0100
0001
1000
0001
,
0010
0000
0010
0100
0000
0000
1000
0000
0100
0010
0000
0002
,
2000
0000
3003
0000
,
1000
0000
0100
0010
0000
0001
0000
0000
1000
0010
0000
0100
,
0001
0000
1000
0100
0010
0100
1000
0000
0001
0100
0010
0100
,
0002
0010
2003
0100
,
3001
0000
1000
0100
0000
0001
0100
0000
1000
0001
0000
0000
,
1000
0000
0100
0000
0110
0000
0001
0000
0100
0000
0110
0000
,
1000
0000
0001
0010
0100
1000
0001
0100
0010
1000
0010
0100
,
0001
1000
0100
1000
0000
0001
0100
0000
0010
1000
0000
1000
,
0001
0000
0100
0001
1000
0100
0010
0001
1000
0010
0000
0000
,
2002
0000
0000
0000
,
0000
0000
0000
0000
,
0000
0000
0000
3003
,
1000
0001
1000
0001
0100
1000
0100
1000
0001
0010
0001
0010
1000
0001
0100
0010
,
1000
0000
0010
0000
1000
0000
0000
0000
0001
0000
0100
0000
0001
0000
0000
0000
1000
0000
0100
0000
1000
0000
0000
0000
0001
0000
0010
0000
0001
0000
0000
0000
0022
0033
0000
0000
0000
0000
0000
0000
2200
3300
0000
0000
0000
0000
0000
0000
2002
3003
0000
0000
0000
0000
0000
0000
0002
0003
0000
0000
2000
3000
0000
0000
,
0002
0000
2003
0000
,
3100
0010
0001
1000
0002
0000
0203
0000
,
0320
2030
3001
0010
,
0100
2000
0000
3100
,
0001
0100
0010
0001
,
1000
0020
0000
0031
,
0010
0100
0001
0010
,
0100
0020
0000
1030
,
0010
0000
0001
0000
1000
0100
1000
0000
,
0001
0100
0001
0000
1000
0000
0001
0000
,
2002
3003
1010
0011
,
1100
0000
0001
1000
0100
0010
0001
0000
,
1000
0000
1001
0000
1000
0001
1000
0001
,
0010
0001
1000
0010
,
0001
0020
0000
0130
,
0110
0000
1000
0001
,
0010
0100
0010
0100
0010
0000
0001
0000
,
1000
0020
0000
0031
,
1000
0100
0010
1000
,
0001
0020
0000
0130
,
0001
1000
0010
0001
,
1000
0100
0010
0001
,
1000
0010
1000
0000
0000
0000
0011
0000
,
0000
1100
1001
0000
,
0001
1000
1001
1100
,
0101
1010
0011
0110
,
0001
0010
1000
0010
0002
2000
0000
0000
,
3003
1100
0110
0011
,
1001
0000
1010
0000
0101
0000
1000
0100
,
0001
0000
0100
0000
2000
0000
0002
0000
0000
0000
0000
3003
0220
0330
2002
3003
,
0001
0100
0001
0010
,
0001
0100
0010
1000
,
0100
0010
0100
1000
,
0010
0000
0100
0000
0001
1000
0001
1000
,
0001
0010
0100
1000
,
0010
0100
0001
1000
,
0100
0010
0100
1000
,
0001
1000
1001
0000
,
0001
1000
0001
0000
0010
0000
0100
0000
,
1000
0010
1000
0000
0001
0000
1000
0000
,
0100
0010
0100
0000
1000
0000
0001
0000
,
1000
0010
1000
0000
0001
0000
0010
0000
,
0100
1000
0100
0000
0010
0001
0010
0000
,
0001
1000
0001
1000
0010
0000
0110
0000
,
0000
0000
0001
0000
1000
0100
1000
0100
,
0010
0001
1000
0001
,
0101
0000
1001
0000
,
1000
0000
0100
0000
0010
0001
1000
0000
,
0000
0010
0110
0000
,
1001
0000
0000
0000
;

//--------------- dance-single - Fred-104† ----------------
#NOTES:
     dance-single:
     Fred-104†:
     Challenge:
     18:
     :
0000
0000
0000
0000
,
0000
0000
0000
0000
,
0000
0000
0000
0000
,
1001
0000
1100
0000
0001
0100
1000
0100
,
0000
0010
0110
0000
1001
0000
1100
0000
,
0011
0000
1010
0000
0001
0010
1000
0010
,
0000
0001
1001
0000
0110
0000
1001
0000
,
1100
0000
0000
0000
0101
0000
0000
0000
1000
0000
0100
0000
0010
0001
1000
0000
,
0000
0000
0000
0000
0000
0000
0000
0000
0101
0000
0000
0000
0000
0000
0000
0000
1001
0000
0000
0000
0000
0000
0000
0000
0000
0000
0000
0000
0000
0000
0000
0000
0002
0003
0000
0000
0020
0030
0000
0000
0200
0300
0000
0000
2000
3000
0000
0000
0002
0000
0000
0000
0000
0000
0000
0000
0000
0000
0000
0000
0000
0000
0000
0000
,
1003
0100
0001
0100
,
0010
0001
0100
0001
,
1000
0100
0010
0001
,
0100
0001
1000
0000
0001
0000
0010
0100
,
1000
0000
0000
0000
0110
0000
0000
0000
1001
0000
1000
0000
0001
0000
0100
0010
,
1000
0000
0100
0010
0001
0000
1000
0000
0001
0000
0100
0000
1000
0000
0100
0000
,
0001
1000
0100
0010
,
0100
0010
0001
1000
0010
0000
0100
0000
,
0001
0000
1000
0001
0010
0000
0100
0000
,
0010
0000
0100
1000
0001
1000
0001
0010
,
0001
0010
0110
1100
,
0000
1010
1000
1001
,
0000
0011
0000
0101
,
1100
0000
0002
2003
,
3001
0100
1000
0100
,
0001
0000
1000
0000
0100
0000
0010
0001
,
1000
0000
0010
1000
0001
0000
0010
0000
,
0100
0010
0001
0000
1000
0000
0010
0100
,
0001
0000
0010
0100
1000
0000
0001
0000
,
0100
0000
0010
1000
0001
0000
0010
0100
,
1000
0000
0010
0100
0001
0000
0010
0100
,
1000
0000
0001
0000
1000
0001
0100
0001
,
1000
0000
0101
0000
,
1100
0100
0010
0011
,
0000
0000
0001
1000
0001
0000
0000
0000
,
1000
0000
0100
0010
0001
0010
0100
0000
,
1001
1000
1010
0000
,
0101
0001
0010
0011
,
0000
1100
0000
0110
,
1001
0000
1000
0001
,
1001
0000
0110
0000
,
1010
0010
0100
0101
,
0000
1100
0011
0000
,
0001
0100
0010
1000
0100
0010
0001
1000
,
0001
0000
0101
0000
,
1100
0100
0010
0011
,
0000
0001
1000
0000
,
0110
0000
0001
1000
,
1001
0000
0110
0000
,
1010
0000
0001
0000
1000
0100
0010
0000
,
0000
0000
0001
1000
0001
0100
0001
0100
,
0010
1000
0001
0010
0100
0000
0000
0000
,
1010
0000
0101
0000
,
1000
0100
0010
0001
0010
0100
1000
0000
,
0000
0000
0010
1000
0001
0000
0000
0000
,
1000
0100
0010
0001
2000
0000
3000
0000
,
1100
0000
0000
0110
0000
0000
0011
0000
0000
1010
0000
0000
0101
0000
0110
0000
,
2002
0000
0000
0000
0000
0000
3003
0000
0001
0100
0010
1000
0001
0000
0000
0000
,
0101
0000
0000
0110
0000
0000
1010
0000
0000
0011
0000
0000
1100
0000
0110
0000
,
2002
0000
0000
0000
0000
0000
0000
0000
0000
0000
0000
0000
0000
0000
0000
0000
0000
0000
0000
0000
0000
0000
0000
0000
3003
0000
0000
0000
0000
0000
0000
0000
0110
0000
0000
0000
0000
0000
0000
0000
0000
0000
0000
0000
0000
0000
0000
0000
2002
3003
0000
0000
0000
0000
0000
0000
0000
0000
0000
0000
0000
0000
0000
0000
,
0001
0000
0100
0010
1000
0000
0001
0000
,
1000
0000
0100
0010
0001
0000
1000
0000
,
0010
0000
0100
0001
1000
0000
0100
0000
,
0010
0001
1001
0000
,
1000
0000
0100
0010
0001
0000
0100
0000
,
0010
1000
0001
0000
1000
0001
0200
0000
,
0000
0000
0310
1000
0001
0000
0000
0000
,
0110
0000
0000
0000
1000
0100
0010
0001
,
1000
0010
0100
2000
,
0000
0000
3100
0000
0001
0000
1000
0100
,
0010
0001
1000
0020
,
0000
0000
0031
0000
0010
0000
0100
0001
,
1000
0100
0001
0200
,
0000
0000
1300
0000
0100
0000
0010
0001
,
1000
0010
1000
0010
0100
0001
0100
0001
,
1000
0001
1001
0000
,
1002
0000
0100
0000
1000
0000
0013
0110
,
0000
0100
1100
0000
0011
0000
1010
0000
,
0001
1000
0100
0010
0001
0000
1000
0000
,
0010
0000
0100
0000
0001
1000
0002
0000
,
0000
0103
0110
0000
,
0001
0000
1000
0000
0100
0010
0100
1000
,
0001
0100
0020
0001
,
0000
0000
0130
0000
0001
0000
0010
0100
,
1000
0001
0020
1000
,
0000
0000
0130
0000
1000
0000
0100
0010
,
0001
1000
0010
0100
,
0001
1000
0100
0010
0001
1000
0010
0000
,
0000
1100
0000
0101
,
0110
0000
0001
1000
,
1100
0000
1001
0010
0001
0000
0101
0000
,
1001
0000
0010
0000
1000
0000
0000
0000
0001
0000
0010
0000
0100
0000
1000
0001
,
1000
0000
0000
0000
0000
0000
0000
0000
0001
0000
0000
0000
0000
0000
0000
0000
0020
0030
0000
0000
0000
0000
0000
0000
0020
0030
0000
0000
1000
0000
0000
0000
0001
0000
0000
0000
0000
0000
0000
0000
1000
0000
0000
0000
0000
0000
0000
0000
0200
0300
0000
0000
0000
0000
0000
0000
0200
0300
0000
0000
0001
0000
0000
0000
,
1000
0100
1000
0100
0010
0000
0000
0000
0110
0000
0000
0000
1000
0000
0001
0000
,
0011
0000
1001
0100
0001
0000
1010
0000
,
1001
0000
0100
0000
1000
0000
0000
0000
0001
0000
0100
0000
0010
0000
1000
0001
,
1000
0100
0020
0000
2030
0000
3020
0000
,
0031
1000
0010
0100
1000
0000
0100
0000
0010
0000
0100
0000
0010
0000
0000
0000
,
0100
0100
0010
0010
,
1000
0001
0010
0001
1000
0010
0100
0001
,
1000
0100
0010
0001
0010
0100
1000
0001
0100
0010
1000
0010
,
0100
0000
0001
0010
0001
0000
1000
0010
,
1000
0000
0001
0100
0001
0000
1000
0000
,
0001
0010
0100
1000
0001
0000
0100
0000
,
0101
0000
1100
0000
,
1001
0000
0001
0100
0000
0100
0010
1000
0001
0020
0000
0230
,
0000
0000
1300
0100
0010
1000
0010
0100
1000
0010
0100
0001
,
1000
0000
0100
0020
0000
0000
0031
0000
1000
0010
0100
0001
,
1000
0100
0010
0100
0010
0001
1000
0010
0100
0010
0100
0001
,
1000
0000
0001
0010
0000
0100
0002
0000
0203
0000
0000
2300
,
0000
0000
3001
0100
1000
0100
0001
0000
1000
0100
0001
0100
,
1000
0000
0001
0100
0000
0000
0010
0000
1000
0100
0000
0010
,
0022
0000
0033
0000
,
1001
0000
0001
0010
0000
0110
0000
0000
0100
1000
0000
0001
,
0100
0000
0001
0010
1000
0010
0001
0000
1000
0010
0001
0010
,
1000
0000
0010
0200
0000
0000
0310
0000
1000
0001
0010
0100
,
0010
0000
0001
1000
0000
0100
0010
0001
0100
0010
1000
0001
,
1000
0000
1010
0000
0011
0000
0001
0000
0101
0000
1100
0000
,
1000
0000
0001
0010
0100
1000
0001
0100
0010
1000
0100
0010
,
0001
0010
1000
0001
0100
1000
0001
0100
1000
0001
0010
1000
,
0001
0010
1000
0001
0100
0010
0001
0100
0010
0001
1000
0100
,
0002
0000
0000
0000
,
0000
0000
0000
0003
,
1000
0100
0010
0001
0100
0010
0001
1000
0100
0010
1000
0100
0001
0100
1000
0001
,
0100
0010
0001
1000
0100
0010
1000
0001
0010
1000
0001
0100
0010
0001
1000
0100
,
0010
0000
0001
0000
0010
0000
0001
0000
0010
0000
0001
0000
0010
0000
0001
0000
1000
0000
0010
0000
1000
0000
0010
0000
1000
0000
0010
0000
1000
0000
0010
0000
0200
0300
0000
0000
0000
0000
0000
0000
0202
0303
0000
0000
0000
0000
0000
0000
0220
0330
0000
0000
0000
0000
0000
0000
2000
3000
0000
0000
0002
0003
0000
0000
,
1001
0000
0000
0000
,
0000
0000
1000
0100
,
0010
0000
0011
0000
1000
0000
0001
0100
,
0010
2000
0000
3001
,
0010
0000
0100
1000
0001
0000
0100
0001
,
1000
0200
0000
0310
,
0001
0000
1000
0010
0100
0000
0010
1000
,
0001
0020
0000
0130
,
1000
0000
0001
0010
0100
1000
0100
1000
,
0001
0100
0001
0100
0010
0000
1000
0000
,
1001
0000
1100
0101
,
1100
0000
0011
0001
1000
0010
0110
0000
,
1010
0000
1001
0000
0001
0100
0010
1000
,
0001
0000
0010
0000
0100
1000
0001
0100
,
0010
0100
0002
0000
0000
0000
0103
0000
,
0101
0000
1000
0100
,
0010
0001
1000
0010
0100
0000
0001
1000
,
0200
0001
0000
1300
,
0001
0000
0100
0010
1000
0000
0001
0010
,
0200
0001
0000
1300
,
0010
0000
1000
0001
0010
0000
0100
0000
,
1000
0000
0001
0000
1000
0001
0100
0010
,
1000
0010
0100
0000
0000
0000
0101
0000
,
0000
1100
0110
0000
,
0001
1000
2100
0001
,
0100
0100
3100
0000
0110
0000
1001
0000
,
0001
0000
0100
0000
0010
1000
0010
1000
0002
0000
2000
0000
0000
0000
0000
0000
,
3003
0000
2010
0000
0001
0000
0010
0010
,
3010
0000
0110
0000
1001
0000
1000
0100
,
0010
0000
0000
0000
0001
0000
0000
0000
0010
0000
0000
0000
0001
0000
0000
0000
2000
0000
0000
0000
0000
0000
0000
0000
0002
0000
0000
0000
0000
0000
0000
0000
0000
0000
0000
0000
0000
0000
0000
0000
0000
0000
0000
0000
3003
0000
0000
0000
0220
0330
0000
0000
0000
0000
0000
0000
2002
3003
0000
0000
2000
3000
0002
0003
,
1000
0000
0100
0010
0001
0000
1000
0100
,
0010
0000
0001
1000
0010
0000
0100
0000
,
0001
0000
1000
0001
0010
0000
0100
1000
,
0001
0000
0100
0010
1000
0001
0010
0100
,
1000
0000
0001
1000
0010
0000
0100
0001
,
1000
0000
0100
0010
0001
0000
1000
0001
,
0100
0000
0010
1000
0001
0000
0010
0100
,
1000
0000
0001
1000
0010
0100
0001
0000
,
1000
0100
0010
0000
0001
1000
0010
0000
,
0100
0001
1000
0000
0100
0010
0100
0000
,
1000
0001
0100
0010
1000
0001
0100
0000
,
0010
1000
0001
0010
0100
0010
0001
0000
,
1000
0001
1000
0010
0100
0001
1000
0100
,
0010
0001
0010
0100
1000
0001
1000
0000
,
0000
0000
1100
0000
0001
0010
0100
1000
,
0001
0100
0010
1000
0001
0000
1000
0000
,
1100
0000
0101
0000
,
1010
0000
1000
0000
0001
0010
1000
0000
,
0000
0000
0001
0100
1000
0000
0000
0000
,
1001
0000
0000
0000
;

//--------------- dance-double - Fred-104 ----------------
#NOTES:
     dance-double:
     Fred-104:
     Easy:
     11:
     :
00000000
00000000
00000000
00000000
,
00000000
00000000
00000000
00000000
,
00000000
00000000
00000000
00000000
,
00001000
00000000
00001000
00000000
00001000
00000000
00000000
00011000
,
00000000
00000000
01000000
00100000
,
10000000
00000000
10000000
00000000
10000000
00000000
00000000
10010000
,
00000000
00000000
00000000
00000000
,
00101000
00000000
00101000
00000000
00001000
00000000
00010000
00000100
,
00000000
00000100
00000010
00000000
00000002
00000000
00001003
00000000
,
00000001
00000000
00000001
00000000
,
00000100
00000000
00000100
00000000
,
00001000
00000000
00001000
00000000
,
00010000
00000000
01000000
00000000
,
10000000
00010000
10010000
01000000
,
10000000
00000000
01000000
00000000
00100000
00010000
00100000
00000000
,
00001000
00000000
00001000
00000000
,
00010000
00000000
00010000
00000000
,
00100000
00000000
00100000
00000000
,
10000000
00000000
10000000
00000000
,
01000000
00000000
00010000
00000000
,
00001000
00000000
00000100
00000000
,
00000001
00000000
00000010
00000000
,
00000110
00000000
00000000
00000000
,
00001000
00000000
00001000
00000000
,
00000001
00000000
00000001
00000000
,
00000100
00000000
00000100
00000000
,
00001000
00000000
00010000
00000000
,
00001000
00000000
00010000
00000000
,
01000000
00000000
10000000
00000000
,
01000000
00000000
00010000
00000000
,
00001000
00010000
00001000
00000000
,
00010000
00000000
00010000
00000000
,
00001000
00000000
00000000
00011000
,
00000000
00000000
00001000
00000000
,
00010000
00000000
01000000
00000000
,
00100000
00000000
00010000
00000000
,
10000000
00000000
00000000
10010000
,
00000000
10000000
00000000
01000000
,
00100000
00000000
00000000
00000000
,
00021000
00000000
00001000
00000000
,
00001000
00000000
00000000
00001000
,
00000000
00000000
00030000
00000000
,
00000100
00000000
00000100
00000000
,
00001002
00000000
00001000
00000000
,
00001000
00000000
00000000
00001000
,
00000000
00000000
00000003
00000000
,
00001000
00000000
00000010
00000000
,
00021000
00000000
00001000
00000000
,
00001000
00000000
00000000
00031000
,
00000000
00000000
00010000
00000000
,
00100000
00000000
01000000
00000000
,
00100000
00000000
10000000
00000000
,
01000000
00000000
00000000
01100000
,
00000000
00000000
00100000
00000000
,
00001000
00000000
00010000
00000000
,
00001000
00000000
00000000
00010000
00000000
00000000
00001000
00000000
,
00022000
00000000
00033000
00000000
,
00010000
00000000
00000000
00001000
00000000
00000000
00010000
00000000
,
00022000
00000000
00000000
00033000
,
00001000
00000000
00001000
00000000
,
00010000
00000000
00010000
00000000
,
00100000
00000000
00100000
00000000
,
10000000
00000000
10000000
00000000
,
01000000
00000000
00100000
00000000
,
00001000
00000000
00000000
00010000
,
00000000
00000000
00011000
00000000
,
00000000
00000000
00000000
00000000
,
00010000
00000000
00000000
00001000
,
00000000
00000000
00000100
00000000
,
00000001
00000000
00000000
00000010
,
00000000
00000000
00001000
00000000
,
00010000
00000000
00000000
00001000
,
00000000
00000000
01000000
00000000
,
00001000
00000000
00010000
00000000
,
00100000
00000000
10000000
00000000
,
10010000
00000000
10000000
00000000
01000000
00000000
00100000
00001000
,
00000000
00001000
00010000
00000000
00001000
00000000
00000100
00000000
,
00000001
00000000
00000001
00000000
,
00000010
00000000
00000100
00000000
,
00010000
00000000
00001000
00000000
,
00011000
00000000
00000000
00000000
,
00001000
00000000
00000000
00010000
,
00000000
00000000
00100000
00000000
,
01000000
00000000
00000000
00010000
,
00000000
00000000
00100000
00000000
,
01000000
00000000
10000000
00000000
,
00100000
00000000
00000000
00010000
,
00000000
00001000
00000000
00001000
,
00010000
00000000
00000000
00000000
,
00001000
00001000
00000000
00010000
,
00010000
00000000
01000000
01000000
,
10000000
01000000
00100000
00001000
,
00010000
00001000
00010000
00000000
00000010
00000000
00001010
00000000
,
00001000
00000100
00000000
00000001
,
00000100
00000000
00001000
00000100
,
00000010
00000000
00000001
00000000
,
00000100
00001000
00011000
00000000
,
00001000
00000000
00010000
00000000
,
00100000
00100000
01000000
01000000
,
00010000
00010000
10000000
10000000
,
01000000
00000000
00100000
00000000
,
00001000
00000000
00010000
00000000
,
00002000
00000000
00000000
00000000
,
00020000
00000000
00033000
00000000
,
00002000
00000000
00000000
00010000
00000000
00000000
01000000
00000000
00000000
00000000
00000000
00010000
,
00003000
00001000
00010000
00100000
,
20000000
00000000
32000000
00000000
,
03100000
00100000
00001000
00001000
,
00020000
00000000
00000000
00001000
00000000
00000000
00001000
00000000
00000000
00000000
00000000
00000100
,
00030000
00001000
00000100
00010000
,
00001000
00010000
01000000
10000000
,
20020000
00000000
30030000
00000000
,
10000000
00000000
00000000
00000000
00000000
01000000
00000000
00000000
00000000
00100000
00000000
00000000
,
00001000
00001000
00010000
00010000
,
00002000
00000000
00023000
00000000
,
00030010
00001000
00000001
00000100
,
00001000
00000000
00010000
00000000
,
00100000
00000000
10000000
00000000
,
01000000
00100000
00001000
00000000
,
00010000
00010000
00001000
00010000
,
00022000
00000000
00000000
00000000
,
00000000
00000000
00000000
00000000
,
00000000
00000000
00000000
00033000
,
00001000
00001000
00010000
00010000
00100000
00100000
10000000
10000000
,
01000000
00010000
00001000
00000100
00000001
00000010
00000110
00000000
,
00022000
00000000
00000000
00000000
,
00033000
00000000
00000000
00000000
,
00000000
00000000
00001000
00000000
,
00000000
00010000
00000000
00000000
,
00100000
00000000
01000000
00000000
,
00000000
00100000
00000000
00000000
,
00010000
00000000
00001000
00000000
,
00000000
00010000
00000000
00000000
,
01000000
00000000
10000000
00000000
,
00010000
00000000
10000000
00000000
,
01000000
00000000
01100000
01000000
,
00100000
00000000
00001000
00010000
00000000
00010000
00000010
00000000
,
00001000
00000100
00000010
00000001
,
00000010
00000000
00000100
00000000
,
00000000
00010000
00000000
00000000
,
00011000
00000000
00000000
00000000
,
00001000
00000000
00010000
00000000
,
00000000
01000000
00000000
00000000
,
00100000
00000000
00010000
00000000
,
00000000
10000000
00000000
00000000
,
00100000
00000000
00010000
00000000
,
00001000
00000000
00000010
00000000
,
00000000
00000001
00000000
00000100
,
00000000
00001000
00010000
00000000
,
01100000
00000000
10000000
01000000
,
00010000
00001000
00000100
00000001
,
00001000
00000001
00001000
00000000
00002002
00000000
00000000
00000000
,
00003003
00000001
00000010
00001000
,
00010000
00000000
00100000
00000000
10000000
00000000
00010000
10000000
,
00010000
20020000
00000000
30030000
,
10000000
00000000
10000000
00000000
,
01000000
00000000
01000000
00000000
,
00100000
00000000
00100000
00000000
,
00001000
00010000
00001000
00000000
,
00010000
00000000
00010000
00000000
,
00000100
00000000
00000100
00000000
,
00001000
00000000
00001000
00000000
,
00000001
00000010
00000001
00000000
,
00001000
00000001
00000010
00000000
,
00000100
00010000
00001000
00000000
,
00100000
00010000
10000000
00000000
,
00100000
01000000
00010000
00000000
,
10000000
01000000
00100000
00001000
,
00010000
00000100
00000010
00000100
,
00000000
00001000
00000001
00000100
,
00001000
00010000
00001000
00000000
,
00011000
00000000
00011000
00000000
,
00001000
00010000
00100000
10000000
,
00000000
01000000
00100000
00000000
,
00011000
00000000
00000000
00000000
;

//--------------- dance-double - Fred-104 ----------------
#NOTES:
     dance-double:
     Fred-104:
     Medium:
     15:
     :
00000000
00000000
00000000
00000000
,
00000000
00000000
00000000
00000000
,
00000000
00000000
00000000
00000000
,
00010000
00000000
00010000
00000000
00001000
00010000
00000010
00001000
,
00000000
00000100
00000010
00000000
00000011
00000000
00001001
00000000
,
00000001
00000000
00000001
00000000
00000100
00001000
00010000
00100000
,
00000000
01000000
00010000
00000000
01100000
00000000
10010000
00000000
,
11000000
00000000
00110000
00000000
10000000
01000000
00100000
00001000
,
00000000
00010000
00001000
00000000
00020000
00000000
00031000
00000000
,
00010000
00000000
00001000
00000000
,
00000100
00000000
00000001
00000000
,
00001000
00000100
00000010
00000001
,
00000100
00001000
00010000
00100000
,
01000000
00000000
01010000
00000000
10010000
00000000
10000000
01000000
,
00100000
10000000
00100000
00010000
10000000
00100000
00010000
00001000
,
00010000
00000000
00001000
00000000
,
00000100
00000010
00001000
00000100
,
00000000
00000010
00000001
00000000
,
00001000
00000000
00000001
00000100
,
00001000
00000000
00010000
00100000
,
01000000
00010000
10000000
01000000
,
00000000
00100000
00000000
00001000
,
00010000
00000000
00011000
00000000
,
00010000
00000000
00001000
00000000
,
00000100
00000000
00001000
00000000
,
00010000
00001000
01000000
00001000
,
00010000
00001000
00100000
00010000
,
10000000
00100000
01000000
00000000
,
00001000
00000000
00010000
00001000
,
00000100
00000001
00001000
00000100
,
00000010
00000001
00001000
00000000
,
00000110
00000000
00001001
00000000
,
00000001
00000010
00000100
00010000
,
00000000
00001000
01000000
00000000
,
00011000
00000000
01001000
00000000
,
01100000
00000000
10010000
00000000
,
10000000
01000000
00010000
00001000
,
00000000
00000100
00000000
00000001
,
00001000
00000000
00001100
00000000
,
00000021
00000000
00001000
00000000
,
00001000
00000000
00000000
00000001
,
00000000
00000000
00000001
00000000
,
00001030
00000000
00001001
00000000
,
00002010
00000000
00010000
00000000
,
00010000
00000000
00000000
00000010
,
00000000
00000000
00010000
00000000
,
00013000
00000000
00011000
00000000
,
00101000
00000000
00010010
00000000
,
00001000
00010000
00100000
10000000
,
00000000
00010000
00100000
00000000
,
01100000
00000000
10000000
00010000
,
01000000
00000000
01100000
00000000
,
10000000
00100000
00010000
00001000
,
00000000
00000010
00000001
00000010
,
00000100
00010000
00001000
00000000
,
00001000
00000000
00000000
00010000
00000000
00000000
00100000
00000000
00000000
10000000
00000000
00000000
01000000
00000000
00010000
00000000
,
00002000
00000000
00013000
00000000
,
00010000
00000000
00000000
00001000
00000000
00000000
00000100
00000000
00000000
00000001
00000000
00000000
00000010
00000000
00001000
00000000
,
00020000
00000000
00000000
00031000
,
00011000
00000000
00001000
00000000
,
01001000
00000000
01000000
00000000
,
00100000
10000000
00010000
00000000
,
10010000
00000000
10000000
00000000
,
00010000
00100000
20000000
00000000
,
30200000
00000000
00301000
00020000
,
00000000
00031000
00000200
00000000
,
00000301
00000000
00001000
00000100
,
00000010
00000001
00001000
00000020
,
00000000
00000130
00001000
00010000
,
00100000
01000000
00010000
20000000
,
00000000
31000000
00100000
01000000
,
00010000
00001000
00000010
00000200
,
00000000
00001300
00000001
00000100
,
00001000
00010000
00100000
01000000
,
00010000
10000000
00010000
00000000
,
11000000
00000000
01010000
00000000
11000000
00000000
10000000
01000000
,
00000000
00100000
00001000
00000000
00010000
00000000
00011000
00000000
,
00010000
00010000
00010000
00001000
,
00000100
00000001
00001000
00000200
,
00000000
00000310
00000001
00000000
,
00001001
00000000
00000001
00001000
,
00000100
00000010
00001000
00020000
,
00000000
01030000
00100000
00010000
,
10000000
00100000
00010000
00002000
,
00000000
00013000
00001000
00000100
,
00000001
00001000
00000100
00000010
,
00000001
00001000
00000010
00010000
,
00000000
00011000
00000000
00001000
,
01000000
00000000
01001000
00000000
,
00011000
00010010
00000000
00011000
,
00101000
00000000
00011000
00010100
,
00010000
00001000
00000100
00000000
00000010
00001000
00000001
00000000
,
00000010
00000100
00010000
00000000
00011000
00000000
01001000
00000000
,
00011000
01010000
00000000
11000000
,
10100000
00000000
00110000
00011000
,
00010000
00000010
00002000
00000000
00003200
00000000
00000320
00000000
,
00000031
00000100
00001000
00010000
00100000
10000000
00010000
00000000
,
00100000
00100000
01000000
01000000
,
10000000
00010000
01000000
00001000
00010000
00001000
00100000
00001000
,
00020000
00032000
00003200
00000302
,
00001003
00000100
00000010
00000000
,
00000001
00000100
00001000
00000000
,
00020000
00000000
00000000
00000000
,
00002000
00000000
00033000
00000000
,
00011000
00000000
00001000
00100000
00000000
00100000
00010000
00000000
20000000
00000000
00000000
30200000
,
00000000
00000000
00310000
00001000
00000000
00010000
00000010
00000000
00010000
00001000
00000000
00000000
,
00020000
00001000
00032000
00010000
,
00013000
00000000
00001000
01000000
00000000
00000000
00010000
00000000
10000000
01000000
00000000
00000000
,
00100000
00000000
00001000
00010000
00000000
00000010
00001000
00000000
00000002
00000000
00000000
00000023
,
00000000
00000000
00000130
00001000
00000000
00000100
00010000
00000000
00000000
00001000
00000000
00000000
,
01000000
00000000
00001000
00010000
00000000
00000000
00001000
00000000
00000010
00000100
00000000
00001000
,
00000002
00000000
00000003
00000000
,
00001001
00000000
00000001
00000010
00000000
00000100
00000000
00000000
00010000
00001000
00000000
00001000
,
01000000
00000000
00010000
00100000
00000000
01000000
10000000
00000000
00010000
01000000
00000000
00000000
,
00200000
01000000
02300000
00010000
,
03010000
00000000
10000000
01000000
00000000
00000000
00100000
00000000
00001000
00010000
00000000
00000000
,
00001000
00000000
00010000
00000000
00100000
00000000
10000000
00000000
00010000
00000000
00100000
00000000
,
01000000
00000000
10000000
00000000
00100000
00000000
00010000
00000000
00001000
00000000
00000100
00000000
,
00000001
00000000
00000001
00000010
00000000
00000010
00000100
00000000
00000100
00010000
00000000
00010000
,
00001000
00000000
00001000
00000100
00000000
00000100
00000001
00000000
00000000
00001000
00000000
00000000
,
00002002
00000000
00000000
00000000
,
00000000
00000000
00000000
00000000
,
00000000
00000000
00000000
00003003
,
00000001
00000010
00000001
00000010
00000100
00010000
00000100
00010000
00001000
01000000
00001000
01000000
00100000
10000000
00100000
10000000
,
00010000
00000000
00000000
00000000
10000000
00000000
00000000
00000000
00100000
00000000
00000000
00000000
01000000
00000000
00000000
00000000
00100000
00000000
00000000
00000000
00010000
00000000
00000000
00000000
00001000
00000000
00000000
00000000
00000100
00000000
00000000
00000000
00000002
00000003
00000000
00000000
00000000
00000000
00000000
00000000
00000022
00000033
00000000
00000000
00000000
00000000
00000000
00000000
00002200
00003300
00000000
00000000
00000000
00000000
00000000
00000000
00000200
00000300
00000000
00000000
00020000
00030000
00000000
00000000
,
00002000
00000000
00000000
00000000
,
00003000
00000000
00000000
00000000
,
00000000
00000000
00001000
00010000
,
00100000
02000000
00000000
03010000
,
10000000
01000000
00010000
00001000
,
00000010
00000002
00000000
00001003
,
00000010
00000100
00001000
00010000
,
00100000
20000000
00000000
31000000
,
00100000
00001000
00010000
00001000
,
00000100
00000001
00000100
00001000
,
00010000
00000000
00011000
01001000
,
00011000
00000000
00010000
00001000
00000000
00000010
00000100
00000000
,
00001100
00000101
00001000
00001000
,
00001000
00000001
00000010
00000100
,
00010000
00002000
00000000
01003000
,
00001000
00000000
00011000
00000000
,
00001000
00010000
00100000
10000000
,
00010000
00200000
00000000
01300000
,
00100000
00010000
10000000
01000000
,
00010000
00002000
00000000
00003100
,
00000001
00001000
00000100
00000010
,
00001000
00010000
01000000
00100000
,
00010000
10000000
00000000
10100000
,
00000000
00110000
00110000
00000000
,
00011000
00000000
00010000
00001000
,
00011000
00010000
00000100
00001000
,
00000001
00000100
00001000
00010000
00002000
00000000
00000000
00000000
,
00003000
00010000
01000000
11000000
,
10000000
00000000
00010000
00000000
01000000
00000000
00100000
10000000
,
01000000
00000000
00100000
00000000
00002000
00000000
00000000
00000000
00000000
00000000
00003000
00000000
00020000
00030000
02200000
03300000
,
10000000
01000000
00100000
00001000
,
00010000
00001000
01000000
00001000
,
00000100
00000010
00001000
00000001
,
00000010
00000100
00010000
00000000
,
00001000
00010000
00100000
01000000
,
00100000
10000000
00010000
00100000
,
00001000
00000010
00001000
00100000
,
00001000
00010000
00000010
00000000
,
00001000
00000001
00000100
00001000
,
00010000
00100000
01000000
00010000
,
00100000
01000000
00010000
00001000
,
00000010
00000100
00001000
00000001
,
00000100
00010000
01000000
00100000
,
10000000
01000000
00100000
00001000
,
00000000
00010000
00001000
00000100
,
00000001
00000010
00000100
00010000
,
00011000
00000000
01001000
00000000
,
00001000
00010000
00100000
10000000
,
00000000
01000000
00100000
00000000
,
10010000
00000000
00000000
00000000
;

//--------------- dance-double - Fred-104 ----------------
#NOTES:
     dance-double:
     Fred-104:
     Hard:
     18:
     :
00000000
00000000
00000000
00000000
,
00000000
00000000
00000000
00000000
,
00000000
00000000
00000000
00000000
,
00001000
00000000
00001000
00000000
00001000
00010000
00000010
00010000
,
00000000
00001000
00100000
00000000
00110000
00000000
11000000
00000000
,
10000000
00000000
10000000
00000000
10000000
01000000
00100000
00001000
,
00000000
00010000
00011000
00000000
00000110
00000000
00001001
00000000
,
00000101
00000000
00000000
00000000
00001010
00000000
00000000
00000000
00000001
00000000
00000010
00000000
00000100
00001000
00000100
00000000
,
00000000
00000000
00000000
00000000
00000000
00000000
00000000
00000000
00010000
00000000
00000000
00000000
00000000
00000000
00000000
00000000
00011000
00000000
00000000
00000000
00000000
00000000
00000000
00000000
00000000
00000000
00000000
00000000
00000000
00000000
00000000
00000000
00002000
00003000
00000000
00000000
02000000
03000000
00000000
00000000
00002000
00003000
00000000
00000000
02000000
03000000
00000000
00000000
00002000
00000000
00000000
00000000
00000000
00000000
00000000
00000000
00000000
00000000
00000000
00000000
00000000
00000000
00000000
00000000
,
00013000
00000000
00011000
00000000
,
00001000
00010000
01000000
00000000
,
00010000
00001000
01000000
00001000
,
00000100
00000001
00000100
00001000
,
00010000
00000000
00011000
00000000
01100000
00000000
10000000
01000000
,
00010000
00001000
00000010
00000100
00001000
00000001
00000100
00001000
,
00010000
00000010
00000100
00001000
,
00010000
00100000
01000000
00010000
,
00100000
10000000
00100000
00010000
,
01000000
00100000
00010000
00001000
,
00000100
00000010
00001000
00001010
,
00000000
00000001
00001000
00001100
,
00000000
00010100
00000000
00010000
,
00011000
00000000
00002000
02003000
,
03001000
00000000
00011000
00000000
,
00001000
00010000
01000000
00100000
,
00010000
10000000
00100000
00010000
,
00001000
00010000
00001000
00000010
,
00001000
00010000
00000010
00001000
,
00000001
00000100
00001000
00010000
,
00001000
00010000
01000000
10000000
,
01000000
00100000
00110000
00000000
,
00101000
00000000
00010010
00000000
,
00010000
00000100
00001000
00001001
,
00000000
00000000
00000001
00000100
00000001
00000000
00000000
00000000
,
00001000
00000100
00000010
00001000
,
00010000
00001000
00011000
00000000
,
00001000
00010000
00100000
10100000
,
00000000
11000000
00000000
01000000
,
01100000
00000000
00100000
00001000
,
00011000
00000000
00010010
00000000
,
00010000
00000100
00001000
00001100
,
00000000
00000001
00000101
00000000
,
00001000
00000010
00010000
00001000
,
00011000
00000000
01001000
00000000
,
00001000
00010000
01000000
11000000
,
00000000
00010000
01000000
00000000
,
01100000
00000000
10000000
01000000
,
01100000
00000000
00011000
00000000
,
00010000
00000000
00000010
00000000
00001000
00000001
00001000
00000000
,
00000000
00000000
00000001
00000010
00000100
00000000
00001000
00000000
,
00000100
00000000
00010000
00001000
00010000
00000000
00001000
00000000
,
00011000
00000000
01100000
00000000
,
10000000
00000000
01000000
00000000
00100000
00001000
00010000
00000000
,
00000000
00000000
00001000
00010000
00000010
00000000
00001000
00000000
,
00000100
00000010
00000001
00001000
00000001
00000000
00000000
00000000
,
00000001
00000000
00000000
00000100
00000000
00000000
00001000
00000000
00000000
00010000
00000000
00000000
01000000
00000000
10000000
00000000
,
20020000
00000000
00000000
30030000
,
10000000
00000000
00000000
00100000
00000000
00000000
00010000
00000000
00000000
00001000
00000000
00000000
00000010
00000000
00000001
00000000
,
00002002
00000000
00000000
00000000
00000000
00000000
00000000
00000000
00000000
00000000
00000000
00000000
00000000
00000000
00000000
00000000
00000000
00000000
00000000
00000000
00000000
00000000
00000000
00000000
00000000
00000000
00000000
00000000
00000000
00000000
00000000
00000000
00003003
00000000
00000000
00000000
00000000
00000000
00000000
00000000
00000000
00000000
00000000
00000000
00000000
00000000
00000000
00000000
00000220
00000330
00000000
00000000
00000000
00000000
00000000
00000000
00000000
00000000
00000000
00000000
00000000
00000000
00000000
00000000
,
00000001
00000100
00001000
00000000
,
00010000
01000000
10000000
00000000
,
10000000
00100000
00010000
00000000
,
00001000
00000010
00000001
00000000
,
00001000
00000000
00000001
00000100
00000001
00000000
00000010
00000000
,
00000100
00010000
00001000
00020000
,
00000000
00130000
02000000
00000000
,
03010000
00000000
10000000
00000000
00010000
00100000
00010000
00000000
,
10000000
00100000
00010000
00002000
,
00000000
00013000
00001000
00000100
,
00000010
00001000
00000001
00000020
,
00000000
00000130
00010000
00001000
,
00010000
01000000
10000000
00020000
,
00000000
01030000
00100000
10000000
,
01000000
00100000
00001000
00000000
00010000
00000010
00001000
00000000
,
00000100
00010000
00011000
00000000
,
00010010
00000000
00011000
00000000
00101000
00000000
00001000
00010000
,
00000000
00100000
10000000
00000000
11000000
00000000
01100000
00000000
,
10000000
00100000
01000000
00100000
10000000
00000000
01000000
00000000
,
00100000
00001000
00010000
00002000
,
00000000
00003100
00000002
00000000
,
00001003
00000000
00000001
00000000
00000100
00000000
00000010
00000100
,
00000010
00000100
00001000
00020000
,
00000000
00130000
10000000
00010000
,
00100000
01000000
00010000
00002000
,
00000000
00003010
00000001
00001000
,
00000010
00000100
00000001
00000010
,
00000100
00000000
00010000
00000000
00001000
01000000
00001000
00000000
,
00000000
00101000
00000000
00010010
,
00011000
00000000
00000110
00000000
,
00001100
00000110
00000001
00000101
,
00001100
00010000
00011000
01100000
,
10000000
00100000
00010000
00001000
00010000
00100000
01000000
00001000
,
00010000
00001000
00010000
00001000
00010000
00000000
00000000
00000000
00011000
00000000
00000000
00000000
01100000
00000000
00000000
00000000
,
00101000
00010010
00001000
01001000
,
00010100
00000000
00010000
00000000
00001000
00010000
01000000
10000000
,
01000000
00100000
00002000
00000000
00023000
00000000
00030200
00000000
,
00010300
00001000
00010000
00001000
00010000
00000000
00100000
00000000
01000000
00000000
00010000
00000000
10000000
00000000
00000000
00000000
,
00010000
00010000
10000000
10000000
,
00010000
01000000
00100000
00001000
00000010
00000100
00000001
00000010
,
00000001
00001000
00000010
00000100
00001000
00010000
00100000
10000000
00010000
00100000
10000000
00100000
,
02000000
00000000
23000000
00000000
,
30200000
00000000
00320000
00000000
,
00031000
00010000
00001000
00010000
00001000
00000000
00010000
00000000
,
00022000
00000000
00033000
00000000
,
00011000
00000000
00001000
00010000
00000000
00010000
00100000
00000000
00100000
01000000
00000000
02000000
,
00000000
00000000
03010000
00100000
01000000
10000000
00010000
00000000
10000000
00100000
00010000
00001000
,
00020000
00001000
00030020
00001000
,
00010030
00000000
00010000
00000010
00000000
00000010
00001000
00000100
00000010
00000001
00000100
00001000
,
00010000
00000000
00010000
00001000
00000000
00001000
00020000
00000000
00230000
00000000
00000000
02300000
,
00000000
00000000
03010000
10000000
01000000
00100000
00001000
00000000
00010000
00000100
00001000
00000100
,
00000010
00000000
00000010
00000001
00000000
00000000
00001000
00000000
00000010
00000100
00000000
00001000
,
00020000
00000000
00030000
00000000
,
00001000
00000000
00010000
00100000
00000000
01000000
00000000
00000000
00010000
10000000
00000000
01000000
,
00100000
00000000
00001000
00010000
00001000
00000010
00000001
00000000
00000010
00000100
00001000
00000010
,
00000200
00000010
00000302
00001000
,
00000013
00000000
00000100
00001000
00000000
00000100
00010000
00001000
01000000
00010000
00000000
00000000
,
10000000
00000000
01000000
00000000
00010000
00000000
00001000
00000000
00000010
00000000
00000001
00000000
,
00001000
00000000
00000001
00000100
00000010
00000100
00001000
00000000
00010000
00100000
01000000
00010000
,
10000000
01000000
00100000
00001000
00000000
00010000
00000010
00000000
00001000
00000100
00000000
00000100
,
00010000
00000000
00001000
00000100
00000010
00001000
00000100
00000010
00001000
00010000
00000000
00000000
,
00022000
00000000
00000000
00000000
,
00000000
00000000
00000000
00000000
,
00000000
00000000
00000000
00033000
,
00001000
01000000
00100000
00010000
00001000
00010000
01000000
00100000
01000000
00001000
00000100
00000010
00000001
00001000
00000010
00000100
,
00010000
00000000
00000000
00000000
01000000
00000000
00000000
00000000
00100000
00000000
00000000
00000000
10000000
00000000
00000000
00000000
00010000
00000000
00000000
00000000
00100000
00000000
00000000
00000000
01000000
00000000
00000000
00000000
10000000
00000000
00000000
00000000
22000000
33000000
00000000
00000000
00000000
00000000
00000000
00000000
02020000
03030000
00000000
00000000
00000000
00000000
00000000
00000000
00022000
00033000
00000000
00000000
00000000
00000000
00000000
00000000
00002000
00003000
00000000
00000000
00020000
00030000
00000000
00000000
,
00002000
00000000
00023000
00000000
,
00031000
00010000
00001000
00000001
00000200
00000000
00000320
00000000
,
00002030
00023000
00031000
00010000
,
00100000
20000000
00000000
31000000
,
00100000
00001000
00000010
00000100
,
00001000
00000020
00000000
00000130
,
00001000
00010000
00100000
01000000
,
00001000
00020000
00000000
01030000
,
00100000
00000000
00010000
00000000
10000000
01000000
10000000
00000000
,
00010000
01000000
00010000
00000000
10000000
00000000
01000000
00000000
,
01100000
00000000
00011000
00010010
,
00001010
00000000
00001000
00000100
00000001
00000100
00001000
00000000
,
00001010
00000000
00010010
00000000
00000010
00001000
00000001
00001000
,
00000100
00010000
00001000
00010000
,
00100000
02000000
00000000
03010000
,
20000000
00000000
31000000
00100000
,
00001000
00010000
00000010
00010000
00001000
00000000
00010000
00000000
,
00001000
00000200
00000000
00000310
,
00001000
00000001
00000010
00000100
,
00010000
00002000
00000000
00013000
,
00100000
01000000
00010000
00100000
,
01000000
00100000
00001000
00010000
,
00000100
00001000
00000010
00000000
00000000
00000000
00001100
00000000
,
00000000
00000101
00000110
00000000
,
00001001
00000000
00000011
00001010
,
00011000
01010000
11000000
10010000
,
10000000
01000000
00010000
00001000
00000020
00000002
00000000
00000000
,
00000033
00000101
00001100
00011000
,
00110000
00000000
10100000
00000000
10010000
00000000
10000000
00100000
,
00010000
00000000
00001000
00000000
00000200
00000000
00000002
00000000
00000000
00000000
00000000
00000303
00000220
00000330
00002002
00003003
,
00001000
00000001
00000100
00001000
,
00010000
00100000
00010000
00001000
,
00100000
01000000
00010000
00001000
,
00000010
00000100
00010000
00001000
,
00000100
00000001
00001000
00000010
,
00010000
00100000
00001000
00000010
,
00001000
00000001
00000010
00001000
,
00010000
01000000
00100000
00010000
,
10000000
00100000
00001000
00000010
,
00000100
00000001
00001000
00000100
,
00000010
00001000
00010000
01000000
,
10000000
00010000
00100000
00001000
,
00010000
00000010
00001000
00000000
00000001
00000010
00000100
00000000
,
00001000
00000010
00000100
00000001
00001000
00000100
00000010
00000000
,
00000000
00000000
00000001
00000000
00000100
00001000
00010000
00000000
,
01000000
10000000
01000000
10000000
01000000
00000000
00100000
00000000
,
10010000
00000000
01100000
00000000
,
10000000
00000000
01000000
00000000
00010000
00001000
00010000
00000000
,
00000000
00000010
00000100
00000000
,
00001001
00000000
00000000
00000000
;

//--------------- dance-double - Fred-104† ----------------
#NOTES:
     dance-double:
     Fred-104†:
     Challenge:
     18:
     :
00000000
00000000
00000000
00000000
,
00000000
00000000
00000000
00000000
,
00000000
00000000
00000000
00000000
,
00011000
00000000
00010010
00000000
00010000
00001000
00000100
00000001
,
00000000
00000010
00000110
00000000
00011000
00000000
01010000
00000000
,
11000000
00000000
10100000
00000000
10000000
01000000
00010000
00001000
,
00000000
00010000
00011000
00000000
00000110
00000000
00001001
00000000
,
00001100
00000000
00000000
00000000
00000101
00000000
00000000
00000000
00001000
00000000
00000100
00000000
00000010
00000001
00001000
00000000
,
00000000
00000000
00000000
00000000
00000000
00000000
00000000
00000000
00000100
00000000
00000000
00000000
00000000
00000000
00000000
00000000
00010100
00000000
00000000
00000000
00000000
00000000
00000000
00000000
00000000
00000000
00000000
00000000
00000000
00000000
00000000
00000000
00020000
00030000
00000000
00000000
00002000
00003000
00000000
00000000
02000000
03000000
00000000
00000000
00002000
00003000
00000000
00000000
00020000
00000000
00000000
00000000
00000000
00000000
00000000
00000000
00000000
00000000
00000000
00000000
00000000
00000000
00000000
00000000
,
00031000
00010000
00100000
10000000
,
00010000
01000000
00100000
00010000
,
00001000
00000100
00000010
00001000
,
00000001
00000000
00000010
00000000
00001000
00000000
00010000
00001000
,
00010000
00000000
00000000
00000000
00011000
00000000
00000000
00000000
00001000
00000000
00010000
00100000
10000000
00000000
00010000
00100000
,
01000000
00010000
00001000
00000010
00000001
00000010
00000100
00001000
,
00000001
00000100
00000010
00000100
,
00001000
00010000
00100000
10000000
,
00010000
00000000
00100000
01000000
00100000
00000000
00010000
00000000
,
10000000
00000000
01000000
00100000
00010000
00100000
00001000
00010000
,
00001000
00000100
00000010
00001010
,
00000000
00000001
00000100
00000110
,
00000000
00011000
00000000
01100000
,
01100000
00000000
00020000
20030000
,
30010000
10000000
00100000
00010000
,
00001000
00010000
00100000
01000000
,
00100000
10000000
00010000
00100000
,
01000000
00100000
00001000
00000010
,
00000001
00000000
00000100
00000001
00001000
00000000
00000001
00000000
,
00001000
00000000
00000100
00010000
00001000
00000000
00100000
00010000
,
10000000
00000000
00010000
01000000
00001000
00000000
00010000
00000000
,
00001000
00000000
00010000
00000000
00001000
00010000
00001000
00010000
,
00000010
00000000
00001001
00000000
,
00000011
00000001
00001000
00001010
,
00000000
00000000
00010000
00001000
00010000
00000000
00000000
00000000
,
00001000
00000000
01000000
00000000
00010000
10000000
00010000
00100000
,
01000000
10000000
11000000
00000000
,
01000000
00100000
00001000
00011000
,
00000000
00000110
00000000
00001010
,
00000101
00000000
00000001
00000100
,
00000110
00000000
00011000
00000000
,
00001000
00010000
00100000
01100000
,
00000000
00010000
01010000
00000000
,
10000000
01000000
00100000
00000000
00001000
00010000
00001000
00000000
,
00010000
00000000
00010010
00000000
,
00010000
00001000
00000100
00000101
,
00000000
00000001
00001000
00000000
,
00000110
00000000
00000001
00001000
,
00001100
00000000
00010100
00000000
,
00010000
00000000
00001000
00000000
01000000
00010000
10000000
00000000
,
00000000
00000000
01000000
00100000
00010000
00000000
00100000
00001000
,
00010000
00000010
00001000
00000000
00000001
00001000
00000100
00000000
,
00000110
00000000
00000011
00000000
,
00000001
00001000
00000010
00010000
00001000
00100000
00001000
00000000
,
00000000
00000000
01000000
00100000
01000000
00000000
00000000
00000000
,
00010000
10000000
00010000
10000000
00010000
00000000
00000000
00000000
,
10000000
00000000
00000000
00100000
00000000
00000000
00001000
00000000
00000000
00000010
00000000
00000000
00000100
00000000
00000001
00000000
,
00002002
00000000
00000000
00000000
00000000
00000000
00003003
00000000
00001000
00000100
00000010
00000001
00001000
00000000
00000000
00000000
,
00000001
00000000
00000000
00000010
00000000
00000000
00010000
00000000
00000000
00100000
00000000
00000000
01000000
00000000
10000000
00000000
,
20020000
00000000
00000000
00000000
00000000
00000000
00000000
00000000
00000000
00000000
00000000
00000000
00000000
00000000
00000000
00000000
00000000
00000000
00000000
00000000
00000000
00000000
00000000
00000000
00000000
00000000
00000000
00000000
00000000
00000000
00000000
00000000
30030000
00000000
00000000
00000000
00000000
00000000
00000000
00000000
00000000
00000000
00000000
00000000
00000000
00000000
00000000
00000000
02200000
03300000
00000000
00000000
00000000
00000000
00000000
00000000
00000000
00000000
00000000
00000000
00000000
00000000
00000000
00000000
,
10000000
01000000
00010000
00001000
,
00000100
00000001
00001000
00000001
,
00000100
00001000
00010000
01000000
,
10000000
01000000
00200000
00000000
,
00301000
00000000
00010000
00000010
00010000
00000000
00000010
00000000
,
00001000
00000010
00000100
00002000
,
00000000
00013000
00200000
00000000
,
01300000
00000000
00010000
00000000
10000000
01000000
10000000
01000000
,
00100000
00001000
00000010
00000200
,
00000000
00000000
00001300
00000000
00000001
00000000
00000100
00000010
,
00000100
00001000
00010000
00200000
,
00000000
00000000
01300000
00000000
00010000
00000000
00100000
01000000
,
00100000
00001000
00010000
00200000
,
00000000
00000000
10300000
00000000
00010000
00000000
10000000
01000000
,
00100000
00010000
00100000
00010000
00100000
00001000
00010000
00001000
,
00010000
00001000
00011000
00000000
,
00011000
00000000
10010000
00000000
00011000
00000000
00010000
00001000
,
00000100
00000001
00001000
00000000
00000110
00000000
00001001
00000000
,
00001000
00000001
00001000
00000001
00000010
00000000
00000100
00000000
,
00010000
00001000
00010000
00200000
,
00000000
01300000
00020000
00000000
,
10030000
00000000
01000000
00000000
00100000
00001000
00100000
00001000
,
00010000
00001000
00000020
00000001
,
00000000
00000000
00000130
00000000
00001000
00000000
00000010
00000100
,
00001000
00010000
00200000
01000000
,
00000000
00000000
10300000
00000000
00010000
00000000
10000000
00010000
,
00100000
01000000
00100000
00001000
,
00010000
00000000
00001000
00000000
00000100
00000001
00000010
00000000
,
00000000
00000110
00000000
00011000
,
00011000
00000000
01000000
00010000
,
10010000
00000000
11000000
01000000
00100000
00000000
00011000
00000000
,
00010010
00000010
00001000
00000000
00001001
00000001
00000010
00000100
,
00010000
00000000
00001000
00000000
00000100
00000000
00000010
00001000
00000010
00000000
00000100
00000000
00000001
00000000
00000010
00000100
,
00001000
00000100
00001000
00000100
00010000
00000000
00000000
00000000
00011000
00000000
00000000
00000000
01100000
00000000
00000000
00000000
,
10100000
00100000
01000000
00000000
00011000
00000000
00010100
00000100
,
00001000
00000000
00001001
00000000
00000011
00000001
00000100
00001000
,
00010000
01000000
20000000
00000000
32000000
00000000
03200000
00000000
,
00301000
00010000
00001000
00010000
00001000
00000000
00000100
00000000
00000001
00000000
00000010
00000000
00000100
00000000
00000000
00000000
,
00000010
00000010
00000100
00000100
,
00001000
00000001
00000010
00000100
00010000
00001000
00100000
01000000
,
10000000
00010000
01000000
00100000
00010000
00001000
00000100
00000010
00000100
00000001
00001000
00000100
,
00000010
00000000
00000001
00001000
00000010
00000000
00001000
00000001
,
00000010
00000000
00000100
00010000
00001000
00000000
01000000
00000000
,
00010000
10000000
00010000
10000000
01000000
00000000
00100000
00000000
,
00101000
00000000
00010010
00000000
,
00011000
00000000
00001000
01000000
00000000
00001000
00010000
00000100
00001000
00000001
00000000
00000200
,
00000000
00000000
00000310
00000100
00000000
00001000
00010000
00000000
00100000
10000000
00010000
00100000
,
01000000
00000000
10000000
00200000
00000000
00000000
01300000
00000000
00010000
10000000
00000000
01000000
,
00100000
00001000
00010000
00001000
00000010
00000001
00000010
00000100
00001000
00000100
00010000
00001000
,
01000000
00000000
00010000
00100000
00000000
01000000
20000000
00000000
32000000
00000000
00000000
03002000
,
00000000
00000000
00003100
00000010
00000100
00001000
00000001
00000000
00000100
00001000
00010000
00100000
,
01000000
00000000
00010000
10000000
00000000
00000000
01000000
00000000
00100000
00001000
00000000
00010000
,
00002000
00000000
00003000
00000000
,
00011000
00000000
00010000
00000100
00000000
00001100
00000000
00000000
00001000
00000100
00000000
00000010
,
00000001
00000000
00001000
00000010
00000100
00001000
00010000
00000000
00001000
00010000
01000000
00100000
,
01000000
00000000
10000000
00020000
00000000
00000000
10030000
00000000
00100000
01000000
00000000
00100000
,
00010000
00000000
00001000
00000100
00000001
00001000
00000100
00000001
00000100
00001000
00000000
00000000
,
00000001
00000000
00010000
00000000
00001000
00000000
10000000
00000000
00001000
00000000
00010000
00000000
,
00000001
00000000
00001000
00000001
00000100
00000010
00000100
00001000
00010000
00100000
10000000
00010000
,
00100000
01000000
00100000
00010000
00001000
00000100
00000010
00000100
00001000
00010000
00100000
01000000
,
10000000
01000000
00010000
00001000
00000010
00000001
00001000
00000001
00000100
00001000
00010000
00100000
,
20000000
00000000
00000000
00000000
,
00000000
00000000
00000000
30000000
,
00010000
10000000
01000000
00100000
00010000
01000000
00100000
00010000
00001000
00100000
00010000
00001000
00000100
00010000
00001000
00000100
,
00000001
00000010
00001000
00010000
00100000
10000000
00010000
10000000
01000000
00010000
00001000
00000100
00000001
00001000
00000100
00000010
,
00000100
00000000
00001000
00000000
00000100
00000000
00001000
00000000
00000100
00000000
00001000
00000000
00000100
00000000
00001000
00000000
00000100
00000000
00010000
00000000
00000100
00000000
00010000
00000000
00000100
00000000
00010000
00000000
00000100
00000000
00010000
00000000
00002000
00003000
00000000
00000000
00000000
00000000
00000000
00000000
00022000
00033000
00000000
00000000
00000000
00000000
00000000
00000000
02200000
03300000
00000000
00000000
00000000
00000000
00000000
00000000
20000000
30000000
00000000
00000000
00020000
00030000
00000000
00000000
,
10010000
00000000
00000000
00000000
,
00000000
00000000
10000000
00001000
,
00010000
00000001
00001000
00000001
,
00000100
00002000
00000000
00013000
,
00100000
00000000
01000000
00010000
10000000
00000000
01000000
00000000
,
00010000
00002000
00000000
00003010
,
00000100
00000000
00001000
00000001
00000100
00000000
00001000
00000000
,
00010000
00002000
00000000
00013000
,
00100000
00000000
01000000
00010000
10000000
00010000
10000000
00010000
,
00100000
00001000
00100000
00001000
00010000
00000000
00001000
00000000
,
00011000
00000000
00011000
00001001
,
00011000
00000000
00001000
00010000
00100000
10000000
01000000
00000000
,
01100000
00000000
00011000
00000000
00001000
00010000
00000100
00001000
,
00000001
00000010
00000100
00010000
,
00001000
01000000
00002000
00000000
00000000
00000000
00013000
00000000
,
00011000
00000000
00001000
00010000
,
00100000
01000000
00100000
01000000
00010000
00000000
10000000
00000000
,
02000000
00100000
00000000
13000000
,
00010000
00000000
00100000
00001000
00010000
00000000
00001000
00000000
,
00000200
00000001
00000000
00000310
,
00001000
00000000
00000001
00000010
00000100
00000000
00010000
00000000
,
00001000
00000000
01000000
00000000
00010000
10000000
01000000
00100000
,
00001000
00010000
00001000
00000000
00000000
00000000
00011000
00000000
,
00000000
00000110
00000110
00000000
,
00000001
00001000
00001002
00000100
,
00001000
00001000
00001003
00000000
00000101
00000000
00001100
00000000
,
00000001
00000000
00000010
00000000
00001000
00010000
00001000
00010000
00002000
00000000
00020000
00000000
00000000
00000000
00000000
00000000
,
00033000
00000000
00012000
00000000
01000000
00000000
00010000
00010000
,
00013000
00000000
00011000
00000000
10010000
00000000
10000000
00100000
,
00010000
00000000
00000000
00000000
00001000
00000000
00000000
00000000
00010000
00000000
00000000
00000000
00001000
00000000
00000000
00000000
00010000
00000000
00000000
00000000
00000000
00000000
00000000
00000000
00022000
00000000
00000000
00000000
00000000
00000000
00000000
00000000
00000000
00000000
00000000
00000000
00000000
00000000
00000000
00000000
00000000
00000000
00000000
00000000
00000000
00000000
00033000
00000000
02200000
03300000
00000000
00000000
00000000
00000000
00000000
00000000
00022000
00033000
00000000
00000000
00000200
00000300
00000020
00000030
,
00000100
00001000
00000001
00000100
,
00001000
00010000
01000000
10000000
,
00010000
01000000
00100000
00010000
,
00001000
00000000
00000100
00000000
00000001
00000010
00000001
00000010
,
00000100
00001000
00000100
00000010
,
00001000
00010000
01000000
10000000
,
00100000
01000000
00001000
00000100
,
00000010
00000000
00001000
00000001
00000010
00000100
00001000
00000000
,
00000001
00000100
00000010
00000000
00010000
00001000
00100000
00000000
,
00010000
10000000
01000000
00000000
00100000
00001000
00010000
00000000
,
00000010
00001000
00000001
00000010
00000001
00001000
00000010
00000000
,
00010000
00001000
01000000
00100000
10000000
00010000
10000000
00000000
,
01000000
00100000
01000000
00100000
00001000
00010000
00001000
00010000
,
00000010
00001000
00000010
00001000
00000001
00001000
00000100
00000000
,
00000000
00000000
00011000
00000000
00001000
00010000
00001000
00100000
,
00010000
00100000
00001000
00010000
00000010
00000000
00010000
00000000
,
00011000
00000000
00010010
00000000
,
00010000
00000000
00001000
00000000
00000100
00000001
00001000
00000000
,
00000000
00000100
00001100
00000000
,
00011000
00000000
00000000
00000000
;
