#TITLE:STELLAR WIND;
#ARTIST:L.E.D.;
#GENRE:HARD DANCE;
#BANNER:STELLAR WIND.png;
#BACKGROUND:STELLAR WIND-bg.png;
#CDTITLE:./CDTitles/APPEND TRAVEL.png;
#MUSIC:STELLAR WIND.ogg;
#SAMPLESTART:76.485;
#SAMPLELENGTH:15;
#BPMS:0=160;
#STAGE:15;

//--------------- dance-single - Fred-104 ----------------
#NOTES:
     dance-single:
     Fred-104:
     Beginner:
     3:
     :
0000
0000
0000
0000
,
0000
0000
0000
0000
,
0000
0000
0000
0000
,
0000
0000
0000
0000
,
0000
0000
0000
0000
,
0000
0000
0000
0000
,
1000
0000
0000
0000
,
0001
0000
0000
0000
,
1000
0000
0000
0000
,
0001
0000
0000
0000
,
1000
0000
0010
0000
,
1000
0000
0000
0000
,
0001
0000
0100
0000
,
0001
0000
0000
0000
,
0100
0000
0010
0000
,
0100
0000
0000
0000
,
0001
0000
0000
0000
,
1000
0000
0000
0000
,
0001
0000
1000
0000
,
0100
0000
0000
0000
,
1000
0000
0010
0000
,
1000
0000
0000
0000
,
0001
0000
0010
0000
,
0010
0000
0000
0000
,
0001
0000
0001
0000
,
1000
0000
0010
0000
,
1000
0000
0000
0000
,
0001
0000
0000
0000
,
1000
0000
0000
0000
,
0001
0000
0000
0000
,
0100
0000
0000
0000
,
0001
0000
0000
0000
,
0001
0000
0000
0000
,
1000
0000
0001
0000
,
2000
0000
0000
0000
,
0000
0000
3000
0000
,
0002
0000
0000
0000
,
0000
0000
0003
0000
,
2000
0000
0000
0000
,
0000
0000
3000
0000
,
0002
0000
0000
0000
,
0000
0000
0003
0000
,
1001
0000
0000
0000
,
0001
0000
0100
0000
,
0100
0000
0000
0000
,
0010
0000
1000
0000
,
1001
0000
0000
0000
,
1001
0000
0000
0000
,
1001
0000
0001
0000
,
1000
1000
1000
1000
,
2002
0000
0000
3003
,
0000
1000
0000
0010
,
0000
1000
0000
0000
,
0000
0001
0000
0100
,
0000
0001
0000
0100
,
0000
0010
0000
0100
,
0000
0100
0000
0100
,
0000
0001
0000
0001
,
0000
1000
1000
0000
,
0001
0000
0000
0000
,
1000
0000
0010
0000
,
0100
0000
0000
0000
,
0001
0000
0010
0000
,
0001
0000
1000
0000
,
0001
0000
1000
0000
,
0001
0000
1000
0000
,
0001
0000
1000
1000
,
1000
0000
0001
0000
,
1000
0000
0001
0001
,
0001
0000
0100
0000
,
0010
0000
1000
1000
,
1000
0000
0100
0000
,
0001
0000
0010
0000
,
1000
0000
0000
0000
,
0001
0000
1000
0000
,
2002
0000
0000
0000
,
0000
0000
0000
0000
,
3003
0000
0000
0000
;

//--------------- dance-single - Fred-104 ----------------
#NOTES:
     dance-single:
     Fred-104:
     Easy:
     7:
     :
0000
0000
0000
0000
,
0000
0000
0000
0000
,
0000
0000
0000
0000
,
0000
0000
0000
0000
,
0000
0000
0000
0000
,
0000
0000
0000
0000
,
0001
0000
1000
0010
,
0100
0000
0001
1000
,
0001
0100
0010
0100
,
0001
0000
0000
1000
0000
0000
0002
0000
,
1003
0010
1000
0100
,
1000
0000
0001
0000
,
0100
0010
0100
0100
,
0001
0000
1000
0000
,
0001
0100
0010
1000
,
0010
0000
0100
0000
,
0010
1000
0001
1000
,
1001
0000
0110
0000
,
1000
0000
0010
0100
,
0001
0000
1000
0100
,
0010
0010
0001
1000
,
0001
0100
0010
0100
,
0001
0000
0100
1000
,
0100
0000
0001
0010
,
0100
0000
1000
0000
,
0010
0000
0100
0001
,
1000
0000
0001
0100
,
1000
0000
0001
0010
,
1000
0000
0001
0000
,
0100
0000
0010
1000
,
0100
0100
1000
1000
,
0001
0001
0010
0010
,
0011
0000
1100
0000
,
0101
0000
1010
0000
,
2001
0000
0000
0000
,
0000
0000
0000
0000
,
3020
0000
0000
0000
,
0000
0000
0000
0000
,
0230
0000
0000
0000
,
0000
0000
0000
0000
,
0302
0000
0000
0000
,
0000
0000
0000
0000
,
2003
0010
0000
0010
,
0000
0100
0000
3001
,
0002
0010
0000
0100
,
0000
0100
0000
0013
,
1001
0000
0000
0000
0100
0000
0010
0100
,
0010
0000
0000
0000
0001
0000
0100
0010
,
0100
0000
0110
0000
,
1000
0100
1000
0000
0001
0100
0001
0000
,
2002
0000
0000
3003
,
1000
0010
1000
1000
,
0100
0010
0001
0000
,
0100
0010
0100
0100
,
0001
1000
0001
0000
,
0100
0010
1000
0100
,
0100
1000
0001
0000
,
1000
0100
0100
0001
,
0010
0010
1000
0000
,
0001
0001
0100
0010
,
0100
0000
0001
0000
1000
0000
0001
1000
,
0001
1000
0100
0100
,
1000
0000
0010
0000
0100
0000
0001
1000
,
0001
0100
0100
0010
,
1000
0100
0100
0010
,
0001
1000
0001
0100
,
0001
0100
0001
0000
1000
0100
1000
0000
,
0001
0100
0010
1000
,
0100
0000
0100
0000
1000
0010
1000
0000
,
0001
0100
0010
0100
,
0100
0000
0001
0000
1000
0100
1000
0000
,
0001
0100
0010
0100
,
0001
1000
0100
0010
,
0001
0000
0000
0100
0000
0000
1000
0000
,
1000
0000
0000
0100
0000
0000
0001
0000
,
2002
0000
0000
0000
,
0000
0000
0000
0000
,
3003
0000
0000
0000
;

//--------------- dance-single - Fred-104 ----------------
#NOTES:
     dance-single:
     Fred-104:
     Medium:
     12:
     :
0000
0000
0000
0000
,
0000
0000
0000
0000
,
0000
0000
0000
0000
,
0000
0000
0000
0000
,
0000
0000
0000
0000
,
0000
0000
0000
0000
,
0010
0010
0100
0100
,
0001
0100
0001
0000
0100
0010
1000
0000
,
0001
0100
0001
0100
0010
1000
0100
0010
,
0001
0000
0000
0011
0000
0000
1000
0000
0000
1010
0000
0000
0001
0000
0100
0000
,
0010
0000
0000
1000
0000
0000
0100
0000
0000
1000
0000
0000
0001
0000
0100
0000
,
0001
0000
0000
0010
0000
0000
0100
0000
1000
0000
0000
0010
0000
0000
0100
0000
,
0001
0000
0000
0010
0000
0000
0001
0000
0000
0100
0000
0000
0010
0000
1000
0000
,
0100
0000
0000
1000
0000
0000
0010
0000
0000
0100
0000
0000
0001
0000
0010
0000
,
0100
0000
0000
1000
0000
0000
0001
0000
0000
0100
0000
0000
0010
0000
0100
0000
,
0001
0000
0000
0010
0000
0000
0100
0000
1000
0000
0000
0010
0000
0000
0100
0000
,
0001
0000
0000
0010
0000
0000
0100
0000
0000
1000
0000
0000
0010
0000
1000
0000
,
0001
0000
0000
0101
0000
0000
0100
0000
0010
0000
0000
1010
0000
0000
1000
0000
,
0002
0000
0000
0203
0000
0000
0320
0000
0000
0230
0000
0000
0301
0000
0100
0000
,
0020
0000
0000
2030
0000
0000
3200
0000
0000
0320
0000
0000
0031
0000
1000
0000
,
0002
0000
0000
0010
0000
0000
0013
0000
2000
0000
0000
0010
0000
0000
3010
0000
,
0001
0000
0000
0100
0000
0000
0010
0000
1000
0100
0000
0100
1000
0000
0001
0000
,
2000
0000
0000
3200
0000
0000
0320
0000
0000
0032
0000
0000
1003
0000
0010
0000
,
0200
0000
0000
0302
0000
0000
0023
0000
0000
0230
0000
0000
0310
0000
0001
0000
,
2000
0000
0000
0100
0000
0000
3100
0000
0002
0000
0000
0100
0000
0000
0103
0000
,
1000
0000
0000
0010
0000
0000
0100
0000
0001
0010
0001
0000
1000
0000
0001
0100
,
0001
1000
0100
1000
0001
0010
0100
1000
,
0010
0100
0001
1000
0100
0010
0100
1000
,
0001
0000
0000
0101
0000
0000
0100
0000
1000
0000
0000
1100
0000
0000
0100
0000
,
0001
0000
0000
0011
0000
0000
0010
0000
1000
0000
0000
1010
0000
0000
0010
0000
,
0001
0100
0001
0100
0010
1000
0010
1000
,
0001
0010
0100
1000
0010
0100
0001
1000
,
0001
0000
0000
1001
0000
0000
0100
0000
0010
0000
0000
0110
0000
0000
0100
0000
,
0001
0000
0100
0010
0000
1000
0100
0000
0010
0000
0001
0000
0100
0000
0010
0000
,
2010
0000
0000
0000
,
0000
0000
0000
0000
,
3020
0000
0000
0000
,
0000
0000
0000
0000
,
0230
0000
0000
0000
,
0000
0000
0000
0000
,
0302
0000
0000
0000
,
0000
0000
0000
0000
,
2003
0100
0000
0010
,
0000
3001
0100
0010
,
0200
0001
0000
1000
,
0000
0301
0100
0010
,
1010
0000
1000
0010
0100
0000
0001
0010
,
0011
0000
0100
1000
0001
0000
0100
0010
,
0110
0000
0000
0001
1001
0000
0000
1000
,
1000
0000
0001
0000
1000
0000
0001
0000
0010
0100
0010
0100
0010
0100
0010
0100
,
2000
0000
0000
3000
,
1001
0000
0000
0001
0000
0000
0100
0000
0000
0100
0000
0000
0010
0000
0000
0010
,
0000
0000
1000
0000
0000
1000
0000
0000
0100
0000
0000
0010
0000
0000
0001
0000
,
0100
0000
0000
0100
0000
0000
0010
0000
0000
0010
0000
0000
0100
0000
0000
0100
,
0000
0000
0001
0000
0000
0001
0000
0000
1000
0000
0000
0010
0000
0000
0100
0000
,
0001
0000
0000
0010
0000
0000
0100
0000
0000
1000
0000
0000
0010
0000
0000
0100
,
0000
0000
0010
0000
0000
1000
0000
0000
0100
0000
0000
0001
0000
0000
0100
0000
,
1000
0000
0000
0010
0000
0000
0100
0000
0000
0001
0000
0000
0010
0000
0000
1000
,
0000
0000
0010
0000
0000
0001
0000
0000
0100
0000
0000
0010
0000
0000
0100
0000
,
0101
0000
0000
0001
0000
0000
0010
0000
0000
0100
0000
0000
1000
0000
0000
0010
,
0000
0000
0100
0000
0000
0001
0000
0000
1000
0000
0100
0000
0010
0000
0001
0000
,
1000
0000
0000
0010
0000
0000
0100
0000
0000
0001
0000
0000
0010
0000
0000
0100
,
0000
0000
0010
0000
0000
1000
0000
0000
0010
0000
0100
0000
0010
0000
0001
0000
,
1000
0000
0000
1100
0000
0000
0001
0000
0000
0101
0000
0000
1000
0000
0000
1010
,
0000
0000
0001
0000
0000
0011
0000
0000
1000
0000
0010
0000
0100
0000
0001
0000
,
1000
0100
0010
0001
0010
1000
0010
0001
,
1000
0000
0010
0000
0100
0000
0001
0000
1000
0001
1000
0001
2000
0000
0000
0000
,
3001
0100
0100
0001
0100
0100
0001
0010
,
0100
0000
0000
1000
0000
0000
0010
0000
0100
0000
0001
0000
1000
0000
0000
0000
,
1000
0010
0010
1000
0010
0010
0100
0001
,
1000
0000
0000
0010
0000
0000
0100
0000
0010
0000
1000
0000
0002
0000
0000
0000
,
1003
0100
1000
0010
0100
0001
0010
0001
,
1000
0010
0100
0010
1000
0100
0010
0001
,
1000
0100
0100
0010
0100
0100
1000
0001
,
1000
0010
0000
1000
0010
0000
0100
0001
0000
0100
0001
0000
1000
0000
0001
0000
,
2002
0000
0000
0000
,
0000
0000
0000
0000
,
3003
0000
0000
0000
;

//--------------- dance-single - Fred-104 ----------------
#NOTES:
     dance-single:
     Fred-104:
     Hard:
     16:
     :
0000
0000
0000
0000
,
0000
0000
0000
0000
,
0000
0000
0000
0000
,
0000
0000
0000
0000
,
0000
0000
0000
0000
,
0000
0000
0000
0000
,
1000
0010
0100
0000
0001
1000
0100
0000
,
0010
0001
0010
0000
0001
0000
1000
0000
0010
1000
0010
0000
0100
0000
0001
0000
,
1000
1000
0100
0100
0001
0001
0100
0100
,
1000
0000
0000
1001
0000
0000
0110
0000
0000
0001
0100
0000
0010
1000
0001
0100
,
0010
0000
1000
0100
0000
0010
0001
0000
1000
0100
0000
1000
0001
0000
1000
0000
,
0001
0000
0001
0100
0000
0100
1000
0000
0001
0000
1000
0100
0000
0100
0001
0000
,
1000
0000
0001
0100
0000
0010
0100
0000
0001
0010
0000
0100
1000
0000
0001
0000
,
1000
0000
0000
0000
0000
0000
1000
0000
0000
0010
0000
0000
0000
0000
0000
0010
0000
0000
0100
0000
0000
0000
0000
0000
0001
0000
0000
0100
0000
0000
0000
0000
0000
0001
0000
0000
1000
0000
0000
0000
0000
0000
0001
0000
1000
0000
0001
0000
,
0010
0000
0001
0010
0000
0001
1000
0000
0100
1000
0000
0100
1000
0000
0001
0000
,
0100
0000
0010
0100
0000
0010
0100
0000
0001
0000
1000
0001
0000
1000
0001
0000
,
1000
0000
0100
1000
0000
0001
0100
0000
0010
1000
0000
0001
0010
0000
0100
0000
,
1100
0000
0000
0000
0000
0000
0000
0000
0000
0101
0000
0000
0000
0000
0000
0000
0000
0000
1100
0000
0000
0000
0000
0000
0001
0000
0000
0100
0000
0000
0000
0000
0000
0110
0000
0000
0000
0000
0000
0000
0000
0000
0010
0000
1000
0000
0001
0000
,
2000
0000
0000
3200
0000
0000
0320
0000
1030
0010
0000
0010
0001
0000
1000
0000
,
0002
0000
0000
0203
0000
0000
0320
0000
0031
0010
0000
0010
1000
0000
0001
0000
,
1000
0000
1000
0100
0000
0010
0001
0000
0001
0000
0001
0100
0000
0010
1000
0000
,
1000
0000
0000
0000
0000
0000
0100
0000
0000
0010
0000
0000
0000
0000
0000
0001
0000
0000
1000
0000
0000
0000
0000
0000
0001
0000
0000
0100
0000
0000
0000
0000
0000
0001
0000
0000
1000
0000
0000
0000
0000
0000
0001
0000
0100
0000
0001
0000
,
2000
0000
0000
3020
0000
0000
0230
0000
1300
0100
0000
0100
0001
0000
1000
0000
,
0002
0000
0000
0023
0000
0000
0230
0000
0301
0100
0000
0100
1000
0000
0001
0000
,
2000
0000
0000
3200
0000
0000
0320
0000
2030
0000
0000
3020
0000
0000
0032
0000
,
2003
0000
0000
0000
0000
0000
0000
0000
0000
3200
0000
0000
0000
0000
0000
0000
0000
0000
0302
0000
0000
0000
0000
0000
0103
0000
0000
1000
0000
0000
0001
0000
0000
0000
0000
0000
0100
0000
0000
0000
0000
0000
0010
0000
1000
0000
0001
0000
,
1000
0000
0010
1000
0000
1000
0100
0000
0100
0010
0000
0010
0001
0000
0101
0000
,
1000
0000
1000
0010
0000
0010
0001
0000
0001
0010
0000
0010
1000
0000
1001
0000
,
0001
0000
0000
0011
0000
0000
0100
0000
1000
0000
0000
1010
0000
0000
0100
0000
,
0001
0000
0000
0000
0000
0000
0000
0000
0000
1000
0000
0000
0000
0000
0000
0000
0000
0000
1001
0000
0000
0000
0000
0000
0001
0000
0000
0000
0000
0000
0100
0000
0000
0000
0000
0000
0010
0000
0000
0000
0000
0000
1000
0000
0001
0000
1000
0000
,
0100
0010
0001
1000
0001
0100
0001
1000
,
0001
0000
0000
0100
0000
0000
1000
0000
0000
0001
0000
0000
0010
0000
0000
1000
0000
0000
0001
0000
0000
0100
0010
0100
,
0010
0000
0000
0000
0000
0000
0000
0000
0000
1100
0000
0000
0000
0000
0000
0000
0000
0000
0101
0000
0000
0000
0000
0000
0001
0000
0000
0100
0000
0000
0000
0000
0000
0110
0000
0000
0000
0000
0000
0000
0000
0000
1000
0000
0001
0000
1000
0000
,
0001
0000
0000
0000
0000
0000
0000
0000
1000
0000
0000
0000
0010
0000
0000
0000
0000
0000
0000
0000
1000
0000
0000
0000
0001
0000
0000
0000
0100
0000
0000
0000
0001
0000
0000
0000
0010
0000
0000
0000
0100
0000
0000
0000
1000
0000
0000
0000
0010
0000
0000
0000
0100
0000
0000
0000
0002
0000
0000
0000
0000
0000
0000
0003
,
2001
0000
0000
0000
,
0000
0000
0000
0000
,
3200
0000
0000
0000
,
0000
0000
0000
0000
,
0302
0000
0000
0000
,
0000
0000
0000
0000
,
0023
0000
0000
0000
,
0000
0000
0000
0000
0000
0000
0000
0000
0000
0000
0000
0000
0000
0000
0000
0000
0000
0000
0030
0000
0000
0010
0100
0010
,
0200
0000
1000
0000
0010
0300
0001
0000
,
1000
0100
0010
0000
0001
1000
0001
0000
,
0200
0000
0010
0000
0001
0300
0010
0000
,
1000
0000
0000
0100
0000
0000
0010
0000
0000
0000
0000
0000
0001
0000
0000
1000
0000
0000
0001
0000
0000
1000
0010
0100
,
0010
0000
0000
0000
0000
0000
0000
0000
1000
0000
0000
0000
0000
0000
0000
0000
0010
0000
0000
0000
0000
0000
0000
0000
1000
0000
0000
0000
0000
0000
0000
0000
0001
0000
0000
0000
0000
0000
0000
0000
0100
0000
0000
0000
0000
0000
0000
0000
0001
0000
0000
0000
0000
0000
0000
0000
0200
0300
0000
0000
0000
0000
0000
0000
,
0200
0300
0000
0000
0000
0000
0000
0000
1000
0000
0000
0000
0000
0000
0000
0000
0010
0000
0000
0000
0000
0000
0000
0000
0100
0000
0000
0000
0000
0000
0000
0000
0001
0000
0000
0000
0000
0000
0000
0000
1000
0000
0000
0000
0000
0000
0000
0000
0010
0000
0000
0000
0000
0000
0000
0000
1010
0000
0000
0000
0000
0000
0000
0000
,
1001
0000
0000
0001
0000
0000
1000
0000
0000
0001
0010
0001
1000
0000
0000
0100
0000
0000
1000
0000
0000
1000
0001
1000
,
0001
0100
0010
1000
0001
0100
0010
1000
0001
1000
0100
1000
0001
0010
0100
1000
,
0002
0000
0000
0003
,
1001
0000
1000
0100
0000
0100
0010
0000
0010
0001
0000
0001
0100
0000
0100
0010
,
0000
0010
1000
0000
1000
0001
0000
0001
0100
0000
0010
1000
0000
0001
0100
0000
,
0110
0000
0010
1000
0000
1000
0100
0000
0100
0010
0000
0010
0001
0000
0001
0010
,
0000
0000
0000
0010
0000
0000
0100
0000
0000
0000
0000
0000
0100
0000
0000
1000
0000
0000
0000
0000
0000
1000
0000
0000
0001
0000
0000
0000
0000
0000
0000
0000
0000
0100
0000
0000
0000
0000
0000
0000
0000
0000
0010
0000
0100
0000
0010
0000
,
0100
0000
0001
0010
0000
0010
0100
0000
0100
1000
0000
1000
0010
0000
0010
1000
,
0000
1000
0100
0000
0100
0010
0000
0010
0001
0000
0100
0010
0000
1000
0100
0000
,
1100
0000
1000
0010
0000
0010
0100
0000
0100
0001
0000
0001
1000
0000
1000
0100
,
0000
0000
0000
0100
0000
0000
0010
0000
0000
0000
0000
0000
0010
0000
0000
0001
0000
0000
0000
0000
0000
0001
0000
0000
1000
0000
0000
0000
0000
0000
0001
0000
0000
1000
0000
0000
0000
0000
0000
1000
0000
0000
0001
0000
1000
0000
0001
0000
,
1000
0000
0001
0010
0000
0001
1000
0000
0001
0100
0000
0001
1000
0000
0001
1000
,
0000
0100
1000
0000
0010
1000
0000
1000
0100
0000
0010
0001
0000
0001
0100
0000
,
0110
0000
0010
0100
0000
1000
0001
0000
1000
0100
0000
1000
0001
0000
1000
0010
,
0000
0000
0000
0100
0000
0000
0001
0000
0000
0000
0000
0000
1000
0000
0000
0100
0000
0000
0000
0000
0000
0001
0000
0000
0100
0000
0000
0000
0000
0000
1000
0000
0000
0100
0000
0000
0000
0000
0000
1000
0000
0000
0001
0000
1000
0000
0001
0000
,
0010
0000
0100
1000
0000
0010
0100
0000
0001
0010
0000
0100
1000
0000
0001
0100
,
0000
0010
1000
0000
0100
0010
0000
0010
0001
0000
0010
0001
0000
1000
0001
1000
,
0001
0001
0100
0100
0010
0010
1000
1000
,
0001
0100
0001
0100
0010
1000
0010
1000
0010
0100
0001
1000
0002
0000
0000
0000
,
1003
0100
0010
0001
1000
0000
1000
0010
0100
0001
1000
0000
0001
0100
0010
0100
,
0001
0000
0000
0000
0000
0000
0010
0000
0000
0001
0000
0000
0000
0000
0000
0100
0000
0000
0001
0000
0000
0000
0000
0000
1000
0000
0000
0000
0000
0000
0001
0000
0000
0000
0000
0000
1000
0000
0000
0000
0000
0000
0010
0000
1000
0000
0010
0000
,
1000
0010
0100
0001
1000
0000
1000
0100
0010
0001
1000
0000
0001
1000
0010
0100
,
0001
0000
0000
0000
0000
0000
0100
0000
0000
0001
0000
0000
0000
0000
0000
0001
0000
0000
0100
0000
0000
0000
0000
0000
0001
0000
0000
0000
0000
0000
1000
0000
0001
0000
1000
0000
0100
0000
0000
0000
0000
0000
0010
0000
0001
0000
0010
0000
,
0001
1000
0010
0100
0001
1000
0100
0001
,
0100
0000
0000
0000
0000
0000
0000
0000
1000
0000
0000
0000
0000
0000
0000
0000
0010
0000
0000
0000
0000
0000
0000
0000
0100
0000
0000
0000
0000
0000
0000
0000
0001
0000
0000
0000
0000
0000
0000
0000
0020
0030
0000
0000
0000
0000
0000
0000
0020
0030
0000
0000
0000
0000
0000
0000
1000
0000
0000
0000
0000
0000
0000
0000
,
0001
0100
0010
0100
0001
0000
1000
0100
0010
0100
1000
0000
0001
1000
0200
0320
,
0031
0100
0000
0010
1000
0000
0100
0010
0000
0001
0100
0000
0010
0000
1000
0000
,
2002
0000
0000
0000
,
0000
0000
0000
0000
,
3003
0000
0000
0000
;

//--------------- dance-single - Fred-104 ----------------
#NOTES:
     dance-single:
     Fred-104:
     Challenge:
     17:
     :
0000
0000
0000
0000
,
0000
0000
0000
0000
,
0000
0000
0000
0000
,
0000
0000
0000
0000
,
0000
0000
0000
0000
,
0000
0000
0000
0000
,
0100
1000
0001
0000
0010
0100
0001
0000
,
1000
0010
1000
0000
0010
0000
0100
0000
1000
0100
1000
0000
0001
0000
0010
0000
,
0100
0100
0001
0001
0010
0010
0001
0001
,
0100
0000
0000
0110
0000
0000
1001
0000
0000
0010
0001
0000
1000
0100
0010
0001
,
1000
0000
0100
0001
0000
1000
0010
0000
0100
0001
0000
0100
0010
0000
0100
0000
,
0010
0000
0010
0001
0000
0001
0100
0000
0010
0000
0100
0001
0000
0001
0010
0000
,
0100
0000
0010
0001
0000
1000
0001
0000
0010
1000
0000
0001
0100
0000
0010
0000
,
0100
0000
0000
0000
0000
0000
0100
0000
0000
1000
0000
0000
0000
0000
0000
1000
0000
0000
0001
0000
0000
0000
0000
0000
0010
0000
0000
0001
0000
0000
0000
0000
0000
0010
0000
0000
0100
0000
0000
0000
0000
0000
0010
0000
0100
0000
0010
0000
,
1000
0000
0010
1000
0000
0010
0100
0000
0001
0100
0000
0001
0100
0000
0010
0000
,
0001
0000
1000
0001
0000
1000
0001
0000
0010
0000
0100
0010
0000
0100
0010
0000
,
0100
0000
0001
0100
0000
0010
0001
0000
1000
0100
0000
0010
1000
0000
0001
0000
,
0101
0000
0000
0000
0000
0000
0000
0000
0000
0011
0000
0000
0000
0000
0000
0000
0000
0000
0101
0000
0000
0000
0000
0000
0010
0000
0000
0001
0000
0000
0000
0000
0000
1001
0000
0000
0000
0000
0000
0000
0000
0000
1000
0000
0100
0000
0010
0000
,
0200
0000
0000
0302
0000
0000
2003
0000
3100
1000
0000
1000
0010
0000
0100
0000
,
0020
0000
0000
0032
0000
0000
2003
0000
3010
1000
0000
1000
0100
0000
0010
0000
,
0100
0000
0100
0001
0000
1000
0010
0000
0010
0000
0010
0001
0000
1000
0100
0000
,
0100
0000
0000
0000
0000
0000
0001
0000
0000
1000
0000
0000
0000
0000
0000
0010
0000
0000
0100
0000
0000
0000
0000
0000
0010
0000
0000
0001
0000
0000
0000
0000
0000
0010
0000
0000
0100
0000
0000
0000
0000
0000
0010
0000
0001
0000
0010
0000
,
0200
0000
0000
2300
0000
0000
3002
0000
0103
0001
0000
0001
0010
0000
0100
0000
,
0020
0000
0000
2030
0000
0000
3002
0000
0013
0001
0000
0001
0100
0000
0010
0000
,
0200
0000
0000
0302
0000
0000
2003
0000
3200
0000
0000
2300
0000
0000
3020
0000
,
0230
0000
0000
0000
0000
0000
0000
0000
0000
0302
0000
0000
0000
0000
0000
0000
0000
0000
0023
0000
0000
0000
0000
0000
0031
0000
0000
0100
0000
0000
0010
0000
0000
0000
0000
0000
0001
0000
0000
0000
0000
0000
1000
0000
0100
0000
0010
0000
,
0100
0000
1000
0100
0000
0100
0001
0000
0001
1000
0000
1000
0010
0000
0011
0000
,
0100
0000
0100
1000
0000
1000
0010
0000
0010
1000
0000
1000
0100
0000
0110
0000
,
0010
0000
0000
1010
0000
0000
0001
0000
0100
0000
0000
1100
0000
0000
0001
0000
,
0010
0000
0000
0000
0000
0000
0000
0000
0000
0100
0000
0000
0000
0000
0000
0000
0000
0000
0110
0000
0000
0000
0000
0000
0010
0000
0000
0000
0000
0000
0001
0000
0000
0000
0000
0000
1000
0000
0000
0000
0000
0000
0100
0000
0010
0000
0100
0000
,
0001
1000
0010
0100
0010
0001
0010
0100
,
0010
0000
0000
0001
0000
0000
0100
0000
0000
0010
0000
0000
1000
0000
0000
0100
0000
0000
0010
0000
0000
0001
1000
0001
,
1000
0000
0000
0000
0000
0000
0000
0000
0000
0101
0000
0000
0000
0000
0000
0000
0000
0000
0011
0000
0000
0000
0000
0000
0010
0000
0000
0001
0000
0000
0000
0000
0000
1001
0000
0000
0000
0000
0000
0000
0000
0000
0100
0000
0010
0000
0100
0000
,
0010
0000
0000
0000
0000
0000
0000
0000
0100
0000
0000
0000
1000
0000
0000
0000
0000
0000
0000
0000
0100
0000
0000
0000
0010
0000
0000
0000
0001
0000
0000
0000
0010
0000
0000
0000
1000
0000
0000
0000
0001
0000
0000
0000
0100
0000
0000
0000
1000
0000
0000
0000
0001
0000
0000
0000
0020
0000
0000
0000
0000
0000
0000
0030
,
0210
0000
0000
0000
,
0000
0000
0000
0000
,
0302
0000
0000
0000
,
0000
0000
0000
0000
,
0023
0000
0000
0000
,
0000
0000
0000
0000
,
2030
0000
0000
0000
,
0000
0000
0000
0000
0000
0000
0000
0000
0000
0000
0000
0000
0000
0000
0000
0000
0000
0000
3000
0000
0000
1000
0001
1000
,
0002
0000
0100
0000
1000
0003
0010
0000
,
0100
0001
1000
0000
0010
0100
0010
0000
,
0002
0000
1000
0000
0010
0003
1000
0000
,
0100
0000
0000
0001
0000
0000
1000
0000
0000
0000
0000
0000
0010
0000
0000
0100
0000
0000
0010
0000
0000
0100
1000
0001
,
1000
0000
0000
0000
0000
0000
0000
0000
0100
0000
0000
0000
0000
0000
0000
0000
1000
0000
0000
0000
0000
0000
0000
0000
0100
0000
0000
0000
0000
0000
0000
0000
0010
0000
0000
0000
0000
0000
0000
0000
0001
0000
0000
0000
0000
0000
0000
0000
0010
0000
0000
0000
0000
0000
0000
0000
0002
0003
0000
0000
0000
0000
0000
0000
,
0002
0003
0000
0000
0000
0000
0000
0000
0100
0000
0000
0000
0000
0000
0000
0000
1000
0000
0000
0000
0000
0000
0000
0000
0001
0000
0000
0000
0000
0000
0000
0000
0010
0000
0000
0000
0000
0000
0000
0000
0100
0000
0000
0000
0000
0000
0000
0000
1000
0000
0000
0000
0000
0000
0000
0000
1100
0000
0000
0000
0000
0000
0000
0000
,
0110
0000
0000
0010
0000
0000
0100
0000
0000
0010
1000
0010
0100
0000
0000
0001
0000
0000
0100
0000
0000
0100
0010
0100
,
0010
0001
1000
0100
0010
0001
1000
0100
0010
0100
0001
0100
0010
1000
0001
0000
,
0200
0000
0000
0300
,
0110
0000
0100
0001
0000
0001
1000
0000
1000
0010
0000
0010
0001
0000
0001
1000
,
0000
1000
0100
0000
0100
0010
0000
0010
0001
0000
1000
0100
0000
0010
0001
0000
,
1001
0000
1000
0100
0000
0100
0001
0000
0001
1000
0000
1000
0010
0000
0010
1000
,
0000
0000
0000
1000
0000
0000
0001
0000
0000
0000
0000
0000
0001
0000
0000
0100
0000
0000
0000
0000
0000
0100
0000
0000
0010
0000
0000
0000
0000
0000
0000
0000
0000
0001
0000
0000
0000
0000
0000
0000
0000
0000
1000
0000
0001
0000
1000
0000
,
0001
0000
0010
1000
0000
1000
0001
0000
0001
0100
0000
0100
1000
0000
1000
0100
,
0000
0100
0001
0000
0001
1000
0000
1000
0010
0000
0001
1000
0000
0100
0001
0000
,
0101
0000
0100
1000
0000
1000
0001
0000
0001
0010
0000
0010
0100
0000
0100
0001
,
0000
0000
0000
0001
0000
0000
1000
0000
0000
0000
0000
0000
1000
0000
0000
0010
0000
0000
0000
0000
0000
0010
0000
0000
0100
0000
0000
0000
0000
0000
0010
0000
0000
0100
0000
0000
0000
0000
0000
0100
0000
0000
0010
0000
0100
0000
0010
0000
,
0100
0000
0010
1000
0000
0010
0100
0000
0010
0001
0000
0010
0100
0000
0010
0100
,
0000
0001
0100
0000
1000
0100
0000
0100
0001
0000
1000
0010
0000
0010
0001
0000
,
1001
0000
1000
0001
0000
0100
0010
0000
0100
0001
0000
0100
0010
0000
0100
1000
,
0000
0000
0000
0001
0000
0000
0010
0000
0000
0000
0000
0000
0100
0000
0000
0001
0000
0000
0000
0000
0000
0010
0000
0000
0001
0000
0000
0000
0000
0000
0100
0000
0000
1000
0000
0000
0000
0000
0000
0100
0000
0000
0010
0000
0100
0000
0010
0000
,
1000
0000
0001
0100
0000
1000
0001
0000
0010
1000
0000
0001
0100
0000
0010
0001
,
0000
1000
0100
0000
0001
1000
0000
1000
0010
0000
1000
0010
0000
0100
0010
0100
,
0010
0010
0001
0001
1000
1000
0100
0100
,
0010
0001
0010
0001
1000
0100
1000
0100
1000
0001
0010
0100
0020
0000
0000
0000
,
0130
0000
0000
0000
0001
0000
0000
0000
1000
0000
0000
0000
0010
0000
0000
0000
0200
0300
0000
0000
0000
0000
0000
0000
0200
0300
0000
0000
1000
0000
0000
0000
0001
0000
0000
0000
0010
0000
0000
0000
0100
0000
0000
0000
0000
0000
0000
0000
0010
0000
0000
0000
0001
0000
0000
0000
1000
0000
0000
0000
0001
0000
0000
0000
,
0010
0000
0000
0000
0000
0000
1000
0000
0000
0010
0000
0000
0000
0000
0000
0001
0000
0000
0010
0000
0000
0000
0000
0000
0100
0000
0000
0000
0000
0000
0010
0000
0000
0000
0000
0000
0100
0000
0000
0000
0000
0000
1000
0000
0100
0000
1000
0000
,
0100
0000
0000
0000
1000
0000
0000
0000
0001
0000
0000
0000
0010
0000
0000
0000
0200
0300
0000
0000
0000
0000
0000
0000
0200
0300
0000
0000
0001
0000
0000
0000
1000
0000
0000
0000
0010
0000
0000
0000
0100
0000
0000
0000
0000
0000
0000
0000
0010
0000
0000
0000
0100
0000
0000
0000
1000
0000
0000
0000
0001
0000
0000
0000
,
0010
0000
0000
0000
0000
0000
0001
0000
0000
0010
0000
0000
0000
0000
0000
0010
0000
0000
0001
0000
0000
0000
0000
0000
0010
0000
0000
0000
0000
0000
0100
0000
0010
0000
0100
0000
0001
0000
0000
0000
0000
0000
1000
0000
0010
0000
1000
0000
,
0010
0100
1000
0001
0010
0100
0001
0010
,
0001
0000
0000
0000
0000
0000
0000
0000
0100
0000
0000
0000
0000
0000
0000
0000
1000
0000
0000
0000
0000
0000
0000
0000
0001
0000
0000
0000
0000
0000
0000
0000
0010
0000
0000
0000
0000
0000
0000
0000
2000
3000
0000
0000
0000
0000
0000
0000
2000
3000
0000
0000
0000
0000
0000
0000
0100
0000
0000
0000
0000
0000
0000
0000
,
0010
0001
1000
0001
0010
0000
0100
0001
1000
0001
0100
0000
0010
0100
0002
2003
,
3010
0001
0000
1000
0100
0000
0001
1000
0000
0010
0001
0000
1000
0000
0100
0000
,
0220
0000
0000
0000
,
0000
0000
0000
0000
,
0330
0000
0000
0000
;

//--------------- dance-double - Fred-104 ----------------
#NOTES:
     dance-double:
     Fred-104:
     Easy:
     7:
     :
00000000
00000000
00000000
00000000
,
00000000
00000000
00000000
00000000
,
00000000
00000000
00000000
00000000
,
00000000
00000000
00000000
00000000
,
00000000
00000000
00000000
00000000
,
00000000
00000000
00000000
00000000
,
00000010
00000000
00001000
00000000
,
00000001
00000100
00000010
00000100
,
00000001
00000000
00000100
00000000
,
00001000
00000000
00000000
00001000
00000000
00000000
00011000
00000000
,
00010000
00000000
00001000
00000000
,
00100000
00010000
10000000
10000000
,
00100000
00000000
01000000
00000000
,
00010000
10000000
01000000
00100000
,
00100000
00000000
00001000
00000000
,
00000010
00000010
00000001
00001000
,
00000001
00000001
00000100
00000001
,
00000100
00000000
00000000
00000010
00000000
00000000
00000100
00000000
,
00000001
00000000
00000010
00000100
,
00001000
00000000
00000010
00010000
,
00001000
00000000
00100000
00000000
,
00010000
00000000
10000000
00100000
,
01000000
00000000
00010000
10000000
,
01000000
00000000
00100000
00001000
,
00010000
00000000
00001000
00000000
,
00010000
00000000
00000100
00000100
,
00000010
00000000
00000001
00001000
,
00000001
00000000
00000100
00000010
,
00000100
00000000
00000001
00000000
,
00000100
00000000
00000010
00001000
,
00000100
00000100
00000100
00010000
,
00001000
00001000
00001000
00100000
,
00010000
00000000
10000000
00000000
,
01000000
00000000
00100000
00000000
00001000
00010000
00001000
00000000
,
00021000
00000000
00000000
00000000
,
00000000
00000000
00000000
00030000
,
00002000
00000000
00000000
00000000
,
00000000
00000000
00000000
00003000
,
00000020
00000000
00000000
00000000
,
00000000
00000000
00000000
00000030
,
00000002
00000000
00000000
00000000
,
00000000
00000000
00000000
00000003
,
00000200
00000010
00000000
00000010
,
00000000
00001000
00000300
00010000
,
00002000
00100000
00000000
00100000
,
00000000
00010000
00003000
01000000
,
00100000
00000000
00100000
00000000
10000000
00000000
01000000
00100000
,
01000000
00100000
00010000
00001000
,
00011000
00000000
00000110
00000000
,
00000001
00000100
00000001
00000000
00001000
00000100
00001000
00000000
,
00002002
00000000
00000000
00003003
,
00000001
00000001
00000100
00000010
,
00001000
00000100
00000001
00000000
,
00000001
00000010
00000010
00001000
,
00010000
00100000
01000000
00000000
,
10000000
00100000
01000000
00100000
,
10000000
00010000
00010000
00000000
,
01000000
00100000
00001000
00010000
,
00010000
00000100
00000110
00000000
,
00000001
00000001
00000100
00000001
,
00000100
00000010
00001000
00000100
,
00010000
00010000
00001000
01000000
,
00010000
00100000
00001000
00010000
,
00001000
00001000
00010000
00010000
,
01000000
01000000
10000000
10000000
,
00010000
01000000
00100000
10000000
,
01000000
00100000
01000000
00000000
00010000
00100000
00010000
00000000
,
00100000
00001000
00010000
00000100
,
00001100
00000000
00000101
00000001
,
00001000
00000001
00000100
00000010
,
00001010
00000000
00011000
00001000
,
00010000
00001000
00100000
00010000
,
01000000
00100000
01000000
00000000
00010000
01000000
00010000
00000000
,
10000000
00000000
00000000
01000000
00000000
00000000
00010000
00000000
,
00001000
00000000
00000000
00000010
00000000
00000000
00000001
00000000
,
00002002
00000000
00000000
00000000
,
00000000
00000000
00000000
00000000
,
00003003
00000000
00000000
00000000
;

//--------------- dance-double - Fred-104 ----------------
#NOTES:
     dance-double:
     Fred-104:
     Medium:
     12:
     :
00000000
00000000
00000000
00000000
,
00000000
00000000
00000000
00000000
,
00000000
00000000
00000000
00000000
,
00000000
00000000
00000000
00000000
,
00000000
00000000
00000000
00000000
,
00000000
00000000
00000000
00000000
,
01000000
01000000
00100000
00100000
,
10000000
01000000
10000000
00000000
00100000
01000000
00010000
00000000
,
01000000
00010000
00100000
00001000
00010000
00000010
00001000
00000100
,
00010000
00000000
00000000
00011000
00000000
00000000
00000100
00000000
00000000
00000110
00000000
00000000
00000010
00000000
00000001
00000000
,
00001000
00000000
00000000
00000010
00000000
00000000
00000100
00000000
00000000
00000001
00000000
00000000
00000010
00000000
00000001
00000000
,
00001000
00000000
00000000
00000001
00000000
00000000
00000100
00000000
00001000
00000000
00000000
00010000
00000000
00000000
01000000
00000000
,
10000000
00000000
00000000
00100000
00000000
00000000
01000000
00000000
00000000
00010000
00000000
00000000
01000000
00000000
00100000
00000000
,
10000000
00000000
00000000
00100000
00000000
00000000
00010000
00000000
00000000
00001000
00000000
00000000
00000010
00000000
00000001
00000000
,
00001000
00000000
00000000
00000100
00000000
00000000
00000010
00000000
00000000
00000010
00000000
00000000
00001000
00000000
00000001
00000000
,
00000100
00000000
00000000
00001000
00000000
00000000
00010000
00000000
01000000
00000000
00000000
10000000
00000000
00000000
00010000
00000000
,
01000000
00100000
10000000
01000000
00100000
01000000
00100000
00001000
,
00010000
00000000
00000000
00011000
00000000
00000000
00000100
00000000
00000000
00000110
00000000
00000000
00000001
00000000
00001000
00000000
,
00000002
00000000
00000000
00000203
00000000
00000000
00002300
00000000
00000000
00003200
00000000
00000000
00000301
00000000
00000100
00000000
,
00000020
00000000
00000000
00002030
00000000
00000000
00003200
00000000
00000000
00020300
00000000
00000000
00031000
00000000
00010000
00000000
,
00100000
00000000
00000000
00100000
00000000
00000000
00100000
00000000
01000000
00000000
00000000
01000000
00000000
00000000
01000000
00000000
,
10000000
00000000
00000000
10000000
00000000
00000000
00100000
00000000
00010000
00000000
00000000
00001000
00000000
00000000
00000010
00000000
,
00000002
00000000
00000000
00000023
00000000
00000000
00000230
00000000
00000000
00000320
00000000
00000000
00000031
00000000
00000100
00000000
,
00002000
00000000
00000000
00023000
00000000
00000000
00230000
00000000
00000000
20300000
00000000
00000000
30010000
00000000
01000000
00000000
,
00100000
00000000
00000000
00100000
00000000
00000000
10000000
00000000
01000000
00000000
00000000
00100000
00000000
00000000
00100000
00000000
,
00001000
00000000
00000000
00000010
00000000
00000000
00000010
00000000
00000100
00000000
00000000
00000001
00000000
00000000
00001000
00000001
,
00001000
00000100
00000010
00000001
00000100
00001000
00010000
00000000
,
00001000
00010000
00100000
10000000
00010000
01000000
10000000
00000000
,
00010000
00000000
00000000
01000000
00000000
00000000
00100000
00000000
10000000
00000000
00000000
01000000
00000000
00000000
00100000
00000000
,
00001000
00000000
00000000
00010000
00000000
00000000
00000010
00000000
00001000
00000000
00000000
00000100
00000000
00000000
00010000
00001000
,
00010000
00001000
00000100
00000010
00000001
00001000
00000010
00000100
,
00000001
00000010
00001000
00000010
00000001
00000010
00000100
00010000
,
00001000
00000000
00000000
00011000
00000000
00000000
00100000
00000000
00010000
00000000
00000000
01010000
00000000
00000000
01000000
00000000
,
00100000
00000000
10000000
01000000
00000000
01000000
00100000
00000000
00001000
00000000
00010000
00000000
00000010
00000000
00001000
00000000
,
00000200
00000000
00000000
00000000
,
00000000
00000000
00000000
00000000
,
00000302
00000000
00000000
00000000
,
00000000
00000000
00000000
00000000
,
00000203
00000000
00000000
00000000
,
00000000
00000000
00000000
00000000
,
00020300
00000000
00000000
00000000
,
00000000
00000000
00000000
00030000
,
00012000
00100000
00000000
00000010
,
00000000
00100000
00000000
00003010
,
00021000
01000000
00000000
00000100
,
00000000
00000000
01000000
00000000
00000000
00000000
00030100
00010000
,
00011000
00000000
00100000
00000000
10000000
00000000
01000000
00010000
,
00011000
00000000
00000010
00000000
00000001
00000000
00000100
00001000
,
00011000
00000000
00000000
00100000
00010000
00000000
00000000
10000000
,
00100000
00000000
01000000
00000000
00010000
00000000
00001000
00000000
00010000
00001000
00010000
00001000
00010000
00001000
00010000
00001000
,
00020000
00000000
00000000
00030000
,
10010000
00000000
00000000
00010000
00000000
00000000
01000000
00000000
00000000
01000000
00000000
00000000
00100000
00000000
00000000
00100000
,
00000000
00000000
10000000
00000000
00000000
10000000
00000000
00000000
01000000
00000000
00000000
00100000
00000000
00000000
00001000
00000000
,
00010000
00000000
00000000
00010000
00000000
00000000
00000100
00000000
00000000
00000100
00000000
00000000
00000001
00000000
00000000
00000001
,
00000000
00000000
00001000
00000000
00000000
00001000
00000000
00000000
00000100
00000000
00000000
00000010
00000000
00000000
00000001
00000000
,
00001000
00000000
00000000
00000001
00000000
00000000
00000010
00000000
00000000
00000010
00000000
00000000
00001000
00000000
00000000
00000010
,
00000000
00000000
00000010
00000000
00000000
00000001
00000000
00000000
00000100
00000000
00000000
00001000
00000000
00000000
00010000
00000000
,
00100000
00000000
00000000
00100000
00000000
00000000
10000000
00000000
00000000
00010000
00000000
00000000
01000000
00000000
00000000
00100000
,
00000000
00000000
10000000
00000000
00000000
01000000
00000000
00000000
00100000
00000000
00000000
00001000
00000000
00000000
00010000
00000000
,
00001000
00010000
00000100
00001000
00000010
00010000
00001000
00010000
,
00000010
00001000
00000100
00010000
00000010
00001000
00000100
00000000
,
00010000
00001000
01000000
00010000
00100000
00001000
00010000
00000010
,
00001000
00000100
00010000
00001000
00010000
00100000
01000000
00000000
,
00010000
01000000
00010000
01000000
10000000
01000000
10000000
01000000
,
00010000
00001000
00010000
00001000
00000100
00000001
00000100
00000001
,
00000010
00000001
00001000
00000001
00000100
00000010
00001000
00000100
,
00010000
00000000
00001000
00000000
00010000
00000000
00001000
00000000
00010000
00001000
00010000
00001000
00020000
00000000
00000000
00000000
,
00031000
00010000
00100000
10000000
00010000
01000000
10000000
00010000
,
01000000
00000000
00000000
00100000
00000000
00000000
10000000
00000000
01000000
00000000
00100000
00000000
00001000
00000000
00010000
00000000
,
00001000
00000100
00000001
00001000
00000010
00000001
00001000
00000100
,
00000010
00000000
00000000
00000001
00000000
00000000
00001000
00000000
00000010
00000000
00000100
00000000
00000001
00000000
00000000
00000000
,
00000001
00000100
00000001
00000100
00001000
00010000
01000000
00000000
,
10000000
00100000
10000000
00100000
00010000
00001000
00000010
00000000
,
00000001
00000100
00000100
00000010
00000100
00000100
00000001
00000100
,
00000010
00001000
00000000
00000100
00010000
00000000
00001000
00100000
00000000
00010000
01000000
00000000
00100000
00000000
10000000
00000000
,
20020000
00000000
00000000
00000000
,
00000000
00000000
00000000
00000000
,
30030000
00000000
00000000
00000000
;

//--------------- dance-double - Fred-104 ----------------
#NOTES:
     dance-double:
     Fred-104:
     Hard:
     17:
     :
00000000
00000000
00000000
00000000
,
00000000
00000000
00000000
00000000
,
00000000
00000000
00000000
00000000
,
00000000
00000000
00000000
00000000
,
00000000
00000000
00000000
00000000
,
00000000
00000000
00000000
00000000
,
00010000
00100000
10000000
00100000
00001000
00010000
00000010
00000001
,
00000010
00000000
00000000
00001000
00000000
00000000
00000010
00000000
00000001
00000000
00000000
00000100
00000000
00000000
00001000
00000000
,
00000100
00000001
00000100
00010000
00001000
01000000
10000000
01000000
,
00010000
00000000
00000000
10010000
00000000
00000000
01100000
00000000
00000000
10000000
00010000
00000000
01000000
00100000
01000000
00100000
,
10000000
00000000
10000000
01000000
00000000
01000000
00100000
00000000
00001000
00010000
00000000
00010000
00100000
00000000
10000000
00000000
,
00020000
00000000
00000000
02030000
00000000
00000000
23000000
00000000
30020000
00000000
00000000
00230000
00000000
00000000
02300000
00000000
,
03020000
00000000
00000000
00032000
00000000
00000000
00003200
00000000
00000301
00000100
00000000
00000100
00000010
00000000
00001000
00000000
,
00000002
00000000
00000000
00000000
00000000
00000000
00000000
00000000
00000000
00000023
00000000
00000000
00000000
00000000
00000000
00000000
00000000
00000000
00000230
00000000
00000000
00000000
00000000
00000000
00000301
00000000
00000000
00000100
00000000
00000000
00000000
00000000
00000000
00000100
00000000
00000000
00000010
00000000
00000000
00000000
00000000
00000000
00000001
00000000
00001000
00000000
00000001
00000000
,
00001000
00000000
00000010
00000100
00000000
00000010
00001000
00000000
00000001
00000100
00000000
00000010
00000100
00000000
00000001
00000000
,
00002000
00000000
00000000
00003020
00000000
00000000
00000230
00000000
00000302
00000000
00000000
00000023
00000000
00000000
00000230
00000000
,
00010300
00000000
00001000
00010000
00000000
00100000
00010000
00000000
00001000
00010000
00000000
01000000
00010000
00000000
00001000
00000000
,
00011000
00000000
00000000
00000000
00000000
00000000
00000000
00000000
00000000
00110000
00000000
00000000
00000000
00000000
00000000
00000000
00000000
00000000
01100000
00000000
00000000
00000000
00000000
00000000
00010000
00000000
00000000
10000000
00000000
00000000
00000000
00000000
00000000
11000000
00000000
00000000
00000000
00000000
00000000
00000000
00000000
00000000
00010000
00000000
10000000
00000000
01000000
00000000
,
00100000
00000000
00001000
00010000
00000000
00100000
01000000
00000000
00001000
00010000
00000000
00100000
00001000
00000000
00010000
00000000
,
00000010
00000000
00001000
00000100
00000000
00000010
00010000
00000000
00001000
00000100
00000000
00010000
00001000
00000000
01000000
00000000
,
00010000
00000000
00100000
01000000
00000000
01000000
10000000
00000000
00100000
00000000
01000000
00010000
00000000
00010000
10000000
00000000
,
01000000
00000000
00000000
00000000
00000000
00000000
00010000
00000000
00000000
00001000
00000000
00000000
00000000
00000000
00000000
00001000
00000000
00000000
00010000
00000000
00000000
00000000
00000000
00000000
00001000
00000000
00000000
00010000
00000000
00000000
00000000
00000000
00000000
00000100
00000000
00000000
00001000
00000000
00000000
00000000
00000000
00000000
00000001
00000000
00000010
00000000
00000100
00000000
,
00001000
00000000
00000001
00000100
00000000
00001000
00000100
00000000
00000001
00000100
00000000
00000010
00000100
00000000
00000001
00000000
,
00001000
00000000
00000100
00000010
00000000
00000001
00000010
00000000
00001000
00000010
00000000
00000001
00000010
00000000
00000100
00000000
,
00001000
00000000
00000001
00000100
00000000
00000100
00001000
00000000
00010000
00000000
01000000
10000000
00000000
10000000
00100000
00000000
,
00001000
00000000
00000000
00000000
00000000
00000000
00010000
00000000
00000000
00000100
00000000
00000000
00000000
00000000
00000000
00000100
00000000
00000000
00001000
00000000
00000000
00000000
00000000
00000000
00000010
00000000
00000000
00000100
00000000
00000000
00000001
00000000
00000000
00000000
00000000
00000000
00001000
00000000
00000000
00000000
00000000
00000000
00000001
00000000
00000100
00000000
00000010
00000000
,
00001000
00000000
00000001
00000100
00000000
00000100
00001000
00000000
00001000
00010000
00000000
00010000
01000000
10000000
00010000
00000000
,
10000000
00000000
00010000
10000000
00000000
10000000
00100000
00000000
00100000
00010000
00000000
00010000
00001000
00000010
00000001
00000000
,
00001000
00000000
00000001
00000010
00000000
00000010
00000100
00000000
00010000
00000000
00001000
00100000
00000000
00100000
01000000
00000000
,
10000000
00000000
00000000
00000000
00000000
00000000
00100000
00000000
00000000
01000000
00000000
00000000
00000000
00000000
00000000
01000000
00000000
00000000
00001000
00000000
00000000
00000000
00000000
00000000
00100000
00000000
00000000
00000000
00000000
00000000
00001000
00000000
00000000
00000000
00000000
00000000
00010000
00000000
00000000
00000000
00000000
00000000
00001000
00000000
00010000
00000000
00000010
00000000
,
00001000
00000000
00000000
00000100
00000000
00000000
00000110
00000000
00000000
00000010
00000000
00000000
00000001
00000000
00000100
00000000
,
00001000
00000000
00000000
00000000
00000000
00000000
00000000
00000000
00000000
00010000
00000000
00000000
00000000
00000000
00000000
00000000
00000000
00000000
00011000
00000000
00000000
00000000
00000000
00000000
00000000
00000000
00000000
00001000
00000000
00000000
00000000
00000000
00000000
00000000
00000000
00000000
00100000
00000000
00000000
00000000
00000000
00000000
00010000
00000000
10000000
00000000
00010000
00000000
,
10000000
00000000
00000000
00000000
00000000
00000000
00000000
00000000
00000000
11000000
00000000
00000000
00000000
00000000
00000000
00000000
00000000
00000000
01010000
00000000
00000000
00000000
00000000
00000000
00010000
00000000
00000000
00001000
00000000
00000000
00000000
00000000
00000000
00011000
00000000
00000000
00000000
00000000
00000000
00000000
00000000
00000000
00000100
00000000
00000010
00000000
00000100
00000000
,
00000010
00000000
00000000
00000000
00000000
00000000
00000000
00000000
00000001
00000000
00000000
00000000
00000100
00000000
00000000
00000000
00000000
00000000
00000000
00000000
00000010
00000000
00000000
00000000
00001000
00000000
00000000
00000000
00000001
00000000
00000000
00000000
00000010
00000000
00000000
00000000
00000100
00000000
00000000
00000000
00010000
00000000
00000000
00000000
00001000
00000000
00000000
00000000
00100000
00000000
00000000
00000000
01000000
00000000
00000000
00000000
20000000
00000000
00000000
00000000
00000000
00000000
00000000
30000000
,
20010000
00000000
00000000
00000000
,
00000000
00000000
00000000
00000000
,
30020000
00000000
00000000
00000000
,
00000000
00000000
00000000
00000000
,
00032000
00000000
00000000
00000000
,
00000000
00000000
00000000
00000000
,
00003002
00000000
00000000
00000000
,
00000000
00000000
00000000
00000000
00000000
00000000
00000000
00000000
00000000
00000000
00000000
00000000
00000003
00000000
00000000
00000000
00000000
00000000
00000000
00000000
00000000
00010000
00001000
00010000
,
00002000
00100000
00000000
00000010
,
00000000
00000000
00100000
00000000
00000000
00000000
00003010
00001000
,
00020000
01000000
00000000
00000100
,
00000000
00000000
00000000
00000000
00000000
00000000
01000000
00000000
00000000
00000000
00000000
00000000
00000000
00000000
00000000
00000000
00000000
00000000
00030100
00000000
00000000
00010000
00001000
00010000
,
00001000
01000000
00010000
10000000
01000000
00100000
00001000
00010000
,
00010000
00000100
00000001
00001000
00000100
00000010
00000001
00000011
,
00001001
00000000
00000000
00000000
00000000
00000000
00000000
00000000
00000000
00000001
00000100
00000010
00001000
00000000
00000000
00000000
00000000
00000000
00000000
00000000
00000000
00010000
00001000
00100000
,
00010000
10000000
01000000
00100000
00010000
01000000
00001000
00010000
00000010
00001000
00000100
00000001
00000100
00001000
00000001
00000100
,
00000020
00000000
00000000
00000030
,
00011000
00000000
00010000
00001000
00000000
00001000
00000010
00000000
00000010
00000001
00000000
00000001
00000100
00000000
00000100
00001000
,
00000000
00001000
00010000
00000000
00010000
01000000
00000000
01000000
10000000
00000000
10000000
00100000
00000000
00100000
00010000
00000000
,
00011000
00000000
00001000
00000100
00000000
00000100
00000001
00000000
00000001
00000010
00000000
00000010
00001000
00000000
00001000
00010000
,
00000000
00000000
00000000
00010000
00000000
00000000
00100000
00000000
00000000
00000000
00000000
00000000
00100000
00000000
00000000
10000000
00000000
00000000
00000000
00000000
00000000
10000000
00000000
00000000
01000000
00000000
00000000
00000000
00000000
00000000
00000000
00000000
00000000
00010000
00000000
00000000
00000000
00000000
00000000
00000000
00000000
00000000
00001000
00000000
00010000
00000000
00001000
00000000
,
00010000
00000000
00000100
00001000
00000000
00000001
00000100
00000000
00000010
00000100
00000000
00000001
00000100
00000000
00000010
00001000
,
00000000
00000100
00010000
00000000
00001000
01000000
00000000
00010000
00100000
00000000
00010000
10000000
00000000
00100000
01000000
00000000
,
01010000
00000000
00010000
01000000
00000000
01000000
10000000
00000000
10000000
01000000
00000000
01000000
00010000
00000000
00010000
00001000
,
00000000
00000000
00000000
00001000
00000000
00000000
00000100
00000000
00000000
00000000
00000000
00000000
00000100
00000000
00000000
00000001
00000000
00000000
00000000
00000000
00000000
00000001
00000000
00000000
00001000
00000000
00000000
00000000
00000000
00000000
00000010
00000000
00000000
00000100
00000000
00000000
00000000
00000000
00000000
00000100
00000000
00000000
00000001
00000000
00000010
00000000
00000001
00000000
,
00000010
00000000
00000001
00000010
00000000
00000010
00000100
00000000
00010000
00000100
00000000
00000100
00001000
00000000
00000001
00000010
,
00000000
00000100
00010000
00000000
00001000
00100000
00000000
00010000
10000000
00000000
01000000
00100000
00000000
00010000
10000000
00000000
,
10010000
00000000
00010000
00100000
00000000
10000000
00100000
00000000
00010000
00100000
00000000
01000000
00100000
00000000
10000000
00100000
,
00000000
00000000
00000000
00010000
00000000
00000000
00001000
00000000
00000000
00000000
00000000
00000000
00010000
00000000
00000000
00000100
00000000
00000000
00000000
00000000
00000000
00001000
00000000
00000000
00000100
00000000
00000000
00000000
00000000
00000000
00000010
00000000
00000000
00000001
00000000
00000000
00000000
00000000
00000000
00001000
00000000
00000000
00000001
00000000
00000100
00000000
00000001
00000000
,
00000100
00000000
00000001
00000010
00000000
00000010
00000100
00000000
00001000
00000010
00000000
00000010
00000100
00000000
00000001
00000010
,
00000000
00000100
00010000
00000000
00001000
00100000
00000000
00010000
10000000
00000000
01000000
00100000
00000000
00100000
00001000
00010000
,
00001000
00000100
00000010
00000001
00000100
00000010
00001000
00000100
,
00010000
00001000
00100000
00010000
01000000
00100000
10000000
00010000
00100000
01000000
00100000
00001000
00020000
00000000
00000000
00000000
,
00031000
00010000
00000010
00010000
00001000
00000000
00010000
00001000
01000000
00001000
00010000
00000000
00000100
00001000
00000010
00000100
,
00000001
00000000
00000000
00000000
00000000
00000000
00000010
00000000
00000000
00001000
00000000
00000000
00000000
00000000
00000000
00000010
00000000
00000000
00000001
00000000
00000000
00000000
00000000
00000000
00000100
00000000
00000000
00000000
00000000
00000000
00001000
00000000
00000000
00000000
00000000
00000000
00010000
00000000
00000000
00000000
00000000
00000000
01000000
00000000
00100000
00000000
01000000
00000000
,
00100000
10000000
00010000
10000000
01000000
00000000
00100000
00010000
10000000
00010000
01000000
00000000
00001000
00010000
00000010
00001000
,
00000100
00000000
00000000
00000000
00000000
00000000
00010000
00000000
00000000
00000010
00000000
00000000
00000000
00000000
00000000
00010000
00000000
00000000
00001000
00000000
00000000
00000000
00000000
00000000
00100000
00000000
00000000
00000000
00000000
00000000
00010000
00000000
00000000
10000000
00000000
00000000
01000000
00000000
00000000
00000000
00000000
00000000
00100000
00000000
00010000
00000000
10000000
00000000
,
00010000
01000000
00100000
10000000
01000000
00100000
00010000
00000100
,
00001000
00000100
00000001
00000100
00000010
00001000
00000001
00000010
,
00000001
00000010
00000100
00010000
00001000
00000000
00100000
00010000
10000000
00100000
01000000
00000000
00010000
01000000
00100000
10000000
,
00010000
01000000
00000000
00001000
00010000
00000000
00000010
00001000
00000000
00000001
00000100
00000000
00000010
00000000
00010000
00000000
,
00022000
00000000
00000000
00000000
,
00000000
00000000
00000000
00000000
,
00033000
00000000
00000000
00000000
;

//--------------- dance-double - Fred-104 ----------------
#NOTES:
     dance-double:
     Fred-104:
     Challenge:
     16:
     :
00000000
00000000
00000000
00000000
,
00000000
00000000
00000000
00000000
,
00000000
00000000
00000000
00000000
,
00000000
00000000
00000000
00000000
,
00000000
00000000
00000000
00000000
,
00000000
00000000
00000000
00000000
,
00000001
00000100
00000010
00001000
00000001
00000010
00000100
00010000
,
00001000
00100000
00010000
10000000
01000000
00010000
01000000
10000000
,
00010000
00010000
01000000
01000000
00100000
00100000
10000000
10000000
,
11000000
00000000
00000000
01100000
00000000
00000000
00110000
00000000
00000000
00010000
00001000
00000000
00010000
00000100
00001000
00000010
,
00000200
00000000
00000000
00000302
00000000
00000000
00000203
00000000
00000000
00000320
00000000
00000000
00001030
00000000
00000100
00000000
,
00020000
00000000
00000000
00000010
00000000
00000000
00030010
00000000
00002000
00000000
00000000
00100000
00000000
00000000
00103000
00000000
,
00020000
00000000
00000000
02030000
00000000
00000000
03200000
00000000
00000000
02300000
00000000
00000000
03010000
00000000
10000000
00000000
,
02000000
00000000
00000000
00000000
00000000
00000000
00000000
00000000
00000000
03200000
00000000
00000000
00000000
00000000
00000000
00000000
00000000
00000000
00302000
00000000
00000000
00000000
00000000
00000000
00000000
00000000
00000000
00023000
00000000
00000000
00000000
00000000
00000000
00000000
00000000
00000000
00030010
00000000
00000000
00000000
00000000
00000000
00001000
00000000
00000001
00000000
00001000
00000000
,
00000002
00000000
00000000
00000203
00000000
00000000
00002300
00000000
00000000
00003200
00000000
00000000
00000301
00000000
00000100
00000000
,
00000002
00000000
00000000
00000023
00000000
00000000
00002030
00000000
00023000
00000000
00000000
00230000
00000000
00000000
20300000
00000000
,
30010000
01000000
00100000
01000000
10000000
01000000
00100000
01000000
,
00010000
00000000
00000000
00000000
00000000
00000000
00000000
00000000
00000000
00110000
00000000
00000000
00000000
00000000
00000000
00000000
00000000
00000000
00011000
00000000
00000000
00000000
00000000
00000000
00010000
00000000
00000000
00000010
00000000
00000000
00000000
00000000
00000000
00001010
00000000
00000000
00000000
00000000
00000000
00000000
00000000
00000000
00000001
00000000
00000100
00000000
00000001
00000000
,
00000200
00000000
00000000
00000320
00000000
00000000
00002030
00000000
00003001
00000100
00000000
00000100
00001000
00000000
00000100
00000000
,
00000020
00000000
00000000
00002030
00000000
00000000
00003020
00000000
00000031
00000100
00000000
00000010
00001000
00000000
00000100
00000000
,
00000010
00000000
00000000
00011000
00000000
00000000
00100000
00000000
01000000
00000000
00000000
00011000
00000000
00000000
00000100
00000000
,
00000010
00000000
00000000
00000000
00000000
00000000
00000000
00000000
00000000
00011000
00000000
00000000
00000000
00000000
00000000
00000000
00000000
00000000
00100000
00000000
00000000
00000000
00000000
00000000
01000000
00000000
00000000
00000000
00000000
00000000
00000000
00000000
00000000
00011000
00000000
00000000
00000000
00000000
00000000
00000000
00000000
00000000
00000100
00000000
00000010
00000000
00000100
00000000
,
00000020
00000000
00000000
00000032
00000000
00000000
00002003
00000000
00003001
00000100
00000000
00000100
00001000
00000000
00010000
00000000
,
00002000
00000000
00000000
00203000
00000000
00000000
00320000
00000000
01030000
00100000
00000000
00100000
10000000
00000000
00010000
00000000
,
11000000
00000000
00000000
00100000
00000000
00000000
00001000
00000000
00011000
00000000
00000000
00010000
00000000
00000000
00000010
00000000
,
00001010
00000000
00000000
00000000
00000000
00000000
00000000
00000000
00000000
00000001
00000000
00000000
00000000
00000000
00000000
00000000
00000000
00000000
00000100
00000000
00000000
00000000
00000000
00000000
00000001
00000000
00000000
00000000
00000000
00000000
00000100
00000000
00000000
00000010
00000000
00000000
00000000
00000000
00000000
00001000
00000000
00000000
00000010
00000000
00000100
00000000
00000010
00000000
,
00000100
00000000
00000001
00000010
00000000
00000001
00000100
00000000
00000010
00000100
00000000
00000010
00001000
00000000
00000100
00000000
,
00010000
00000000
00001000
00100000
00000000
00010000
01000000
00000000
00100000
10000000
00000000
01000000
00100000
00000000
00010000
00000000
,
10000000
00000000
00010000
01000000
00000000
00100000
10000000
00000000
01000000
00000000
00100000
00001000
00000000
00010000
00000010
00000000
,
00001000
00000000
00000000
00000000
00000000
00000000
00000100
00000000
00000000
00001000
00000000
00000000
00000000
00000000
00000000
00000100
00000000
00000000
00000010
00000000
00000000
00000000
00000000
00000000
00000001
00000000
00000000
00000000
00000000
00000000
00000100
00000000
00000000
00000000
00000000
00000000
00000010
00000000
00000000
00000000
00000000
00000000
00001000
00000000
00000001
00000000
00000100
00000000
,
00000001
00000001
00000100
00000100
00000010
00000010
00001000
00001000
,
00010000
00000000
00000000
00010000
00000000
00000000
00100000
00000000
00000000
00100000
00000000
00000000
01000000
00000000
00000000
01000000
00000000
00000000
10000000
00000000
00000000
10000000
00010000
10000000
,
00010000
00000000
00000000
00000000
00000000
00000000
00000000
00000000
00000000
10100000
00000000
00000000
00000000
00000000
00000000
00000000
00000000
00000000
00110000
00000000
00000000
00000000
00000000
00000000
00001000
00000000
00000000
00010000
00000000
00000000
00000000
00000000
00000000
00011000
00000000
00000000
00000000
00000000
00000000
00000000
00000000
00000000
00000100
00000000
00001000
00000000
00000100
00000000
,
00000010
00000000
00000001
00000100
00000000
00000010
00001000
00000001
00000010
00000100
00000010
00000001
00001000
00000000
00000200
00020300
,
00032000
00000000
00000000
00000000
,
00000000
00000000
00000000
00000000
,
00203000
00000000
00000000
00000000
,
00000000
00000000
00000000
00000000
,
02300000
00000000
00000000
00000000
,
00000000
00000000
00000000
00000000
,
23000000
00000000
00000000
00000000
,
00000000
00000000
00000000
00000000
00000000
00000000
00000000
00000000
00000000
00000000
00000000
00000000
00000000
00000000
00000000
00000000
00000000
00000000
30000000
00000000
00000000
00010000
10000000
00010000
,
02000000
00000000
00000000
03200000
00000000
00000000
20300000
00000000
00000000
32000000
00000000
00000000
03200000
00000000
00000000
00302000
,
00000000
00000000
00023000
00000000
00000000
00030200
00000000
00000000
00002300
00000000
00000000
00003002
00000000
00000000
00000203
00000000
,
00000302
00000000
00000000
00000023
00000000
00000000
00000230
00000000
00000000
00020300
00000000
00000000
00032000
00000000
00000000
00203000
,
00000000
00000000
00000000
00000000
00000000
00000000
02300000
00000000
00000000
00000000
00000000
00000000
00000000
00000000
00000000
23000000
00000000
00000000
00000000
00000000
00000000
00000000
00000000
00000000
30020000
00000000
00000000
00000000
00000000
00000000
00000000
00000000
00000000
02030000
00000000
00000000
00000000
00000000
00000000
00000000
00000000
00000000
03100000
00000000
10000000
00000000
00100000
00000000
,
10000000
01000000
00100000
00010000
01000000
00100000
10000000
01000000
,
01000000
00010000
00001000
00000100
00000001
00001000
00000010
00000110
,
00000101
00000000
00000000
00000000
00000000
00000000
00000000
00000000
00000000
00000010
00001000
00000010
00001000
00000000
00000000
00000000
00000000
00000000
00000000
00000000
00000000
00000001
00000100
00000001
,
00000100
00000010
00001000
00000010
00001000
00000100
00010000
00001000
00010000
00001000
00100000
00010000
10000000
00100000
01000000
00100000
,
02200000
00000000
00000000
03300000
,
00110000
00000000
00010000
00100000
00000000
00100000
01000000
00000000
01000000
10000000
00000000
10000000
00100000
00000000
00100000
01000000
,
00000000
01000000
00010000
00000000
00010000
00100000
00000000
00100000
00001000
00000000
00000000
00000010
00000000
00000000
00000001
00000000
,
00001000
00000000
00000001
00000100
00000000
00000100
00000010
00000000
00000010
00001000
00000000
00001000
00000100
00000000
00000100
00010000
,
00000000
00000000
00000000
00010000
00000000
00000000
00001000
00000000
00000000
00000000
00000000
00000000
00001000
00000000
00000000
00100000
00000000
00000000
00000000
00000000
00000000
00100000
00000000
00000000
00010000
00000000
00000000
00000000
00000000
00000000
00000000
00000000
00000000
10000000
00000000
00000000
00000000
00000000
00000000
00000000
00000000
00000000
01000000
00000000
10000000
00000000
01000000
00000000
,
10000000
00000000
00100000
10000000
00000000
10000000
01000000
00000000
01000000
00100000
00000000
00100000
00001000
00000000
00001000
00010000
,
00000000
00010000
00000100
00000000
00000100
00001000
00000000
00001000
00000001
00000000
00000000
00000100
00000000
00000000
00000010
00000000
,
00000100
00000000
00000001
00000010
00000000
00000010
00000100
00000000
00000100
00001000
00000000
00001000
00010000
00000000
00010000
00100000
,
00000000
00000000
00000000
00100000
00000000
00000000
01000000
00000000
00000000
00000000
00000000
00000000
01000000
00000000
00000000
10000000
00000000
00000000
00000000
00000000
00000000
10000000
00000000
00000000
00010000
00000000
00000000
00000000
00000000
00000000
01000000
00000000
00000000
00100000
00000000
00000000
00000000
00000000
00000000
00000000
00000000
00000000
10000000
00000000
01000000
00000000
10000000
00000000
,
00100000
00000000
10000000
01000000
00000000
00100000
00010000
00000000
01000000
00010000
00000000
00100000
00001000
00000000
00010000
00000100
,
00000000
00001000
00000010
00000000
00001000
00000100
00000000
00000010
00000001
00000000
00000000
00000100
00000000
00000000
00001000
00000000
,
00000100
00000000
00000001
00000010
00000000
00000010
00000100
00000000
00001000
00000100
00000000
00010000
00001000
00000000
00100000
00010000
,
00000000
00000000
00000000
00010000
00000000
00000000
10000000
00000000
00000000
00000000
00000000
00000000
00010000
00000000
00000000
01000000
00000000
00000000
00000000
00000000
00000000
00100000
00000000
00000000
10000000
00000000
00000000
00000000
00000000
00000000
00000000
00000000
00000000
00100000
00000000
00000000
00000000
00000000
00000000
00000000
00000000
00000000
01000000
00000000
00010000
00000000
01000000
00000000
,
00010000
00000000
10000000
01000000
00000000
00100000
01000000
00000000
10000000
01000000
00000000
00100000
00010000
00000000
00100000
01000000
,
00000000
00100000
00001000
00000000
00010000
00000100
00000000
00001000
00000010
00000000
00000000
00000110
00000000
00000000
00000001
00001000
,
00000001
00000010
00001000
00010000
00100000
10000000
00010000
01000000
,
00010000
01000000
00010000
01000000
00100000
01000000
00100000
01000000
00010000
00100000
01000000
10000000
02000000
00000000
00000000
00000000
,
13000000
01000000
00100000
01000000
10000000
00000000
00010000
01000000
00100000
01000000
00010000
00000000
01000000
00001000
00010000
00001000
,
00100000
00000000
00000000
00001000
00010000
00000000
00000100
00000000
00001000
00000000
00000010
00000100
00000000
00000001
00000100
00000000
,
00000001
00000010
00000100
00000010
00000001
00000000
00001000
00000001
00000100
00000001
00001000
00000000
00000010
00010000
00001000
00010000
,
00001000
00000000
00000000
00000000
00000000
00000000
00000000
00000000
00000000
00100000
00000000
00000000
01000000
00000000
00000000
00000000
00000000
00000000
00100000
00000000
00000000
00000000
00000000
00000000
00001000
00000000
00000000
00000000
00000000
00000000
00001000
00000000
00010000
00000000
00001000
00000000
00010000
00000000
00000000
00000000
00000000
00000000
00000010
00000000
00001000
00000000
00000010
00000000
,
00001000
00000001
00000010
00000100
00010000
00001000
00100000
01000000
,
10000000
00010000
01000000
10000000
01000000
00010000
00001000
00000100
,
00000010
00000001
00001000
00000001
00000100
00000000
00000001
00000010
00000100
00001000
00000100
00000000
00010000
00001000
00010000
00001000
,
00100000
00010000
00000000
01000000
00010000
00000000
10000000
01000000
00000000
00100000
00001000
00000000
00010000
00000000
00000100
00000000
,
00000220
00000000
00000000
00000000
,
00000000
00000000
00000000
00000000
,
00000330
00000000
00000000
00000000
;
