#VERSION:0.83;
#TITLE:STEEL NEEDLE;
#ARTIST:Scorpion;
#GENRE:BREAK CORE;
#BANNER:STEEL NEEDLE.png;
#BACKGROUND:STEEL NEEDLE-bg.png;
#CDTITLE:./CDTitles/bm IIDX 15 DJ TROOPERS.png;
#MUSIC:STEEL NEEDLE.ogg;
#SAMPLESTART:38.62;
#SAMPLELENGTH:15;
#DISPLAYBPM:51.25:205;
#BPMS:0=205,79=410,80=307.5,80.375=256.25,80.6875=153.75,80.875=102.5,81=205,87.75=102.5,87.875=51.25,88=205,92=102.5,93=205,93.75=102.5,93.875=51.25,94=205,124=615,125.5=512.5,126.75=307.5,127.5=205,151=410,152=205,174.75=102.5,174.875=51.25,175=205,188=615,189.5=512.5,190.75=307.5,191.5=205,199=410,200=205,223=102.5,239=205,302=615,302.75=512.5,303.375=307.5,303.75=205,338=307.5,338.75=256.25,339.375=153.75,339.75=102.5,340=205;
#STOPS:66=0.146,66.5=0.146,69.5=0.293,73=0.146,76.5=0.074,76.75=0.073,79=0.074,79.5=0.073,87=0.074,87.25=0.073,93=0.146,151=0.036,151.25=0.037,151.5=0.036,151.75=0.037,167=0.073,167.25=0.073,183=0.073,183.25=0.073,183.5=0.073,183.75=0.074,199=0.073,199.5=0.073,206=0.074,206.25=0.073,206.5=0.073,206.75=0.073;
#TIMESIGNATURES:0=4=4,64=3=4,73=4=4,85=3=4,88=4=4,92=2=4,94=4=4,122=6=4,128=4=4,164=3=4,167=4=4,183=3=4,186=6=4,192=4=4,204=3=4,207=4=4,299=5=4,304=4=4;
#BGSTAGE:29;

//--------------- dance-single - Fred-104 ----------------
#NOTEDATA:;
#STEPSTYPE:dance-single;
#DESCRIPTION:Fred-104;
#DIFFICULTY:Beginner;
#METER:7;
#CREDIT:Fred-104;
#NOTES:
0000
0000
0000
0000
,
0000
0000
0000
0000
,
0000
0000
0000
0000
,
0000
0000
0000
0000
,
0000
0000
0000
0000
,
0000
0000
0000
0000
,
0000
0000
0000
0000
,
0000
0000
0000
0000
,
0000
0000
0000
0000
,
1000
0000
0000
0000
,
0001
0000
0000
0000
,
0100
0000
0000
0000
,
0010
0000
0000
0000
,
1000
0000
0000
0000
,
1000
0000
0000
0000
,
0001
0000
0001
0000
,
1000
0000
0000
0000
2002
3003
0001
0000
,
0000
1000
0100
0000
,
0100
0000
0100
0010
0000
0000
0000
0020
,
0000
0030
0100
0000
0000
0000
2002
0000
,
3003
1000
0000
0010
,
0000
1000
0000
0002
,
1003
0000
0010
0000
,
0200
0000
0000
0300
0100
0000
0000
0000
,
0010
0000
0010
0000
,
0010
0000
1000
0000
,
0001
0000
1000
0000
,
0001
0000
0001
0000
,
0100
0000
1000
0000
,
0010
0000
0100
0000
,
0010
0000
0001
0000
,
2002
0000
3003
0000
,
1000
0000
0010
0000
,
0100
0000
0100
0000
,
0001
0000
0001
0000
,
0100
0100
0100
0000
,
0100
0000
0001
0000
,
1000
0000
2000
3000
,
0010
0000
1000
0000
,
0001
0000
2002
3003
,
1000
0000
0010
0000
,
1000
0000
0001
0000
,
0000
0010
0000
0010
0000
0000
0000
0100
,
0000
0100
0000
2200
0000
3300
0001
0000
,
0000
0100
0000
0010
,
0000
1000
0000
2002
,
3003
0000
0100
0000
,
0200
0000
0300
0000
,
0100
0000
0100
0000
,
0010
0000
0220
0330
,
0001
0000
1000
0000
,
0001
0000
0002
1003
,
0000
0010
0000
1000
,
0000
1000
0000
0001
,
0000
0100
0000
0010
,
0000
0000
0100
0220
,
0000
0000
0000
0000
,
0000
0330
0000
0220
,
0000
0000
0000
0000
,
0000
0330
0000
0001
,
0000
0000
0000
1000
,
0000
0000
0000
0010
,
0000
0000
0000
1000
,
0000
1000
0000
0100
,
0000
0000
0000
0100
,
0000
0000
0000
0001
,
0000
0000
0000
0010
,
0000
0010
0000
1000
,
0000
0001
0000
1000
,
0000
0100
0000
0100
,
0000
0100
0000
1000
,
0000
0001
0001
0001
,
0000
0100
0000
0010
,
0000
0100
0000
0010
,
0000
1000
0000
0001
,
0000
2000
0000
3000
,
0001
0000
0100
0000
,
0100
0000
0010
0010
,
0010
0000
0100
0100
,
0100
0000
0001
1000
,
0001
0000
1000
0000
,
0010
0000
0001
0001
,
0001
0000
0100
0000
,
0100
0100
1000
0000
,
1001
0000
0000
0000
,
1000
0000
0100
0000
,
1000
0000
1000
0010
,
1000
0000
0001
0000
,
0100
0000
0100
0000
,
0100
0000
0010
0000
,
0010
0010
0010
0000
,
0100
0000
0100
0000
,
0001
0100
0010
1000
,
2002
0000
0000
0000
,
0000
0000
0000
0000
,
3003
0000
0000
0000
;

//--------------- dance-single - Fred-104 ----------------
#NOTEDATA:;
#STEPSTYPE:dance-single;
#DESCRIPTION:Fred-104;
#DIFFICULTY:Easy;
#METER:11;
#CREDIT:Fred-104;
#NOTES:
0000
0000
0000
0000
,
0000
0000
0000
0000
,
0000
0000
0000
0000
,
0000
0000
0000
0000
,
0000
0000
0000
0000
,
0000
0000
0000
0000
,
0000
0000
0000
0000
,
0000
0000
0000
0000
,
0000
0000
0000
0000
,
1000
1000
1100
0000
,
0001
0001
0101
0000
,
0010
0100
0110
0000
,
0001
1000
1001
0000
,
1100
0000
0000
1000
0000
0000
0100
0000
,
0010
0000
0000
0100
0000
0000
0010
0000
,
0001
1000
0100
0001
,
0100
0000
0000
0000
1000
0000
0000
0000
0002
0003
0002
0003
0100
0000
0000
0000
,
0100
0000
0000
0000
0200
0000
0000
0300
0010
0000
0000
0000
0010
0000
0000
0000
,
1000
0000
1000
0000
0002
0003
1000
0000
0010
0000
1000
0000
0000
0000
0001
0000
,
0000
0020
0130
0000
1000
0000
0002
0003
,
1001
0000
0001
0001
0000
0010
0000
0001
,
0000
1000
0010
0000
1000
0000
0002
2003
,
3010
0100
0000
0001
0000
1000
0000
0100
,
0010
0000
0000
0000
0000
0000
0000
0000
0001
0000
0000
0000
0000
0000
0000
0000
0200
0300
0000
0000
0000
0000
0000
0000
0220
0330
0000
0000
0000
0000
0000
0000
1001
0000
0000
0000
0000
0000
0000
0000
0000
0000
0000
0000
0000
0000
0000
0000
0001
0000
0000
0000
0000
0000
0000
0000
0000
0000
0000
0000
0000
0000
0000
0000
,
0010
0100
1000
0000
0001
0000
1000
0000
,
0010
1000
0001
0000
1000
0000
0100
0000
,
0010
0100
0010
0000
0001
0100
0001
0000
,
1000
0100
1000
0000
0001
0000
0100
0000
,
0010
0100
0001
0000
1000
0000
0010
0000
,
0100
0010
1000
0000
0001
0000
0010
0000
,
0100
1000
0001
0000
1000
0000
0001
0000
,
2002
0000
0000
0000
0000
0000
0000
0000
0000
0000
0000
3003
0000
0000
0000
0000
,
0001
0000
1000
0000
0010
1000
0100
0000
,
0010
0000
0100
0000
0010
0001
1000
0000
,
0001
0000
0100
0000
0010
1000
0001
0000
,
1000
0100
1000
0000
0001
0100
0001
0000
,
1000
0000
0001
0000
1000
0010
0100
0000
,
0001
0000
1000
0000
0100
0100
0020
0000
,
0130
0000
0010
0000
0001
1000
0010
0000
,
1000
0001
0100
0120
,
1030
0000
1000
0000
0001
0010
0001
0000
,
0100
0000
0000
0000
0100
0000
0000
0000
0010
0000
1000
0000
0020
0030
0100
0000
,
0000
0100
0000
0001
1000
0001
0000
0010
,
0000
0100
0000
0220
0000
0330
1000
0000
,
0100
0000
1000
0001
0100
0000
0010
0000
,
1000
0000
0001
0010
0100
0000
0020
0000
,
0031
0101
0100
0010
,
2020
0000
0000
0000
0000
0000
0000
0000
0000
0000
0000
3030
0000
0000
0000
0000
,
1000
0100
0100
1000
,
0001
0000
0100
0000
0010
0100
0020
0000
,
1030
0000
0010
0000
1000
0001
0010
0000
,
0100
0000
0000
0000
1000
0000
0000
0000
2002
0000
0000
3003
0001
0000
0000
0000
,
0010
0000
0001
1000
0001
0000
0100
0000
,
0010
0000
0100
0010
0100
0000
0001
0000
,
1000
0000
0001
1000
0100
0000
0020
0000
,
0000
0000
0130
2002
,
0000
0000
0000
0000
,
0000
0000
3003
0220
,
0000
0000
0000
0000
,
0000
0000
0330
1000
,
0100
0000
0000
0010
0000
0000
0000
0100
,
0000
0000
0000
1000
0000
0000
0001
0000
,
0100
0000
0000
0100
0000
0000
1000
0000
,
0000
0010
0000
0000
0000
0000
0010
0000
,
0001
0000
0000
1000
0000
0000
0001
0000
,
0000
0100
0000
0010
,
0000
0100
0000
0001
,
1000
0100
1000
1001
,
0001
0100
0100
0010
,
0010
1000
1000
0001
,
0010
0100
1000
0001
,
0100
0000
0010
0100
0002
0000
1003
0000
,
0100
0010
0100
1000
,
0010
0000
0100
0010
0100
0000
0001
0000
,
1000
0100
1000
0001
,
0100
0000
0010
1000
0002
0000
0000
0000
,
1003
0000
0010
0100
0010
0000
1000
0000
,
0100
0000
0010
0001
0010
0000
0100
0000
,
1000
0000
0001
0100
0001
0000
0100
0000
,
0001
0010
0100
2000
,
3001
0000
1000
0001
0100
0000
0001
0000
,
1000
0000
0100
1000
0100
0000
0010
0000
,
0001
0000
1000
0010
0100
0000
0010
0000
,
1000
0100
0001
0000
1000
0010
0001
0000
,
2000
0000
0000
0000
0000
0000
0000
0000
0000
0000
0000
0000
0000
0000
0000
0000
0002
0000
0000
0000
0000
0000
0000
0000
0000
0000
0000
3003
0000
0000
0000
0000
,
1000
0000
0100
0000
0010
0001
1000
0000
,
0010
0100
0010
1000
0000
0001
0000
0010
,
0100
0000
1000
0000
0100
0010
0001
0000
,
1000
0000
0001
0010
0000
0100
1000
0000
,
0001
0000
0100
0000
0010
1000
0100
0000
,
1000
0000
0010
0000
1000
0001
0000
1000
,
0001
0100
0010
0000
1000
0100
0010
0000
,
0001
1000
0001
1000
0001
0000
0100
0000
,
0220
0000
0000
0000
,
0000
0000
0000
0000
,
0330
0000
0000
0000
;

//--------------- dance-single - Fred-104 ----------------
#NOTEDATA:;
#STEPSTYPE:dance-single;
#DESCRIPTION:Fred-104;
#DIFFICULTY:Medium;
#METER:14;
#CREDIT:Fred-104;
#NOTES:
0000
0000
0000
0000
,
0000
0000
0000
0000
,
0000
0000
0000
0000
,
0000
0000
0000
0000
,
0000
0000
0000
0000
,
0000
0000
0000
0000
,
0000
0000
0000
0000
,
0000
0000
0000
0000
,
0000
0000
0000
0000
,
1010
0010
0010
0010
,
1000
0000
0001
0010
0000
0010
0100
0000
,
1100
0100
0010
0010
,
0001
0000
1000
0010
0000
0100
0010
1000
,
0001
0000
0010
0100
0000
0000
1010
0000
,
1001
0000
0001
1000
0000
0100
0010
0000
,
0001
1000
0010
0000
1000
0001
0000
0001
,
0100
0000
0000
0000
0000
0000
0000
0000
0010
0000
0000
0000
0000
0000
0000
0000
1000
0000
0000
0000
0000
0000
0000
0000
0001
0000
0000
0000
0000
0000
0000
0000
0020
0030
0000
0000
0000
0000
0000
0000
0220
0330
0000
0000
0000
0000
0000
0000
1000
0000
0000
0000
0000
0000
0000
0000
0001
0000
0000
0000
0000
0000
0000
0000
,
0100
0000
0000
0000
0000
0000
0000
0000
0010
0000
0000
0000
0000
0000
0000
0000
0100
0000
0000
0000
0000
0000
0000
0000
0200
0300
0000
0000
0000
0000
0000
0000
0001
0000
0000
0000
0000
0000
0000
0000
0000
0000
0000
0000
0001
0000
0000
0000
1000
0000
0000
0000
0000
0000
0000
0000
0100
0000
0000
0000
0000
0000
0000
0000
,
0010
0000
0000
0000
0100
0000
0000
0000
0010
0000
0000
0000
0000
0000
0000
0000
0002
0003
0000
0000
0000
0000
0000
0000
1000
0000
0000
0000
0000
0000
0000
0000
0010
0000
0000
0000
0000
0000
0000
0000
0001
0000
0000
0000
0000
0000
0000
0000
0010
0000
0000
0000
0000
0000
0000
0000
0100
0000
0000
0000
0000
0000
0000
0000
,
0001
0000
0000
0000
0000
0000
0000
0000
2000
0000
0000
0000
3200
0000
0000
0000
0310
0000
0000
0000
0000
0000
0000
0000
0000
0000
0000
0000
0010
0000
0000
0000
0100
0000
0000
0000
0000
0000
0000
0000
0000
0000
0000
0000
0000
0000
0000
0000
2000
3000
0000
0000
0000
0000
0000
0000
0002
0003
0000
0000
0000
0000
0000
0000
,
1001
0000
0001
0001
0000
0100
0000
0010
,
0000
0000
0100
0000
0001
0000
0000
0000
0010
0000
0100
0000
1000
1000
0002
0000
,
0103
0100
0000
0010
0000
1000
0100
0010
,
0001
0000
0000
0000
0000
0000
0000
0000
1000
0000
0000
0000
0001
0000
0000
0000
0200
0300
0000
0000
0000
0000
0000
0000
2002
0003
0000
0000
0000
0000
0000
0000
3001
0000
0000
0000
0000
0000
0000
0000
1000
0000
0000
0000
0000
0000
0000
0000
0010
0000
0000
0000
0000
0000
0000
0000
0100
0000
0000
0000
0000
0000
0000
0000
,
0010
1000
0001
1000
0100
0010
0001
1000
,
0010
0100
0010
0000
1000
0100
1000
0001
,
0100
0010
0100
0001
1000
0100
0010
1000
,
0001
0100
0010
0100
1000
0001
1000
0010
,
0100
0010
1000
0100
0010
0001
0100
1000
,
0100
0010
0100
0000
0001
0010
0100
1000
,
0010
0000
0000
0100
0000
0000
0010
0000
0000
1000
0000
0000
0001
0000
0000
0000
0000
0000
1000
0000
0001
0000
1000
0000
,
0002
0000
0000
0000
0000
0000
0000
0003
,
0100
0010
1000
0010
1000
0100
0001
0100
,
1000
0010
1000
0001
0100
0001
0100
0010
,
1000
0100
0010
0001
1000
0010
0100
0001
,
0010
0100
0100
1000
0010
0100
0100
0001
,
1000
0100
0010
0100
0001
0100
1000
0001
,
0100
0010
1000
0001
1000
0001
2000
0000
,
3001
0001
1000
0100
1000
0100
0010
0001
,
1000
0010
0100
0001
0100
0010
2000
0000
,
3001
0000
1000
1000
1000
0010
0100
0001
,
1000
0100
1000
0000
0001
0000
0100
0000
0010
0000
0010
0000
1000
0001
1000
0000
,
0001
1000
0100
0010
0001
1000
0010
0100
,
0001
0000
0010
0100
0010
0000
0001
0000
1000
0000
1002
0000
1003
0000
0000
0000
,
0001
0001
1000
0100
0001
0100
1000
0010
,
0100
0000
0010
0000
1000
0000
0001
0000
0100
0000
0100
0000
0002
0203
2300
3200
,
0301
1000
0200
0000
0310
0100
1000
0001
,
2000
0000
0000
0000
0000
0000
0000
3000
,
0001
0010
0100
1000
0010
1000
0001
0100
,
0010
0000
0000
0000
0000
0000
0000
0000
0100
0000
0000
0000
0000
0000
0000
0000
0100
0000
0000
0000
0000
0000
0000
0000
0100
0000
0000
0000
0000
0000
0000
0000
1000
0000
0000
0000
0000
0000
0000
0000
0100
0000
0000
0000
0000
0000
0000
0000
0002
0003
0000
0000
0000
0000
0000
0000
2000
3000
0000
0000
0000
0000
0000
0000
,
0001
0000
1000
0010
0100
0010
1000
0100
,
0010
0000
0001
0000
1000
0000
0010
0000
0200
0320
0230
0320
1030
0000
0000
0000
,
0001
0100
0010
1000
0001
0001
1000
0100
,
0010
1000
0010
0001
2000
0000
3001
0100
,
1000
0100
0001
0010
1000
0010
0002
0000
,
0000
0000
1003
2002
,
0000
0000
0000
0000
,
0000
0000
3003
0220
,
0000
0000
0000
0000
,
0000
0000
0000
0000
0330
0000
0001
1000
,
0100
0000
1000
0010
0000
0100
0000
0010
,
0000
1000
0000
0100
0000
0010
0001
1000
,
0100
0000
1000
0010
0000
0001
0010
0000
,
1000
0001
0000
0010
0000
1000
0010
0001
,
1000
0000
0001
1000
0000
0001
0000
0100
,
0000
1000
0000
0100
0000
0001
1000
0010
,
0100
0000
1000
0100
0000
0001
1000
0000
,
0100
0010
0000
0001
0000
1000
0001
0000
,
0100
0110
0010
1000
,
1100
0000
0010
0001
1000
0000
0010
0000
,
0100
0000
0101
0000
0001
0000
1000
0001
,
0100
0000
1000
0100
0010
0000
1000
0000
,
0100
1100
0011
0001
,
0100
0000
0010
1000
0001
0010
0100
0000
,
1000
0000
0010
0100
0001
0000
1000
0001
,
0100
0001
1000
0100
0020
0000
0000
0000
,
0031
1000
0010
0100
0001
1000
0100
0000
,
1000
0001
1000
0010
1000
0100
0010
0001
,
1000
0000
0001
0100
1000
0100
0010
0000
,
1000
0100
0010
0001
0100
0010
1000
0000
,
0001
0010
0100
0010
1000
0001
0100
0000
,
1000
0001
0100
0010
1000
0100
0010
0000
,
0001
0100
0010
0001
1000
0100
0010
1000
,
0001
0100
0010
1000
0001
0100
1000
0100
,
0002
0000
0000
0000
0000
0000
0000
0000
0000
0000
0000
0000
0000
0000
0000
0000
2000
0000
0000
0000
0000
0000
0000
0000
0000
0000
0000
3003
0000
0000
0000
0000
,
0001
0010
0001
1000
0010
0100
0010
1000
,
0100
0010
0001
0100
0000
0100
0010
1000
,
0001
1000
0100
0010
0001
1000
0010
0001
,
0010
0100
0010
1000
0001
0010
0200
0000
,
1300
1000
0010
1000
0100
0010
0001
0010
,
0001
1000
0010
0100
0000
0010
1000
0100
,
0010
0001
0010
0001
1000
0010
1000
0001
,
0010
0000
1000
0000
0010
0000
0001
0000
1000
0001
1000
0001
1000
0000
0000
0000
,
2002
0000
0000
0000
,
0000
0000
0000
0000
,
3003
0000
0000
0000
;

//--------------- dance-single - Fred-104 ----------------
#NOTEDATA:;
#STEPSTYPE:dance-single;
#DESCRIPTION:Fred-104;
#DIFFICULTY:Hard;
#METER:17;
#CREDIT:Fred-104;
#NOTES:
0000
0000
0000
0000
,
0000
0000
0000
0000
,
0000
0000
0000
0000
,
0000
0000
0000
0000
,
0000
0000
0000
0000
,
0000
0000
0000
0000
,
0000
0000
0000
0000
,
0000
0000
0000
0000
,
0000
0000
0000
0000
,
1100
0100
0100
0100
,
0002
0000
1000
1000
0000
0100
0103
0000
,
0101
0100
0010
0000
1000
0000
1000
0000
,
0001
0000
0000
0000
1000
0000
0100
0000
0000
0000
1000
0000
0001
0100
0001
0000
,
1000
0000
0100
0010
0000
0001
0101
0000
,
0110
0000
1000
0001
0000
1000
0100
0000
,
0001
0100
0010
0000
0100
1000
0000
1000
,
0001
0000
0000
0000
0000
0000
0000
0000
0010
0000
0000
0000
0000
0000
0000
0000
0100
0000
0000
0000
0000
0000
0000
0000
1000
0000
0000
0000
0000
0000
0000
0000
2020
3030
0000
0000
0000
0000
0000
0000
0202
0303
0000
0000
0000
0000
0000
0000
1000
0000
0000
0000
0000
0000
0000
0000
0001
0000
0000
0000
0000
0000
0000
0000
,
0010
0000
0000
0000
0100
0000
0000
0000
0010
0000
0000
0000
0000
0000
0000
0000
0001
0000
0000
0000
0000
0000
0000
0000
0002
0003
0000
0000
0000
0000
0000
0000
1000
0000
0000
0000
0000
0000
0000
0000
0000
0000
0000
0000
0010
0000
0000
0000
1000
0000
0000
0000
0000
0000
0000
0000
0000
0000
0000
0000
0000
0000
0000
0000
,
0001
0000
0000
0000
0010
0000
0000
0000
0100
0000
0000
0000
1000
0000
0000
0000
0002
0003
0000
0000
0000
0000
0000
0000
1000
0000
0000
0000
0001
0000
0000
0000
1000
0000
0000
0000
0001
0000
0000
0000
1000
0000
0000
0000
0000
0000
0000
0000
0010
0000
0000
0000
1000
0000
0000
0000
0001
0000
0000
0000
0000
0000
0000
0000
,
0100
0000
0000
0000
0000
0000
0000
0000
0020
0030
0000
0000
0020
0030
0000
0000
0100
0000
0000
0000
0000
0000
0000
0000
0000
0000
0000
0000
0001
0000
0000
0000
1000
0000
0000
0000
0000
0000
0000
0000
0000
0000
0000
0000
0000
0000
0000
0000
0002
0003
0000
0000
0000
0000
0000
0000
2000
3000
0000
0000
0000
0000
0000
0000
,
1001
0000
2100
0001
0000
0010
0000
0100
,
0000
0000
3001
0000
1001
0000
0000
0000
1000
0000
0001
0000
0200
0320
2030
0000
,
3001
0010
0001
0000
0000
0000
1000
0000
0000
0000
0010
0000
0100
0010
0100
0000
,
0001
0000
0000
0000
0000
0000
0000
0000
1000
0000
0000
0000
0100
0000
0000
0000
0220
0330
0000
0000
0000
0000
0000
0000
2002
3000
0000
0000
0000
0000
0000
0000
1003
0000
0000
0000
0010
0000
0000
0000
0100
0000
0000
0000
0000
0000
0000
0000
0010
0000
0000
0000
0000
0000
0000
0000
1000
0000
0000
0000
0000
0000
0000
0000
,
0001
0000
0010
0000
0100
0000
0100
0000
1000
0001
1000
0001
1000
0000
0100
0000
,
0020
0000
0230
0000
0302
0000
0203
0000
1300
0000
1000
0000
0001
1000
0001
0000
,
0100
0000
0001
1000
0001
0000
0100
0010
0100
0000
0001
0100
0001
1000
0100
0000
,
0010
0100
0010
0001
1000
1020
0000
1030
,
0100
0000
0010
0001
0010
0000
0100
0000
1000
0000
1000
0000
0001
0000
0100
0000
,
0010
1000
0100
0000
0010
0000
0100
1000
0001
0000
0100
0000
1000
0100
0001
0000
,
1000
0000
0000
0000
0000
0000
0100
0000
0000
0000
0000
0000
0010
0000
0000
0000
0000
0000
0001
0000
0000
0000
0000
0000
1000
0000
0000
0010
0000
0000
0000
0000
0000
0000
0000
0000
1000
0000
0000
0000
0100
0000
0000
0000
0010
0000
0000
0000
,
0002
0000
0000
0003
,
0001
0000
1000
0100
1000
0000
0001
0100
0001
0100
0010
0000
1000
0000
0001
0000
,
0010
0100
0010
0000
0100
1000
0100
0000
1000
0000
0001
0000
0100
0000
0010
0000
,
1000
0000
0001
0000
0010
0001
0010
0000
0100
1000
0001
0000
1000
0000
1000
0000
,
0001
0000
1000
0100
1000
0010
0100
0000
0001
0000
1000
0001
0010
0001
1000
0000
,
0001
0000
1000
0010
0100
0000
0001
0100
0001
0000
0010
0000
0110
0000
0000
0000
,
1000
0000
0000
0000
0100
0000
0000
0000
1000
0000
0000
0000
0100
0000
0000
0000
0010
0000
0000
0000
0000
0000
0000
0000
0001
0000
0000
0000
0000
0000
0000
0000
1000
0000
0000
0000
0000
0000
0000
0000
0001
0000
0000
0000
0000
0000
0000
0000
0200
0300
0000
0000
0002
0003
0000
0000
2000
3000
0000
0000
0200
0300
0000
0000
,
2000
0000
0000
0000
3001
0100
0001
0100
0010
0000
0001
0000
0010
0000
0100
0000
,
0001
1000
0001
0000
1000
0100
1000
0000
0001
0010
0100
1000
0002
0000
0000
0000
,
1003
0000
0000
0000
0001
0010
0100
0010
0001
0000
0100
0000
0110
0000
0000
0000
,
0001
0000
0000
0000
0100
0000
0000
0000
0001
0000
0000
0000
0100
0000
0000
0000
0010
0000
0000
0000
1000
0000
0000
0000
0001
0000
0000
0000
0000
0000
0000
0000
1000
0000
0000
0000
0000
0000
0000
0000
0001
0000
0000
0000
0000
0000
0000
0000
0020
0030
0000
0000
0020
0030
0000
0000
2000
0000
0000
0000
0000
0000
0000
0000
,
0000
0000
3001
0010
0100
0010
0001
0000
1000
0001
0100
0000
0010
0000
1000
0000
,
0001
0000
0010
0000
0100
0000
0010
0000
0001
0000
0000
0000
1000
0000
0000
0000
0010
0000
0000
0000
0220
0000
0000
0330
1001
0000
0000
0000
0000
0000
0000
0000
,
1000
0001
0010
0000
0002
0000
0100
0000
2003
0000
0010
0000
3001
1000
0100
0010
,
0001
0000
0000
0000
1000
0000
0000
0000
0001
0000
0000
0000
0000
0000
0000
0000
1000
0000
0000
0000
0000
0000
0000
0000
0010
0000
0000
0000
1000
0000
0000
0000
0001
0000
0000
0000
1000
0000
0000
0000
0010
0000
0000
0000
1000
0000
0000
0000
0002
0003
0000
0000
0200
0300
0000
0000
2000
3000
0000
0000
0200
0300
0000
0000
,
0001
0000
1000
0100
0010
0000
0001
0000
1000
0000
0010
0000
0100
0001
0100
0001
,
0200
0000
0000
0000
0000
0000
0000
0300
,
0001
0000
1000
0000
0100
0010
0001
0000
1000
0000
0001
0100
0001
0000
1000
0000
,
0100
0000
0000
0000
0010
0000
0000
0000
0100
0000
0000
0000
1000
0000
0000
0000
0001
0000
0000
0000
0100
0000
0000
0000
0001
0000
0000
0000
0000
0000
0000
0000
1000
0000
0000
0000
0000
0000
0000
0000
0100
0000
0000
0000
0000
0000
0000
0000
0020
0030
0000
0000
0000
0000
0000
0000
0200
0300
0000
0000
0000
0000
0000
0000
,
0110
0000
0000
0000
0001
1000
0001
1000
0100
0000
1000
0010
0100
0000
0001
0000
,
1000
0000
0000
0000
0000
0000
0000
0000
0010
0000
0000
0000
0000
0000
0000
0000
0001
0000
0000
0000
0000
0000
0000
0000
0010
0000
0000
0000
0000
0000
0000
0000
2000
3000
0000
0000
0200
0300
0000
0000
0002
0003
0000
0000
0200
0300
0000
0000
1000
0000
0000
0000
0000
0000
0000
0000
0000
0000
0000
0000
0000
0000
0000
0000
,
0001
0100
0010
0000
1000
0000
0100
0010
0001
0000
1000
0000
0001
0100
0001
0100
,
0010
1000
0001
0000
1000
0000
0100
0010
0001
1000
0010
1000
0001
0000
1000
0000
,
0010
0000
0010
0000
0100
0010
0100
0010
0100
0010
0100
0000
0020
0000
0000
0000
,
0000
0000
0130
2002
,
0000
0000
0000
0000
,
0000
0000
0000
0000
0000
3003
0220
0000
,
0000
0000
0000
0000
,
0000
0000
0000
0000
0000
0330
0001
1000
,
0100
0000
0001
0100
0000
1000
0000
0010
,
0000
0100
0000
0001
0000
0010
1000
0010
,
0001
0000
1000
0100
0000
0010
1000
0000
,
0001
0100
0000
0010
0000
0001
1000
0100
,
0001
0000
0100
0010
0000
0001
0000
1000
,
0000
0010
0000
0100
0000
0001
1000
0010
,
0100
0000
1000
0001
0000
0010
0100
0000
,
0001
0010
0000
0100
0000
1000
1001
0000
,
1100
0000
0100
0010
0011
0000
1000
0001
,
0100
0000
1000
0100
0010
1000
1001
0000
,
1010
0000
0001
0100
0010
1000
1100
0000
,
0101
0000
0000
0000
1001
0000
0000
0000
0001
0010
0100
1000
0001
0000
0000
0000
,
0100
0000
0001
0000
1000
0100
0010
0000
0001
0000
1000
0000
0010
0000
0100
0000
,
0101
0000
0000
0000
1000
0000
0100
0010
0100
0000
2000
0000
0001
0000
0000
0000
,
3100
0000
0010
0000
0001
0000
1000
0010
0100
0000
0100
0000
0001
0000
0001
0000
,
1000
0000
1000
0000
0001
0010
0100
1000
0002
0000
0000
0000
0000
0000
0000
0000
,
1003
0100
0001
0100
0010
0100
1100
0000
,
0001
0100
0001
0000
1000
0000
0100
1000
0100
0000
0010
0000
0001
1000
0001
0000
,
0100
0000
0000
0000
0001
1000
0100
0010
0001
0000
1000
0001
0100
0000
0010
0000
,
1000
0001
0010
0000
0100
0000
0001
0100
0010
0000
0001
1000
0010
0000
0100
0000
,
0001
0000
0000
0000
1000
0100
0010
0000
0001
0000
1000
0000
1010
0000
0000
0000
,
1000
0100
1000
0000
0001
0000
1000
0100
1000
0000
0001
0100
0001
0000
0010
0000
,
0100
0000
1000
0000
0001
0000
0100
0010
0100
0000
0100
0000
0001
0000
0001
0000
,
1000
0000
0100
0000
1000
0000
0001
0000
1000
0100
1000
0100
0010
0001
0010
0001
,
2000
0000
0000
0000
0000
0000
0000
0000
0000
0000
0000
0000
0000
0000
0000
0000
0002
0000
0000
0000
0000
0000
0000
0000
0000
0000
0000
3003
0000
0000
0000
0000
,
1000
0100
0010
0100
1000
0100
0010
0000
0001
0000
1000
0010
0100
0000
0001
0000
,
1000
0001
0010
0001
1000
0001
0100
0000
0001
0000
1000
0000
0001
0010
0100
1000
,
0100
0000
0010
0001
1000
0100
1000
0000
0001
0100
0001
0000
0100
0010
1000
0000
,
0001
0000
1000
0010
0100
0001
1000
0000
0100
0000
1000
0001
0010
0100
0010
0000
,
0001
0000
1000
0100
0010
0000
0100
0010
0001
1000
0001
0000
0010
0100
1000
0000
,
0001
0100
0001
0100
0010
1000
0010
0000
0100
0000
0001
0000
1000
0100
0010
0001
,
1000
1000
0010
0010
0100
0100
0001
0001
,
1000
0001
0010
0001
0100
0010
1000
0100
0010
0001
1000
0001
0100
0000
0000
0000
,
0202
0000
0000
0000
,
0000
0000
0000
0000
,
0303
0000
0000
0000
;

//--------------- dance-single - Fred-104† ----------------
#NOTEDATA:;
#STEPSTYPE:dance-single;
#DESCRIPTION:Fred-104†;
#DIFFICULTY:Challenge;
#METER:18;
#CREDIT:Fred-104†;
#NOTES:
0000
0000
0000
0000
,
0000
0000
0000
0000
,
0000
0000
0000
0000
,
0000
0000
0000
0000
,
0000
0000
0000
0000
,
0000
0000
0000
0000
,
0000
0000
0000
0000
,
0000
0000
0000
0000
,
0000
0000
0000
0000
,
1000
0100
1000
0001
1000
0100
1000
0000
,
0001
0100
0010
1010
0000
1000
1001
0000
,
1000
1000
0100
0001
0100
1000
0001
0000
,
0101
0000
0000
0000
0100
0000
0010
0000
0000
0000
0010
0000
1000
0001
0100
0010
,
1000
0100
0010
0001
0000
0100
0110
0000
,
0101
0100
0010
1000
0000
0100
1100
0000
,
1010
0010
0100
0000
0011
0010
0000
0100
,
0010
0000
0000
0000
0000
0000
0000
0000
0000
0000
0000
0000
0000
0000
0000
0000
0000
0000
0000
0000
0000
0000
0000
0000
1000
0000
0000
0000
0000
0000
0000
0000
0000
0000
0000
0000
0000
0000
0000
0000
0000
0000
0000
0000
0000
0000
0000
0000
0001
0000
0000
0000
0000
0000
0000
0000
0000
0000
0000
0000
0000
0000
0000
0000
0000
0000
0000
0000
0000
0000
0000
0000
0100
0000
0000
0000
0000
0000
0000
0000
0000
0000
0000
0000
0000
0000
0000
0000
0000
0000
0000
0000
0000
0000
0000
0000
0220
0330
0000
0000
0000
0000
0000
0000
0000
0000
0000
0000
0000
0000
0000
0000
0000
0000
0000
0000
0000
0000
0000
0000
2002
3003
0000
0000
0000
0000
0000
0000
0000
0000
0000
0000
0000
0000
0000
0000
0000
0000
0000
0000
0000
0000
0000
0000
0001
0000
0000
0000
0000
0000
0000
0000
0000
0000
0000
0000
0000
0000
0000
0000
0000
0000
0000
0000
0000
0000
0000
0000
1000
0000
0000
0000
0000
0000
0000
0000
0000
0000
0000
0000
0000
0000
0000
0000
0000
0000
0000
0000
0000
0000
0000
0000
,
0010
0000
0000
0000
0000
0000
0000
0000
0000
0000
0000
0000
1000
0000
0000
0000
0000
0000
0000
0000
0000
0000
0000
0000
0010
0000
0000
0000
0000
0000
0000
0000
0000
0000
0000
0000
0100
0000
0000
0000
0000
0000
0000
0000
0000
0000
0000
0000
0001
0000
0000
0000
0000
0000
0000
0000
0000
0000
0000
0000
1000
0000
0000
0000
0000
0000
0000
0000
0000
0000
0000
0000
0002
0003
0000
0000
0000
0000
0000
0000
0000
0000
0000
0000
0000
0000
0000
0000
0000
0000
0000
0000
0000
0000
0000
0000
1000
0000
0000
0000
0000
0000
0000
0000
0000
0000
0000
0000
0000
0000
0000
0000
0000
0000
0000
0000
0000
0000
0000
0000
0000
0000
0000
0000
0000
0000
0000
0000
0000
0000
0000
0000
1000
0000
0000
0000
0000
0000
0000
0000
0000
0000
0000
0000
0010
0000
0000
0000
0000
0000
0000
0000
0000
0000
0000
0000
0100
0000
0000
0000
0000
0000
0000
0000
0000
0000
0000
0000
0001
0000
0000
0000
0000
0000
0000
0000
0000
0000
0000
0000
0000
0000
0000
0000
0000
0000
0000
0000
0000
0000
0000
0000
,
1000
0000
0000
0000
0000
0000
0000
0000
0000
0000
0000
0000
0100
0000
0000
0000
0000
0000
0000
0000
0000
0000
0000
0000
0010
0000
0000
0000
0000
0000
0000
0000
0000
0000
0000
0000
0001
0000
0000
0000
0000
0000
0000
0000
0000
0000
0000
0000
0020
0030
0000
0000
0000
0000
0000
0000
0000
0000
0000
0000
0000
0000
0000
0000
0000
0000
0000
0000
0000
0000
0000
0000
0001
0000
0000
0000
0000
0000
0000
0000
0000
0000
0000
0000
1000
0000
0000
0000
0000
0000
0000
0000
0000
0000
0000
0000
0001
0000
0000
0000
0000
0000
0000
0000
0000
0000
0000
0000
0100
0000
0000
0000
0000
0000
0000
0000
0000
0000
0000
0000
0010
0000
0000
0000
0000
0000
0000
0000
0000
0000
0000
0000
0000
0000
0000
0000
0000
0000
0000
0000
0000
0000
0000
0000
1000
0000
0000
0000
0000
0000
0000
0000
0000
0000
0000
0000
0001
0000
0000
0000
0000
0000
0000
0000
0000
0000
0000
0000
0010
0000
0000
0000
0000
0000
0000
0000
0000
0000
0000
0000
0000
0000
0000
0000
0000
0000
0000
0000
0000
0000
0000
0000
,
0100
0000
0000
0000
0000
0000
0000
0000
0000
0000
0000
0000
0000
0000
0000
0000
0000
0000
0000
0000
0000
0000
0000
0000
0200
0300
0000
0000
0000
0000
0000
0000
0000
0000
0000
0000
0200
0300
0000
0000
0000
0000
0000
0000
0000
0000
0000
0000
0110
0000
0000
0000
0000
0000
0000
0000
0000
0000
0000
0000
0000
0000
0000
0000
0000
0000
0000
0000
0000
0000
0000
0000
1000
0000
0000
0000
0000
0000
0000
0000
0000
0000
0000
0000
0010
0000
0000
0000
0000
0000
0000
0000
0000
0000
0000
0000
0100
0000
0000
0000
0000
0000
0000
0000
0000
0000
0000
0000
0000
0000
0000
0000
0000
0000
0000
0000
0000
0000
0000
0000
0001
0000
0000
0000
0000
0000
0000
0000
0000
0000
0000
0000
0000
0000
0000
0000
0000
0000
0000
0000
0000
0000
0000
0000
0020
0030
0000
0000
0000
0000
0000
0000
0000
0000
0000
0000
0000
0000
0000
0000
0000
0000
0000
0000
0000
0000
0000
0000
0200
0300
0000
0000
0000
0000
0000
0000
0000
0000
0000
0000
0000
0000
0000
0000
0000
0000
0000
0000
0000
0000
0000
0000
,
1001
0000
1100
1100
0000
0101
0000
0110
,
0000
0000
1001
0000
1000
0000
0010
0000
0100
0001
1000
0000
0001
0001
1001
0000
,
0100
0020
1000
0000
0000
0000
0001
0000
0000
0000
1030
0000
0001
1000
0100
0010
,
0002
0000
0000
0000
0000
0000
0000
0000
0000
0000
0000
0000
0000
0000
0000
0000
0000
0000
0000
0000
0000
0000
0000
0000
0100
0000
0000
0000
0000
0000
0000
0000
0000
0000
0000
0000
0103
0000
0000
0000
0000
0000
0000
0000
0000
0000
0000
0000
0220
0330
0000
0000
0000
0000
0000
0000
0000
0000
0000
0000
0000
0000
0000
0000
0000
0000
0000
0000
0000
0000
0000
0000
2002
3000
0000
0000
0000
0000
0000
0000
0000
0000
0000
0000
0000
0000
0000
0000
0000
0000
0000
0000
0000
0000
0000
0000
1003
0000
0000
0000
0000
0000
0000
0000
0000
0000
0000
0000
0010
0000
0000
0000
0000
0000
0000
0000
0000
0000
0000
0000
1000
0000
0000
0000
0000
0000
0000
0000
0000
0000
0000
0000
0000
0000
0000
0000
0000
0000
0000
0000
0000
0000
0000
0000
0001
0000
0000
0000
0000
0000
0000
0000
0000
0000
0000
0000
0000
0000
0000
0000
0000
0000
0000
0000
0000
0000
0000
0000
1000
0000
0000
0000
0000
0000
0000
0000
0000
0000
0000
0000
0000
0000
0000
0000
0000
0000
0000
0000
0000
0000
0000
0000
,
0001
0000
0100
0010
1000
0000
0010
0100
0001
0010
0001
0100
0001
0010
0100
0000
,
1000
0000
0001
0100
0010
0000
1000
0000
1001
0000
0001
0000
1000
0100
1000
0001
,
0010
0100
1000
0001
0100
0000
0001
0000
1000
0000
0001
0100
0010
1000
0010
0100
,
0001
0000
0001
0000
0010
0100
1000
0001
0100
0000
0010
0000
0100
0000
1000
0000
,
0100
0000
0010
1000
0001
0000
0001
0000
1000
0000
0001
1000
0100
0000
0010
0000
,
0100
1000
0001
0100
0010
1000
0001
0010
0100
0000
1000
0000
0001
0100
0010
0100
,
0001
0000
0000
0000
0000
0000
1000
0000
0000
0100
0000
0000
0010
0000
0000
0000
0000
0000
0100
0000
0000
0000
0000
0000
1000
0000
0000
0001
0000
0000
0000
0000
0000
0000
0000
0000
0100
0000
0000
0000
0100
0000
0000
0000
0100
0000
0000
0000
,
0020
0000
0000
0000
0000
0000
0000
0030
,
1000
0000
0100
1000
0001
1000
0100
0000
1000
0001
0100
0010
0100
0000
0001
0000
,
1000
0100
0010
0001
1000
0100
0010
0000
0001
0000
0100
0010
1000
0000
0001
0000
,
0010
0000
0100
1000
0001
0100
0010
0000
1000
0100
0010
0100
1000
0001
0100
0010
,
1000
0000
0001
1000
0100
1000
0001
0100
0001
0000
1000
0000
0100
1000
0001
0100
,
0010
0000
0100
1000
0100
0010
0100
0001
1000
0000
1000
0000
0001
0000
1000
0001
,
0010
0000
0000
0000
0000
0000
0000
0000
0000
0000
0000
0000
0100
0000
0000
0000
0000
0000
0000
0000
0000
0000
0000
0000
1000
0000
0000
0000
0000
0000
0000
0000
0000
0000
0000
0000
0001
0000
0000
0000
0000
0000
0000
0000
0000
0000
0000
0000
0100
0000
0000
0000
0000
0000
0000
0000
0000
0000
0000
0000
0010
0000
0000
0000
0000
0000
0000
0000
0000
0000
0000
0000
1000
0000
0000
0000
0000
0000
0000
0000
0000
0000
0000
0000
0000
0000
0000
0000
0000
0000
0000
0000
0000
0000
0000
0000
0001
0000
0000
0000
0000
0000
0000
0000
0000
0000
0000
0000
0000
0000
0000
0000
0000
0000
0000
0000
0000
0000
0000
0000
1000
0000
0000
0000
0000
0000
0000
0000
0000
0000
0000
0000
0000
0000
0000
0000
0000
0000
0000
0000
0000
0000
0000
0000
0020
0030
0000
0000
0000
0000
0000
0000
0000
0000
0000
0000
0200
0300
0000
0000
0000
0000
0000
0000
0000
0000
0000
0000
0002
0003
0000
0000
0000
0000
0000
0000
0000
0000
0000
0000
2000
3000
0000
0000
0000
0000
0000
0000
0000
0000
0000
0000
,
0100
0010
0000
0010
0001
0010
0100
0010
0001
0000
1000
0001
0100
0000
0001
0000
,
1000
0010
0100
0001
0010
0100
1000
0010
0100
0001
0010
0100
2000
0000
0000
0000
,
3001
0000
0000
0000
0010
0001
1000
0001
0100
0000
0010
1000
0001
0000
0010
0100
,
0010
0000
0000
0000
0000
0000
0000
0000
0000
0000
0000
0000
0001
0000
0000
0000
0000
0000
0000
0000
0000
0000
0000
0000
1000
0000
0000
0000
0000
0000
0000
0000
0000
0000
0000
0000
0100
0000
0000
0000
0000
0000
0000
0000
0000
0000
0000
0000
1000
0000
0000
0000
0000
0000
0000
0000
0000
0000
0000
0000
0001
0000
0000
0000
0000
0000
0000
0000
0000
0000
0000
0000
0100
0000
0000
0000
0000
0000
0000
0000
0000
0000
0000
0000
0000
0000
0000
0000
0000
0000
0000
0000
0000
0000
0000
0000
0001
0000
0000
0000
0000
0000
0000
0000
0000
0000
0000
0000
0000
0000
0000
0000
0000
0000
0000
0000
0000
0000
0000
0000
1000
0000
0000
0000
0000
0000
0000
0000
0000
0000
0000
0000
0001
0000
0000
0000
0000
0000
0000
0000
0000
0000
0000
0000
0200
0300
0000
0000
0000
0000
0000
0000
0000
0000
0000
0000
0200
0300
0000
0000
0000
0000
0000
0000
0000
0000
0000
0000
0010
0000
0000
0000
0000
0000
0000
0000
0000
0000
0000
0000
0100
0000
0000
0000
0000
0000
0000
0000
0000
0000
0000
0000
,
0000
0100
0010
1000
0100
0010
0001
0000
1000
0001
0100
0000
0010
0000
0100
0000
,
0001
0000
1000
0000
0100
0000
1000
0000
0001
0000
0100
0000
0010
0000
0000
0000
1000
0000
0000
0000
2002
0000
0000
3003
1010
0000
0000
0000
0010
0000
1000
0000
,
0010
0100
0010
1000
0002
0000
0100
0000
2003
0000
0010
0000
3001
0010
0100
1000
,
0010
0000
0000
0000
0000
0000
0000
0000
0000
0000
0000
0000
0100
0000
0000
0000
0000
0000
0000
0000
0000
0000
0000
0000
0001
0000
0000
0000
0000
0000
0000
0000
0000
0000
0000
0000
0000
0000
0000
0000
0000
0000
0000
0000
0000
0000
0000
0000
1000
0000
0000
0000
0000
0000
0000
0000
0000
0000
0000
0000
0000
0000
0000
0000
0000
0000
0000
0000
0000
0000
0000
0000
0100
0000
0000
0000
0000
0000
0000
0000
0000
0000
0000
0000
0010
0000
0000
0000
0000
0000
0000
0000
0000
0000
0000
0000
0001
0000
0000
0000
0000
0000
0000
0000
0000
0000
0000
0000
0010
0000
0000
0000
0000
0000
0000
0000
0000
0000
0000
0000
0100
0000
0000
0000
0000
0000
0000
0000
0000
0000
0000
0000
1000
0000
0000
0000
0000
0000
0000
0000
0000
0000
0000
0000
0002
0003
0000
0000
0000
0000
0000
0000
0000
0000
0000
0000
0202
0303
0000
0000
0000
0000
0000
0000
0000
0000
0000
0000
2000
3000
0000
0000
0000
0000
0000
0000
0000
0000
0000
0000
2200
3300
0000
0000
0000
0000
0000
0000
0000
0000
0000
0000
,
0001
0000
1000
0100
0010
0000
0001
0000
0010
0000
0100
0000
1000
0010
0100
0001
,
2000
0000
0000
0000
0000
0000
0000
3000
,
0001
0000
1000
0000
0010
1000
0001
1000
0100
0000
0010
0001
1000
0000
0100
1000
,
0001
0000
0000
0000
0000
0000
0000
0000
0000
0000
0000
0000
0100
0000
0000
0000
0000
0000
0000
0000
0000
0000
0000
0000
0010
0000
0000
0000
0000
0000
0000
0000
0000
0000
0000
0000
1000
0000
0000
0000
0000
0000
0000
0000
0000
0000
0000
0000
0001
0000
0000
0000
0000
0000
0000
0000
0000
0000
0000
0000
1000
0000
0000
0000
0000
0000
0000
0000
0000
0000
0000
0000
0100
0000
0000
0000
0000
0000
0000
0000
0000
0000
0000
0000
0000
0000
0000
0000
0000
0000
0000
0000
0000
0000
0000
0000
0010
0000
0000
0000
0000
0000
0000
0000
0000
0000
0000
0000
0000
0000
0000
0000
0000
0000
0000
0000
0000
0000
0000
0000
0010
0000
0000
0000
0000
0000
0000
0000
0000
0000
0000
0000
0100
0000
0000
0000
0000
0000
0000
0000
0000
0000
0000
0000
0010
0000
0000
0000
0000
0000
0000
0000
0000
0000
0000
0000
0000
0000
0000
0000
0000
0000
0000
0000
0000
0000
0000
0000
0220
0330
0000
0000
0000
0000
0000
0000
0000
0000
0000
0000
0000
0000
0000
0000
0000
0000
0000
0000
0000
0000
0000
0000
,
0110
0000
0000
0000
0001
0100
1000
0100
0001
0000
1000
0001
0010
0000
0100
0000
,
1000
0000
0000
0000
0000
0000
0000
0000
0000
0000
0000
0000
0000
0000
0000
0000
0000
0000
0000
0000
0000
0000
0000
0000
0001
0000
0000
0000
0000
0000
0000
0000
0000
0000
0000
0000
1000
0000
0000
0000
0000
0000
0000
0000
0000
0000
0000
0000
0010
0000
0000
0000
0000
0000
0000
0000
0000
0000
0000
0000
0000
0000
0000
0000
0000
0000
0000
0000
0000
0000
0000
0000
0100
0000
0000
0000
0000
0000
0000
0000
0000
0000
0000
0000
0001
0000
0000
0000
0000
0000
0000
0000
0000
0000
0000
0000
2000
3000
0000
0000
0000
0000
0000
0000
0000
0000
0000
0000
0002
0003
0000
0000
0000
0000
0000
0000
0000
0000
0000
0000
0200
0300
0000
0000
0000
0000
0000
0000
0000
0000
0000
0000
0020
0030
0000
0000
0000
0000
0000
0000
0000
0000
0000
0000
0110
0000
0000
0000
0000
0000
0000
0000
0000
0000
0000
0000
0000
0000
0000
0000
0000
0000
0000
0000
0000
0000
0000
0000
0000
0000
0000
0000
0000
0000
0000
0000
0000
0000
0000
0000
0000
0000
0000
0000
0000
0000
0000
0000
0000
0000
0000
0000
,
1000
0100
0010
0100
1000
0000
0001
1000
0100
0000
1000
0001
0010
0100
0010
0001
,
1000
0001
0100
0000
0001
0000
1000
0001
0010
1000
0010
0100
0010
0000
0001
0000
,
1000
0000
0001
0000
1000
0010
0100
0001
1000
0100
0010
0001
2000
0000
0000
0000
,
0000
0000
3001
2020
,
0000
0000
0000
0000
,
0000
0000
0000
0000
0000
3030
0202
0000
,
0000
0000
0000
0000
,
0000
0000
0000
0000
0000
0303
0001
0010
,
0100
1000
0001
0100
1000
0001
0010
0100
,
1000
0000
0000
0000
0000
0000
0000
0000
0000
0000
0000
0000
0000
0000
0000
0000
0000
0000
0000
0000
0000
0000
0000
0000
0100
0000
0000
0000
0000
0000
0000
0000
0000
0000
0000
0000
0000
0000
0000
0000
0000
0000
0000
0000
0000
0000
0000
0000
0001
0000
0000
0000
0000
0000
0000
0000
0000
0000
0000
0000
0000
0000
0000
0000
0000
0000
0000
0000
0000
0000
0000
0000
1000
0000
0000
0000
0000
0000
0000
0000
0000
0000
0000
0000
0000
0000
0000
0000
0000
0000
0000
0000
0000
0000
0000
0000
0100
0000
0000
0000
0000
0000
0000
0000
0000
0000
0000
0000
0000
0000
0000
0000
0000
0000
0000
0000
0000
0000
0000
0000
0010
0000
0000
0000
0000
0000
0000
0000
0000
0000
0000
0000
0000
0000
0000
0000
0000
0000
0000
0000
0000
0000
0000
0000
0001
0000
0000
0000
0000
0000
0000
0000
0000
0000
0000
0000
0000
0000
0000
0000
0000
0000
0000
0000
0000
0000
0000
0000
0020
0030
0000
0000
0000
0000
0000
0000
0000
0000
0000
0000
0000
0000
0000
0000
0000
0000
0000
0000
0000
0000
0000
0000
,
0020
0030
0000
0000
0000
0000
0000
0000
0000
0000
0000
0000
0000
0000
0000
0000
0000
0000
0000
0000
0000
0000
0000
0000
1000
0000
0000
0000
0000
0000
0000
0000
0000
0000
0000
0000
0000
0000
0000
0000
0000
0000
0000
0000
0000
0000
0000
0000
0001
0000
0000
0000
0000
0000
0000
0000
0000
0000
0000
0000
0000
0000
0000
0000
0000
0000
0000
0000
0000
0000
0000
0000
0200
0300
0000
0000
0000
0000
0000
0000
0000
0000
0000
0000
0000
0000
0000
0000
0000
0000
0000
0000
0000
0000
0000
0000
0200
0300
0000
0000
0000
0000
0000
0000
0000
0000
0000
0000
0000
0000
0000
0000
0000
0000
0000
0000
0000
0000
0000
0000
1000
0000
0000
0000
0000
0000
0000
0000
0000
0000
0000
0000
0000
0000
0000
0000
0000
0000
0000
0000
0000
0000
0000
0000
0001
0000
0000
0000
0000
0000
0000
0000
0000
0000
0000
0000
0000
0000
0000
0000
0000
0000
0000
0000
0000
0000
0000
0000
0020
0030
0000
0000
0000
0000
0000
0000
0000
0000
0000
0000
0000
0000
0000
0000
0000
0000
0000
0000
0000
0000
0000
0000
,
0020
0030
0000
0000
0000
0000
0000
0000
0000
0000
0000
0000
0000
0000
0000
0000
0000
0000
0000
0000
0000
0000
0000
0000
1000
0000
0000
0000
0000
0000
0000
0000
0000
0000
0000
0000
0000
0000
0000
0000
0000
0000
0000
0000
0000
0000
0000
0000
0200
0300
0000
0000
0000
0000
0000
0000
0000
0000
0000
0000
0000
0000
0000
0000
0000
0000
0000
0000
0000
0000
0000
0000
0200
0300
0000
0000
0000
0000
0000
0000
0000
0000
0000
0000
0000
0000
0000
0000
0000
0000
0000
0000
0000
0000
0000
0000
0001
0000
0000
0000
0000
0000
0000
0000
0000
0000
0000
0000
0000
0000
0000
0000
0000
0000
0000
0000
0000
0000
0000
0000
1000
0000
0000
0000
0000
0000
0000
0000
0000
0000
0000
0000
0000
0000
0000
0000
0000
0000
0000
0000
0000
0000
0000
0000
0001
0000
0000
0000
0000
0000
0000
0000
0000
0000
0000
0000
0000
0000
0000
0000
0000
0000
0000
0000
0000
0000
0000
0000
0010
0000
0000
0000
0000
0000
0000
0000
0000
0000
0000
0000
0000
0000
0000
0000
0000
0000
0000
0000
0000
0000
0000
0000
,
0100
1000
0001
0100
0010
0001
1000
0100
,
0010
1000
0001
0100
0010
1000
0001
0010
,
0100
0001
1000
0010
0100
1000
0001
0000
,
0010
0010
0000
0100
0000
1000
1010
0010
,
0110
0100
0101
0001
1001
0000
1100
0100
,
0110
0010
0011
0001
0100
0010
0110
0000
,
1000
0001
0010
0100
1000
0000
0001
0100
0010
0000
0010
0000
1000
0000
0100
0000
,
0010
0000
0100
0000
1000
0000
0001
0100
0001
1000
0100
0010
0001
0000
0101
0000
,
0100
0110
0010
1000
1001
0000
0100
0010
,
0110
0000
0000
0000
1000
0000
0001
0100
0010
0000
2000
0000
0001
0000
0000
0000
,
3010
1000
0001
0000
0010
0000
0100
1000
0001
0000
0100
0000
0010
0000
1000
0000
,
1000
0000
1000
0000
0001
0100
0010
1000
0002
0000
0000
0000
0000
0000
0000
0000
,
1003
0000
0001
0100
0001
1000
0001
1000
0100
0000
0010
0000
0001
1000
0001
0000
,
1000
0010
0000
0100
0001
0000
1000
0000
0001
0010
0100
0010
0001
1000
0010
0100
,
0001
0000
0000
0000
1000
0100
0010
0001
0010
0000
0100
1000
0001
0000
1000
0000
,
0001
1000
0000
0010
0100
0000
0001
0010
1000
0000
0001
0100
1000
0000
0001
0000
,
1000
0000
0100
0010
0001
0100
0010
0000
0001
0000
1000
0000
0100
0000
0001
0000
,
1000
0001
0010
0000
0100
0000
0010
0001
1000
0000
0010
1000
0100
0000
0010
0001
,
0100
0000
0010
0000
0010
0000
1000
0001
0010
0000
0010
0100
1000
0000
0010
0000
,
0100
0000
0001
1000
0100
0000
1000
0001
0100
0001
1000
0010
1000
0001
0010
0001
,
2000
0000
0000
0000
0000
0000
0000
0000
0000
0000
0000
0000
0000
0000
0000
0000
0002
0000
0000
0000
0000
0000
0000
0000
0000
0000
0000
3003
0000
0000
0000
0000
,
1000
0010
0100
0001
1000
0010
0100
0001
1000
0000
0010
1000
0001
0010
0100
0000
,
1000
0001
0010
0001
1000
0010
0100
0000
0001
0000
1000
0100
0001
0100
0010
0100
,
1000
0000
0001
1000
0100
1000
0001
0000
0010
0001
1000
0001
0100
0001
1000
0000
,
0010
1000
0100
0010
0001
0010
0100
1000
0010
0100
0001
1000
0100
0010
0100
0010
,
0001
0000
1000
0100
0010
0000
0100
0001
0100
0010
0100
0000
1000
0001
0100
0000
,
0001
0010
0100
1000
0100
0010
0001
1000
0010
0000
1000
0000
0001
1000
0100
0010
,
0001
1000
0001
0100
0010
1000
0100
0010
,
0001
0010
0100
0001
1000
0010
0100
1000
0001
0100
1000
0100
0001
0000
0000
0000
,
2002
0000
0000
0000
,
0000
0000
0000
0000
,
3003
0000
0000
0000
;

//--------------- dance-double - Fred-104 ----------------
#NOTEDATA:;
#STEPSTYPE:dance-double;
#DESCRIPTION:Fred-104;
#DIFFICULTY:Easy;
#METER:12;
#CREDIT:Fred-104;
#NOTES:
00000000
00000000
00000000
00000000
,
00000000
00000000
00000000
00000000
,
00000000
00000000
00000000
00000000
,
00000000
00000000
00000000
00000000
,
00000000
00000000
00000000
00000000
,
00000000
00000000
00000000
00000000
,
00000000
00000000
00000000
00000000
,
00000000
00000000
00000000
00000000
,
00000000
00000000
00000000
00000000
,
00001000
00010000
00011000
00000000
,
01000000
00100000
01100000
00000000
,
10000000
01000000
01100000
00000000
,
00001000
00010000
00011000
00000000
,
00010000
00000000
00001000
00000100
00000000
00000000
00000001
00000000
,
00001000
00000000
00000100
00000010
00000000
00000000
00000001
00000000
,
00000100
00001000
00010000
00100000
,
10000000
00000000
01000000
00000000
00200000
00302000
00013000
00000000
,
00000100
00000000
00000000
00000000
00020000
00000000
00000000
00030000
00001000
00000000
00000000
00000000
00000100
00000000
00000000
00000000
,
00000010
00000000
00000100
00000000
00000002
00000003
00000010
00000000
00000200
00000000
00000310
00000000
00000000
00000000
00000001
00000000
,
00000000
00000200
00001300
00000000
00010000
00000000
00002000
00003000
,
00011000
00000000
00010000
00010000
00000000
00000010
00000000
00010000
,
00000000
00001000
00100000
00000000
00001000
00000000
00020000
00230000
,
01300000
00010000
00000000
10000000
00000000
01000000
00000000
00100000
,
00001000
00000000
00000000
00000000
00000000
00000000
00000000
00000000
00010000
00000000
00000000
00000000
00000000
00000000
00000000
00000000
00202000
00303000
00000000
00000000
00000000
00000000
00000000
00000000
00020020
00030030
00000000
00000000
00000000
00000000
00000000
00000000
00011000
00000000
00000000
00000000
00000000
00000000
00000000
00000000
00000000
00000000
00000000
00000000
00000000
00000000
00000000
00000000
00010000
00000000
00000000
00000000
00000000
00000000
00000000
00000000
00000000
00000000
00000000
00000000
00000000
00000000
00000000
00000000
,
00001000
00000010
00000100
00000000
00001000
00000000
00000001
00000000
,
00000100
00000010
00001000
00000000
00000100
00000000
00000010
00000000
,
00001000
00010000
00001000
00000000
00010000
01000000
10000000
00000000
,
00010000
01000000
00100000
00000000
10000000
00000000
01000000
00000000
,
00100000
00001000
00010000
00000000
00001000
00000000
00010000
00000000
,
00001000
00000100
00000010
00000000
00001000
00000000
00000100
00000000
,
00000001
00000100
00001000
00000000
00000001
00000000
00000100
00000000
,
00000220
00000000
00000000
00000000
00000000
00000000
00000000
00000000
00000000
00000000
00000000
00000330
00000000
00000000
00000000
00000000
,
00000001
00000000
00000010
00000000
00001000
00010000
00001000
00000000
,
00010000
00000000
00100000
00000000
01000000
00010000
01000000
00000000
,
00100000
00000000
10000000
00000000
01000000
00010000
00001000
00000000
,
00010000
00000010
00010000
00001000
00010000
00001000
00010000
00000000
,
00001000
00000000
00000100
00000000
00000010
00001000
00000001
00000000
,
00000010
00000000
00000100
00000000
00010000
00001000
00020000
00000000
,
00031000
00000000
00010000
00000000
00100000
01000000
00010000
00000000
,
10000000
01000000
00010000
00012000
,
00013000
00000000
00001000
00000000
00010000
00001000
00000010
00000000
,
00000100
00000000
00000000
00000000
00001000
00000000
00000000
00000000
00000001
00000000
00000100
00000000
00002000
00003000
00010000
00000000
,
00000000
00010000
00000000
00001000
00010000
00100000
00000000
00010000
,
00000000
00001000
00000000
00022000
00000000
00033000
00010000
00000000
,
00001000
00000000
00010000
00000100
00001000
00000000
00000100
00000000
,
00000010
00000000
00000001
00000010
00000100
00001000
00000002
00000000
,
00000103
00001000
00010000
00001000
,
00022000
00000000
00000000
00000000
00000000
00000000
00000000
00033000
,
00001000
00010000
00100000
10000000
,
00010000
00000000
00100000
00000000
01000000
10000000
00020000
00000000
,
01030000
00000000
00100000
00000000
00010000
00001000
00010000
00000000
,
00001000
00000000
00000000
00000000
00010000
00000000
00000000
00000000
00022000
00000000
00000000
00033000
00010000
00000000
00000000
00000000
,
00000010
00000000
00001000
00000100
00000010
00000000
00000001
00000000
,
00000100
00000000
00001000
00010000
00001000
00000000
00010000
00001000
,
00000100
00000001
00001000
00000100
00000010
00000000
00000200
00000000
,
00000000
00000000
00010300
00022000
,
00000000
00000000
00000000
00000000
,
00000000
00000000
00033000
20020000
,
00000000
00000000
00000000
00000000
,
00000000
00000000
30030000
00010000
,
10000000
00000000
00000000
00100000
00000000
01000000
00000000
00100000
,
00000000
00010000
00000000
00001000
00000000
00000000
00000100
00000000
,
00000010
00000000
00000000
00000100
00000000
00000000
00000001
00000000
,
00000000
00001000
00000000
00000100
00000000
00000000
00000010
00000000
,
00000001
00000000
00000000
00000100
00000000
00001000
00000000
00010000
,
00000000
00100000
00000000
01000000
00000000
00000000
00010000
00000000
,
10000000
00000000
00000000
01000000
00000000
00000000
00100000
00000000
,
00000000
00001000
00000000
00001000
00000000
00000000
00011000
00000000
,
00010000
00001000
00000100
00000001
,
00000100
00000100
00000010
00001000
,
00000100
00000010
00001000
00010000
,
01000000
00000000
10000000
00010000
20000000
00000000
30100000
00000000
,
01000000
00100000
10000000
01000000
,
00100000
00000000
00001000
00010000
00001000
00000000
00010000
00000000
,
00001000
00000010
00000100
00001000
,
00000001
00000000
00001000
00000010
00000200
00000000
00000000
00000000
,
00000301
00000000
00001000
00000001
00000010
00000100
00001000
00000000
,
00000001
00000000
00000100
00001000
00010000
00000000
00000010
00000000
,
00010000
00000000
00001000
00010000
00001000
00100000
00010000
00000000
,
01000000
10000000
01000000
00010000
,
10010000
00000000
10000000
01000000
00010000
00000000
00001000
00010000
,
00000010
00010000
00001000
00010000
00000100
00000000
00001000
00000000
,
00000100
00000010
00000001
00000000
00000100
00001000
00010000
00000000
,
00001000
01000000
00001000
00000000
00010000
00000100
00010000
00000000
,
00002000
00000000
00000000
00000000
00000000
00000000
00000000
00000000
00020000
00000000
00000000
00000000
00000000
00000000
00000000
00033000
,
00010000
00000000
00001000
00000000
00010000
00001000
00100000
00000000
,
00010000
01000000
00100000
00000000
10000000
00100000
00000000
01000000
,
00100000
00000000
00010000
00000000
00001000
00010000
00001000
00000000
,
00000010
00000000
00000100
00001000
00000000
00000100
00000010
00000000
,
00000001
00000000
00000100
00000000
00000010
00000100
00001000
00000000
,
00010000
00000000
00100000
00000000
01000000
00100000
00000000
10000000
,
01000000
00100000
00001000
00000000
00010000
00000100
00001000
00000000
,
00000100
00000010
00000001
00000100
00001000
00000000
00010000
00000000
,
00022000
00000000
00000000
00000000
,
00000000
00000000
00000000
00000000
,
00033000
00000000
00000000
00000000
;

//--------------- dance-double - Fred-104 ----------------
#NOTEDATA:;
#STEPSTYPE:dance-double;
#DESCRIPTION:Fred-104;
#DIFFICULTY:Medium;
#METER:14;
#CREDIT:Fred-104;
#NOTES:
00000000
00000000
00000000
00000000
,
00000000
00000000
00000000
00000000
,
00000000
00000000
00000000
00000000
,
00000000
00000000
00000000
00000000
,
00000000
00000000
00000000
00000000
,
00000000
00000000
00000000
00000000
,
00000000
00000000
00000000
00000000
,
00000000
00000000
00000000
00000000
,
00000000
00000000
00000000
00000000
,
00011000
00001000
00010000
00100000
,
01000000
00000000
00010000
10000000
00000000
01000000
00100000
00000000
,
00110000
00001000
00010000
00000010
,
00010000
00000000
00001000
00000100
00000000
00000001
00001000
00000100
,
00000010
00000000
00000001
00001000
00000000
00000000
00001001
00000000
,
00001100
00000000
00000001
00000100
00000000
00001000
00010000
00000000
,
00001000
00010000
00100000
00000000
01000000
00010000
00000000
00100000
,
01000000
00000000
00000000
00000000
00000000
00000000
00000000
00000000
10000000
00000000
00000000
00000000
00000000
00000000
00000000
00000000
01000000
00000000
00000000
00000000
00000000
00000000
00000000
00000000
00010000
00000000
00000000
00000000
00000000
00000000
00000000
00000000
00002000
00003000
00000000
00000000
00000000
00000000
00000000
00000000
00020200
00030300
00000000
00000000
00000000
00000000
00000000
00000000
00001000
00000000
00000000
00000000
00000000
00000000
00000000
00000000
00010000
00000000
00000000
00000000
00000000
00000000
00000000
00000000
,
00100000
00000000
00000000
00000000
00000000
00000000
00000000
00000000
10000000
00000000
00000000
00000000
00000000
00000000
00000000
00000000
01000000
00000000
00000000
00000000
00000000
00000000
00000000
00000000
00200000
00300000
00000000
00000000
00000000
00000000
00000000
00000000
00010000
00000000
00000000
00000000
00000000
00000000
00000000
00000000
00000000
00000000
00000000
00000000
10000000
00000000
00000000
00000000
00010000
00000000
00000000
00000000
00000000
00000000
00000000
00000000
00000000
00000000
00000000
00000000
00000000
00000000
00000000
00000000
,
00100000
00000000
00000000
00000000
00001000
00000000
00000000
00000000
00100000
00000000
00000000
00000000
00001000
00000000
00000000
00000000
00020000
00030000
00000000
00000000
00000000
00000000
00000000
00000000
00001000
00000000
00000000
00000000
00000000
00000000
00000000
00000000
00000100
00000000
00000000
00000000
00000000
00000000
00000000
00000000
00000010
00000000
00000000
00000000
00000000
00000000
00000000
00000000
00001000
00000000
00000000
00000000
00000000
00000000
00000000
00000000
00000100
00000000
00000000
00000000
00000000
00000000
00000000
00000000
,
00000010
00000000
00000000
00000000
00000000
00000000
00000000
00000000
00000200
00000000
00000000
00000000
00000320
00000000
00000000
00000000
00000031
00000000
00000000
00000000
00000000
00000000
00000000
00000000
00000000
00000000
00000000
00000000
00001000
00000000
00000000
00000000
00000001
00000000
00000000
00000000
00000000
00000000
00000000
00000000
00000000
00000000
00000000
00000000
00000000
00000000
00000000
00000000
00000200
00000300
00000000
00000000
00000000
00000000
00000000
00000000
00000020
00000030
00000000
00000000
00000000
00000000
00000000
00000000
,
00000110
00000000
00000001
00001000
00000000
00000100
00000000
00000010
,
00000000
00000000
00000100
00000000
00010000
00000000
00000000
00000000
00000010
00000000
00010000
00000000
00001000
00001000
00002000
00000000
,
00013000
00001000
00000000
00100000
00000000
00001000
01000000
00001000
,
00010000
00000000
00000000
00000000
00000000
00000000
00000000
00000000
00001000
00000000
00000000
00000000
00010000
00000000
00000000
00000000
00000200
00000300
00000000
00000000
00000000
00000000
00000000
00000000
00002200
00000300
00000000
00000000
00000000
00000000
00000000
00000000
00003001
00000000
00000000
00000000
00000000
00000000
00000000
00000000
00000010
00000000
00000000
00000000
00000000
00000000
00000000
00000000
00000100
00000000
00000000
00000000
00000000
00000000
00000000
00000000
00000001
00000000
00000000
00000000
00000000
00000000
00000000
00000000
,
00000100
00001000
00000001
00000000
00000100
00001000
00010000
00100000
,
01000000
00100000
10000000
00000000
01000000
00100000
00010000
01000000
,
00001000
00010000
00001000
00000000
00010000
00001000
00000100
00000001
,
00000010
00001000
00010000
00000000
00001000
00000100
00000001
00001000
,
00000100
00000010
00000001
00000000
00001000
00000001
00000100
00000001
,
00000100
00001000
00010000
00000000
00001000
00010000
00001000
00010000
,
01000000
00000000
00000000
00100000
00000000
00000000
00010000
00000000
00000000
10000000
00000000
00000000
00100000
00000000
00000000
00000000
00000000
00000000
00010000
00000000
00000000
00000000
00010000
00000000
,
00002000
00000000
00003000
00000000
,
00010000
00001000
00010000
00000010
00001000
00000010
00000100
00000000
,
00000001
00001000
00000100
00000001
00000100
00000010
00000100
00000000
,
00001000
00000010
00000100
00001000
00010000
00001000
01000000
00000000
,
00001000
00010000
00100000
00010000
00001000
00010000
00000010
00000000
,
00010000
00001000
00010000
00000100
00000010
00000001
00001000
00000000
,
00000001
00000100
00001000
00010000
00001000
01000000
00002000
00000000
,
00013000
00001000
00010000
01000000
00100000
00010000
10000000
00000000
,
00100000
01000000
00010000
00100000
10000000
00100000
00020000
00000000
,
01030000
00000000
00100000
00100000
10000000
01000000
00100000
01000000
,
10000000
00010000
10000000
00000000
01000000
00000000
00100000
00000000
00001000
00000000
00001000
00000000
00010000
00010000
00000100
00000000
,
00001000
00000100
00000001
00000100
00000010
00000001
00000000
00001000
,
00000010
00000100
00001000
00010000
00001000
00021000
00031000
00000000
,
00010000
00001000
00010000
00100000
01000000
00010000
00100000
01000000
,
10000000
00000000
00100000
00000000
01000000
00000000
00100000
00000000
00010000
00000000
00001000
00000000
00020000
00032000
00003200
00000302
,
00001003
00000100
00000010
00000000
00000001
00000100
00001000
00010000
,
00002000
00000000
00000000
00000000
00000000
00000000
00000000
00000000
00000000
00000000
00000000
00003000
00000000
00000000
00000000
00000000
,
00001000
00010000
00100000
01000000
00010000
10000000
01000000
00000000
,
10000000
00000000
00000000
00000000
00000000
00000000
00000000
00000000
01000000
00000000
00000000
00000000
00000000
00000000
00000000
00000000
00010000
00000000
00000000
00000000
00000000
00000000
00000000
00000000
01000000
00000000
00000000
00000000
00000000
00000000
00000000
00000000
10000000
00000000
00000000
00000000
00000000
00000000
00000000
00000000
00010000
00000000
00000000
00000000
00000000
00000000
00000000
00000000
02000000
03000000
00000000
00000000
00000000
00000000
00000000
00000000
00002000
00003000
00000000
00000000
00000000
00000000
00000000
00000000
,
00010000
00000000
00001000
00100000
00001000
00010000
00000010
00010000
,
00001000
00000000
00010000
00000000
00000100
00000000
00001000
00000000
00000200
00000320
00000230
00000320
00000031
00000000
00000000
00000000
,
00001000
00000010
00000100
00000010
00001000
00000000
00000001
00000010
,
00000001
00000010
00001000
00010000
00002000
00000000
00013000
00001000
,
00010000
00100000
01000000
10000000
01000000
00010000
20000000
00000000
,
00000000
00000000
30000000
02200000
,
00000000
00000000
00000000
00000000
,
00000000
00000000
03300000
00022000
,
00000000
00000000
00000000
00000000
,
00000000
00000000
00000000
00000000
00033000
00000000
00010000
00001000
,
00000100
00000000
00000001
00000100
00000000
00001000
00000000
00000100
,
00000000
00000010
00000000
00001000
00000000
00000001
00000010
00001000
,
00010000
00000000
00100000
01000000
00000000
00100000
10000000
00000000
,
01000000
00100000
00000000
00010000
00000000
00100000
00001000
00010000
,
01000000
00000000
00100000
01000000
00000000
00010000
00000000
00001000
,
00000000
00010000
00000000
00000010
00000000
00001000
00000100
00000010
,
00000001
00000000
00000100
00000010
00000000
00000100
00001000
00000000
,
00010000
00100000
00000000
10000000
00000000
00010000
00100000
00000000
,
01000000
11000000
00010000
01000000
,
01001000
00000000
00001000
00010000
00001000
00000000
00010000
00000000
,
00000010
00000000
00001000
00000000
00001001
00000000
00001000
00000001
,
00000100
00000000
00001000
00010000
00001000
00000000
00010000
00000000
,
00001000
00011000
01001000
00001000
,
00010000
00000000
01000000
00100000
10000000
00100000
00010000
00000000
,
10000000
00000000
00010000
10000000
00100000
00000000
00010000
00001000
,
00010000
00000000
00000100
00010000
00002000
00000000
00000000
00000000
,
00013000
00010000
00001000
00000100
00000010
00000100
00001000
00000000
,
00010000
00001000
00000010
00000100
00000010
00000001
00001000
00000010
,
00000100
00000000
00000001
00000010
00001000
00000010
00000001
00000000
,
00001000
00000010
00010000
00001000
00100000
00010000
10000000
00000000
,
00100000
01000000
00010000
10000000
01000000
00100000
00001000
00000000
,
00010000
00001000
00100000
00001000
00010000
00000010
00001000
00000000
,
00000100
00000010
00000001
00001000
00000010
00000100
00001000
00010000
,
01000000
00010000
00001000
00010000
00100000
01000000
00010000
10000000
,
00020000
00000000
00000000
00000000
00000000
00000000
00000000
00000000
20000000
00000000
00000000
00000000
00000000
00000000
00000000
30030000
,
00010000
10000000
01000000
00100000
00001000
00010000
00000100
00000010
,
00000001
00001000
00000010
00000100
00001000
00010000
00100000
01000000
,
00001000
00010000
01000000
00100000
00010000
10000000
00100000
00010000
,
00001000
00000100
00000010
00000001
00000010
00001000
00000002
00000000
,
00001003
00000100
00000010
00001000
00010000
01000000
00100000
00010000
,
10000000
00100000
00010000
00001000
00010000
01000000
00010000
00001000
,
00000100
00000010
00000100
00000001
00001000
00000100
00000010
00000001
,
00000100
00000000
00001000
00000000
00010000
00000000
00001000
00000000
00000010
00000100
00000010
00000100
00000010
00000000
00000000
00000000
,
00002002
00000000
00000000
00000000
,
00000000
00000000
00000000
00000000
,
00003003
00000000
00000000
00000000
;

//--------------- dance-double - Fred-104† ----------------
#NOTEDATA:;
#STEPSTYPE:dance-double;
#DESCRIPTION:Fred-104†;
#DIFFICULTY:Hard;
#METER:17;
#CREDIT:Fred-104†;
#NOTES:
00000000
00000000
00000000
00000000
,
00000000
00000000
00000000
00000000
,
00000000
00000000
00000000
00000000
,
00000000
00000000
00000000
00000000
,
00000000
00000000
00000000
00000000
,
00000000
00000000
00000000
00000000
,
00000000
00000000
00000000
00000000
,
00000000
00000000
00000000
00000000
,
00000000
00000000
00000000
00000000
,
00011000
00010000
00001000
00000100
,
00000001
00000000
00000010
00001000
00000000
00010000
00001000
00000000
,
00011000
00001000
00100000
00001000
,
00010000
00000000
00000000
00000000
00001000
00000000
00000100
00000000
00000000
00000000
00000001
00000000
00000010
00000100
00000010
00000000
,
00000001
00000000
00001000
00000010
00000000
00000100
00000101
00000000
,
00001001
00000000
00000001
00000100
00000000
00001000
00010000
00000000
,
01000000
10000000
00010000
00000000
01000000
00100000
00000000
00100000
,
10000000
00000000
00000000
00000000
00000000
00000000
00000000
00000000
01000000
00000000
00000000
00000000
00000000
00000000
00000000
00000000
00100000
00000000
00000000
00000000
00000000
00000000
00000000
00000000
00001000
00000000
00000000
00000000
00000000
00000000
00000000
00000000
00022000
00033000
00000000
00000000
00000000
00000000
00000000
00000000
00022000
00033000
00000000
00000000
00000000
00000000
00000000
00000000
00010000
00000000
00000000
00000000
00000000
00000000
00000000
00000000
00000100
00000000
00000000
00000000
00000000
00000000
00000000
00000000
,
00001000
00000000
00000000
00000000
00000100
00000000
00000000
00000000
00001000
00000000
00000000
00000000
00000000
00000000
00000000
00000000
00000100
00000000
00000000
00000000
00000000
00000000
00000000
00000000
00000020
00000030
00000000
00000000
00000000
00000000
00000000
00000000
00000001
00000000
00000000
00000000
00000000
00000000
00000000
00000000
00000000
00000000
00000000
00000000
00000100
00000000
00000000
00000000
00001000
00000000
00000000
00000000
00000000
00000000
00000000
00000000
00000000
00000000
00000000
00000000
00000000
00000000
00000000
00000000
,
00010000
00000000
00000000
00000000
00001000
00000000
00000000
00000000
00010000
00000000
00000000
00000000
00001000
00000000
00000000
00000000
00020000
00030000
00000000
00000000
00000000
00000000
00000000
00000000
00001000
00000000
00000000
00000000
00010000
00000000
00000000
00000000
00000010
00000000
00000000
00000000
00010000
00000000
00000000
00000000
00001000
00000000
00000000
00000000
00000000
00000000
00000000
00000000
00100000
00000000
00000000
00000000
00010000
00000000
00000000
00000000
10000000
00000000
00000000
00000000
00000000
00000000
00000000
00000000
,
01000000
00000000
00000000
00000000
00000000
00000000
00000000
00000000
00200000
00300000
00000000
00000000
00200000
00300000
00000000
00000000
00001000
00000000
00000000
00000000
00000000
00000000
00000000
00000000
00000000
00000000
00000000
00000000
00010000
00000000
00000000
00000000
00001000
00000000
00000000
00000000
00000000
00000000
00000000
00000000
00000000
00000000
00000000
00000000
00000000
00000000
00000000
00000000
00020000
00030000
00000000
00000000
00000000
00000000
00000000
00000000
00020000
00030000
00000000
00000000
00000000
00000000
00000000
00000000
,
00011000
00000000
00012000
00010000
00000000
00000010
00000000
00013000
,
00000000
00000000
00001000
00000000
00011000
00000000
00000000
00000000
00010000
00000000
00001000
00000000
00000200
00000320
00020030
00000000
,
00031000
00010000
00001000
00000000
00000000
00000000
00010000
00000000
00000000
00000000
00100000
00000000
01000000
00010000
10000000
00000000
,
01000000
00000000
00000000
00000000
00000000
00000000
00000000
00000000
00100000
00000000
00000000
00000000
00010000
00000000
00000000
00000000
00220000
00330000
00000000
00000000
00000000
00000000
00000000
00000000
00022000
00003000
00000000
00000000
00000000
00000000
00000000
00000000
00031000
00000000
00000000
00000000
00000000
00000000
00000000
00000000
00010000
00000000
00000000
00000000
00000000
00000000
00000000
00000000
00001000
00000000
00000000
00000000
00000000
00000000
00000000
00000000
00000010
00000000
00000000
00000000
00000000
00000000
00000000
00000000
,
00000100
00000000
00000010
00000000
00000001
00000000
00000100
00000000
00001000
00010000
00001000
00010000
00001000
00000000
00010000
00000000
,
00200000
00000000
02300000
00000000
03020000
00000000
20030000
00000000
31000000
00000000
00010000
00000000
00001000
00010000
00001000
00000000
,
00010000
00000000
00000100
00001000
00000100
00000000
00000010
00000000
00000001
00000000
00001000
00000010
00000100
00000001
00001000
00000000
,
00000100
00000010
00001000
00010000
00001000
00021000
00000000
00031000
,
00010000
00000000
00001000
01000000
00001000
00000000
00010000
00000000
00001000
00000000
00000010
00000000
00000100
00000000
00001000
00000000
,
00000001
00000100
00000001
00000000
00001000
00000000
00000001
00000010
00000100
00000000
00010000
00000000
00001000
00100000
00010000
00000000
,
01000000
00000000
00000000
00000000
00000000
00000000
00010000
00000000
00000000
00000000
00000000
00000000
10000000
00000000
00000000
00000000
00000000
00000000
01000000
00000000
00000000
00000000
00000000
00000000
00100000
00000000
00000000
00010000
00000000
00000000
00000000
00000000
00000000
00000000
00000000
00000000
01000000
00000000
00000000
00000000
00001000
00000000
00000000
00000000
00010000
00000000
00000000
00000000
,
00002000
00000000
00000000
00000000
00000000
00000000
00000000
00003000
,
00010000
00000000
00001000
00000000
00010000
00000000
00100000
01000000
00100000
01000000
00100000
00000000
10000000
00000000
00010000
00000000
,
10000000
01000000
00100000
00000000
00001000
00010000
00001000
00000000
00010000
00000000
00001000
00000000
00000100
00000000
00000001
00000000
,
00000010
00000000
00000100
00000000
00000010
00000000
00000001
00000000
00001000
00000001
00000100
00000000
00000010
00001000
00000001
00000000
,
00000100
00000000
00000001
00000010
00000100
00001000
00000100
00000000
00010000
00000000
00001000
00100000
00010000
10000000
00100000
00000000
,
01000000
00000000
00010000
10000000
01000000
00000000
10000000
00010000
01000000
00000000
00100000
00000000
10100000
00000000
00000000
00000000
,
00010000
00000000
00000000
00000000
10000000
00000000
00000000
00000000
00010000
00000000
00000000
00000000
10000000
00000000
00000000
00000000
01000000
00000000
00000000
00000000
00000000
00000000
00000000
00000000
00100000
00000000
00000000
00000000
00000000
00000000
00000000
00000000
00001000
00000000
00000000
00000000
00000000
00000000
00000000
00000000
00010000
00000000
00000000
00000000
00000000
00000000
00000000
00000000
00002000
00003000
00000000
00000000
00020000
00030000
00000000
00000000
00002000
00003000
00000000
00000000
00020000
00030000
00000000
00000000
,
00002000
00000000
00000000
00000000
00013000
00000100
00001000
00000100
00000010
00000000
00000001
00000000
00001000
00000000
00000001
00000000
,
00000100
00000001
00000010
00000000
00000100
00010000
00001000
00000000
01000000
00010000
01000000
00100000
20000000
00000000
00000000
00000000
,
30010000
00000000
00000000
00000000
00100000
01000000
00010000
00000000
00001000
00000000
00000010
00000000
00000100
00000000
00000010
00000000
,
00000001
00000000
00000000
00001000
00000000
00000000
00000001
00000000
00000000
00001000
00000000
00000000
00000010
00000000
00000000
00000100
00000000
00000000
00000001
00000000
00000000
00000000
00000000
00000000
00001000
00000000
00000000
00000000
00000000
00000000
00000100
00000000
00000000
00000000
00000000
00000000
00000020
00000030
00000000
00000020
00000030
00000000
00000002
00000000
00000000
00000000
00000000
00000000
,
00000000
00000000
00000103
00000010
00001000
00000010
00000100
00000000
00000001
00000000
00000010
00000000
00000100
00000000
00010000
00000000
,
00001000
00010000
00001000
00010000
00100000
00000000
01000000
00000000
00010000
00000000
20010000
00000000
30010000
00000000
00000000
00000000
,
10000000
01000000
00100000
00000000
00020000
00000000
01000000
00000000
20030000
00000000
00100000
00000000
30010000
10000000
00010000
10000000
,
01000000
00000000
00000000
00000000
00100000
00000000
00000000
00000000
00010000
00000000
00000000
00000000
00000000
00000000
00000000
00000000
00100000
00000000
00000000
00000000
00000000
00000000
00000000
00000000
00001000
00000000
00000000
00000000
00010000
00000000
00000000
00000000
00001000
00000000
00000000
00000000
00010000
00000000
00000000
00000000
00000010
00000000
00000000
00000000
00010000
00000000
00000000
00000000
00002000
00003000
00000000
00000000
00000200
00000300
00000000
00000000
00000002
00000003
00000000
00000000
00002000
00003000
00000000
00000000
,
00000100
00000000
00000010
00000000
00001000
00000000
00010000
00000000
00001000
00000000
00000100
00000000
00000010
00001000
00000010
00001000
,
00000002
00000000
00000000
00000000
00000000
00000000
00000000
00000003
,
00000001
00000000
00001000
00000000
00000001
00000010
00000100
00000000
00010000
00000000
00001000
01000000
00010000
00000000
10000000
00000000
,
01000000
00000000
00000000
00100000
00000000
00000000
00010000
00000000
00000000
00100000
00000000
00000000
01000000
00000000
00000000
00100000
00000000
00000000
00010000
00000000
00000000
00000000
00000000
00000000
10000000
00000000
00000000
00000000
00000000
00000000
00010000
00000000
00000000
00000000
00000000
00000000
20000000
30000000
00000000
00000000
00000000
00000000
20000000
30000000
00000000
00000000
00000000
00000000
,
10010000
00000000
00000000
00000000
10000000
01000000
00100000
00010000
00100000
00000000
00001000
00010000
00001000
00000000
00000100
00000000
,
00000010
00000000
00000000
00000000
00000000
00000000
00000000
00000000
00000100
00000000
00000000
00000000
00000000
00000000
00000000
00000000
00000001
00000000
00000000
00000000
00000000
00000000
00000000
00000000
00001000
00000000
00000000
00000000
00000000
00000000
00000000
00000000
00000002
00000003
00000000
00000000
00000200
00000300
00000000
00000000
00002000
00003000
00000000
00000000
00020000
00030000
00000000
00000000
01000000
00000000
00000000
00000000
00000000
00000000
00000000
00000000
00000000
00000000
00000000
00000000
00000000
00000000
00000000
00000000
,
10000000
00010000
10000000
00000000
00100000
00000000
10000000
00010000
10000000
00000000
01000000
00000000
00100000
00010000
00100000
00001000
,
00010000
00001000
00010000
00000000
00001000
00000000
00010000
00000010
00001000
00000001
00000100
00000001
00000100
00000000
00000001
00000000
,
00001000
00000000
00000001
00000000
00000010
00000100
00000010
00000100
00000010
00000100
00000010
00000000
00000200
00000000
00000000
00000000
,
00000000
00000000
00000310
00002002
,
00000000
00000000
00000000
00000000
,
00000000
00000000
00000000
00000000
00000000
00003003
00022000
00000000
,
00000000
00000000
00000000
00000000
,
00000000
00000000
00000000
00000000
00000000
00033000
00001000
00010000
,
00100000
00000000
01000000
00100000
00000000
00010000
00000000
00001000
,
00000000
00000010
00000000
00001000
00000000
00010000
00001000
00010000
,
01000000
00000000
00010000
00001000
00000000
00000100
00001000
00000000
,
00010000
01000000
00000000
00010000
00000000
00001000
00000100
00000001
,
00000100
00000000
00001000
00010000
00000000
00100000
00000000
10000000
,
00000000
00100000
00000000
00010000
00000000
00001000
00010000
00001000
,
00000010
00000000
00000001
00000010
00000000
00001000
00010000
00000000
,
00001000
00010000
00000000
00100000
00000000
10000000
00010000
00000000
,
11000000
00000000
10000000
01000000
00010000
00000000
00001000
00000100
,
00000001
00000000
00000010
00000100
00001000
00000000
00001100
00000000
,
00000110
00000000
00000001
00001000
00000010
00000000
00001010
00000000
,
00010010
00000000
00000000
00000000
00011000
00000000
00000000
00000000
00001000
00010000
00001000
00010000
00001000
00000000
00000000
00000000
,
00010000
00000000
00001000
00000000
00100000
00010000
10000000
00000000
01000000
00000000
00100000
00000000
00001000
00000000
00010000
00000000
,
00001000
00000000
00000010
00000000
00001000
00000000
00010000
00001000
00010000
00000000
00001000
00000000
01000000
00000000
00020000
00000000
,
10000000
00000000
10030000
01000000
00100000
00001000
00010000
00001000
,
00000010
00000000
00000001
00000000
00000100
00000010
00000100
00000010
00000200
00000000
00000000
00000000
00000000
00000000
00000000
00000000
,
00000301
00000010
00001000
00010000
00100000
10000000
10010000
00000000
,
00010000
10000000
01000000
00000000
00100000
00000000
00001000
00010000
00001000
00000000
00000100
00000000
00000001
00000000
00000010
00000000
,
00000100
00000000
00000000
00000000
00001000
00000010
00001000
00000001
00000010
00000000
00000100
00001000
00000100
00000000
00010000
00000000
,
00001000
00010000
00001000
00000000
00100000
00000000
00001000
00010000
00001000
00000000
00010000
00000010
00010000
00000000
00001000
00000000
,
00100000
00000000
00000000
00000000
00001000
00010000
00100000
00000000
01000000
00000000
00010000
00000000
10010000
00000000
00000000
00000000
,
10000000
01000000
00100000
00000000
00001000
00000000
00010000
00001000
00000100
00000000
00000001
00001000
00000100
00000000
00000010
00000000
,
00000011
00000000
00000000
00000000
00001000
00000000
00000100
00000001
00000100
00000000
00000010
00000000
00000001
00000000
00001000
00000000
,
00000010
00000000
00000100
00000000
00001000
00000000
00010000
00000000
00001000
00010000
00001000
01000000
00001000
00010000
00001000
00000000
,
00020000
00001000
00002000
00033000
,
00001000
00100000
00010000
00000000
10000000
00100000
01000000
00000000
00010000
00000000
10000000
01000000
00100000
00000000
00001000
00000000
,
00010000
00001000
00010000
00000010
00010000
00001000
00010000
00000000
00001000
00000000
00000100
00000000
00000001
00001000
00000001
00001000
,
00000100
00000000
00000010
00000001
00000010
00000100
00001000
00000000
00000010
00000000
00000100
00000000
00001000
00010000
00001000
00000000
,
00010000
00000000
00001000
00100000
00010000
00000000
10000000
00010000
01000000
00000000
00010000
10000000
01000000
00100000
00001000
00000000
,
00010000
00000000
00000100
00001000
00000001
00000000
00000100
00000010
00001000
00000001
00000010
00000000
00000100
00000000
00001000
00000000
,
00000100
00010000
00001000
00010000
00100000
01000000
00100000
00000000
10000000
00000000
00010000
00000000
00100000
00010000
00100000
00010000
,
00100000
00100000
00001000
00001000
01000000
01000000
00010000
00010000
,
10000000
01000000
00100000
00000000
00001000
00010000
00000100
00000000
00001000
00000001
00000100
00000010
00001000
00000000
00000000
00000000
,
00002020
00000000
00000000
00000000
,
00000000
00000000
00000000
00000000
,
00003030
00000000
00000000
00000000
;

//--------------- dance-double - Fred-104† ----------------
#NOTEDATA:;
#STEPSTYPE:dance-double;
#DESCRIPTION:Fred-104†;
#DIFFICULTY:Challenge;
#METER:18;
#CREDIT:Fred-104†;
#NOTES:
00000000
00000000
00000000
00000000
,
00000000
00000000
00000000
00000000
,
00000000
00000000
00000000
00000000
,
00000000
00000000
00000000
00000000
,
00000000
00000000
00000000
00000000
,
00000000
00000000
00000000
00000000
,
00000000
00000000
00000000
00000000
,
00000000
00000000
00000000
00000000
,
00000000
00000000
00000000
00000000
,
00011000
00000000
00010000
00001000
00000100
00000000
00000001
00000000
,
00000010
00000100
00001000
00001100
00000000
00000001
00001001
00000000
,
00000001
00000100
00001000
00000000
00010000
01000000
10000000
00000000
,
10010000
00000000
00000000
00000000
00010000
00000000
01000000
00000000
00000000
00000000
10000000
00000000
01000000
00100000
01000000
00100000
,
01000000
00010000
10000000
01000000
00000000
00100000
00101000
00000000
,
00011000
00010000
00001000
00000100
00000000
00000010
00000110
00000000
,
00001001
00001000
00000100
00000000
00000110
00000010
00000000
00000001
,
00000100
00000000
00000000
00000000
00000000
00000000
00000000
00000000
00000000
00000000
00000000
00000000
00000000
00000000
00000000
00000000
00000000
00000000
00000000
00000000
00000000
00000000
00000000
00000000
00001000
00000000
00000000
00000000
00000000
00000000
00000000
00000000
00000000
00000000
00000000
00000000
00000000
00000000
00000000
00000000
00000000
00000000
00000000
00000000
00000000
00000000
00000000
00000000
00010000
00000000
00000000
00000000
00000000
00000000
00000000
00000000
00000000
00000000
00000000
00000000
00000000
00000000
00000000
00000000
00000000
00000000
00000000
00000000
00000000
00000000
00000000
00000000
00001000
00000000
00000000
00000000
00000000
00000000
00000000
00000000
00000000
00000000
00000000
00000000
00000000
00000000
00000000
00000000
00000000
00000000
00000000
00000000
00000000
00000000
00000000
00000000
00022000
00033000
00000000
00000000
00000000
00000000
00000000
00000000
00000000
00000000
00000000
00000000
00000000
00000000
00000000
00000000
00000000
00000000
00000000
00000000
00000000
00000000
00000000
00000000
02002000
03003000
00000000
00000000
00000000
00000000
00000000
00000000
00000000
00000000
00000000
00000000
00000000
00000000
00000000
00000000
00000000
00000000
00000000
00000000
00000000
00000000
00000000
00000000
00001000
00000000
00000000
00000000
00000000
00000000
00000000
00000000
00000000
00000000
00000000
00000000
00000000
00000000
00000000
00000000
00000000
00000000
00000000
00000000
00000000
00000000
00000000
00000000
00010000
00000000
00000000
00000000
00000000
00000000
00000000
00000000
00000000
00000000
00000000
00000000
00000000
00000000
00000000
00000000
00000000
00000000
00000000
00000000
00000000
00000000
00000000
00000000
,
00100000
00000000
00000000
00000000
00000000
00000000
00000000
00000000
00000000
00000000
00000000
00000000
10000000
00000000
00000000
00000000
00000000
00000000
00000000
00000000
00000000
00000000
00000000
00000000
00010000
00000000
00000000
00000000
00000000
00000000
00000000
00000000
00000000
00000000
00000000
00000000
00000000
00000000
00000000
00000000
00000000
00000000
00000000
00000000
00000000
00000000
00000000
00000000
00100000
00000000
00000000
00000000
00000000
00000000
00000000
00000000
00000000
00000000
00000000
00000000
01000000
00000000
00000000
00000000
00000000
00000000
00000000
00000000
00000000
00000000
00000000
00000000
20000000
30000000
00000000
00000000
00000000
00000000
00000000
00000000
00000000
00000000
00000000
00000000
00000000
00000000
00000000
00000000
00000000
00000000
00000000
00000000
00000000
00000000
00000000
00000000
00010000
00000000
00000000
00000000
00000000
00000000
00000000
00000000
00000000
00000000
00000000
00000000
00000000
00000000
00000000
00000000
00000000
00000000
00000000
00000000
00000000
00000000
00000000
00000000
00000000
00000000
00000000
00000000
00000000
00000000
00000000
00000000
00000000
00000000
00000000
00000000
00010000
00000000
00000000
00000000
00000000
00000000
00000000
00000000
00000000
00000000
00000000
00000000
10000000
00000000
00000000
00000000
00000000
00000000
00000000
00000000
00000000
00000000
00000000
00000000
01000000
00000000
00000000
00000000
00000000
00000000
00000000
00000000
00000000
00000000
00000000
00000000
00100000
00000000
00000000
00000000
00000000
00000000
00000000
00000000
00000000
00000000
00000000
00000000
00000000
00000000
00000000
00000000
00000000
00000000
00000000
00000000
00000000
00000000
00000000
00000000
,
00001000
00000000
00000000
00000000
00000000
00000000
00000000
00000000
00000000
00000000
00000000
00000000
00010000
00000000
00000000
00000000
00000000
00000000
00000000
00000000
00000000
00000000
00000000
00000000
00001000
00000000
00000000
00000000
00000000
00000000
00000000
00000000
00000000
00000000
00000000
00000000
00010000
00000000
00000000
00000000
00000000
00000000
00000000
00000000
00000000
00000000
00000000
00000000
00002000
00003000
00000000
00000000
00000000
00000000
00000000
00000000
00000000
00000000
00000000
00000000
00000000
00000000
00000000
00000000
00000000
00000000
00000000
00000000
00000000
00000000
00000000
00000000
00010000
00000000
00000000
00000000
00000000
00000000
00000000
00000000
00000000
00000000
00000000
00000000
00000100
00000000
00000000
00000000
00000000
00000000
00000000
00000000
00000000
00000000
00000000
00000000
00001000
00000000
00000000
00000000
00000000
00000000
00000000
00000000
00000000
00000000
00000000
00000000
00000001
00000000
00000000
00000000
00000000
00000000
00000000
00000000
00000000
00000000
00000000
00000000
00001000
00000000
00000000
00000000
00000000
00000000
00000000
00000000
00000000
00000000
00000000
00000000
00000000
00000000
00000000
00000000
00000000
00000000
00000000
00000000
00000000
00000000
00000000
00000000
00000100
00000000
00000000
00000000
00000000
00000000
00000000
00000000
00000000
00000000
00000000
00000000
00000010
00000000
00000000
00000000
00000000
00000000
00000000
00000000
00000000
00000000
00000000
00000000
00000001
00000000
00000000
00000000
00000000
00000000
00000000
00000000
00000000
00000000
00000000
00000000
00000000
00000000
00000000
00000000
00000000
00000000
00000000
00000000
00000000
00000000
00000000
00000000
,
00001000
00000000
00000000
00000000
00000000
00000000
00000000
00000000
00000000
00000000
00000000
00000000
00000000
00000000
00000000
00000000
00000000
00000000
00000000
00000000
00000000
00000000
00000000
00000000
00000020
00000030
00000000
00000000
00000000
00000000
00000000
00000000
00000000
00000000
00000000
00000000
00000020
00000030
00000000
00000000
00000000
00000000
00000000
00000000
00000000
00000000
00000000
00000000
00000100
00000000
00000000
00000000
00000000
00000000
00000000
00000000
00000000
00000000
00000000
00000000
00000000
00000000
00000000
00000000
00000000
00000000
00000000
00000000
00000000
00000000
00000000
00000000
00000100
00000000
00000000
00000000
00000000
00000000
00000000
00000000
00000000
00000000
00000000
00000000
00000001
00000000
00000000
00000000
00000000
00000000
00000000
00000000
00000000
00000000
00000000
00000000
00000100
00000000
00000000
00000000
00000000
00000000
00000000
00000000
00000000
00000000
00000000
00000000
00000000
00000000
00000000
00000000
00000000
00000000
00000000
00000000
00000000
00000000
00000000
00000000
00000001
00000000
00000000
00000000
00000000
00000000
00000000
00000000
00000000
00000000
00000000
00000000
00000000
00000000
00000000
00000000
00000000
00000000
00000000
00000000
00000000
00000000
00000000
00000000
00000200
00000300
00000000
00000000
00000000
00000000
00000000
00000000
00000000
00000000
00000000
00000000
00000000
00000000
00000000
00000000
00000000
00000000
00000000
00000000
00000000
00000000
00000000
00000000
00000200
00000300
00000000
00000000
00000000
00000000
00000000
00000000
00000000
00000000
00000000
00000000
00000000
00000000
00000000
00000000
00000000
00000000
00000000
00000000
00000000
00000000
00000000
00000000
,
00000010
00000000
00011000
00010010
00000000
00101000
00000000
00011000
,
00000000
00000000
00001000
00000000
00010000
00000000
00100000
00000000
01000000
00000000
00010000
00000000
00100000
00100000
01100000
00000000
,
10000000
01000000
00100000
00000000
00000000
00000000
00001000
00000000
00000000
00000000
00010000
00000000
00000010
00001000
00000001
00000000
,
00000010
00000000
00000000
00000000
00000000
00000000
00000000
00000000
00000000
00000000
00000000
00000000
00000000
00000000
00000000
00000000
00000000
00000000
00000000
00000000
00000000
00000000
00000000
00000000
00001000
00000000
00000000
00000000
00000000
00000000
00000000
00000000
00000000
00000000
00000000
00000000
00010000
00000000
00000000
00000000
00000000
00000000
00000000
00000000
00000000
00000000
00000000
00000000
00022000
00033000
00000000
00000000
00000000
00000000
00000000
00000000
00000000
00000000
00000000
00000000
00000000
00000000
00000000
00000000
00000000
00000000
00000000
00000000
00000000
00000000
00000000
00000000
20020000
00030000
00000000
00000000
00000000
00000000
00000000
00000000
00000000
00000000
00000000
00000000
00000000
00000000
00000000
00000000
00000000
00000000
00000000
00000000
00000000
00000000
00000000
00000000
30010000
00000000
00000000
00000000
00000000
00000000
00000000
00000000
00000000
00000000
00000000
00000000
10000000
00000000
00000000
00000000
00000000
00000000
00000000
00000000
00000000
00000000
00000000
00000000
01000000
00000000
00000000
00000000
00000000
00000000
00000000
00000000
00000000
00000000
00000000
00000000
00000000
00000000
00000000
00000000
00000000
00000000
00000000
00000000
00000000
00000000
00000000
00000000
00100000
00000000
00000000
00000000
00000000
00000000
00000000
00000000
00000000
00000000
00000000
00000000
00000000
00000000
00000000
00000000
00000000
00000000
00000000
00000000
00000000
00000000
00000000
00000000
00001000
00000000
00000000
00000000
00000000
00000000
00000000
00000000
00000000
00000000
00000000
00000000
00000000
00000000
00000000
00000000
00000000
00000000
00000000
00000000
00000000
00000000
00000000
00000000
,
00010000
00000000
00001000
00000100
00000001
00000000
00001000
00000000
00000100
00000010
00000001
00000010
00000100
00000010
00000001
00000000
,
00000100
00000000
00001000
00010000
00001000
00000000
00010000
00000000
00011000
00000000
00001000
00000000
00100000
00010000
10000000
00000000
,
00100000
00000000
01000000
00010000
10000000
00000000
00010000
00000000
00100000
00000000
00001000
00010000
00001000
00000010
00000100
00000010
,
00000001
00000000
00001000
00000000
00000001
00000100
00000001
00000100
00000001
00000000
00001000
00000000
00000100
00000000
00000010
00000001
,
00000010
00000000
00000100
00000000
00010000
00000000
00001000
00010000
00001000
00000000
00100000
00000000
00001000
00000000
00010000
00000000
,
00001000
01000000
00001000
01000000
00010000
10000000
01000000
00100000
01000000
00000000
10000000
00000000
00010000
01000000
00001000
00000000
,
00010000
00000000
00000000
00000000
00000000
00000000
00001000
00000000
00000000
00000100
00000000
00000000
00000001
00000000
00000000
00000000
00000000
00000000
00001000
00000000
00000000
00000000
00000000
00000000
00000010
00000000
00000000
00000100
00000000
00000000
00000000
00000000
00000000
00000000
00000000
00000000
00000001
00000000
00000000
00000000
00000001
00000000
00000000
00000000
00000001
00000000
00000000
00000000
,
00000002
00000000
00000000
00000000
00000000
00000000
00000000
00000003
,
00001000
00000000
00000001
00000010
00000100
00000000
00010000
00001000
00010000
00001000
00010000
00000000
00001000
00000000
01000000
00000000
,
00010000
10000000
01000000
10000000
00010000
01000000
00100000
00000000
10000000
00000000
01000000
00000000
00100000
00001000
00100000
00001000
,
00010000
00000000
00001000
00010000
00000010
00010000
00001000
00000000
00010000
00001000
00100000
00001000
00010000
00001000
01000000
00000000
,
00010000
00000000
10000000
01000000
00100000
00010000
00100000
00001000
00010000
00000000
00001000
00000000
00010000
00000010
00001000
00000010
,
00010000
00000000
00001000
00010000
00000010
00001000
00000001
00000010
00000100
00001000
00000100
00000000
00010000
00000000
00010000
00000000
,
00001000
00000000
00000000
00000000
00000000
00000000
00000000
00000000
00000000
00000000
00000000
00000000
00100000
00000000
00000000
00000000
00000000
00000000
00000000
00000000
00000000
00000000
00000000
00000000
00010000
00000000
00000000
00000000
00000000
00000000
00000000
00000000
00000000
00000000
00000000
00000000
00100000
00000000
00000000
00000000
00000000
00000000
00000000
00000000
00000000
00000000
00000000
00000000
00001000
00000000
00000000
00000000
00000000
00000000
00000000
00000000
00000000
00000000
00000000
00000000
00010000
00000000
00000000
00000000
00000000
00000000
00000000
00000000
00000000
00000000
00000000
00000000
00000010
00000000
00000000
00000000
00000000
00000000
00000000
00000000
00000000
00000000
00000000
00000000
00000000
00000000
00000000
00000000
00000000
00000000
00000000
00000000
00000000
00000000
00000000
00000000
00010000
00000000
00000000
00000000
00000000
00000000
00000000
00000000
00000000
00000000
00000000
00000000
00000000
00000000
00000000
00000000
00000000
00000000
00000000
00000000
00000000
00000000
00000000
00000000
00001000
00000000
00000000
00000000
00000000
00000000
00000000
00000000
00000000
00000000
00000000
00000000
00000000
00000000
00000000
00000000
00000000
00000000
00000000
00000000
00000000
00000000
00000000
00000000
00020000
00030000
00000000
00000000
00000000
00000000
00000000
00000000
00000000
00000000
00000000
00000000
00002000
00003000
00000000
00000000
00000000
00000000
00000000
00000000
00000000
00000000
00000000
00000000
00020000
00030000
00000000
00000000
00000000
00000000
00000000
00000000
00000000
00000000
00000000
00000000
00002000
00003000
00000000
00000000
00000000
00000000
00000000
00000000
00000000
00000000
00000000
00000000
,
00010000
00000000
00001000
00000100
00000010
00000100
00000010
00001000
00000001
00000000
00000010
00000100
00000010
00000000
00000001
00000000
,
00001000
00000001
00000010
00000100
00001000
00000100
00010000
00000000
00001000
00010000
00000010
00010000
00002000
00000000
00000000
00000000
,
00013000
00000000
00000000
00000000
00100000
01000000
00010000
10000000
01000000
00000000
00100000
00001000
00010000
00000000
00001000
00010000
,
00000010
00000000
00000000
00000000
00000000
00000000
00000000
00000000
00000000
00000000
00000000
00000000
00010000
00000000
00000000
00000000
00000000
00000000
00000000
00000000
00000000
00000000
00000000
00000000
00001000
00000000
00000000
00000000
00000000
00000000
00000000
00000000
00000000
00000000
00000000
00000000
00010000
00000000
00000000
00000000
00000000
00000000
00000000
00000000
00000000
00000000
00000000
00000000
00000100
00000000
00000000
00000000
00000000
00000000
00000000
00000000
00000000
00000000
00000000
00000000
00001000
00000000
00000000
00000000
00000000
00000000
00000000
00000000
00000000
00000000
00000000
00000000
00000001
00000000
00000000
00000000
00000000
00000000
00000000
00000000
00000000
00000000
00000000
00000000
00000000
00000000
00000000
00000000
00000000
00000000
00000000
00000000
00000000
00000000
00000000
00000000
00000010
00000000
00000000
00000000
00000000
00000000
00000000
00000000
00000000
00000000
00000000
00000000
00000000
00000000
00000000
00000000
00000000
00000000
00000000
00000000
00000000
00000000
00000000
00000000
00000100
00000000
00000000
00000000
00000000
00000000
00000000
00000000
00000000
00000000
00000000
00000000
00001000
00000000
00000000
00000000
00000000
00000000
00000000
00000000
00000000
00000000
00000000
00000000
00000002
00000003
00000000
00000000
00000000
00000000
00000000
00000000
00000000
00000000
00000000
00000000
00000002
00000003
00000000
00000000
00000000
00000000
00000000
00000000
00000000
00000000
00000000
00000000
00001000
00000000
00000000
00000000
00000000
00000000
00000000
00000000
00000000
00000000
00000000
00000000
00000100
00000000
00000000
00000000
00000000
00000000
00000000
00000000
00000000
00000000
00000000
00000000
,
00000000
00000100
00000010
00000001
00000010
00000001
00001000
00000000
00000010
00000100
00001000
00000000
00010000
00000000
00100000
00000000
,
01000000
00000000
10000000
00000000
01000000
00000000
00010000
00000000
10000000
00000000
00000000
00000000
01000000
00000000
00000000
00000000
00100000
00000000
00000000
00000000
02200000
00000000
00000000
03300000
10010000
00000000
00000000
00000000
00000000
00000000
00010000
00000000
,
10000000
00100000
01000000
00010000
00200000
00000000
00010000
00000000
00302000
00000000
00010000
00000000
00103000
00001000
00010000
00000010
,
00001000
00000000
00000000
00000000
00000000
00000000
00000000
00000000
00000000
00000000
00000000
00000000
00000001
00000000
00000000
00000000
00000000
00000000
00000000
00000000
00000000
00000000
00000000
00000000
00000010
00000000
00000000
00000000
00000000
00000000
00000000
00000000
00000000
00000000
00000000
00000000
00000000
00000000
00000000
00000000
00000000
00000000
00000000
00000000
00000000
00000000
00000000
00000000
00000100
00000000
00000000
00000000
00000000
00000000
00000000
00000000
00000000
00000000
00000000
00000000
00000000
00000000
00000000
00000000
00000000
00000000
00000000
00000000
00000000
00000000
00000000
00000000
00010000
00000000
00000000
00000000
00000000
00000000
00000000
00000000
00000000
00000000
00000000
00000000
00001000
00000000
00000000
00000000
00000000
00000000
00000000
00000000
00000000
00000000
00000000
00000000
01000000
00000000
00000000
00000000
00000000
00000000
00000000
00000000
00000000
00000000
00000000
00000000
00010000
00000000
00000000
00000000
00000000
00000000
00000000
00000000
00000000
00000000
00000000
00000000
10000000
00000000
00000000
00000000
00000000
00000000
00000000
00000000
00000000
00000000
00000000
00000000
01000000
00000000
00000000
00000000
00000000
00000000
00000000
00000000
00000000
00000000
00000000
00000000
00200000
00300000
00000000
00000000
00000000
00000000
00000000
00000000
00000000
00000000
00000000
00000000
00002000
00003000
00000000
00000000
00000000
00000000
00000000
00000000
00000000
00000000
00000000
00000000
00000020
00000030
00000000
00000000
00000000
00000000
00000000
00000000
00000000
00000000
00000000
00000000
00000200
00000300
00000000
00000000
00000000
00000000
00000000
00000000
00000000
00000000
00000000
00000000
,
00001000
00000000
00000001
00001000
00000010
00000000
00010000
00000000
00001000
00000000
00010000
00000000
00100000
01000000
00100000
10000000
,
00020000
00000000
00000000
00000000
00000000
00000000
00000000
00030000
,
10000000
00000000
01000000
00000000
00010000
00001000
00010000
00001000
00000100
00000000
00000001
00001000
00000100
00000000
00000010
00000001
,
00001000
00000000
00000000
00000000
00000000
00000000
00000000
00000000
00000000
00000000
00000000
00000000
00000010
00000000
00000000
00000000
00000000
00000000
00000000
00000000
00000000
00000000
00000000
00000000
00010000
00000000
00000000
00000000
00000000
00000000
00000000
00000000
00000000
00000000
00000000
00000000
00001000
00000000
00000000
00000000
00000000
00000000
00000000
00000000
00000000
00000000
00000000
00000000
00010000
00000000
00000000
00000000
00000000
00000000
00000000
00000000
00000000
00000000
00000000
00000000
00000100
00000000
00000000
00000000
00000000
00000000
00000000
00000000
00000000
00000000
00000000
00000000
00001000
00000000
00000000
00000000
00000000
00000000
00000000
00000000
00000000
00000000
00000000
00000000
00000000
00000000
00000000
00000000
00000000
00000000
00000000
00000000
00000000
00000000
00000000
00000000
00000100
00000000
00000000
00000000
00000000
00000000
00000000
00000000
00000000
00000000
00000000
00000000
00000000
00000000
00000000
00000000
00000000
00000000
00000000
00000000
00000000
00000000
00000000
00000000
00010000
00000000
00000000
00000000
00000000
00000000
00000000
00000000
00000000
00000000
00000000
00000000
00001000
00000000
00000000
00000000
00000000
00000000
00000000
00000000
00000000
00000000
00000000
00000000
00020000
00030000
00000000
00000000
00000000
00000000
00000000
00000000
00000000
00000000
00000000
00000000
00000000
00000000
00000000
00000000
00000000
00000000
00000000
00000000
00000000
00000000
00000000
00000000
00020000
00030000
00000000
00000000
00000000
00000000
00000000
00000000
00000000
00000000
00000000
00000000
00000000
00000000
00000000
00000000
00000000
00000000
00000000
00000000
00000000
00000000
00000000
00000000
,
00011000
00000000
00000000
00000000
00001000
00010000
00100000
00000000
01000000
00000000
00010000
10000000
01000000
00000000
00100000
00000000
,
00001000
00000000
00000000
00000000
00000000
00000000
00000000
00000000
00000000
00000000
00000000
00000000
00000000
00000000
00000000
00000000
00000000
00000000
00000000
00000000
00000000
00000000
00000000
00000000
00010000
00000000
00000000
00000000
00000000
00000000
00000000
00000000
00000000
00000000
00000000
00000000
00000100
00000000
00000000
00000000
00000000
00000000
00000000
00000000
00000000
00000000
00000000
00000000
00001000
00000000
00000000
00000000
00000000
00000000
00000000
00000000
00000000
00000000
00000000
00000000
00000000
00000000
00000000
00000000
00000000
00000000
00000000
00000000
00000000
00000000
00000000
00000000
00000100
00000000
00000000
00000000
00000000
00000000
00000000
00000000
00000000
00000000
00000000
00000000
00010000
00000000
00000000
00000000
00000000
00000000
00000000
00000000
00000000
00000000
00000000
00000000
00002000
00003000
00000000
00000000
00000000
00000000
00000000
00000000
00000000
00000000
00000000
00000000
00020000
00030000
00000000
00000000
00000000
00000000
00000000
00000000
00000000
00000000
00000000
00000000
00002000
00003000
00000000
00000000
00000000
00000000
00000000
00000000
00000000
00000000
00000000
00000000
00020000
00030000
00000000
00000000
00000000
00000000
00000000
00000000
00000000
00000000
00000000
00000000
00011000
00000000
00000000
00000000
00000000
00000000
00000000
00000000
00000000
00000000
00000000
00000000
00000000
00000000
00000000
00000000
00000000
00000000
00000000
00000000
00000000
00000000
00000000
00000000
00000000
00000000
00000000
00000000
00000000
00000000
00000000
00000000
00000000
00000000
00000000
00000000
00000000
00000000
00000000
00000000
00000000
00000000
00000000
00000000
00000000
00000000
00000000
00000000
,
00010000
00000010
00001000
00000000
00000100
00000000
00000010
00000001
00000100
00000000
00000010
00001000
00000001
00000010
00000100
00000010
,
00000001
00000010
00000100
00000000
00001000
00000000
00000010
00010000
00001000
00100000
00010000
10000000
00010000
00000000
10000000
00000000
,
01000000
00000000
00100000
00000000
00010000
01000000
00100000
10000000
01000000
00100000
00010000
00100000
00002000
00000000
00000000
00000000
,
00000000
00000000
00013000
00022000
,
00000000
00000000
00000000
00000000
,
00000000
00000000
00000000
00000000
00000000
00033000
00002002
00000000
,
00000000
00000000
00000000
00000000
,
00000000
00000000
00000000
00000000
00000000
00003003
00010000
00001000
,
00000100
00000001
00001000
00000100
00000010
00000001
00001000
00000010
,
00000100
00001000
00000001
00000010
00000100
00000001
00001000
00000010
,
00000100
00001000
00010000
00100000
10000000
00010000
00100000
01000000
,
00010000
10000000
00100000
00010000
10000000
01000000
00100000
00010000
,
00001000
00010000
00100000
00010000
00001000
00000100
00000010
00000001
,
00000100
00000010
00000001
00001000
00000100
00000010
00001000
00000001
,
00000100
00001000
00010000
00100000
10000000
01000000
00100000
00000000
,
00001000
00010000
00000000
00000100
00001000
00000001
00001001
00001000
,
00000010
00000100
00000001
00001000
00001100
00000000
00010100
00010000
,
00001000
00010000
00100000
01000000
00010000
10000000
11000000
00000000
,
10000000
00010000
10000000
00100000
01000000
00000000
00010000
10000000
01000000
00000000
00100000
00000000
00001000
00000000
00010000
00000000
,
00100000
00000000
01000000
00000000
00010000
00000000
00001000
00000000
00000010
00000100
00000010
00000100
00000010
00000000
00000100
00000000
,
00000110
00001000
00000100
00000010
00000011
00000000
00001000
00000001
,
00000101
00000000
00000000
00000000
00000001
00000000
00000100
00001000
00010000
00000000
00001000
00000000
00000100
00000000
00000000
00000000
,
00000001
00000010
00000100
00000000
00001000
00000000
00000001
00000010
00001000
00000000
00010000
00000000
01000000
00000000
01000000
00000000
,
00100000
00000000
00100000
00000000
00010000
10000000
00010000
10000000
00020000
00000000
00000000
00000000
00000000
00000000
00000000
00030000
,
10000000
00000000
10000000
00000000
01000000
00100000
00010000
10000000
00010000
00000000
01000000
00001000
00010000
00000000
00001000
00000000
,
00010000
00001000
00000000
00001000
00010000
00000000
00000010
00000000
00001000
00000100
00000010
00000001
00001000
00000002
00000010
00000000
,
00001003
00000000
00000000
00000000
00000001
00000010
00000100
00001000
00000001
00000000
00000100
00000010
00000100
00000000
00000001
00000000
,
00001000
00000001
00000000
00000010
00000100
00000000
00010000
00001000
00100000
00000000
00010000
00100000
00001000
00000000
00010000
00000000
,
01000000
00000000
00100000
00010000
01000000
00100000
10000000
00000000
01000000
00000000
00100000
00000000
00001000
00000000
00010000
00000000
,
00001000
01000000
00010000
00000000
10000000
00000000
01000000
00100000
00001000
00000000
00010000
01000000
00010000
00000000
00001000
00000000
,
00010000
00000000
00001000
00000000
00000100
00000001
00001000
00000100
00000010
00000000
00000010
00000001
00001000
00000000
00000010
00000000
,
00000100
00000000
00001000
00000000
00010000
00000000
00001000
00000000
00000010
00000100
00000010
00000001
00001000
00000010
00000100
00000000
,
00000002
00000000
00000000
00000000
00000000
00000000
00000000
00000000
00002000
00000000
00000000
00000000
00000000
00000000
00000000
00003003
,
00000001
00000010
00000100
00001000
00000100
00000010
00000001
00000000
00001000
00000000
00000010
00010000
00001000
00010000
00001000
00000000
,
01000000
00010000
01000000
00001000
00010000
00000100
00010000
00000000
00001000
00000000
00000100
00000010
00001000
00000100
00000010
00000001
,
00001000
00000000
00000010
00010000
00001000
00100000
00010000
00000000
10000000
00010000
01000000
00100000
10000000
00010000
00100000
00000000
,
01000000
10000000
00010000
01000000
00001000
00010000
00000100
00010000
00001000
00100000
00010000
00100000
00001000
00010000
00000010
00001000
,
00000001
00000000
00000010
00000100
00001000
00000000
00000001
00000100
00000010
00000000
00000100
00000000
00001000
00010000
00001000
00000000
,
00100000
00010000
00100000
01000000
10000000
00100000
01000000
00010000
00100000
00000000
01000000
00000000
10000000
00010000
10000000
00010000
,
01000000
00001000
00010000
00001000
00000010
00000100
00000010
00000001
,
00001000
00000001
00000100
00000010
00000100
00001000
00010000
00100000
01000000
00010000
10000000
01000000
00100000
00000000
00000000
00000000
,
20020000
00000000
00000000
00000000
,
00000000
00000000
00000000
00000000
,
30030000
00000000
00000000
00000000
;
