#VERSION:0.83;
#TITLE:STARS☆☆☆(Re-tuned by HΛL) - IIDX EDITION -;
#ARTIST:TЁЯRA;
#TITLETRANSLIT:STARS(Re-tuned by HAL) - IIDX EDITION -;
#ARTISTTRANSLIT:TERRA;
#GENRE:HYPER J-POP+;
#BANNER:STARS(Re-tuned by HAL) - IIDX EDITION -.png;
#BACKGROUND:STARS(Re-tuned by HAL) - IIDX EDITION --bg.png;
#CDTITLE:./CDTitles/bm IIDX 14 GOLD.png;
#MUSIC:STARS(Re-tuned by HAL) - IIDX EDITION -.ogg;
#SAMPLESTART:57.1;
#SAMPLELENGTH:15;
#BPMS:0=145;
#TIMESIGNATURES:0=4=4,240=6=4,246=4=4;
#BGSTAGE:18;

//--------------- dance-single - Fred-104 ----------------
#NOTEDATA:;
#STEPSTYPE:dance-single;
#DESCRIPTION:Fred-104;
#DIFFICULTY:Beginner;
#METER:3;
#CREDIT:Fred-104;
#NOTES:
0000
0000
0000
0000
,
0000
0000
0000
0000
,
0000
0000
0000
0000
,
0001
0000
0000
0000
,
1000
0000
0000
0000
,
0002
0000
0003
1000
,
2000
0000
0000
3000
,
0002
0003
2000
3000
,
0001
0000
1000
0000
,
1001
0000
0000
0000
,
1000
0000
0100
0000
,
0001
0000
0000
0000
,
0001
0000
0100
0000
,
1000
0000
0000
0000
,
1000
0000
0010
0000
,
0001
0000
0000
0000
,
0001
0000
0010
0000
,
1000
0000
0000
0000
,
0001
0001
0001
0000
,
0100
0000
0010
0000
,
0100
0100
0100
0000
,
1000
0000
0100
0000
,
0001
0001
0001
0000
,
1000
0000
0100
0000
,
0010
0010
0010
0000
,
0001
0000
1000
0000
,
0002
0000
0000
0003
,
1000
1000
2000
3000
,
0002
0003
2000
3000
,
1001
0000
0000
0000
,
2000
0000
0000
3000
,
0020
0030
0002
0003
,
0010
0000
0010
0000
,
0100
0000
0001
0000
,
1000
0000
0001
0001
,
1001
0000
1000
0000
,
0200
0300
0200
0300
,
0020
0030
0020
0030
,
0002
0003
1000
0001
,
2000
0000
3001
0000
,
0002
0000
1003
0000
,
2000
0000
3001
0000
,
0002
0000
1003
0000
,
1001
0000
0000
0000
,
0002
0000
2003
0000
,
3020
0000
0130
0000
,
0001
0000
1000
1000
,
1000
0000
0100
0000
,
0010
0000
0001
0000
,
1000
0000
1000
0000
,
0001
0000
0001
0000
,
1001
0000
0000
0000
,
1000
0000
0000
0000
,
0010
0000
0000
0000
,
0001
0000
0000
0000
,
0100
0000
0000
0000
,
1000
0000
1000
0000
,
0001
0000
0001
0000
,
0100
0000
0100
0000
,
0010
0000
0010
0000
,
1001
0000
0000
0000
,
0000
0000
0001
0000
,
0010
0000
0200
0300
,
0200
0300
2000
3000
,
2000
3000
0001
0000
,
1000
0000
0001
0000
,
0010
0000
1000
0000
,
0100
0000
0001
0000
,
1000
0000
0001
0001
,
0001
0000
2002
0000
,
0000
0000
0000
0000
,
0000
0000
0000
0000
,
0000
0000
3003
0000
;

//--------------- dance-single - Fred-104 ----------------
#NOTEDATA:;
#STEPSTYPE:dance-single;
#DESCRIPTION:Fred-104;
#DIFFICULTY:Easy;
#METER:5;
#CREDIT:Fred-104;
#NOTES:
0000
0000
0000
0000
,
0000
0000
0000
0000
,
0000
0000
0000
0000
,
0000
0000
0000
0000
,
0000
0000
0000
0000
,
0200
0300
0000
0200
,
0320
0030
0020
0030
,
1001
0000
1000
1000
,
0001
0010
0001
0001
,
1001
0000
0000
0000
,
1000
0010
1000
0010
,
0002
0003
0002
0003
,
0001
0010
0001
0010
,
2000
3000
2000
3000
,
0001
0010
0100
0000
,
1000
0010
0100
0000
,
0001
1000
0100
0010
,
0002
0000
0000
0003
,
1000
0010
1000
1000
,
0001
0010
0001
0000
,
0100
0100
0010
0100
,
0001
1000
0001
0000
,
1000
1000
0100
0010
,
0100
0010
0001
0000
,
1000
0010
0010
0100
,
0001
0010
0001
0000
,
2000
0000
3100
0000
,
0002
0000
0013
0000
,
2000
0000
3001
0000
,
2002
0000
3003
0000
,
0001
0001
0100
1000
,
1000
0100
0010
0100
,
0001
0000
1000
0000
,
0100
0100
0010
0010
,
1001
0000
0100
0100
,
0002
0003
2000
3000
,
0100
0100
0010
0001
,
1000
0000
0001
0000
,
0100
0100
0001
1000
,
1001
0000
0001
0000
,
1000
0000
0001
0000
,
0110
0000
0100
0000
,
0110
0000
1001
0000
,
2000
0000
0000
0000
,
3002
0000
2003
0000
,
3020
0000
0130
0100
,
0001
1000
0100
0100
,
0010
0000
0001
0000
,
1000
0000
0001
0000
,
0100
0100
0010
0010
,
0100
0100
0100
0100
,
2002
0000
3003
0000
,
2000
0000
3020
0000
,
0130
0100
0001
1000
,
0001
0000
0010
0000
,
1000
0010
0001
0000
,
1000
0010
1000
0010
,
0001
0100
0001
0100
,
1000
0001
1000
0010
,
0100
0100
0001
0000
,
1001
0000
0110
0000
,
2002
3003
1000
1000
,
0001
0100
0010
0010
,
0100
0001
1000
1000
,
0100
0010
0001
1000
,
1001
0000
0001
0100
,
1000
0000
0001
0010
,
1000
0000
0100
0010
,
0001
1000
0001
0100
,
0110
0000
2002
0000
,
0000
0000
0000
0000
,
0000
0000
0000
0000
,
0000
0000
3003
0000
;

//--------------- dance-single - Fred-104 ----------------
#NOTEDATA:;
#STEPSTYPE:dance-single;
#DESCRIPTION:Fred-104;
#DIFFICULTY:Medium;
#METER:10;
#CREDIT:Fred-104;
#NOTES:
0000
0000
0000
0000
,
0000
0000
0000
0000
,
0000
0000
0000
0000
,
0000
0000
0000
0000
,
0000
0000
0000
0000
,
0002
0100
1000
0013
,
0200
1000
0001
0010
,
1300
0000
0000
1000
0000
0000
0010
0000
0100
0000
0000
0000
0101
0000
0000
0000
,
1000
0000
0100
0000
0001
0100
1000
0000
,
2002
0000
3000
0003
,
1000
0000
0100
0000
1000
0000
0000
0000
0020
0000
0000
0230
0000
0000
0002
0000
,
0000
0000
0303
1000
,
0001
0000
0100
0000
0001
0000
0000
0000
0020
0000
0000
0230
0000
0000
2300
0000
,
0000
0000
0000
3010
1000
0000
1001
0000
,
0002
0100
2000
3003
,
2000
0100
0002
3003
,
0002
0023
2030
3200
,
0301
0000
1000
0000
0100
0010
0001
0000
,
1000
0010
1000
0000
0010
0100
0000
0101
,
0000
0001
1000
0000
2002
0000
3003
0000
,
1000
0100
0010
0000
0001
1000
0000
1010
,
0000
0010
0100
0000
2002
0000
3003
0000
,
1000
0100
0001
0000
1000
0010
0001
0000
,
0001
1000
0001
0000
2002
0000
3003
0000
,
0001
0100
1000
0000
0001
0010
0000
1000
,
0001
0010
0110
0000
,
2000
0010
0002
3003
,
0002
0010
2000
3003
,
1000
0000
0000
0100
0000
0000
0001
0000
0001
0000
0000
0100
0000
0000
1000
0000
,
2002
0000
0000
0000
3003
0000
0001
1000
,
0200
0001
0010
1300
,
0002
0100
2003
0010
,
3001
0000
1000
0001
0010
0100
0010
0000
,
0001
0000
0001
0000
0100
0010
0100
0000
,
0110
0000
1010
0101
,
1002
0000
1003
0100
0001
0000
0100
0000
,
0010
0000
0000
0001
0000
0000
1000
0000
0010
0000
0000
0100
0000
0000
0001
0000
,
1000
0001
0100
0000
0001
1000
0100
1000
,
0000
0100
0010
0000
0100
0100
0110
0000
,
0002
0000
1003
0100
0000
1000
0010
0000
,
2000
0000
3001
0100
0000
0001
1000
0000
,
0100
1000
0001
0000
0100
0001
1000
0000
,
0001
0000
0010
0000
0100
0000
1000
0000
1001
0000
0000
0110
0000
0000
1001
0000
,
1001
0000
0100
0000
0010
0010
0010
0000
,
0002
0100
2003
0100
,
3020
1000
0001
0230
,
0302
0010
2003
0010
,
3001
0010
1000
0010
0001
0010
0100
0000
,
1000
0010
0001
0010
1000
0010
0100
0000
,
0001
0100
1000
0000
1000
0100
0001
0000
,
1000
0100
0001
0100
1000
0001
0100
0010
,
0100
0000
0000
0001
0000
0000
1001
0000
0000
0000
0000
0000
0000
0000
0000
0000
,
2000
0000
3020
0000
,
0032
0203
2300
3002
,
2003
0000
3002
0203
,
2300
3020
0032
1003
,
0001
0000
0100
1000
0000
0100
0001
0000
,
1000
0000
0100
0001
0000
0100
1000
0000
,
0001
0000
0100
0010
0000
1000
0001
0000
,
0010
0000
0100
0000
0010
0000
0100
0000
1000
0000
0000
0001
0000
0000
0100
0000
,
0110
0010
1000
0001
,
2002
0000
3003
0000
1001
0000
1000
0100
,
0001
0000
0000
0000
1000
0000
0010
0000
0100
0000
0000
1000
0000
0000
0001
0000
,
0100
0000
0000
0010
0000
0000
0010
0000
0100
0000
0001
0000
1000
0000
0000
0000
,
0001
0010
1000
0010
0000
0100
0010
0000
,
0011
0000
1001
0000
0002
0000
0103
0010
,
0000
1000
0001
0001
2000
0000
3100
0010
,
0000
0001
1000
1000
0001
0100
1000
0000
,
0001
0010
1000
0000
0001
1000
0010
1000
,
1001
0000
0000
1100
0000
0000
0110
0000
0022
0000
0000
0000
0000
0000
0000
0000
,
0000
0000
0000
0000
,
0000
0000
0000
0000
,
0000
0000
0033
0000
;

//--------------- dance-single - Fred-104 ----------------
#NOTEDATA:;
#STEPSTYPE:dance-single;
#DESCRIPTION:Fred-104;
#DIFFICULTY:Hard;
#METER:10;
#CREDIT:Fred-104;
#NOTES:
0000
0000
0000
0000
,
0000
0000
0000
0000
,
0000
0000
0000
0000
,
0000
0000
0000
0000
,
0000
0000
0000
0000
,
1000
0010
0100
0000
0010
1000
0100
0000
,
0010
0001
0100
0000
0010
1000
0001
0000
,
0010
0000
0000
0100
0000
0000
1000
0000
0001
0000
0100
0000
0010
0000
0000
0000
,
0100
0001
0000
0100
0001
0000
1000
0000
0100
0000
0010
0000
0001
0000
0000
0000
,
2002
0000
0003
3000
,
0001
0000
0010
0000
0001
0000
0010
0000
0001
0000
0000
1000
0000
0000
0020
0000
,
0000
0000
0000
0000
0030
0100
0001
1000
,
0100
0000
1000
0000
0100
0000
0010
0000
0001
0000
0000
1000
0000
0000
0020
0000
,
0000
0000
0000
0130
0001
1000
0001
0000
,
1000
0000
0000
0100
0000
0000
0001
0000
0200
0000
0000
0000
1300
0000
0001
0000
,
1000
0000
0000
0010
0000
0000
0001
0000
0020
0000
0000
0000
1030
0000
0001
0000
,
0020
1000
0100
0031
,
1000
0000
0000
0010
0000
0000
0100
0000
0000
0001
0000
0000
1000
0000
0100
0000
,
0010
0001
1000
0010
1000
0010
0000
0011
,
0000
0001
0010
0100
0001
0000
1000
0001
,
1000
0010
1000
0010
0001
0010
0000
0011
,
0000
0010
0100
0001
1000
0000
1001
0000
,
0001
0000
0010
0000
1000
0000
0010
0000
0001
0000
0000
1000
0000
0000
0010
0000
,
1000
0100
0001
0100
0010
0000
0001
1000
,
0001
0100
1000
0100
0001
1000
0000
1000
,
0100
0010
0001
1000
0010
0000
1001
0000
,
2000
0010
3002
0010
,
2003
0010
0002
3003
,
2000
0000
0000
0100
0000
0000
3100
0000
0002
0000
0000
0100
0000
0000
0103
0000
,
2000
0000
0000
0000
3000
0000
0001
1000
,
1001
0000
0000
0001
0000
1000
0010
1000
,
0002
0010
2003
0100
,
3001
0000
1000
0010
0100
0001
1000
0100
,
0010
0000
0010
0000
0001
1000
0001
0000
,
1001
0000
0011
1010
,
0001
0000
0001
0100
0010
0000
0010
1000
,
0001
0000
0000
0010
0000
0000
0100
0000
1000
0000
0000
0010
0000
0000
0100
0000
,
0001
0010
0001
0000
1000
0010
1000
0010
,
0000
0100
0001
0000
1000
0000
1001
0000
,
0001
0010
0100
1000
0000
1000
0001
0000
,
1000
0010
0100
0001
0000
0001
1000
0000
,
0001
0010
0100
0010
0000
0010
0001
0000
,
1000
0010
0100
0002
0000
0000
0003
0000
,
2000
0000
0100
0000
3100
1000
0001
0000
,
2000
0010
3002
0100
,
1003
0001
0100
0000
0010
1000
0001
0000
,
0010
0100
1000
0001
0100
0100
0010
0010
,
0100
0001
0100
0000
0010
1000
0010
0000
,
1000
0100
1000
0001
0020
0000
0031
0000
,
0100
0010
0100
0000
0010
1000
0010
0000
,
1000
0000
0001
0000
1000
0000
0001
0000
0010
0100
0010
0000
0001
0010
0001
0000
,
0100
0000
0000
0110
0000
0000
1001
0000
0000
0000
0000
0000
0000
0000
0000
0000
,
0002
0000
0023
0000
,
0230
2300
3002
0203
,
2300
0000
3200
0000
,
0302
0000
2003
3002
,
2003
0010
0001
3100
,
0020
1000
0100
0031
,
1000
0100
0010
0000
0001
1000
0010
0000
,
0100
0000
0001
0000
1000
0000
0001
0000
0010
0000
0000
0110
0000
0000
1000
0000
,
0001
0100
1000
0001
0010
1000
0100
0000
,
0110
0000
0000
0000
1001
0000
1000
0010
,
0100
0000
0000
0000
0100
0000
0001
0000
1000
0000
0000
0100
0000
0000
0001
0000
,
0100
0000
0000
0010
0000
0000
0001
0000
1000
0000
0000
0000
0001
0000
0010
0000
,
0100
0010
0100
1000
0000
0001
0100
0000
,
0110
0000
1001
0000
0001
0010
1000
0010
,
0000
0001
1000
0000
0001
0100
1000
0100
,
0000
0001
1000
0000
0100
0010
0001
1000
,
0010
0000
0000
0100
0000
0000
0001
0000
1000
0000
0100
0000
0010
0000
0100
0000
,
0110
0000
0000
0011
0000
0000
1010
0000
0202
0000
0000
0000
0000
0000
0000
0000
,
0000
0000
0000
0000
,
0000
0000
0000
0000
,
0000
0000
0303
0000
;

//--------------- dance-single - Fred-104★★★ ----------------
#NOTEDATA:;
#STEPSTYPE:dance-single;
#DESCRIPTION:Fred-104★★★;
#DIFFICULTY:Challenge;
#METER:14;
#CREDIT:Fred-104★★★;
#NOTES:
0000
0000
0000
0000
,
0000
0000
0000
0000
,
0000
0000
0000
0000
,
0000
0000
0000
0000
,
0000
0000
0000
0000
,
2000
3100
0010
0001
0100
0001
2000
3010
,
0200
0301
0010
0100
0010
0100
1000
0001
,
0200
0000
0310
2000
0000
3010
0200
0000
0302
0000
0013
0100
2000
0000
3001
1000
,
0001
0100
0000
0010
0100
0000
0010
1000
0010
0000
0100
0000
0001
0000
0001
0010
,
0200
0000
0000
0000
1000
0000
1300
0100
,
1000
0000
0010
0000
0100
0000
0010
0000
0001
0000
0000
0010
0000
0000
1000
0000
,
0200
0000
0000
0000
0010
0000
0000
0000
0310
0000
0001
1000
0001
0000
0010
0000
,
0100
0000
1000
0000
0010
0000
1000
0000
0100
0000
0000
1000
0000
0000
0001
0000
,
2000
0000
3100
0001
1000
0010
0001
0100
,
0010
0000
0000
1000
0000
0000
0100
0000
0110
0000
0000
0000
0010
0000
0001
1000
,
0010
0000
0000
0001
0000
0000
0010
0000
0110
0000
0000
0000
0010
0000
1000
0000
,
0002
0000
1000
0000
1003
0001
0010
0100
,
1000
0010
0000
0100
0010
0000
1000
0001
0000
0010
0100
0000
0010
0000
0001
1000
,
0001
0000
1000
0010
1000
0000
0001
0100
0001
0000
0010
0000
0100
0000
1000
0000
,
0000
0000
1000
0000
0001
0000
0100
0010
0100
0000
0001
0000
1000
0000
0100
0010
,
0100
0000
0010
0001
0010
0000
0001
1000
0001
0000
0100
0000
0010
0000
0100
0000
,
0000
0000
0100
0000
0001
0000
1000
0100
1000
0000
0001
0000
0010
0000
0010
0000
,
0100
0000
1000
0000
0010
0000
0001
0000
0010
0100
0000
0010
1000
0000
0001
0000
,
1000
0000
0001
0000
0010
0000
0100
0010
0000
0000
0001
0000
1000
0000
0010
0000
,
0100
0000
0001
0010
0001
0000
1000
0010
1000
0000
0001
0000
0010
0000
0100
0000
,
1000
0000
0001
0000
0100
0000
0010
1000
0010
0000
0100
0000
0001
0000
0001
0000
,
2000
0000
0000
0000
3200
0000
0000
0000
0301
0000
1000
0010
0000
0000
0100
0000
,
1000
0000
0001
0000
0100
0000
0100
0010
0000
0000
0000
0000
0000
0000
1000
0000
,
0001
0000
0001
0010
0000
0010
0100
0000
1000
0000
0000
0001
0000
0000
0100
0000
,
0202
0000
0000
0000
0303
0000
1000
0001
,
1000
0100
0010
0200
0000
1300
0001
0100
,
0020
1000
0230
0001
,
0310
0000
1000
0001
1000
0100
0010
0001
,
1000
0010
0100
0001
0010
0100
1000
0001
,
0100
0000
0100
0010
0100
0000
0001
0000
1000
0100
0010
0000
0001
0010
0100
0000
,
1000
0000
0001
0000
1000
0000
0010
0100
0010
0000
0100
0000
0001
0000
1000
0100
,
1000
0000
0001
0100
0000
0010
1000
0000
0001
0000
1000
0100
0000
0010
0001
0000
,
2001
0000
3001
1000
0010
0001
1000
0100
,
0010
0000
1000
0000
0001
0000
0010
0000
0100
1000
0100
1000
0100
0000
1000
0000
,
0001
0000
0100
0000
1000
0000
0100
0000
0001
0000
1000
0001
0010
0000
0100
0000
,
1000
0000
0100
0000
0001
0000
0100
0000
1000
0000
0001
1000
0010
0000
0100
0000
,
0001
0000
0010
0000
0100
0000
1000
0000
0010
0000
0100
0001
1000
0000
0001
0000
,
1000
0000
1000
0000
0001
0000
0001
0000
0011
0000
0000
1100
0000
0000
0001
1000
,
0002
0000
0100
0000
0103
0010
0100
0001
,
2000
0000
0100
0000
0100
0000
3100
0000
0020
0000
0001
0000
0001
0000
0031
1000
,
0002
0000
0000
0000
1003
0000
0010
0000
0100
0000
0001
1000
0001
1000
0001
0000
,
0100
0001
0100
0000
0010
1000
0010
0000
1000
0100
1000
0000
0001
0010
0001
0000
,
0100
0010
0100
0000
0010
1000
0010
0000
1000
0001
1000
0000
0100
1000
0100
0000
,
0010
0001
0010
0000
0001
1000
0001
1000
0020
0000
0000
0000
0130
0000
0001
0000
,
1000
1000
0100
0100
0010
0010
0001
0001
,
1000
0001
1000
0001
1000
0001
1000
0001
0010
0000
0100
0000
1000
0000
0001
0000
,
0101
0000
0000
1010
0000
0000
1001
0000
0000
0000
0000
0000
0000
0000
0000
0000
,
2000
0000
0000
3001
0002
0000
0000
0103
,
0100
0000
0000
0001
0000
0000
1000
0000
0001
0000
0010
0000
0000
0000
0100
0000
,
0020
0000
1030
0010
0001
1000
0010
0200
,
0000
0000
1300
0000
0200
0000
0000
0000
0301
0000
1000
0100
1000
0000
0001
0000
,
0100
0000
0010
0000
1000
0000
0001
0000
0010
0000
0100
1000
0100
0000
1000
0000
,
0001
0000
0100
0000
0001
0000
1000
0000
0100
0000
0010
0001
0010
0000
0001
0000
,
1000
0010
0001
1000
0100
0010
1000
0001
,
0010
0000
0001
0000
1000
0000
0010
0000
0110
0000
0000
0101
0000
0000
1001
0000
,
1000
0100
1000
0100
1000
0000
0001
0100
0000
0010
0000
0100
0001
0000
1000
0000
,
2002
0000
0000
0000
3003
0000
0000
0000
1000
0000
0100
0000
0010
0001
0010
0000
,
0001
0000
1000
0010
1000
0000
0001
0000
0100
0000
0010
1000
0000
0010
0100
0000
,
0001
0000
1000
0100
0000
0010
0001
0000
2000
0000
0000
0000
3001
0010
0001
0010
,
0001
1000
0010
0100
1000
0001
0010
1000
,
0002
0000
0103
0001
1000
0100
0010
0001
,
1000
0000
0010
0100
0010
0000
1000
0000
0001
0000
0010
0000
0100
0000
1000
0000
,
0001
0000
0100
0010
0100
0000
0001
0000
1000
0000
0100
0000
0010
0000
0001
0000
,
1001
0000
1000
0010
1000
0000
0001
0000
0010
0000
0100
0000
0001
0000
0100
0000
,
1100
0000
0000
0011
0000
0000
1000
0010
0200
0000
0000
0000
0000
0000
0000
0000
,
0000
0000
0000
0000
,
0000
0000
0000
0000
,
0000
0000
0300
0000
;

//--------------- dance-double - Fred-104 ----------------
#NOTEDATA:;
#STEPSTYPE:dance-double;
#DESCRIPTION:Fred-104;
#DIFFICULTY:Easy;
#METER:6;
#CREDIT:Fred-104;
#NOTES:
00000000
00000000
00000000
00000000
,
00000000
00000000
00000000
00000000
,
00000000
00000000
00000000
00000000
,
00000000
00000000
00000000
00000000
,
00000000
00000000
00000000
00000000
,
00000002
00001003
00000001
00000200
,
00002300
00013000
01000000
10000000
,
00010000
10000000
00100000
00010000
,
00001000
00010000
01000000
10000000
,
10010000
00000000
00000000
00000000
,
10000000
00100000
00010000
00001000
,
00020000
00030000
00010000
00010000
,
00001000
00000100
00001000
00000100
,
00000002
00000003
00000001
00001000
,
00000001
00000010
00001000
00000000
,
00010000
01000000
10000000
00000000
,
00010000
00100000
01000000
00010000
,
00002000
00000000
00020000
00033000
,
00010000
00001000
00010000
00010000
,
00000100
00000010
00000001
00001000
,
00000010
00000100
00001000
00010000
,
00001000
01000000
00010000
00100000
,
01000000
00100000
00010000
10000000
,
00100000
00010000
00001000
00010000
,
01000000
10000000
00010000
01000000
,
00001000
00010000
00011000
00000000
,
00010000
00001000
00000010
00001000
,
00010000
00001000
00011000
00000000
,
00001000
00010000
00100000
00010000
,
00022000
00000000
00033000
00000000
,
00010000
00000000
00000000
00001000
00000000
00000000
00000100
00000000
,
00001000
00000000
00010000
00001000
,
01000000
00000000
00000000
00010000
00000000
00000000
01000000
00000000
,
00100000
10000000
01000000
00010000
,
00011000
00000000
00001000
00000010
,
00001001
00001000
00000002
00000003
,
00000100
00000010
00000100
00001000
,
00010000
00000000
00001000
00000000
,
01000000
00010000
00100000
00001000
,
00011000
00000000
01000000
00001000
,
00011000
00000000
00000100
00010000
,
00011000
00000000
00010000
00000100
,
00000110
00000000
00001001
00000000
,
00000002
00000000
00000000
00000000
,
00000203
00000000
00002300
00000000
,
00023000
00000000
00031000
00001000
,
01000000
00010000
00100000
00100000
,
01000000
10000000
00100000
10000000
,
01000000
00100000
00010000
00100000
,
00001000
00010000
00000010
00001000
,
00000100
00010000
00001000
00010000
,
00022000
00000000
00033000
00000000
,
00020000
00000000
00032000
00000000
,
00003100
00001000
00010000
00001000
,
00010000
01000000
00010000
00001000
,
00010000
00001000
00010000
00000000
,
00001000
00010000
00100000
10000000
,
00010000
10000000
01000000
00010000
,
00001000
00010000
00100000
00010000
,
00001000
00000100
00000001
00000000
,
00000110
00000000
00011000
00000000
,
02200000
03300000
10000000
00100000
,
00010000
00100000
10000000
00010000
,
10000000
01000000
00010000
01000000
,
00100000
00001000
00010000
00001000
,
00011000
00000000
00010000
00001000
,
00000100
00001000
00010000
00001000
,
00000010
00000001
00001000
00000100
,
00000010
00001000
00010000
01000000
,
01100000
00000000
20020000
00000000
,
00000000
00000000
00000000
00000000
,
00000000
00000000
00000000
00000000
,
00000000
00000000
30030000
00000000
;

//--------------- dance-double - Fred-104 ----------------
#NOTEDATA:;
#STEPSTYPE:dance-double;
#DESCRIPTION:Fred-104;
#DIFFICULTY:Medium;
#METER:9;
#CREDIT:Fred-104;
#NOTES:
00000000
00000000
00000000
00000000
,
00000000
00000000
00000000
00000000
,
00000000
00000000
00000000
00000000
,
00000000
00000000
00000000
00000000
,
00000000
00000000
00000000
00000000
,
00002000
00000000
00013000
00200000
,
20300000
00000000
31000000
00100000
,
00001000
00000000
00000000
00001000
00000000
00000000
00010000
00000000
00000100
00000000
00000000
00000000
00010000
00000000
00000000
00000000
,
00011000
00000000
00001000
00000000
00010000
00001000
00010000
00000000
,
00022000
00000000
00030000
00003000
,
00010000
00000000
00001000
00000000
00100000
00000000
00000000
00000000
00001000
00000000
00000000
00010000
00000000
00000000
00000100
00000000
,
00000010
00000000
00000001
00000000
00001000
00000010
00001000
00000000
,
00000001
00000000
00000010
00000000
00000100
00000000
00000000
00000000
00000010
00000000
00000000
00001000
00000000
00000000
00010000
00000000
,
00002000
00000000
01003000
00010000
,
00100000
00000000
00000000
00100000
00000000
00000000
00100000
00000000
01000000
00000000
00000000
00000000
10000000
00000000
00000000
00000000
,
00100000
00000000
00000000
00100000
00000000
00000000
00100000
00000000
00010000
00000000
00000000
00000000
00001000
00000000
00000000
00000000
,
00010000
00100000
10000000
01000000
,
00100000
00010000
10010000
00000000
,
10000000
00000000
01000000
00000000
00010000
00001000
00010000
00000000
,
00000100
00001000
00000001
00000000
00000101
00000000
00000000
00000000
,
00001000
00000000
00000001
00000000
00000100
00001000
00010000
00000000
,
00001000
01000000
00010000
00000000
10010000
00000000
00000000
00000000
,
10000000
00000000
00100000
00000000
00010000
00001000
00010000
00000000
,
00000010
00001000
00000001
00000000
00000110
00000000
00000000
00000000
,
00000001
00000000
00001000
00000000
00000010
00010000
00001000
00000000
,
00010000
00100000
10000000
00000000
10010000
00000000
00000000
00000000
,
20000000
00000000
00000000
00000000
32000000
00000000
00000000
00000000
03020000
00000000
00000000
00001000
00000000
00000000
00031000
00000000
,
00000020
00000032
00002000
00003003
,
00000002
00000000
00000000
00000100
00000000
00000000
00000103
00000000
00002000
00000000
00000000
00010000
00000000
00000000
00013000
00000000
,
00200000
20300000
00020000
30030000
,
10000000
00000000
00100000
00000000
00010000
00001000
00010000
00000100
,
00000010
00000000
00000001
00000000
00001000
00000010
00000100
00001000
,
00010000
00000000
00001000
00000000
01000000
00001000
00010000
00000000
,
00001000
00000000
00000100
00000000
00000010
00001000
00000001
00000000
,
00000010
00001000
00010000
00100000
10000000
00000000
01100000
00000000
,
10020000
00000000
10030000
01000000
00020000
00000000
10030000
00100000
,
00010000
00000000
00000000
10000000
00000000
00000000
01000000
00000000
00100000
00000000
00000000
00001000
00000000
00000000
00010000
00000000
,
00000200
00000000
00000000
00000310
00000002
00000000
00000103
00002000
,
00000000
00013000
00001000
00000000
00010000
00000000
00011000
00000000
,
00002000
00010000
00000010
00013000
,
00002000
00010000
00000100
00013000
,
00002000
01000000
00000100
00013000
,
00001000
00000000
00000000
00000000
00010000
00000000
00000000
00000000
00100000
00000000
00000000
01000000
00000000
00000000
00010000
00000000
,
10010000
00000000
10000000
01000000
,
00100000
00001000
00010000
00000000
00001000
00000100
00000010
00000000
,
00001000
00000000
00000100
00000000
00000010
00000001
00001000
00000000
,
00000010
00000100
00001000
00000000
00010000
00001000
00010000
00000000
,
00001000
00100000
00010000
00000000
00100000
01000000
10000000
00000000
,
00100000
00010000
00001000
00010000
00000200
00000000
00000310
00000000
,
00000001
00001000
00000001
00000000
00000100
00001000
00000100
00000000
,
00001000
00010000
00001000
00010000
01000000
10000000
01000000
10000000
,
00010000
00000000
00000000
01000000
00000000
00000000
01100000
00000000
00000000
00000000
00000000
00000000
00000000
00000000
00000000
00000000
,
20000000
00000000
30020000
00000000
,
02030000
03200000
00320000
00032000
,
00023000
00000000
00030200
00000000
,
00000320
00000000
00000032
00000000
00000103
00001000
00010000
00000000
,
00002000
00010000
00000100
00013000
,
00002000
01000000
00000100
01003000
,
00002000
00010000
00000010
00103000
,
00001000
00000000
00010000
00000000
00001000
00000000
01000000
00000000
00010000
00000000
00000000
00100000
00000000
00000000
01000000
00000000
,
10000000
00100000
01000000
00000000
00100000
00010000
00001000
00000000
,
00000202
00000000
00000303
00000000
00002001
00000000
00003001
00000100
,
00002000
00000000
00000000
00000000
00003001
00000000
00000010
00000000
00001000
00000000
00000000
00000001
00000000
00000000
00000010
00000000
,
00001000
00000000
00000000
00010000
00000000
00000000
00001000
00000000
02000000
00000000
00000000
00000000
03010000
00000000
00100000
00000000
,
02000000
00000000
03100000
00002000
00000000
00013000
00100000
02000000
,
00000000
03010000
10000000
00000000
10010000
00000000
10000000
00000000
,
01000000
00100000
00001000
00010000
00000100
00000000
00000010
00000000
,
00000001
00001000
00000010
00010000
00001000
00000000
00010000
00000000
,
00100000
00000000
00000000
10000000
00000000
00000000
01000000
00000000
00100000
00000000
00001000
00000000
00010000
00000000
00000010
00000000
,
00000100
00000000
00000000
00000001
00000000
00000000
00000010
00000000
00002002
00000000
00000000
00000000
00000000
00000000
00000000
00000000
,
00000000
00000000
00000000
00000000
,
00000000
00000000
00000000
00000000
,
00000000
00000000
00003003
00000000
;

//--------------- dance-double - Fred-104 ----------------
#NOTEDATA:;
#STEPSTYPE:dance-double;
#DESCRIPTION:Fred-104;
#DIFFICULTY:Hard;
#METER:13;
#CREDIT:Fred-104;
#NOTES:
00000000
00000000
00000000
00000000
,
00000000
00000000
00000000
00000000
,
00000000
00000000
00000000
00000000
,
00000000
00000000
00000000
00000000
,
00000000
00000000
00000000
00000000
,
20000000
30100000
10000000
00010000
00100000
01000000
00020000
00031000
,
00020000
00030100
00000010
00000001
00001000
00000010
00000100
00000001
,
00001000
00000000
00000000
00000100
00000000
00000000
00000010
00000000
00001000
00000000
00010000
00000000
00011000
00000000
00000000
00000000
,
00001000
00010000
00000000
00010000
00001000
00000000
01000000
00010000
00100000
00000000
00001000
00000000
00010000
00000000
00000100
00000010
,
00000002
00000000
00001000
00001003
,
00000001
00000000
00001000
00000000
00000010
00000000
00000100
00000000
00001000
00000000
00000000
00010000
00000000
00000000
00002000
00000000
,
01000000
00000000
00000100
00000000
00013000
00001000
00100000
01000000
,
10000000
00000000
00010000
00000000
01000000
00000000
00100000
00000000
00010000
00000000
00000000
00001000
00000000
00000000
00010000
00000000
,
00000100
00000000
00000010
00000100
00001000
00000010
00010000
00001000
,
00010000
00000000
00000000
00001000
00000000
00000000
00000100
00000000
00000001
00000000
00001000
00000000
00000100
00000000
00000000
00000000
,
00000010
00000000
00000000
00001000
00000000
00000000
00010000
00000000
00001000
00000000
00010000
00000000
01000000
00000000
00000000
00000000
,
20000000
00000000
30020000
00000000
02030000
00000000
03001000
00010000
,
00002000
00000000
00100000
00000000
00000010
00000000
00103000
00001000
,
00010000
00001000
00000100
00000001
00000010
00000001
00000100
00000010
,
00001000
00000100
00000010
00001000
00010000
00000000
00011000
00000000
,
00001000
00010000
01000000
00100000
10000000
00100000
00010000
01000000
,
00100000
00010000
00001000
00010000
00000100
00000000
00000011
00000000
,
00001000
00000000
00000001
00000000
00000010
00000000
00000100
00000000
00000010
00000000
00000000
00001000
00000000
00000000
00010000
00000000
,
00001000
01000000
00100000
01000000
10000000
01000000
00010000
00000000
,
10000000
01000000
00100000
01000000
00010000
00001000
00010000
00000100
,
00010000
00001000
00000010
00000100
00001000
00000001
00000100
00000000
,
00000120
00000000
00000000
00000000
00002030
00000000
00000000
00000000
00003001
00000000
00000010
00001000
00000000
00000000
00010000
00000000
,
00001000
00000000
00100000
00000000
00001000
00000000
00100000
00010000
00000000
00000000
00000000
00000000
00000000
00000000
00010000
00000000
,
01000000
00000000
00000000
00100000
00000000
00000000
00001000
00000000
00000010
00000000
00000000
00010000
00000000
00000000
00001000
00000000
,
00022000
00000000
00000000
00000000
00033000
00000000
00001000
00010000
,
00100000
10000000
00010000
10000000
01000000
00010000
00001000
00010000
,
00001000
00000010
00000001
00000100
00000001
00000010
00001000
00010000
,
00002000
00000000
01003000
00010000
00000100
00001000
00010000
00001000
,
00100000
01000000
10000000
00000000
00100000
00010000
00001000
00000000
,
01000000
00000000
00010000
10000000
01000000
00000000
00100000
00000000
00101000
00000000
00000000
00000000
01100000
00000000
00000000
00000000
,
00010000
10000000
00100000
00010000
00001000
00100000
00001000
00010000
,
00000100
00000000
00000010
00000001
00000000
00001000
00000001
00000000
00000100
00000000
00000010
00000100
00000000
00001000
00010000
00000000
,
00011000
00000000
00001000
00010000
00100000
10000000
00010000
00100000
,
01000000
00010000
00001000
00000000
00010000
00001000
00011000
00000000
,
00010000
00001000
00000100
00000001
00000010
00000010
00000110
00000000
,
00001000
00000001
00000100
00001000
00010000
00010000
00011000
00000000
,
00001000
00010000
00100000
01000000
00100000
00100000
10100000
00000000
,
10000000
00000000
01000000
00000000
00010000
00000000
00001000
00000000
00011000
00000000
00000000
00001010
00000000
00000000
00000011
00000000
,
00000001
00001000
00000010
00000000
00001000
00010000
01000000
00000000
,
00100000
00000000
10000000
00000000
01000000
00000000
00010000
00000000
01000000
00000000
00100000
00000000
01000000
00000000
10000000
00010000
,
10000000
00100000
01000000
00100000
00010000
00001000
00010000
00000010
,
00000100
00001000
00010000
00000100
00000010
00000010
00000001
00000001
,
00000100
00001000
00010000
00001000
00000010
00001000
00010000
01000000
,
00010000
00001000
00010000
00100000
20000000
00000000
31000000
00100000
,
00001000
00001000
00010000
00010000
00000010
00000010
00000100
00000100
,
00000001
00001000
00000001
00001000
00000001
00001000
00000001
00001000
00000001
00001000
00000001
00001000
00000001
00001000
00000001
00001000
,
00000001
00000000
00000000
00001000
00000000
00000000
00001001
00000000
00000000
00000000
00000000
00000000
00000000
00000000
00000000
00000000
,
00000002
00000023
00002030
00000000
,
00023000
02030000
23000000
30020000
,
02030000
03200000
00320000
00032000
,
00003200
00000000
00000320
00000000
00001030
00000001
00001000
00000000
,
00000001
00000100
00001000
00000100
00000000
00001000
00010000
00001000
,
00010000
01000000
10000000
01000000
00000000
10000000
00010000
10000000
,
00100000
00010000
00100000
00010000
00000000
00001000
00000010
00001000
,
00000010
00000000
00000001
00000000
00001000
00000000
00000010
00000000
00010000
00000000
00000000
00001000
00000000
00000000
00010000
00000000
,
00011000
00000000
00001000
00000000
00001000
00000000
01000000
00010000
00000000
10000000
00000000
01000000
00100000
00000000
00010000
00000000
,
20020000
00000000
30030000
00000000
10000000
00100000
00010000
00100000
,
10000000
00000000
00000000
00000000
00010000
00000000
00100000
00000000
10000000
00000000
00100000
00010000
00000000
00100000
00001000
00000000
,
00010000
00000000
00010000
00000010
00000000
00000010
00000100
00000000
00000020
00000000
00000000
00000000
00000031
00000000
00000010
00000000
,
00001000
00000100
00000010
00001000
00010000
01000000
10000000
00010000
,
01000000
00100000
01100000
00000000
10000000
01000000
00010000
00001000
,
00010000
00000100
00000010
00000001
00001000
00000001
00000100
00001000
,
00010000
00001000
01000000
00010000
00100000
01000000
10000000
00100000
,
00010000
00000000
00001000
00010000
00000000
00010000
00000100
00000000
00000010
00000000
00000001
00000000
00001000
00000000
00000001
00000000
,
00000100
00000000
00000000
00001100
00000000
00000000
00010000
00000000
00022000
00000000
00000000
00000000
00000000
00000000
00000000
00000000
,
00000000
00000000
00000000
00000000
,
00000000
00000000
00000000
00000000
,
00000000
00000000
00033000
00000000
;

//--------------- dance-double - Fred-104★★★ ----------------
#NOTEDATA:;
#STEPSTYPE:dance-double;
#DESCRIPTION:Fred-104★★★;
#DIFFICULTY:Challenge;
#METER:14;
#CREDIT:Fred-104★★★;
#NOTES:
00000000
00000000
00000000
00000000
,
00000000
00000000
00000000
00000000
,
00000000
00000000
00000000
00000000
,
00000000
00000000
00000000
00000000
,
00000000
00000000
00000000
00000000
,
00020000
00031000
00010000
00000100
00001000
00000010
00000200
00000300
,
00000002
00001003
00000100
00000010
00001000
00010000
00001000
00100000
,
02000000
00000000
00000000
23000000
00000000
00000000
30020000
00000000
02030000
00000000
03001000
00010000
00002000
00000000
00003100
00000000
,
00000010
00001000
00000000
00000010
00001000
00000000
00000001
00000010
00000100
00000000
00010000
00000000
00001000
00000000
00001000
00010000
,
00002000
00000000
00100000
00000010
,
00013000
00000000
00001000
00000000
00100000
00000000
01000000
00000000
00010000
00001000
00000000
00010000
00100000
00000000
02000000
00000000
,
00010000
00000000
00000000
00000000
10000000
00000000
00000000
00000000
03010000
00000000
10000000
00100000
10000000
00000000
00010000
00000000
,
00100000
00000000
00001000
00000000
00000010
00000000
00000100
00000000
00001000
00000001
00000000
00000100
00001000
00000000
00010000
00000000
,
00002000
00000000
00103000
01000000
00010000
10000000
00100000
01000000
,
10000000
00000000
00000000
00100000
00000000
00000000
00010000
00000000
00011000
00000000
00000000
00000000
00010000
00000000
00000100
00000010
,
00000100
00000000
00000000
00000010
00000000
00000000
00000001
00000000
00001001
00000000
00000000
00000000
00001000
00000000
00000001
00000000
,
00000020
00000000
00000230
00000000
00000310
00001000
00010000
00001000
,
00100000
00010000
00000000
01000000
00010000
00000000
00100000
00001000
00000000
00010000
00000010
00000000
00010000
00000000
00001000
01000000
,
00001000
00010000
00100000
00010000
00001000
00010000
01000000
10000000
,
00000000
00000000
10000000
00000000
00010000
00000000
01000000
00001000
00010000
00000000
00001000
00000000
00100000
00000000
00001000
00000000
,
00010000
00001000
00000100
00001000
00010000
00001000
00000010
00000001
,
00000000
00000000
00000001
00000000
00001000
00000000
00000010
00010000
00000010
00000000
00010000
00000000
00001000
00000000
00010000
00000000
,
00100000
00000000
01000000
00000000
00010000
00000000
10000000
00000000
01000000
00000000
00000000
00010000
00000000
00000000
00001000
00000000
,
00010000
00000000
00001000
00000000
01000000
00000000
00010000
00100000
00000000
00000000
00001000
00000000
00010000
00000000
00000100
00000000
,
00000010
00000001
00000100
00000001
00000010
00001000
00010000
00001000
,
01000000
00000000
00100000
00000000
00010000
00000000
00001000
00010000
00001000
00000000
00010000
00000000
01000000
00000000
10000000
00000000
,
00020000
00000000
00000000
00000000
02030000
00000000
00000000
00000000
13000000
00000000
00010000
00100000
00000000
00000000
01000000
00000000
,
00010000
00000000
10000000
00000000
01000000
00000000
00010000
00001000
00000000
00000000
00000000
00000000
00000000
00000000
00010000
00000000
,
00000010
00000000
00000000
00000001
00000000
00000000
00001000
00000000
00000100
00000000
00000000
00000001
00000000
00000000
00001000
00000000
,
00002002
00000000
00000000
00000000
00003003
00000000
00000001
00000100
,
00001000
00010000
00001000
00000020
00000000
00001030
00010000
00001000
,
01000000
00000000
00010000
00000000
10000000
00000000
00010000
00000000
00100000
00000000
01000000
00000000
00010000
00000000
00001000
00010000
,
00001000
00000000
00010000
00001000
00000100
00000001
00001000
00000100
,
00010000
01000000
00100000
00001000
00010000
00100000
01000000
00010000
,
10000000
00000000
10000000
01000000
00100000
00000000
00001000
00000000
00010000
00000010
00001000
00000000
00000010
00010000
00001000
00000000
,
00010000
00000000
00001000
00000000
00100000
00000000
01000000
00010000
01000000
00000000
00100000
00000000
00001000
00000000
00010000
00001000
,
00010000
00000000
00000000
00000100
00000000
00000000
00000001
00000000
00001000
00000000
00000000
00000010
00000000
00000000
00000100
00000000
,
00020000
00000000
00031000
00010000
01000000
00100000
10000000
00100000
,
00010000
00000000
10000000
00000000
00100000
00000000
00010000
00000000
00001000
00000000
00010000
00000010
00010000
00000000
00001000
00000000
,
00010000
00000000
00001000
00000000
00000100
00000000
00000001
00000000
00000100
00000000
00001000
00010000
00001000
00000000
00010000
00000000
,
00001000
00000000
00010000
00000000
01000000
00000000
10000000
00000000
01000000
00000000
00010000
00001000
00010000
00000000
00001000
00000000
,
00010000
00000000
00001000
00000000
00000010
00000000
00000001
00000000
00001000
00000000
00000001
00000100
00000010
00000000
00000100
00000000
,
00001000
00000000
00010000
00000000
00100000
00000000
10000000
00000000
11000000
00000000
00000000
01010000
00000000
00000000
00010000
00001000
,
00020000
00000000
00001000
00000000
00031000
00010000
00000100
00000010
,
00000001
00000000
00000100
00000000
00001000
00000000
00010000
00000000
00001000
00000000
00000010
00000000
00001000
00000000
00010000
00001000
,
00020000
00000000
00000000
00000000
00031000
00000000
00010000
00000000
00100000
00000000
01000000
00000000
00010000
01000000
00100000
00000000
,
10000000
00010000
00100000
00000000
00001000
00010000
00000100
00000000
00010000
00000000
00010000
00000000
00001000
00000000
00001000
00000000
,
00010000
00000100
00010000
00000100
00001000
00000000
00000001
00000000
00000100
00000010
00000100
00000010
00001000
00000000
00000001
00000000
,
00000010
00000100
00001000
00000100
00010000
00000000
00001000
00000000
00020000
00000000
00000000
00000000
00130000
00000000
10000000
00000000
,
01000000
01000000
00010000
00010000
00000100
00000100
00010000
00010000
,
00001000
00010000
00001000
00010000
00000010
00001000
00000010
00001000
00000001
00000000
00000010
00000000
00000100
00000000
00010000
00000000
,
00011000
00000000
00000000
00010010
00000000
00000000
01001000
00000000
00000000
00000000
00000000
00000000
00000000
00000000
00000000
00000000
,
00021000
00000000
00032000
00000000
,
00003200
00000302
00000023
00000032
,
00000203
00002300
00023000
00230000
,
01300000
00000000
10000000
00000000
02000000
00000000
00000000
00000000
03010000
00000000
10000000
00100000
10000000
00000000
00010000
00000000
,
00100000
00000000
01000000
00000000
00010000
00000000
00001000
00000000
00010000
00000000
00000010
00001000
00000010
00000000
00000100
00000000
,
00000001
00000000
00000010
00000000
00000100
00000000
00001000
00000000
00000010
00000000
00010000
00001000
00010000
00000000
00001000
00000000
,
01000000
00010000
00100000
10000000
00100000
00010000
01000000
00001000
,
00010000
00000000
00000100
00000000
00000010
00000000
00000001
00000000
00000011
00000000
00000000
00001010
00000000
00000000
00000101
00000000
,
00000001
00001000
00000001
00001000
00000001
00000000
00000010
00001000
00000000
00000010
00000000
00001000
00010000
00000000
00001000
00000000
,
00022000
00000000
00033000
00000000
00010000
00001000
00000100
00000010
,
00000100
00000000
00000001
00001000
00000100
00000000
00000010
00000000
00001000
00000000
00000000
00010000
00000000
00000000
00100000
00000000
,
10000000
00000000
00000000
00010000
00000000
00000000
00100000
00000000
02000000
00000000
00000000
00000000
03010000
00000000
00000100
00000000
,
00000010
00000000
00000001
00001000
00000001
00000000
00000100
00000000
00001000
00000000
00010000
00000000
00100000
00000000
00010000
00000000
,
00001000
00000000
00010000
00000100
00010000
00000000
00001000
00000000
00010000
00000000
00100000
00000000
01000000
00000000
10000000
00000000
,
01000000
00000000
00010000
10000000
00010000
10000000
01000000
00000000
00100000
00000000
00001000
00000000
00010000
00000000
00001000
00000000
,
00000100
00000000
00000010
00001000
00000010
00001000
00000001
00000000
00000010
00000000
00000100
00000000
00010000
00000000
00001000
00000000
,
00011000
00000000
00010000
00001000
00010000
00001000
00010000
00000000
00100000
00000000
01000000
00000000
00010000
00000000
10000000
00000000
,
11000000
00000000
00000000
01010000
00000000
00000000
10000000
00010000
00200000
00000000
00000000
00000000
00000000
00000000
00000000
00000000
,
00000000
00000000
00000000
00000000
,
00000000
00000000
00000000
00000000
,
00000000
00000000
00300000
00000000
;
