#TITLE:SPEED BLADE;
#ARTIST:L.E.D.;
#BANNER:SPEED BLADE.png;
#BACKGROUND:SPEED BLADE-bg.png;
#CDTITLE:./CDTitles/RB colette -All Seasons-.png;
#MUSIC:SPEED BLADE.ogg;
#SAMPLESTART:12.5;
#SAMPLELENGTH:15;
#BPMS:0=192;
#BGSTAGE:28;

//--------------- dance-single - Fred-104 ----------------
#NOTES:
     dance-single:
     Fred-104:
     Beginner:
     5:
     :
0000
0000
0000
0000
,
0000
0000
0000
0000
,
0000
0000
0000
0000
,
0000
0000
0000
0000
,
0000
0000
0000
0000
,
1000
0000
0000
1000
,
0001
0000
0000
0001
,
1000
0000
0000
1000
,
0001
0000
0000
0000
,
2002
0000
0000
3003
,
1000
0000
0010
0000
,
1000
0000
0100
0100
,
0100
0000
1000
0000
,
0001
0000
0010
0010
,
0010
0000
0001
0000
,
1000
0000
0001
0000
,
0100
0000
0001
0000
,
1000
0000
0001
0001
,
0001
0000
1000
0000
,
0010
0000
1000
1000
,
1000
0000
0100
0000
,
1000
0000
0001
0001
,
0001
0000
1000
0000
,
0001
0000
0100
0000
,
0010
0000
1000
0000
,
0001
0001
0001
0001
,
0001
0000
0000
0100
,
0010
0000
0000
1000
,
0001
0000
0000
1000
,
0100
0000
1000
0010
,
0100
0000
0001
1000
,
0001
0000
0100
0010
,
0100
0000
0010
0000
,
2002
0000
0000
3003
,
1000
0000
0010
0000
,
1000
0000
0100
0010
,
0100
0000
0010
0000
,
0001
0000
1000
0001
,
1000
0000
0100
0000
,
0001
0000
0010
0000
,
1000
0000
0100
0000
,
0001
0000
0010
0000
,
1000
0000
0001
0000
,
1000
1000
0010
0100
,
0010
0000
1000
0000
,
0010
0010
0100
0001
,
0100
0000
0001
0000
,
1000
0000
0010
0000
,
1000
0000
0001
0000
,
1000
1000
0001
0001
,
2000
0000
0000
3000
,
0200
0000
0000
0300
,
0020
0000
0000
0030
,
0002
0000
0000
0003
,
1000
1000
0000
0000
,
0001
0001
0000
0000
,
1000
1000
1000
1000
,
2002
0000
0000
3003
,
0001
0000
0100
0000
,
0001
0000
0010
0010
,
0010
0000
0100
0000
,
1000
1000
1000
1000
,
1000
0000
0010
0000
,
1000
0000
0100
0000
,
1000
0000
0001
0000
,
2002
0000
0000
3003
,
1000
0000
0010
0000
,
0100
0100
0100
0010
,
0100
0000
0001
0000
,
1000
1000
1000
0001
,
1000
0000
0001
0000
,
0100
0000
0010
0000
,
1000
0000
0100
0000
,
0010
0010
0001
0001
,
1000
0000
0010
0000
,
1000
1000
0100
1000
,
1000
0000
0010
0000
,
0100
0100
0001
0100
,
0100
0000
0001
0000
,
1000
0000
0001
0000
,
1000
0000
0001
0000
,
1000
0000
0000
0001
0000
0000
1000
0000
,
2002
0000
0000
0000
,
0000
0000
0000
3003
0000
0000
0000
0000
;

//--------------- dance-single - Fred-104 ----------------
#NOTES:
     dance-single:
     Fred-104:
     Easy:
     12:
     :
0000
0000
0000
0000
,
0000
0000
0000
0000
,
0000
0000
0000
0000
,
0000
0000
0000
0000
,
0000
0000
0000
0000
,
0001
0000
0020
0000
0030
0020
0000
0030
,
1000
0000
0020
0000
0030
0020
0000
0030
,
0001
0000
0020
0000
0030
0020
0000
0030
,
1000
0010
0010
0001
,
2002
0000
0000
3003
,
0001
0000
0000
0000
0100
0000
0000
0000
0001
0000
0000
0001
0000
0000
0010
0000
,
0100
0000
0000
0100
0000
0000
1000
0000
0010
0000
0000
0100
0000
0000
0010
0000
,
1000
0000
0000
0000
0100
0000
0000
0000
1000
0000
0000
0010
0000
0000
1000
0000
,
0001
0000
0000
0010
0000
0000
0100
0000
1000
0000
0000
0000
0001
0000
0000
0000
,
1001
0000
0001
0100
,
1000
0000
0001
0010
,
1000
0000
0000
0001
0000
0000
0100
0000
0010
0000
0000
1000
0000
0000
0100
0000
,
1000
0000
0000
0001
0000
0000
0010
0000
0100
0000
1000
0000
0001
0000
0000
0000
,
1001
0000
0000
0000
1000
0000
0000
0000
0010
0000
0000
1000
0000
0000
0100
0000
,
1000
0000
0000
0010
0000
0000
0100
0000
0001
0000
0000
1000
0000
0000
0001
0000
,
0100
0000
0000
0000
0010
0000
0000
0000
0100
0000
0000
0001
0000
0000
0010
0000
,
0100
0000
0000
1000
0000
0000
0010
0000
0100
0000
0000
0000
0001
0000
0000
0000
,
1001
0000
1000
0010
,
0001
0000
1000
0100
,
0001
0000
0000
1000
0000
0000
0001
0000
0010
0000
0000
0100
0000
0000
0010
0000
,
0001
0100
0001
0000
1000
0010
1000
0000
,
1001
0000
2000
0000
3000
0200
0000
0300
,
1000
0000
0010
0000
0010
0100
0000
0100
,
0001
0000
0020
0000
0030
0002
0000
0003
,
2000
3002
0203
0320
,
1030
0100
1100
0000
,
0001
0100
0101
0000
,
1000
0010
1000
0000
0001
0010
0001
0000
,
2002
0000
0000
3003
,
1001
0000
0000
0000
1000
0000
0000
0000
0010
0000
0000
1000
0000
0000
0100
0000
,
1000
0000
0000
0010
0000
0000
0100
0000
0001
0000
0000
1000
0000
0000
0001
0000
,
0010
0000
0000
0000
0100
0000
0000
0000
1000
0000
0000
0001
0000
0000
0100
0000
,
0010
0000
0000
1000
0000
0000
0100
0000
1000
0000
0000
0001
0000
0000
0100
0000
,
0010
0000
0000
0000
1010
0000
0000
0000
1000
0000
0000
0001
0000
0000
0100
0000
,
0010
0000
0000
0000
1001
0000
0000
0000
1000
0000
0000
0100
0000
0000
1000
0000
,
0001
0000
0000
0010
0000
0000
0100
0000
1000
0000
0000
0010
0000
0000
0100
0000
,
0001
0000
0000
1000
0000
0000
0010
0000
0100
0000
0001
0000
1000
0000
0100
0000
,
0010
0000
0011
0000
0001
1000
0010
0000
,
1000
0001
0100
0000
0010
1000
0001
0000
,
1000
0000
1100
0000
0100
0010
0001
0000
,
0010
0001
1000
0000
0010
1000
0001
1000
,
0100
0000
0110
0000
0010
0001
1000
0000
,
0010
0000
0110
0000
0010
1000
0001
0000
,
2001
3100
1002
0013
,
1000
0001
0100
0000
0001
1000
0010
0000
,
2100
0000
0020
0000
0030
0020
0000
3030
,
0102
0000
0200
0000
0300
0200
0000
0303
,
2001
0000
0002
0000
0003
0002
0000
3003
,
1000
0010
1000
0000
0001
0100
0001
0000
,
2100
0000
3200
0000
0000
2300
0000
3000
,
0012
0000
0023
0000
0000
0032
0000
0003
,
1000
0001
0100
0000
0010
1000
0001
0000
,
2002
0000
0000
3003
,
1000
0010
1000
0100
,
1000
0100
0010
0000
0001
1000
0010
0000
,
0100
0100
0100
0000
0010
0010
0010
0000
,
0100
0100
0100
0000
0010
0010
0010
0000
,
1001
0100
0010
0001
,
0100
0001
0010
0000
0001
1000
0010
0000
,
1000
0100
0010
0001
,
1000
0010
1000
0000
0001
0100
0001
0000
,
1001
0000
0000
0000
1000
0000
0000
0000
0001
0000
0000
0100
0000
0000
0010
0000
,
0100
0000
0000
0001
0000
0000
1000
0000
0100
0000
0000
0010
0000
0000
0001
0000
,
1000
0000
0000
0000
1100
0000
0000
0000
1000
0000
0000
0010
0000
0000
0100
0000
,
0010
0000
0000
1000
0000
0000
0100
0000
0010
0000
0000
0001
0000
0000
1000
0000
,
0001
0000
0000
0000
0101
0000
0000
0000
0001
0000
0000
1000
0000
0000
0010
0000
,
0100
0000
0000
0000
0110
0000
0000
0000
0010
0000
0000
1000
0000
0000
0001
0000
,
1000
0000
0000
0100
0000
0000
0001
0000
1000
0000
0000
0010
0000
0000
0001
0000
,
1000
0010
0100
0000
0010
0100
0001
0000
,
1001
0000
0000
0000
0001
0000
0010
0000
0001
0000
0000
1000
0000
0000
0001
0000
,
0100
0000
0000
0010
0000
0000
1000
0000
0100
0000
0000
0010
0000
0000
0100
0000
,
1000
0000
0000
0000
0001
0000
1000
0000
0010
0000
0000
1000
0000
0000
0100
0000
,
0010
0000
0000
0001
0000
0000
1000
0000
0001
0000
0000
0100
0000
0000
0010
0000
,
1000
0000
0000
0000
1001
0000
0000
0000
0001
0000
0000
0100
0000
0000
0001
0000
,
0010
0000
0000
0000
0110
0000
0000
0000
0100
0000
0000
1000
0000
0000
0010
0000
,
1000
0100
1000
0000
0001
0100
0001
0000
,
1000
0100
1000
0100
0010
0100
0010
0001
,
2000
0000
0000
0000
,
0000
0000
0000
3000
0000
0000
0000
0000
;

//--------------- dance-single - Fred-104 ----------------
#NOTES:
     dance-single:
     Fred-104:
     Medium:
     14:
     :
0000
0000
0000
0000
,
0000
0000
0000
0000
,
0000
0000
0000
0000
,
0000
0000
0000
0000
,
0000
0000
0000
0000
,
1000
0100
2200
0000
3300
0202
0000
0303
,
1000
0010
2020
0000
3030
0022
0000
0033
,
1000
0000
0100
0000
0220
0000
0000
0000
0330
0000
2002
0000
3003
0000
0001
0100
,
0001
0000
0000
0000
0000
0000
0000
0000
0020
0030
0000
0000
0000
0000
0000
0000
0020
0030
0000
0000
0000
0000
0000
0000
1000
0000
0000
0000
0000
0000
0000
0000
0001
0000
0000
0000
0000
0000
0000
0000
1000
0000
0000
0000
0000
0000
0000
0000
0200
0300
0000
0000
0000
0000
0000
0000
0200
0300
0000
0000
0000
0000
0000
0000
,
0002
0000
0000
0003
,
1001
0000
0000
0000
0001
0000
0010
0000
0001
0000
0000
0101
0000
0000
0100
0000
,
0010
0000
0000
1010
0000
0000
1000
0000
0100
0000
0000
0110
0000
0000
0010
0000
,
0001
0000
0000
0000
1000
0000
0001
0000
0100
0000
0000
0101
0000
0000
0001
0000
,
0010
0000
0000
0110
0000
0000
0100
0000
1000
0000
0001
0000
0100
0000
0010
0000
,
1000
0000
0000
0000
0100
0000
0010
0000
0011
0000
0000
0001
0000
0000
1000
0000
,
1010
0000
0000
0000
0010
0000
0100
0000
0101
0000
0000
0001
0000
0000
1000
0000
,
0001
0000
0000
0100
0000
0000
1000
0000
0001
0000
0000
0010
0000
0000
1000
0000
,
0001
0000
0000
0010
0000
0000
0100
0000
1000
0000
0010
0000
0100
0000
0001
0000
,
1001
0000
0000
0000
1000
0000
0010
0000
1000
0000
0000
1100
0000
0000
0010
0000
,
0001
0000
0000
0101
0000
0000
0010
0000
1000
0000
0000
1001
0000
0000
0001
0000
,
0100
0000
0000
0000
0010
0000
1000
0000
0100
0000
0000
0110
0000
0000
0010
0000
,
0001
0000
0000
0101
0000
0000
0010
0000
1000
0000
0000
1100
0000
0000
0010
0000
,
1001
0000
0000
0000
0001
0000
0100
0000
0110
0000
0000
1010
0000
0000
1000
0000
,
0100
0000
0000
0000
0010
0000
0001
0000
1001
0000
0000
0110
0000
0000
0010
0000
,
1000
0000
0000
0100
0000
0000
0001
0000
1000
0000
0000
0010
0000
0000
0001
0000
,
1000
0000
0000
0000
0000
0000
0000
0000
0200
0300
0000
0000
0000
0000
0000
0000
0200
0300
0000
0000
0000
0000
0000
0000
0001
0000
0000
0000
0000
0000
0000
0000
1000
0000
0000
0000
0000
0000
0000
0000
0001
0000
0000
0000
0000
0000
0000
0000
0020
0030
0000
0000
0000
0000
0000
0000
0020
0030
0000
0000
0000
0000
0000
0000
,
1000
0100
1100
0000
0100
0110
0000
0010
,
0001
1000
0001
0100
0001
0011
0000
0010
,
0100
0010
0001
0000
0100
0110
0000
0010
,
1000
0000
0100
0000
1000
0000
0001
0100
0001
0000
0100
0010
0000
1000
0010
0000
,
1010
0000
0000
0000
1100
0000
0000
0000
0100
0000
0000
0010
0000
0000
0001
0000
,
0101
0000
0000
0000
0110
0000
0000
0000
0010
0000
0000
1000
0000
0000
0001
0000
,
1000
0000
0100
0010
0100
0000
1000
0000
0010
0100
0010
0000
1000
0000
0001
0000
,
2002
0000
0000
3003
,
0001
0000
0010
0000
0001
0000
1000
0000
0001
0000
0000
0010
0000
0000
0100
0000
,
1000
0000
0000
0001
0000
0000
0100
0000
0010
0000
0000
1000
0000
0000
0100
0000
,
1000
0000
0001
0000
0100
0000
0010
0000
1000
0000
0000
0010
0000
0000
0001
0000
,
0010
0000
0000
0100
0000
0000
0001
0000
1000
0000
0000
0001
0000
0000
0100
0000
,
0110
0000
0000
0000
1001
0000
0000
0000
0011
0000
0000
0001
0000
0000
1000
0000
,
1100
0000
0000
0000
0110
0000
0000
0000
1100
0000
0000
0010
0000
0000
1000
0000
,
0001
0000
0000
0100
0000
0000
1000
0000
0001
0000
0000
0010
0000
0000
1000
0000
,
0001
0000
0000
0100
0000
0000
0010
0000
1000
0000
0100
0000
0010
0000
0001
0000
,
1001
0000
0000
0000
0001
0000
0100
0000
0001
0000
0000
0101
0000
0000
0010
0000
,
1000
0000
0000
1100
0000
0000
0010
0000
0001
0000
0000
1001
0000
0000
0100
0000
,
0010
0000
0000
0000
1000
0000
0100
0000
1000
0000
0000
1010
0000
0000
0100
0000
,
0001
0000
0000
0011
0000
0000
0100
0000
1000
0000
0000
1001
0000
0000
0001
0000
,
0100
0000
0010
0000
0100
0000
0000
0000
0101
0000
0000
0011
0000
0000
0100
0000
,
0010
0000
1000
0000
0100
0000
0000
0000
1010
0000
0000
1001
0000
0000
1000
0000
,
0001
0001
0100
0010
1000
1000
0100
0010
,
0001
0000
0000
0000
0000
0000
0000
0000
0200
0300
0000
0000
0000
0000
0000
0000
0200
0300
0000
0000
0000
0000
0000
0000
1000
0000
0000
0000
0000
0000
0000
0000
0010
0000
0000
0000
0000
0000
0000
0000
1000
0000
0000
0000
0000
0000
0000
0000
0200
0300
0000
0000
0000
0000
0000
0000
0200
0300
0000
0000
0000
0000
0000
0000
,
0001
0010
0022
0000
0033
2020
0000
3030
,
0001
0100
0202
0000
0303
2200
0000
3300
,
0001
0000
0100
0000
0220
0000
0000
0000
0330
0000
2002
0000
3003
0000
0001
1000
,
0001
0000
0100
0000
0010
0000
1000
0100
1000
0000
0100
0000
0010
0000
0001
0000
,
1000
0100
2200
0000
3300
0220
0000
0330
,
0001
0100
0220
0000
0330
0202
0000
0303
,
0001
0000
0000
0000
0000
0000
0000
0000
0200
0300
0000
0000
0000
0000
0000
0000
0200
0300
0000
0000
0000
0000
0000
0000
1000
0000
0000
0000
0000
0000
0000
0000
0020
0030
0000
0000
0000
0000
0000
0000
0020
0030
0000
0000
0000
0000
0000
0000
0001
0000
0000
0000
0000
0000
0000
0000
1000
0000
0000
0000
0000
0000
0000
0000
,
2002
0000
0000
3003
,
0001
1000
0001
0010
0100
1000
0010
0100
,
0010
1000
0100
0001
0100
1000
0010
0100
,
0101
1001
1100
1001
,
0011
1001
1010
1001
,
0001
0010
1000
0010
0001
0100
0010
0001
,
0010
1000
0001
0100
0010
1000
0100
0010
,
0001
0001
0100
0100
0010
0010
1000
1000
,
0001
0100
0001
0000
1000
0010
1000
0000
0001
1000
0001
1000
0001
0000
0000
0000
,
1001
0000
0000
0000
1000
0000
0100
0000
2000
0000
0000
3020
0000
0000
0230
0000
,
0320
0000
0000
2030
0000
0000
3200
0000
0320
0000
0000
0032
0000
0000
0103
0000
,
0101
0000
0000
0000
0001
0000
0010
0000
0200
0000
0000
0302
0000
0000
0203
0000
,
2300
0000
0000
3002
0000
0000
2003
0000
3100
0000
0010
0000
0001
0000
1000
0000
,
1010
0000
0000
0000
0101
0000
0000
0000
1100
0000
0000
0010
0000
0000
0001
0000
,
0101
0000
0000
0000
0011
0000
0000
0000
0001
0000
0000
1000
0000
0000
0001
0000
,
1000
0000
0000
0010
0000
0000
0001
0000
1000
0000
0000
0100
0000
0000
0001
0000
,
1000
0000
0100
0000
0010
0000
0001
0000
1000
0001
1000
0001
1000
0000
0000
0000
,
1001
0000
0000
0000
0001
0000
1000
0000
0002
0000
0000
0203
0000
0000
0320
0000
,
0032
0000
0000
0023
0000
0000
2030
0000
3002
0000
0000
2003
0000
0000
3100
0000
,
0110
0000
0000
0000
0010
0000
0001
0000
2000
0000
0000
3002
0000
0000
0203
0000
,
2300
0000
0000
3200
0000
0000
0320
0000
2030
0000
0000
3200
0000
0000
0310
0000
,
0011
0000
0000
0000
1010
0000
0000
0000
0001
0000
0000
0100
0000
0000
0010
0000
,
1010
0000
0000
0000
1100
0000
0000
0000
1000
0000
0000
0100
0000
0000
0010
0000
,
0001
0001
0100
0100
0010
0010
1000
1000
,
0001
0100
0001
0000
0010
0000
0100
1000
0100
0000
0010
0000
0001
1000
0001
1000
,
0002
0000
0000
0000
,
0000
0000
0000
0003
0000
0000
0000
0000
;

//--------------- dance-single - Fred-104 ----------------
#NOTES:
     dance-single:
     Fred-104:
     Hard:
     17:
     :
0000
0000
0000
0000
,
0000
0000
0000
0000
,
0000
0000
0000
0000
,
0000
0000
0000
0000
,
0000
0000
0000
0000
,
0001
0010
0100
0001
0100
0010
0000
0001
,
1000
0010
0100
1000
0100
0010
0000
1000
,
0001
0010
0100
0001
0100
1000
0000
0001
,
1000
0100
1000
0100
0010
0001
0010
0001
1000
0010
1000
0010
0100
0001
0100
0001
,
2000
0000
0000
3000
,
0001
0000
0100
0000
0110
0000
0010
0000
2000
0000
0000
0100
0000
0000
3100
0000
,
0020
0000
0000
0001
0000
0000
0031
0000
0100
0000
0010
1000
0000
0001
0010
0100
,
0010
0000
0001
0000
0101
0000
0100
0000
0002
0000
0000
0010
0000
0000
0013
0000
,
0200
0000
0000
1000
0000
0000
1300
0000
0001
0010
0100
0000
1000
0000
0001
0010
,
0100
0000
0000
0000
1100
0000
0000
0000
1010
0000
1000
0100
0000
0010
0001
0000
,
0101
0000
0000
0000
1100
0000
0000
0000
0101
0000
0001
0010
0000
0100
1000
0000
,
0020
0000
0000
1000
0000
0000
0130
0000
0020
0000
0000
0001
0000
0000
0130
0000
,
0002
0000
0000
1000
0000
0000
0103
0000
0001
0000
0100
0000
0010
1000
0100
0010
,
0001
0000
1000
0000
0010
0000
0100
0000
0001
0000
0010
0100
0000
0100
1000
0000
,
0001
0000
1000
0010
0000
0010
0100
0000
0001
0000
1000
0100
0000
0100
0010
0001
,
1000
0000
0000
0000
0001
0000
0100
0000
0010
0000
1000
0100
0000
0100
0010
0000
,
0001
0000
1000
0001
0000
0001
0010
0000
0100
0010
0001
0000
1000
0000
0100
0010
,
0001
0000
0100
0000
1000
0000
0000
0000
0002
0000
0000
0023
0000
0000
2030
0000
,
3001
0000
1000
0000
0100
0000
0000
0000
0002
0000
0000
2003
0000
0000
3020
0000
,
0031
0000
0010
0001
0000
1000
0001
0000
1000
0000
0100
1000
0000
0010
1000
0100
,
0010
0000
0001
0100
0010
0100
0001
0000
1000
0100
0010
0100
1000
0000
0001
1000
,
0010
1000
1100
0000
0100
0110
0010
0001
,
1000
0000
0001
0000
0101
0000
0100
0010
0100
0000
0002
0000
0000
0000
1003
0000
,
0010
1000
1100
0000
0100
0010
0001
1000
,
0001
0000
1000
0000
1001
0000
0001
0100
0001
0100
1000
0100
0000
1000
0100
0010
,
1000
0000
0001
0000
1001
0000
0000
0000
0002
0000
0000
0203
0000
0000
0310
0000
,
1000
0000
0100
0000
0110
0000
0000
0000
0200
0000
0000
2300
0000
0000
3001
0000
,
1000
0000
0010
1000
0100
0000
1000
0000
0010
0100
0001
0000
0100
0001
0010
0001
,
0200
0000
0000
0300
,
1001
0000
0000
0000
0001
0000
1000
0000
0001
0100
0000
0010
0100
0000
0001
0000
,
1000
0100
0000
0010
0001
0000
1000
0000
0001
0100
0000
0100
0010
1000
0001
0010
,
0100
0000
0000
0000
1000
0000
0100
0000
0010
0001
0000
1000
0001
0000
0100
0000
,
0001
0010
0000
0010
0100
0000
1000
0000
0010
0000
1000
0001
0000
1000
0010
0100
,
0010
0000
1000
0000
1100
0000
0000
0000
0101
0000
0000
0110
0000
0000
0110
0000
,
0010
0000
0001
0000
0011
0000
0000
0000
1010
0000
0000
0110
0000
0000
0110
0000
,
1000
0000
0010
0100
0000
0010
0100
0000
0001
0000
0010
0100
0000
0010
0100
0000
,
1000
0000
0010
0100
0000
0010
0100
0000
0001
0000
0010
0100
0000
1000
0001
0000
,
1001
0000
0000
0000
1000
0010
1000
0010
0100
0000
0000
0000
1000
0100
1000
0100
,
0002
0000
0000
2003
0000
0000
3020
0000
2030
0000
0000
3200
0000
0000
0320
0000
,
0031
0000
0000
0000
0100
0010
0100
0010
0001
0000
0000
0000
0010
1000
0010
1000
,
0002
0000
0000
2003
0000
0000
3020
0000
2030
0000
0000
3200
0000
0000
0320
0000
,
0031
0000
1000
0000
1001
0000
0000
0000
0001
0100
0000
0100
1000
0000
0001
0000
,
1000
0000
0001
0000
1001
0000
0000
0000
1000
0010
0000
0010
0001
0000
1000
0000
,
0001
0000
0001
0000
0100
0000
0010
0000
1000
0000
1000
0000
0100
0000
0010
0001
,
1000
0000
0010
1000
0100
1000
0010
0000
0100
0001
0010
0001
1000
0000
0001
1000
,
0010
1000
2010
0000
3001
2001
0000
3100
,
1000
0100
0120
0000
0031
0021
0000
0031
,
1000
0000
0001
0000
0201
0000
0000
0000
1300
0000
1200
0000
0000
0000
0301
1000
,
0001
0100
0001
0100
0010
0000
0100
0001
0010
0001
1000
0001
1000
0100
1000
0100
,
1000
0010
1020
0000
0130
0120
0000
0130
,
0001
0000
0010
0000
0012
0000
0000
0000
1003
0000
1002
0000
0000
0000
0103
0001
,
0010
0001
0010
0001
0010
0000
0100
1000
0001
1000
0010
1000
0100
1000
0001
0000
,
2002
0000
0000
3003
,
0001
0000
0100
0010
0100
0000
0001
0000
1000
0000
0100
0010
0100
0000
1000
0000
,
0001
0000
0010
0001
0100
0000
0010
0000
1000
0000
0100
0010
0001
0000
1000
0000
,
1100
0010
0001
0000
0101
0010
1000
0000
,
1010
0100
0001
0000
0011
0100
1000
0000
,
0001
0000
0100
0001
0010
0000
0100
0000
1000
0010
0100
0000
0010
1000
0100
0000
,
1000
0000
0001
1000
0001
0000
0100
0000
0001
0010
0100
0000
1000
0000
0001
0000
,
1000
1000
0010
0010
0100
0100
0001
0001
,
1000
0100
1000
0100
0010
0001
0010
0001
1000
0100
0010
0001
1000
0000
0000
0000
,
1001
0000
0000
0000
0001
0000
0100
0010
0200
0000
0000
0302
0000
0000
0023
0000
,
2030
0000
0000
3020
0000
0000
0032
0000
1003
0000
0001
0100
0000
0010
1000
0001
,
1000
0000
0000
0000
0001
0000
1000
0010
2000
0000
0000
3200
0000
0000
0320
0000
,
2030
0000
0000
3020
0000
0000
0032
0000
0103
0001
0010
0000
0100
0000
0010
0001
,
0100
0000
0000
0000
0101
0000
0100
0000
0120
0000
0000
2030
0000
0000
3100
0000
,
0010
0000
0000
0000
0011
0000
0001
0000
2001
0000
0000
3002
0000
0000
0203
0000
,
0301
0000
0000
0010
0000
0000
1000
0000
0001
0000
0000
0100
0000
0000
1000
0000
,
0001
0010
0001
0010
0100
1000
0100
1000
0001
0010
0100
1000
0001
0000
1000
0000
,
0001
0000
0100
0010
0100
0000
0001
0000
1000
0001
0010
0000
0001
1000
0010
0000
,
0100
0001
0000
0001
0010
0000
0100
0000
1000
0010
0000
0010
0100
0001
1000
0001
,
0010
0000
0000
0000
0001
0000
1000
0000
0100
1000
0000
1000
0010
0000
0100
0000
,
0001
0010
0000
0010
0100
0000
1000
0000
0001
0100
0010
1000
0100
0010
0001
1000
,
0001
0000
0000
0000
0101
0000
0001
0000
2000
0000
0000
3002
0000
0013
0100
0000
,
1100
0000
0000
0000
1010
0000
1000
0000
0001
0000
0100
0010
0100
0000
0001
0000
,
1001
1000
0010
0100
0001
1000
0100
0010
,
0001
0100
0001
0010
0100
0000
1000
0100
1000
0010
0100
0000
0001
1000
0001
1000
,
0002
0000
0000
0000
,
0000
0000
0000
0003
0000
0000
0000
0000
;

//--------------- dance-single - Fred-104 ----------------
#NOTES:
     dance-single:
     Fred-104:
     Challenge:
     18:
     :
0000
0000
0000
0000
,
0000
0000
0000
0000
,
0000
0000
0000
0000
,
0000
0000
0000
0000
,
0000
0000
0000
0000
,
1000
0000
0000
0000
0000
0000
0000
0000
0100
0000
0000
0000
0000
0000
0000
0000
1200
0000
0000
0000
0000
0000
0000
0000
0000
0000
0000
0000
0000
0000
0000
0000
0000
0000
0000
0000
0000
0000
0000
0300
0210
0000
0000
0000
0000
0000
0000
0000
0000
0000
0000
0000
0000
0000
0000
0300
1200
0000
0000
0000
0000
0000
0000
0000
,
2300
0000
0000
0000
0000
0000
0000
0000
0000
0000
0000
0000
0000
0000
0000
3000
1002
0000
0000
0000
0000
0000
0000
0000
0000
0000
0000
0000
0000
0000
0000
0000
0000
0000
0000
0000
0000
0000
0000
0003
0102
0000
0000
0000
0000
0000
0000
0000
0000
0000
0000
0000
0000
0000
0000
0000
0000
0000
0000
0000
0000
0000
0000
0003
,
0001
0000
0000
0000
0000
0000
0000
0000
0000
0000
0000
0000
0000
0000
0000
0000
0000
0000
0000
0000
0000
0000
0000
0000
1000
0000
0000
0000
0000
0000
0000
0000
0000
0000
0000
0000
0000
0000
0000
0000
0000
0000
0000
0000
0000
0000
0000
0000
1020
0000
0000
0000
0000
0000
0000
0000
0000
0000
0000
0000
0000
0000
0000
0000
0000
0000
0000
0000
0000
0000
0000
0000
0000
0000
0000
0000
0000
0000
0000
0000
0000
0000
0000
0000
0000
0000
0000
0000
0000
0000
0000
0000
0000
0000
0000
0000
0000
0000
0000
0000
0000
0000
0000
0000
0000
0000
0000
0000
0000
0000
0000
0000
0000
0000
0000
0000
0000
0030
0000
0000
0120
0000
0000
0000
0000
0000
0000
0000
0000
0000
0000
0000
0000
0000
0000
0000
0000
0000
0000
0000
0000
0000
0000
0000
0000
0000
0000
0000
0000
0000
0000
0000
0000
0000
0000
0000
0000
0000
0000
0000
0000
0000
0000
0000
0000
0030
0000
0000
0010
0000
0000
0000
0000
0000
0000
0000
1000
0000
0000
0000
0000
0000
0000
0000
0001
0000
0000
0000
0000
0000
0000
0000
,
0100
0001
0010
0001
0100
0010
1000
0001
1000
0100
0010
0001
0010
0100
1000
0001
,
2000
0000
0000
3000
,
1100
0000
0000
0000
0100
0000
0010
0000
0001
0000
0010
0001
0000
1000
0001
0000
,
1000
0000
0100
0010
0000
0001
1000
0000
0001
0000
0100
1000
0100
0010
1000
0001
,
0100
0000
0000
0000
0011
0000
0001
0000
1000
0000
0001
0100
0000
0010
1000
0000
,
0001
0000
1000
0100
0000
0010
0001
0000
0100
0010
0001
0000
0010
0000
1000
0001
,
0100
0000
0000
0000
0110
0000
0000
0000
1010
0000
0000
0101
0000
0000
1100
0000
,
0110
0000
0010
0000
0011
0000
0000
0000
1010
0000
0000
0101
0000
0000
1100
0000
,
1001
0000
0001
0100
0000
0010
1000
0000
1001
0000
1000
0100
0000
0010
0001
0000
,
1000
0010
0001
0010
0100
0001
1000
0000
0001
0100
1000
0100
0010
1000
0100
0010
,
0001
0000
0000
0000
0100
0000
0010
0000
1000
0000
0010
1000
0000
0100
0010
0000
,
0001
0000
1000
0100
0000
0001
0100
0000
0010
0000
0001
1000
0001
0010
0100
0001
,
0100
0000
0000
0000
1000
0000
0010
0000
0100
0000
0010
1000
0000
0100
0010
0000
,
0001
0000
0100
0010
0000
0001
0010
0000
0100
0001
1000
0000
0010
0000
0100
0001
,
1000
0000
0000
0000
1010
0000
1000
0000
0001
0100
0000
0100
0010
0000
1000
0000
,
1001
0000
0001
0000
0101
0000
0000
0000
0100
0010
0000
0010
1000
0000
0001
0000
,
1000
0000
0100
1000
0000
0001
0100
0001
0010
0000
0100
1000
0000
0010
1000
0010
,
0100
0000
0001
0100
0010
0100
1000
0000
1000
0100
0010
0100
0001
0000
1000
0001
,
0010
0000
0000
0000
0000
0000
0000
0000
0002
0003
0000
0000
0000
0000
0000
0000
0002
0003
0000
0000
0000
0000
0000
0000
0100
0000
0000
0000
0000
0000
0000
0000
0002
0003
0000
0000
0000
0000
0000
0000
0002
0003
0000
0000
0000
0000
0000
0000
0010
0000
0000
0000
0001
0000
0000
0000
1000
0000
0000
0000
0000
0000
0000
0000
,
0001
0000
0100
0000
1000
0000
0100
0010
1000
0000
2100
0000
0000
0000
3100
0000
,
0010
0000
0000
0000
0000
0000
0000
0000
0002
0003
0000
0000
0000
0000
0000
0000
0002
0003
0000
0000
0000
0000
0000
0000
0100
0000
0000
0000
0000
0000
0000
0000
0002
0003
0000
0000
0000
0000
0000
0000
0002
0003
0000
0000
0000
0000
0000
0000
0100
0000
0000
0000
0010
0000
0000
0000
1000
0000
0000
0000
0000
0000
0000
0000
,
0001
0000
1000
0000
0010
0000
0001
0010
0100
0001
1000
0001
0000
1000
0010
0100
,
0001
0000
0100
0000
1100
0000
0000
0000
1100
0000
0000
0101
0000
0000
0101
0000
,
0001
0000
0010
0000
1010
0000
0000
0000
1010
0000
0000
0011
0000
0000
0011
0000
,
0001
0000
0010
0100
1000
0001
0100
0000
0010
0100
0001
1000
0100
0000
0010
0001
,
2000
0000
0000
3000
,
1001
0000
0001
0100
0010
0000
1000
0000
0010
1000
0000
0010
0100
0000
0001
0000
,
1000
0000
0001
0010
0000
0100
0010
0001
1000
0000
0100
1000
0000
0001
1000
0010
,
0100
0000
0001
1000
0010
0000
1000
0000
0100
0010
0000
0001
1000
0000
0001
0000
,
1000
0000
0010
1000
0000
0100
1000
0100
0010
0000
0001
0100
0000
0010
0100
0001
,
0010
0000
0001
0000
1001
0000
0000
0000
0002
0000
0000
0100
0000
0000
0013
0000
,
0100
0000
1000
0000
1001
0000
0000
0000
2000
0000
0000
0100
0000
0000
3010
0000
,
1000
0100
0000
0100
0001
0000
0011
0000
0001
0100
0000
0100
1000
0000
1010
0000
,
0001
0100
0000
0010
1000
0000
0001
0000
0010
0100
1000
0000
0001
0000
1000
0010
,
0100
0000
0000
0000
0001
0010
0100
1000
0001
0000
0000
0000
0100
0010
1000
0001
,
0010
0000
0001
0010
0000
0100
1000
0000
0010
1000
0000
0001
0100
0010
1000
0010
,
0100
0000
0000
0000
0001
0010
0100
1000
0010
0000
1000
0010
0000
0100
0001
0000
,
1000
0000
0001
0010
0000
0100
0010
0000
0001
0000
0100
1000
0000
0100
0010
1000
,
0001
0000
0100
0000
0110
0000
0000
0000
1010
0000
0000
0110
0000
0000
1010
0000
,
1100
0000
0100
0000
0010
0000
0000
0000
0011
0000
0000
0101
0000
0000
0011
0000
,
1002
0000
0000
1003
0000
0000
0010
0000
0000
0100
0000
0000
1002
0000
0000
1003
0000
0000
0100
0000
0000
0010
0001
1000
,
0001
0000
1000
0100
0010
0100
0001
0000
0001
0100
0010
0100
1000
0001
0100
0010
,
1000
0000
0000
0000
0000
0000
0000
0000
0100
0000
0000
0000
0000
0000
0000
0000
1200
0000
0000
0000
0000
0000
0000
0000
0000
0000
0000
0000
0000
0000
0000
0000
0010
0000
0000
0000
0000
0000
0000
0300
0210
0000
0000
0000
0000
0000
0000
0000
0000
0000
0000
0000
0000
0000
0000
0300
0101
0000
0000
0000
0000
0000
0000
0000
,
0001
0000
0000
0000
0000
0000
0000
0000
0010
0000
0000
0000
0000
0000
0000
0000
0012
0000
0000
0000
0000
0000
0000
0000
0000
0000
0000
0000
0000
0000
0000
0000
1000
0000
0000
0000
0000
0000
0000
0003
1002
0000
0000
0000
0000
0000
0000
0000
0000
0000
0000
0000
0000
0000
0000
0003
0101
0000
0000
0000
0000
0000
0000
0000
,
0001
0000
0000
0000
0000
0000
0000
0000
1000
0000
0000
0000
0000
0000
0000
0000
2010
0000
0000
0000
0000
0000
0000
0000
0000
0000
0000
0000
0000
0000
0000
0000
0100
0000
0000
0000
0000
0000
0000
3000
2100
0000
0000
0000
0000
0000
0000
0000
0000
0000
0000
0000
0000
0000
0000
3000
1000
0000
0000
0000
0100
0000
0000
0000
,
0010
0001
0100
0010
0001
0000
0010
0100
1000
0100
0010
1000
0100
0010
0001
0100
,
0001
0000
0000
0000
0000
0000
0000
0000
0100
0000
0000
0000
0000
0000
0000
0000
0102
0000
0000
0000
0000
0000
0000
0000
0000
0000
0000
0000
0000
0000
0000
0000
1000
0000
0000
0000
0000
0000
0000
0003
1002
0000
0000
0000
0000
0000
0000
0000
0000
0000
0000
0000
0000
0000
0000
0003
0011
0000
0000
0000
0000
0000
0000
0000
,
0001
0000
0000
0000
0000
0000
1000
0000
0001
0000
0100
0000
0002
0000
0000
0000
0000
0000
0013
0000
0000
0000
0000
0000
0100
0000
0000
0000
0000
0000
0010
0000
0001
0000
1000
0000
0002
0000
0000
0000
0000
0000
0103
0000
0000
0001
0000
0000
,
1000
0001
0100
1000
0100
0000
0010
1000
0100
0010
0001
0100
0010
0001
0010
0000
,
2020
0000
0000
3030
,
1200
1300
0010
0100
0120
0130
0001
1000
,
1002
1003
0010
0100
0012
1003
0100
0010
,
0011
0000
0100
1000
0100
0000
0000
0000
1010
0000
0100
0001
0100
0000
0000
0000
,
0101
0000
0010
1000
0010
0000
0000
0000
1100
0000
0010
0001
0010
0000
0000
0000
,
0001
0000
1000
0010
0001
0000
0010
0000
0100
0001
1000
0000
0010
1000
0100
0000
,
1000
0000
0010
1000
0100
0000
1000
0000
0001
0010
0100
0010
0001
0000
1000
0000
,
0001
0001
0100
0100
0010
0010
1000
1000
,
0001
0100
0010
1000
0100
1000
0001
0010
0001
0100
0010
1000
0001
0010
0100
1000
,
0001
0000
0000
0000
1100
0000
1000
0000
0001
0100
0000
0100
1000
0000
0001
0000
,
1000
0100
0000
0100
0001
0000
1000
0000
0001
0010
0000
0010
1000
0001
0010
0100
,
1000
0000
0000
0000
1010
0000
0010
0000
0001
0100
0000
0100
1000
0000
0001
0000
,
1000
0100
0000
0100
0001
0000
1000
0000
0001
1000
0100
0010
0001
0100
0010
0001
,
0010
0000
0000
0000
1010
0000
1000
0000
0002
0000
0000
0103
0000
0000
0101
0000
,
0100
0000
0000
0000
0110
0000
0010
0000
2000
0000
0000
3100
0000
0000
1100
0000
,
1000
0000
0000
0100
0000
0000
0001
0000
1000
0000
0000
0010
0000
0000
0001
0000
,
1000
0010
0100
1000
0100
0010
1000
0001
0010
0100
0001
0100
0010
0001
1000
0010
,
1000
0000
0100
0000
0010
0000
0001
0000
0100
0000
0001
0100
0000
0010
1000
0001
,
1000
0000
0001
0010
0000
0100
1000
0010
0100
0000
0001
1000
0010
0001
0010
0100
,
0001
0000
1000
0000
0100
0000
1000
0000
0001
0000
1000
0100
0000
0010
0100
1000
,
0001
0000
1000
0001
0000
0010
0100
0000
1000
0001
0100
1000
0100
0010
1000
0100
,
0010
0000
0000
0000
0001
0100
0010
1000
0001
0010
0000
0010
0100
0000
1000
0000
,
1100
0000
1000
0000
1010
0000
0000
0000
0010
1000
0000
0001
0100
0000
0010
0000
,
1000
0001
0100
0010
1000
0100
0010
0001
,
0100
0010
0001
0010
1000
0001
0100
1000
0100
0010
1000
0001
1000
0001
0010
0100
,
0002
0000
0000
0000
,
0000
0000
0000
0003
0000
0000
0000
0000
;

//--------------- dance-double - Fred-104 ----------------
#NOTES:
     dance-double:
     Fred-104:
     Easy:
     12:
     :
00000000
00000000
00000000
00000000
,
00000000
00000000
00000000
00000000
,
00000000
00000000
00000000
00000000
,
00000000
00000000
00000000
00000000
,
00000000
00000000
00000000
00000000
,
00010000
00000000
00002000
00000000
00003000
00002000
00000000
00003000
,
00000010
00000000
00002000
00000000
00003000
00002000
00000000
00003000
,
00010000
00000000
00002000
00000000
00003000
00002000
00000000
00003000
,
00000010
00010000
00000010
00001000
,
00002002
00000000
00000000
00003003
,
00000001
00000000
00001000
00000000
00000001
00000100
00000001
00000000
,
00001000
00000100
00001000
00000000
00000100
00010000
00001000
00000000
,
00010000
00000000
00000010
00000000
00010000
00001000
00100000
00000000
,
00001000
00010000
00001000
00000000
00100000
00010000
10000000
00000000
,
00100000
10000000
11000000
00000000
,
00100000
00001000
00011000
00000000
,
00010000
00001000
00000010
00000001
,
00001000
00000100
00000010
00000000
00000001
00001000
00000010
00000000
,
00000110
00000000
00000000
00000000
00000100
00000000
00000000
00000000
00000001
00000000
00000000
00001000
00000000
00000000
00000010
00000000
,
00010000
00000000
00000000
00001000
00000000
00000000
00010000
00000000
00000010
00000000
00000000
00001000
00000000
00000000
00000100
00000000
,
00010000
00000000
00000000
00000000
00001000
00000000
00000000
00000000
00100000
00000000
00000000
00010000
00000000
00000000
10000000
00000000
,
00010000
00000000
00000000
01000000
00000000
00000000
00100000
00000000
10000000
00000000
00000000
00100000
00000000
00000000
01000000
00000000
,
00010000
00000000
00000000
00000000
10010000
00000000
00000000
00000000
10000000
00000000
00000000
01000000
00000000
00000000
00100000
00000000
,
00001000
00000000
00000000
00000000
00011000
00000000
00000000
00000000
00010000
00000000
00000000
00000010
00000000
00000000
00001000
00000000
,
00000100
00000000
00000000
00000010
00000000
00000000
00000100
00000000
00000010
00000000
00000000
00000001
00000000
00000000
00001000
00000000
,
00000001
00000100
00001000
00000000
00010000
00100000
01000000
00000000
,
10010000
00000000
20000000
00000000
30000000
02000000
00000000
03000000
,
00110000
00000000
00100000
00000000
00001000
00010000
00000000
00010000
,
00011000
00000000
00020000
00000000
00030000
00000020
00000000
00000030
,
00001000
00000000
00000000
00000000
00000001
00000000
00000000
00000000
00000100
00000000
00000000
00000010
00000000
00000000
00000100
00000000
,
00000110
00010000
00001000
00000000
,
01100000
00001000
00010000
00000000
,
00001000
00010000
01000000
00000000
00010000
00001000
00010000
00000000
,
00022000
00000000
00000000
00033000
,
00011000
00000000
00001000
00000000
00100000
00010000
10000000
00000000
,
00010000
00000000
10000000
00000000
00100000
00000000
00000000
00000000
01000000
00000000
00000000
00001000
00000000
00000000
00010000
00000000
,
00011000
00000000
00010000
00000000
00000100
00001000
00000001
00000000
,
00000100
00000000
00000010
00000000
00001000
00000000
00000000
00000000
00000001
00000000
00000000
00000010
00000000
00000000
00000100
00000000
,
00001100
00010000
00011000
00000000
,
00101000
00001000
00011000
00000000
,
00010010
00010000
00011000
00001000
,
00101000
00001000
00011000
00010000
,
00011000
00000000
00001000
00000000
00100000
00010000
10000000
00000000
,
00010000
00000000
00000000
10000000
00000000
00000000
00100000
00000000
01000000
00000000
00100000
00000000
10000000
00000000
00000000
00000000
,
01000000
00000000
00000000
00000000
00010000
00000000
00001000
00000000
00000010
00000000
00000000
00000100
00000000
00000000
00001000
00000000
,
00000001
00000000
00000100
00000000
00000010
00000000
00000000
00000000
00001000
00000000
00000000
00000001
00000000
00000000
00001000
00000000
,
00001100
00000010
00000001
00000000
,
00001010
00000100
00000001
00000000
,
00000001
00000000
00000000
00000010
00000000
00000000
00001000
00000000
00010000
00000000
00000000
01000000
00000000
00000000
00100000
00000000
,
00010000
10000000
01000000
00000000
00100000
00001000
00010000
00000000
,
00021000
00000000
00000020
00000000
00000030
00000020
00000000
00030030
,
00021000
00000000
00000200
00000000
00000300
00000200
00000000
00030300
,
00012000
00000000
02000000
00000000
03000000
02000000
00000000
03003000
,
00001000
00010000
00001000
00000000
00100000
00001000
00010000
00000000
,
00012000
00000000
00200000
00000000
00300000
00200000
00000000
00303000
,
00021000
00000000
00000020
00000000
00000030
00000020
00000000
00030030
,
00010000
00001000
00000010
00000000
00000001
00001000
00000100
00000000
,
00000220
00000000
00000000
00000330
,
00001000
00000010
00000100
00000000
00000001
00001000
00000100
00000000
,
00010000
00001000
00010000
00000010
00010000
00001000
00010000
00000000
,
00011000
00000010
00011000
00100000
,
00011000
00000100
00011000
01000000
,
00010000
00001000
00010000
00000000
00001000
00010000
00000010
00000000
,
00001000
00000010
00000100
00000000
00000001
00000010
00000100
00000000
,
00000010
00001000
00010000
01000000
,
00100000
00010000
10000000
00000000
00100000
10000000
01000000
00000000
,
10010000
00000000
00000000
00000000
10000000
00000000
00000000
00000000
01000000
00000000
00000000
00100000
00000000
00000000
00001000
00000000
,
00010000
00000000
00000000
00000010
00000000
00000000
00001000
00000000
00000100
00000000
00000000
00000010
00000000
00000000
00000001
00000000
,
00001001
00000000
00000000
00000000
00000001
00000000
00000000
00000000
00000100
00000000
00000000
00000001
00000000
00000000
00001000
00000000
,
00000001
00000000
00000000
00000010
00000000
00000000
00000100
00000000
00010000
00000000
00001000
00000000
00100000
00000000
00001000
00000000
,
00011000
00000000
00000000
00000000
00010000
00000000
00000000
00000000
00001000
00000000
00000000
00000010
00000000
00000000
00000100
00000000
,
00010000
00000000
00001000
00000000
00010000
00000000
00000000
00000000
00001000
00000000
00000000
00010000
00000000
00000000
00100000
00000000
,
01000000
00000000
00000000
00001000
00000000
00000000
00010000
00000000
00100000
00000000
00000000
01000000
00000000
00000000
00001000
00000000
,
00010000
00001000
00100000
00000000
00001000
00010000
00000010
00000000
,
00001010
00000000
00000000
00000000
00001000
00000000
00000000
00000000
00000001
00000000
00000000
00000100
00000000
00000000
00000010
00000000
,
00001000
00000000
00000000
00000001
00000000
00000000
00000010
00000000
00000100
00000000
00000000
00010000
00000000
00000000
00001000
00000000
,
00011000
00000000
00000000
00000000
00001000
00000000
00000000
00000000
00100000
00000000
00000000
00010000
00000000
00000000
10000000
00000000
,
00010000
00000000
00000000
01000000
00000000
00000000
00100000
00000000
10000000
00000000
01000000
00000000
00100000
00000000
00001000
00000000
,
00010000
00000000
00000000
00000000
00011000
00000000
00000000
00000000
00010000
00000000
00000000
00001000
00000000
00000000
00000010
00000000
,
00000001
00000000
00000000
00000000
00001001
00000000
00000000
00000000
00000001
00000000
00000000
00000100
00000000
00000000
00001000
00000000
,
00010000
00100000
01000000
00000000
00010000
00100000
01000000
00000000
,
10000000
01000000
00100000
01000000
10000000
00100000
01000000
00001000
,
00020000
00000000
00000000
00000000
,
00000000
00000000
00000000
00030000
00000000
00000000
00000000
00000000
;

//--------------- dance-double - Fred-104 ----------------
#NOTES:
     dance-double:
     Fred-104:
     Medium:
     15:
     :
00000000
00000000
00000000
00000000
,
00000000
00000000
00000000
00000000
,
00000000
00000000
00000000
00000000
,
00000000
00000000
00000000
00000000
,
00000000
00000000
00000000
00000000
,
00010000
00001000
00202000
00000000
00303000
00020020
00000000
00030030
,
00010000
00001000
02002000
00000000
03003000
00020200
00000000
00030300
,
00010000
00000000
00001000
00000000
00022000
00000000
00000000
00000000
00033000
00000000
00020020
00000000
00030030
00000000
00010000
00001000
,
00010000
00000000
00000000
00000000
00000000
00000000
00000000
00000000
00002000
00003000
00000000
00000000
00000000
00000000
00000000
00000000
00002000
00003000
00000000
00000000
00000000
00000000
00000000
00000000
00000010
00000000
00000000
00000000
00000000
00000000
00000000
00000000
00010000
00000000
00000000
00000000
00000000
00000000
00000000
00000000
00002000
00003000
00000000
00000000
00000000
00000000
00000000
00000000
00002000
00003000
00000000
00000000
00000000
00000000
00000000
00000000
00000100
00000000
00000000
00000000
00000000
00000000
00000000
00000000
,
00022000
00000000
00000000
00033000
,
00011000
00000000
00000000
00000000
00001000
00000000
00010000
00000000
01000000
00000000
00000000
10000000
00000000
00000000
00010000
00000000
,
01000000
00000000
00000000
00100000
00000000
00000000
00010000
00000000
00001000
00000000
00000000
00000100
00000000
00000000
00000010
00000000
,
00010000
00000000
00000000
00000000
00001000
00000000
00000010
00000000
00000001
00000000
00000000
00000010
00000000
00000000
00000100
00000000
,
00000010
00000000
00000000
00001000
00000000
00000000
00010000
00000000
01000000
00000000
00100000
00000000
00010000
00000000
01000000
00000000
,
00001000
00010000
00011000
00000000
00010000
00001000
00000010
00000100
,
00010000
00001000
00011000
00000000
00001000
00010000
01000000
00100000
,
00001000
00010000
00100000
01000000
00001000
00010000
00100000
10000000
,
00010000
10000000
01000000
00100000
00001000
00010000
00000100
00000010
,
00000011
00000000
00000000
00000000
00000001
00000000
00001000
00000000
00000001
00000000
00000000
00000010
00000100
00000000
00010000
00000000
,
00001000
00000000
00000000
01000000
00100000
00000000
01000000
00000000
00010000
00000000
00000000
10000000
00100000
00000000
01000000
00001000
,
00010000
00000000
00000000
00000000
00001000
00000000
00000010
00000000
00000100
00000000
00000000
00001000
00000100
00000000
00000010
00000000
,
00000001
00000000
00000000
00001000
00000010
00000000
00010000
00000000
00001000
00100000
00010000
00000000
01000000
00000000
00001000
00010000
,
00001000
00000000
00010000
00000000
00010010
00000000
00000000
00000000
00010000
00000000
00000000
00001000
00000000
00000000
00000100
00000000
,
00000001
00000000
00000010
00000000
00000110
00000000
00000000
00000000
00000001
00000000
00000000
00000100
00000000
00000000
00001000
00000000
,
00010000
00000000
00000000
00100000
00000000
00000000
01000000
00000000
00010000
00000000
00000000
10000000
00000000
00000000
01000000
00100000
,
01000000
10000000
00100000
00010000
00001000
00000100
00000010
00010000
,
00001000
00010000
00011000
00000000
00001000
00101000
00000000
00100000
,
00001000
00010000
00000010
00010000
00001000
01001000
00000000
00001000
,
00010000
00000100
00001100
00000000
00001000
00001001
00000000
00000001
,
00000100
00000000
00001000
00000000
00000100
00000000
00000010
00001000
00000001
00000000
00000010
00000100
00000000
00010000
00001000
00000000
,
00010000
00000000
00001000
00000000
00011000
00000000
00000000
00000000
00001000
00000000
00000000
01000000
00000000
00000000
00010000
00000000
,
10000000
00000000
01000000
00000000
01100000
00000000
00000000
00000000
00100000
00000000
00000000
00001000
00000000
00000000
00010000
00000000
,
00001000
00000010
00000001
00000100
00001000
00010000
00100000
10000000
,
20020000
00000000
00000000
30030000
,
10000000
00000000
01000000
00000000
00100000
00000000
00001000
00000000
00010000
00000000
00000000
00100000
00000000
00000000
10000000
00000000
,
01000000
00000000
00000000
00100000
00000000
00000000
00001000
00000000
00010000
00000000
00000000
00100000
00000000
00000000
10000000
00000000
,
00010000
00000000
10000000
00000000
01000000
00000000
00010000
00000000
00001000
00000000
00000000
00010000
00000000
00000000
00000010
00000000
,
00000100
00000000
00000000
00000001
00000000
00000000
00001000
00000000
00000001
00000000
00000010
00000000
00001000
00000000
00010000
00000000
,
00001000
00000000
01000000
00000000
00100000
00000000
00000000
00000000
10100000
00000000
00000000
10000000
00000000
00000000
01000000
00000000
,
00100000
00000000
00001000
00000000
00010000
00000000
00000000
00000000
00010010
00000000
00000000
00000010
00000000
00000000
00001000
00000000
,
00000100
00000000
00000000
00000010
00000001
00000000
00001000
00000000
00000001
00000000
00000000
00000100
00000010
00000000
00001000
00000000
,
00000001
00000000
00000000
00000010
00000000
00000000
00000001
00000000
00000100
00000000
00001000
00000000
00010000
00000000
00001000
00000000
,
00011000
00000000
00001000
00010000
00100000
10000000
00010000
00100000
,
01000000
00100000
00001000
00010000
00000010
00001000
00000010
00010000
,
00011000
00000000
00010000
00001000
00000010
00000001
00000010
00000100
,
00000010
00001000
00010000
01000000
00100000
00010000
10000000
00100000
,
01000000
00000000
00100000
00000000
10000000
00000000
00000000
00000000
11000000
00000000
00000000
01100000
00000000
00000000
00001000
00000000
,
00010000
00000000
00000100
00000000
00001000
00000000
00000000
00000000
00010010
00000000
00000000
00001010
00000000
00000000
00000010
00000000
,
00001000
00000000
00001000
00000000
00000100
00000000
00000010
00000000
00000001
00000000
00000001
00000000
00000100
00000000
00000010
00001000
,
00000010
00000000
00010000
00001000
00010000
00000000
00000100
00000000
00010000
00001000
00010000
00000000
00001000
01000000
00001000
00000000
,
00100000
00010000
10000000
00010000
01000000
01100000
00000000
10000000
,
01000000
00100000
00001000
00010000
00000100
00001100
00000000
00000001
,
00001000
00000001
00000100
00000010
00000100
00000101
00000000
00001000
,
00000001
00000100
00001000
00010000
00100000
01000000
00010000
10000000
,
01000000
00100000
00001000
00010000
00000100
00001100
00000000
00001000
,
00000001
00000000
00000010
00000100
00000010
00000000
00000001
00001000
00000001
00000000
00001001
00000000
00000000
00000000
00000001
00000000
,
00000100
00000000
00000010
00000000
00000100
00000000
00001000
00000000
00010000
00000000
00100000
00000000
01000000
00010000
10000000
00000000
,
20020000
00000000
00000000
30030000
,
10010000
10000000
01000000
00100000
00001000
00010000
00100000
01000000
,
00001000
00010000
00001000
01000000
00010000
00001000
00000010
00000100
,
00000101
00000100
00000010
00000000
00011000
00001000
00100000
00000000
,
10010000
00010000
01000000
00000000
01100000
00100000
10000000
01000000
,
00100000
00000000
00010000
00000000
01000000
00000000
00001000
00000000
00010000
00000100
00010000
00000000
00000010
00001000
00000010
00000000
,
00001000
00000000
00000100
00000000
00000010
00000000
00000001
00000000
00000100
00000010
00000100
00000000
00000010
00001000
00000010
00000000
,
00001000
00000001
00000100
00001000
00010000
00100000
01000000
00001000
,
00010000
00001000
00100000
00001000
00010000
00001000
00000010
00000001
,
00001001
00000000
00000000
00000000
00000001
00000000
00000100
00000000
00000001
00000000
00000010
00000100
00000000
00000100
00001000
00000000
,
00010000
00000000
00000000
00001000
00000000
00000000
01000000
00000000
00010000
00000000
00100000
01000000
00000000
01000000
10000000
00000000
,
10010000
00000000
00000000
00000000
00010000
00000000
10000000
00000000
01000000
00000000
00100000
00001000
00000000
00001000
00010000
00000000
,
00000010
00000000
00000000
00001000
00000000
00000000
00000100
00000000
00000010
00000001
00000010
00000000
00000100
00000000
00001000
00000010
,
00000100
00000000
00000000
00000000
00000110
00000000
00000001
00000000
00001000
00000000
00000000
00000010
00000000
00010000
00001000
00000000
,
00010000
00000000
00000000
00000000
00011000
00000000
00001000
00000000
01000000
00000000
00000000
00010000
00000000
10000000
00100000
00000000
,
01000000
00000000
00000000
00010000
00000000
00000000
00100000
00000000
01000000
00000000
00000000
10000000
00000000
00000000
00010000
00000000
,
01000000
00100000
10000000
01000000
00010000
00001000
00000010
00000100
,
00010000
00000000
00000000
00000000
00001000
00000000
00000010
00000000
00000001
00000000
00001000
00000001
00000000
00000100
00000010
00000000
,
00001000
00000000
00000001
00000010
00000000
00000100
00010000
00000000
00001000
00000000
00000000
00010000
00000000
00000000
00001000
00000000
,
00011000
00000000
00000000
00000000
00001000
00000000
00100000
00000000
00010000
00000000
10000000
00010000
00000000
01000000
00100000
00000000
,
10000000
00000000
00100000
01000000
00000000
00010000
10000000
00000000
01000000
00000000
00100000
00000000
00001000
00000000
00010000
00000000
,
00011000
00000000
00000000
00000000
00000010
00000000
00001000
00000000
00001100
00000000
00000000
00000100
00000000
00000000
00000010
00000000
,
00000011
00000000
00000000
00000000
00000001
00000000
00000100
00000000
00000110
00000000
00000000
00010000
00000000
00000000
00001000
00000000
,
00100000
00001000
00010000
00001000
00000010
00000001
00001000
00000010
,
00000100
00000000
00001000
00000000
00010000
00000000
00100000
00000000
01000000
00000000
00001000
00000000
00010000
00001000
00010000
00001000
,
00020000
00000000
00000000
00000000
,
00000000
00000000
00000000
00030000
00000000
00000000
00000000
00000000
;

//--------------- dance-double - Fred-104 ----------------
#NOTES:
     dance-double:
     Fred-104:
     Hard:
     17:
     :
00000000
00000000
00000000
00000000
,
00000000
00000000
00000000
00000000
,
00000000
00000000
00000000
00000000
,
00000000
00000000
00000000
00000000
,
00000000
00000000
00000000
00000000
,
00010000
00001000
00000010
00000100
00001000
00000001
00000000
00000100
,
00000001
00000010
00001000
00010000
01000000
00100000
00000000
00010000
,
10000000
00100000
00010000
00001000
00000100
00000010
00000000
00001000
,
00000001
00000010
00000001
00000000
00001000
00000010
00001000
00000000
00000001
00000100
00000010
00010000
00001000
00100000
00001000
00000000
,
00022000
00000000
00000000
00033000
,
00011000
00000000
00000000
00000000
00001000
00000000
00100000
00000000
00010000
00000000
00000000
01010000
00000000
00000000
00100000
00000000
,
10000000
00000000
00000000
11000000
00000000
00000000
00100000
00000000
00001000
00000000
00010000
00000010
00000000
00001000
00000010
00000000
,
00000110
00000000
00000000
00000000
00000100
00000000
00000001
00000000
00000010
00000000
00000000
00000110
00000000
00000000
00001000
00000000
,
00000001
00000000
00000000
00000101
00000000
00000000
00000010
00000000
00010000
00001000
00010000
00000000
00000010
00000000
00010000
00001000
,
00010000
00000000
00000000
00000000
00011000
00000000
00001000
00000000
00100000
00000000
00010000
10000000
00000000
00010000
01000000
00000000
,
01100000
00000000
00000000
00000000
00100000
00000000
10000000
00000000
01000000
00000000
00100000
00001000
00000000
00010000
00001000
00000000
,
00010000
00000000
00000000
00001000
00000000
00000000
00000010
00000000
00000001
00000000
00000000
00001000
00000000
00000000
00000010
00000000
,
00000100
00000000
00000000
00000001
00000000
00000000
00001000
00000000
00000001
00000010
00000100
00000000
00001000
00000010
00000100
00000000
,
00000101
00000000
00000000
00000000
00001000
00000000
00000001
00000000
00000010
00000100
00000000
00000100
00010000
00000000
00001000
00000000
,
00100000
00001000
00000000
00001000
00010000
00000000
00001000
00000000
01000000
00010000
00000000
00010000
00100000
01000000
10000000
00000000
,
10010000
00000000
00000000
00000000
10000000
00000000
01000000
00000000
10000000
00100000
00000000
00100000
01000000
00000000
00001000
00000000
,
00010000
00000100
00000000
00000100
00001000
00000000
00000001
00000000
00000100
00000010
00000000
00000010
00001000
00000001
00000010
00000100
,
00000010
00000000
00000001
00000000
00001001
00000000
00000000
00000000
00000002
00000000
00000000
00002003
00000000
00000000
00003200
00000000
,
00010300
00000000
00001000
00000000
00011000
00000000
00000000
00000000
00002000
00000000
00000000
02003000
00000000
00000000
03020000
00000000
,
00130000
00010000
00000000
10000000
00010000
00000000
01000000
00000000
00100000
10000000
00000000
00100000
01000000
00000000
00010000
10000000
,
00010000
00000000
10000000
01000000
00100000
00000000
00001000
00000000
00010000
00000010
00001000
00000000
00000001
00001000
00000001
00001000
,
00000001
00000100
00000010
00000010
00001000
00001100
00000100
00000010
,
00000001
00000000
00000100
00000000
00001000
00000000
00010000
00100000
01000000
00000000
01020000
00000000
00000000
00000000
10030000
00000000
,
00010000
00100000
01000000
01000000
10000000
10010000
00010000
10000000
,
01000000
00000000
00100000
00000000
00110000
00000000
00100000
00001000
00010000
00000010
00010000
00000010
00000000
00001000
00000001
00000010
,
00000100
00000000
00001000
00000000
00001100
00000000
00000000
00000000
00010100
00000000
00000000
00010000
00001000
00000000
01000000
00000000
,
00010000
00000000
10000000
00000000
11000000
00000000
00000000
00000000
01100000
00000000
00000000
00100000
00001000
00000000
00010000
00000000
,
00000010
00000000
00001000
00000010
00000100
00000000
00000001
00000000
00000010
00000100
00000010
00000000
00000001
00001000
00000001
00001000
,
00000200
00000000
00000000
00000300
,
00001000
00000000
00000001
00000000
00000010
00000000
00001000
00000000
00010000
00000000
00000000
01000000
00100000
00000000
00001000
00000000
,
00010000
00000000
00000000
00000010
00001000
00000000
00000010
00000000
00010000
00000000
00000000
00001000
00010000
00000000
00001000
01000000
,
00001000
00000000
00010000
00000000
00100000
00000000
10000000
00000000
00010000
00000000
00000000
10000000
01000000
00000000
00001000
00000000
,
00000100
00000000
00000000
00000010
00000001
00000000
00001000
00000000
00000001
00000000
00000100
00001000
00000000
00010000
00001000
00010000
,
00001000
00000000
00010000
00000000
00011000
00000000
00000000
00000000
00101000
00000000
00000000
00010010
00000000
00000000
01001000
00000000
,
00001000
00000000
00010000
00000000
00010100
00000000
00000000
00000000
01001000
00000000
00000000
00010010
00000000
00000000
00101000
00000000
,
00002000
00000000
00000000
00023000
00000000
00000000
00230000
00000000
20300000
00000000
00000000
30020000
00000000
00000000
02030000
00000000
,
03200000
00000000
00000000
20300000
00000000
00000000
32000000
00000000
03100000
00010000
00100000
00001000
00010000
00001000
01000000
00001000
,
00010000
00000000
00001000
00000000
00010000
00000100
00001000
00000000
00000001
00000010
00000000
00000100
00000010
00000000
00000001
00000000
,
00001000
00000001
00000000
00000001
00000010
00000000
00000100
00000000
00010000
00001000
00000000
00001000
01000000
00001000
00010000
00001000
,
00100000
00000000
00010000
00000000
10000000
00010000
00100000
00000000
01000000
10000000
00000000
00010000
10000000
00000000
00100000
00000000
,
01000000
00001000
00000000
00010000
00001000
00000000
00100000
00000000
00001000
00010000
00000000
00001000
00000010
00000100
00001000
00000001
,
00001000
00000000
00000000
00000000
00001001
00000000
00000001
00000000
00000100
00000000
00000000
00000010
00000000
00000000
00010000
00000000
,
00011000
00000000
00000000
00000000
00101000
00000000
00001000
00000000
00010000
00000000
00000000
00000010
00000000
00000000
00001000
00000000
,
00001100
00000000
00000000
00000010
00000000
00000000
00000001
00000000
00001001
00000000
00000000
00001000
00000000
00000000
00000100
00010000
,
00001000
00000000
00100000
00010000
10000000
00000000
00010000
00000000
01000000
00100000
01000000
00000000
00001000
00010000
00001000
00010000
,
00001000
00010000
00021000
00000000
00031000
00020010
00000000
00031000
,
00010000
00000100
00002100
00000000
00003001
00002001
00000000
00003010
,
00010000
00000000
00001000
00000000
00102000
00000000
00000000
00000000
00013000
00000000
01002000
00000000
00000000
00000000
00013000
00001000
,
00100000
00010000
10000000
00010000
01000000
00000000
00010000
10000000
00100000
00000000
00010000
00000000
00001000
00000000
00000100
00000000
,
00000010
00001000
00002100
00000000
00003001
00002010
00000000
00003001
,
00001000
00000000
00000100
00000000
00020100
00000000
00000000
00000000
00031000
00000000
00020010
00000000
00000000
00000000
00031000
00100000
,
00010000
00000000
10000000
00010000
01000000
00000000
00010000
10000000
01000000
00000000
00100000
00000000
00001000
00010000
00001000
00000000
,
00022000
00000000
00000000
00033000
,
00010000
00001000
00000010
00000001
00001000
00000010
00000001
00000010
,
00001000
00000001
00000100
00001000
00010000
01000000
10000000
00010000
,
01000000
00100000
10000000
00010000
00100000
00000000
00000000
00000000
00001000
00010000
00000010
00001000
00000100
00000000
00000000
00000000
,
00001000
00000001
00000010
00000100
00000010
00000000
00000000
00000000
00000001
00000100
00000010
00001000
00000001
00001000
00000100
00000000
,
00010000
00000000
00001000
00100000
00010000
00000000
10000000
00000000
00010000
01000000
10000000
00000000
10000000
01000000
00010000
00000000
,
10000000
00000000
01000000
00100000
00001000
00000000
00010000
00000000
00001000
00010000
00000010
00000000
00000010
00010000
00001000
00000000
,
00010000
00001000
00000010
00000001
00001000
00000010
00000100
00000001
,
00000100
00001000
00010000
00000000
00100000
01000000
00010000
00000000
10000000
01000000
00010000
00000000
00001000
00000010
00000100
00000000
,
00001001
00000000
00000000
00000000
00000001
00000000
00000010
00000100
00000010
00000000
00000001
00000100
00000000
00000010
00001000
00000000
,
00000001
00000000
00000010
00000100
00000000
00000010
00001000
00000000
00010000
00000000
01000000
00100000
00000000
00010000
01000000
00000000
,
01100000
00000000
00000000
00000000
00100000
00000000
10000000
00010000
00100000
00000000
01000000
00100000
00000000
00001000
00010000
00000000
,
00001000
00000000
00000010
00000001
00000000
00001000
00000001
00000000
00000010
00000100
00001000
00000000
00000010
00000000
00000100
00000001
,
00001000
00000000
00000100
00000000
00000110
00000000
00000000
00000000
00000011
00000000
00000001
00001000
00000000
00000100
00010000
00000000
,
00011000
00000000
00001000
00000000
00101000
00000000
00000000
00000000
10010000
00000000
00010000
10000000
00000000
00100000
01000000
00000000
,
00010000
00000000
00000000
10000000
00000000
00000000
01000000
00000000
00010000
00000000
00000000
00001000
00000000
00000000
00000010
00000000
,
00000001
00001000
00000001
00000000
00000100
00000010
00001000
00000000
00000001
00000010
00001000
00000000
00010000
01000000
00100000
00000000
,
00010000
00000000
10000000
00100000
01000000
00000000
00100000
00000000
10000000
01000000
00000000
01000000
00100000
00000000
00001000
00000000
,
00010000
00000010
00000000
00000010
00001000
00000000
00000100
00000000
00001000
00000010
00000000
00000010
00000100
00000001
00000010
00000100
,
00000010
00000000
00000000
00000000
00000001
00000000
00001000
00000000
00000001
00000010
00000000
00000010
00000100
00000000
00010000
00000000
,
00001000
01000000
00000000
01000000
00010000
00000000
01000000
00000000
00001000
00010000
00000000
00010000
00001000
00100000
00010000
10000000
,
00010000
00000000
00000000
00000000
01100000
00000000
10000000
00000000
00020000
00000000
00000000
20030000
00000000
00000000
32000000
00000000
,
03100000
00000000
00000000
00000000
00011000
00000000
00010000
00000000
00000010
00000000
00001000
00000100
00001000
00000000
00000001
00000000
,
00000010
00000001
00001000
00000001
00000100
00000010
00001000
00000001
,
00000100
00000001
00001000
00000001
00000010
00000000
00000100
00001000
00000100
00010000
00001000
00000000
00100000
00010000
10000000
00010000
,
02000000
00000000
00000000
00000000
,
00000000
00000000
00000000
03000000
00000000
00000000
00000000
00000000
;

//--------------- dance-double - Fred-104 ----------------
#NOTES:
     dance-double:
     Fred-104:
     Challenge:
     18:
     :
00000000
00000000
00000000
00000000
,
00000000
00000000
00000000
00000000
,
00000000
00000000
00000000
00000000
,
00000000
00000000
00000000
00000000
,
00000000
00000000
00000000
00000000
,
00010000
00000000
00000000
00000000
00000000
00000000
00000000
00000000
00001000
00000000
00000000
00000000
00000000
00000000
00000000
00000000
00021000
00000000
00000000
00000000
00000000
00000000
00000000
00000000
00000000
00000000
00000000
00000000
00000000
00000000
00000000
00000000
00000000
00000000
00000000
00000000
00000000
00000000
00000000
00030000
00020010
00000000
00000000
00000000
00000000
00000000
00000000
00000000
00000000
00000000
00000000
00000000
00000000
00000000
00000000
00030000
00021000
00000000
00000000
00000000
00000000
00000000
00000000
00000000
,
00032000
00000000
00000000
00000000
00000000
00000000
00000000
00000000
00000000
00000000
00000000
00000000
00000000
00000000
00000000
00003000
01002000
00000000
00000000
00000000
00000000
00000000
00000000
00000000
00000000
00000000
00000000
00000000
00000000
00000000
00000000
00000000
00000000
00000000
00000000
00000000
00000000
00000000
00000000
00003000
00012000
00000000
00000000
00000000
00000000
00000000
00000000
00000000
00000000
00000000
00000000
00000000
00000000
00000000
00000000
00000000
00000000
00000000
00000000
00000000
00000000
00000000
00000000
00003000
,
00001000
00000000
00000000
00000000
00000000
00000000
00000000
00000000
00000000
00000000
00000000
00000000
00000000
00000000
00000000
00000000
00000000
00000000
00000000
00000000
00000000
00000000
00000000
00000000
00010000
00000000
00000000
00000000
00000000
00000000
00000000
00000000
00000000
00000000
00000000
00000000
00000000
00000000
00000000
00000000
00000000
00000000
00000000
00000000
00000000
00000000
00000000
00000000
00021000
00000000
00000000
00000000
00000000
00000000
00000000
00000000
00000000
00000000
00000000
00000000
00000000
00000000
00000000
00000000
00000000
00000000
00000000
00000000
00000000
00000000
00000000
00000000
00000000
00000000
00000000
00000000
00000000
00000000
00000000
00000000
00000000
00000000
00000000
00000000
00000000
00000000
00000000
00000000
00000000
00000000
00000000
00000000
00000000
00000000
00000000
00000000
00000000
00000000
00000000
00000000
00000000
00000000
00000000
00000000
00000000
00000000
00000000
00000000
00000000
00000000
00000000
00000000
00000000
00000000
00000000
00000000
00000000
00030000
00000000
00000000
00020100
00000000
00000000
00000000
00000000
00000000
00000000
00000000
00000000
00000000
00000000
00000000
00000000
00000000
00000000
00000000
00000000
00000000
00000000
00000000
00000000
00000000
00000000
00000000
00000000
00000000
00000000
00000000
00000000
00000000
00000000
00000000
00000000
00000000
00000000
00000000
00000000
00000000
00000000
00000000
00000000
00000000
00000000
00000000
00000000
00030000
00000000
00000000
00010000
00000000
00000000
00000000
00000000
00000000
00000000
00000000
00001000
00000000
00000000
00000000
00000000
00000000
00000000
00000000
00010000
00000000
00000000
00000000
00000000
00000000
00000000
00000000
,
00001000
00010000
00000100
00001000
00000001
00000100
00000010
00000100
00001000
00010000
00100000
01000000
00010000
10000000
01000000
00000000
,
02200000
00000000
00000000
03300000
,
10010000
00000000
00000000
00000000
10000000
00000000
01000000
00000000
00100000
00000000
00001000
00010000
00000000
00100000
10000000
00000000
,
00010000
00000000
10000000
01000000
00000000
00010000
00001000
00000000
00010000
00000000
00000100
00000010
00000000
00000001
00001000
00000001
,
00000100
00000000
00000000
00000000
00000001
00000000
00000010
00000000
00000100
00000000
00001000
00000010
00000000
00000100
00000001
00000000
,
00001000
00000000
00000001
00000010
00000000
00000100
00000010
00000000
00001000
00010000
01000000
00000000
00100000
00000000
00010000
01000000
,
00001000
00000000
00000000
00000000
00011000
00000000
00000000
00000000
00010010
00000000
00000000
00101000
00000000
00000000
00010100
00000000
,
01001000
00000000
00000000
00000000
00011000
00000000
00000000
00000000
00001100
00000000
00000000
00000101
00000000
00000000
00000110
00000000
,
00001001
00000000
00000001
00000010
00000000
00000100
00001000
00000000
00001100
00000000
00000100
00010000
00000000
00001000
01000000
00000000
,
01010000
00000000
00010000
10000000
00000000
01000000
00100000
00000000
00001000
00010000
00001000
00010000
00000010
00001000
00000100
00000010
,
00000001
00000000
00000000
00000000
00001000
00000000
00000001
00000010
00000100
00000000
00000010
00000001
00000000
00001000
00000001
00000000
,
00000100
00000000
00000010
00001000
00000000
00000100
00010000
00000000
00000010
00000000
00010000
00001000
00000000
00100000
00001000
00010000
,
00001000
00000000
00000000
00000000
00100000
00000000
00010000
10000000
00100000
00000000
01000000
00010000
00000000
10000000
00010000
00000000
,
00100000
00000000
01000000
00100000
00000000
00001000
00010000
00000000
00001000
00000010
00000100
00000000
00001000
00000000
00000100
00000010
,
00000001
00000000
00000000
00000000
00000100
00000000
00000010
00000000
00000100
00001000
00000000
00010000
00100000
01000000
00010000
00000000
,
10000000
00000000
00000000
00000000
01000000
00000000
00100000
00000000
01000000
00010000
00000000
00001000
00000010
00000100
00001000
00000000
,
00000001
00000100
00000000
00000001
00000010
00000100
00000010
00000000
00000001
00000100
00000000
00001000
00010000
00100000
01000000
00010000
,
10000000
00000000
00010000
01000000
10000000
01000000
00010000
00000000
10000000
00100000
01000000
00010000
00100000
00010000
01000000
00001000
,
00010000
00000000
00000000
00000000
00000000
00000000
00000000
00000000
00002000
00003000
00000000
00000000
00000000
00000000
00000000
00000000
00002000
00003000
00000000
00000000
00000000
00000000
00000000
00000000
00000010
00000000
00000000
00000000
00000000
00000000
00000000
00000000
00002000
00003000
00000000
00000000
00000000
00000000
00000000
00000000
00002000
00003000
00000000
00000000
00000000
00000000
00000000
00000000
00010000
00000000
00000000
00000000
00000100
00000000
00000000
00000000
00001000
00000000
00000000
00000000
00000000
00000000
00000000
00000000
,
00000001
00000000
00000100
00000000
00000010
00000000
00001000
00000001
00000010
00000000
00000210
00000000
00000000
00000000
00001300
00000000
,
00000001
00000000
00000000
00000000
00000000
00000000
00000000
00000000
00000200
00000300
00000000
00000000
00000000
00000000
00000000
00000000
00000200
00000300
00000000
00000000
00000000
00000000
00000000
00000000
00010000
00000000
00000000
00000000
00000000
00000000
00000000
00000000
00002000
00003000
00000000
00000000
00000000
00000000
00000000
00000000
00002000
00003000
00000000
00000000
00000000
00000000
00000000
00000000
00000001
00000000
00000000
00000000
00001000
00000000
00000000
00000000
00000100
00000000
00000000
00000000
00000000
00000000
00000000
00000000
,
00001000
00000000
00000010
00000000
00000100
00000000
00001000
00010000
00100000
01000000
00001000
00010000
00000000
00100000
01000000
00001000
,
00010000
00000000
00001000
00000000
00101000
00000000
00000000
00000000
00010010
00000000
00000000
00101000
00000000
00000000
00011000
00000000
,
00010000
00000000
00001000
00000000
01001000
00000000
00000000
00000000
00010100
00000000
00000000
01001000
00000000
00000000
00011000
00000000
,
00010000
00000000
00001000
00000010
00000100
00001000
00000001
00000000
00000100
00001000
00010000
00100000
01000000
00000000
00010000
10000000
,
00020000
00000000
00000000
00030000
,
01100000
00000000
00000000
00000000
00010000
10000000
00100000
00000000
10000000
01000000
00000000
01000000
00100000
00000000
00001000
00000000
,
00010000
00000010
00000000
00000010
00001000
00000000
00000001
00000000
00000010
00000100
00000000
00000100
00001000
00000100
00000010
00000001
,
00000100
00000000
00000000
00000000
00000001
00000010
00000100
00000000
00000010
00001000
00000000
00010000
01000000
00000000
00100000
00000000
,
00010000
10000000
00000000
00100000
01000000
00000000
00001000
00000000
00010000
00000010
00000000
00001000
00000010
00010000
00001000
00100000
,
00001000
00000000
00010000
00000000
00011000
00000000
00000000
00000000
00010000
00000000
00000000
00000100
00000000
00001000
00000001
00000000
,
00001000
00000000
00000100
00000000
00000110
00000000
00000000
00000000
00000001
00000000
00000000
00000100
00000000
00001000
00010000
00000000
,
00001000
00010000
00000000
00010000
01000000
00000000
01100000
00000000
10000000
00100000
00000000
00100000
00010000
00000000
10010000
00000000
,
10000000
01000000
00000000
01000000
00010000
00000000
10000000
00000000
01000000
00100000
00010000
00100000
00001000
00010000
00000100
00001000
,
00000100
00000000
00000000
00000000
00000010
00000001
00001000
00000001
00000100
00000000
00000000
00000000
00000001
00000010
00000100
00000010
,
00000001
00000000
00001000
00000010
00000000
00000100
00000001
00000100
00000010
00000000
00000100
00001000
00000000
00010000
00100000
01000000
,
00010000
00000000
00000000
00000000
00100000
01000000
10000000
01000000
00100000
00000000
00010000
01000000
00000000
00001000
00010000
00000000
,
00000100
00000000
00001000
00000001
00000000
00000100
00000010
00000000
00001000
00000001
00000000
00000010
00000100
00001000
00000100
00010000
,
00001000
00000000
00010000
00000000
00010100
00000000
00000000
00000000
00010010
00000000
00000000
00010000
00001000
00000000
00100000
00000000
,
00010000
00000000
01000000
00000000
01100000
00000000
00000000
00000000
10010000
00000000
00000000
10000000
01000000
00000000
00100000
00000000
,
00001000
00000000
00000000
00010000
00000000
00000000
00001000
00000000
00000000
00000000
00000000
00000000
00000010
00000000
00000000
00000000
00000000
00000000
00000100
00000000
00000000
00000000
00000000
00000000
00001000
00000000
00000000
00000001
00000000
00000000
00001000
00000000
00000000
00000000
00000000
00000000
00000001
00000000
00000000
00000000
00000000
00000000
00000100
00000000
00000010
00000000
00001000
00000000
,
00000010
00000000
00000100
00000001
00001000
00000001
00000010
00000000
00001000
00010000
00001000
00010000
01000000
00100000
00010000
10000000
,
00100000
00000000
00000000
00000000
00000000
00000000
00000000
00000000
01000000
00000000
00000000
00000000
00000000
00000000
00000000
00000000
01020000
00000000
00000000
00000000
00000000
00000000
00000000
00000000
00000000
00000000
00000000
00000000
00000000
00000000
00000000
00000000
10000000
00000000
00000000
00000000
00000000
00000000
00000000
00030000
10020000
00000000
00000000
00000000
00000000
00000000
00000000
00000000
00000000
00000000
00000000
00000000
00000000
00000000
00000000
00030000
00110000
00000000
00000000
00000000
00000000
00000000
00000000
00000000
,
00100000
00000000
00000000
00000000
00000000
00000000
00000000
00000000
00001000
00000000
00000000
00000000
00000000
00000000
00000000
00000000
00021000
00000000
00000000
00000000
00000000
00000000
00000000
00000000
00000000
00000000
00000000
00000000
00000000
00000000
00000000
00000000
00001000
00000000
00000000
00000000
00000000
00000000
00000000
00030000
00020010
00000000
00000000
00000000
00000000
00000000
00000000
00000000
00000000
00000000
00000000
00000000
00000000
00000000
00000000
00030000
00011000
00000000
00000000
00000000
00000000
00000000
00000000
00000000
,
00010000
00000000
00000000
00000000
00000000
00000000
00000000
00000000
00000100
00000000
00000000
00000000
00000000
00000000
00000000
00000000
00002100
00000000
00000000
00000000
00000000
00000000
00000000
00000000
00000000
00000000
00000000
00000000
00000000
00000000
00000000
00000000
00000100
00000000
00000000
00000000
00000000
00000000
00000000
00003000
00002010
00000000
00000000
00000000
00000000
00000000
00000000
00000000
00000000
00000000
00000000
00000000
00000000
00000000
00000000
00003000
00001000
00000000
00000000
00000000
00000001
00000000
00000000
00000000
,
00000100
00000001
00001000
00000100
00000010
00000000
00000001
00000100
00001000
00010000
00001000
00010000
00100000
01000000
00010000
10000000
,
00010000
00000000
00000000
00000000
00000000
00000000
00000000
00000000
00100000
00000000
00000000
00000000
00000000
00000000
00000000
00000000
00102000
00000000
00000000
00000000
00000000
00000000
00000000
00000000
00000000
00000000
00000000
00000000
00000000
00000000
00000000
00000000
00010000
00000000
00000000
00000000
00000000
00000000
00000000
00003000
01002000
00000000
00000000
00000000
00000000
00000000
00000000
00000000
00000000
00000000
00000000
00000000
00000000
00000000
00000000
00003000
00011000
00000000
00000000
00000000
00000000
00000000
00000000
00000000
,
00010000
00000000
00000000
00000000
00000000
00000000
00000100
00000000
00001000
00000000
00000100
00000000
00000020
00000000
00000000
00000000
00000000
00000000
00000031
00000000
00000000
00000000
00000000
00000000
00001000
00000000
00000000
00000000
00000000
00000000
00000010
00000000
00010000
00000000
00001000
00000000
00020000
00000000
00000000
00000000
00000000
00000000
00031000
00000000
00000000
00100000
00000000
00000000
,
00010000
10000000
00100000
10000000
00010000
00000000
01000000
00100000
00010000
00001000
00000100
00000010
00001000
00000100
00000010
00000000
,
00002002
00000000
00000000
00003003
,
00000001
00000100
00010000
01000000
00100000
10000000
00010000
10000000
,
01000000
00001000
00000100
00000010
00000001
00000100
00001000
00010000
,
00011000
00000010
00010000
00000000
00011000
00100000
00001000
00000000
,
00011000
00000100
00010000
00000000
00011000
01000000
00001000
00000000
,
00010000
00000000
00000010
00001000
00000001
00000000
00000010
00000000
00000100
00000010
00000001
00000000
00000100
00001000
00010000
00000000
,
00100000
00000000
01000000
00010000
10000000
00000000
01000000
00000000
10000000
01000000
00100000
00010000
00100000
00000000
00001000
00000000
,
00010000
00010000
00000100
00000100
00001000
00001000
00000001
00000001
,
00000100
00000001
00001000
00000001
00000100
00000010
00001000
00000010
00010000
00001000
00100000
00010000
00100000
01000000
10000000
00010000
,
01000000
00000000
00000000
00000000
01100000
00000000
10000000
00000000
00010000
00000000
01000000
00100000
00000000
10000000
00010000
00000000
,
10000000
00000000
01000000
00100000
00000000
00001000
00010000
00000000
00001000
00000000
00100000
00010000
00000000
10000000
00010000
01000000
,
00001000
00000000
00000000
00000000
00010000
00000000
00001000
00000000
00000010
00000000
00000001
00001000
00000000
00000100
00000010
00000000
,
00000001
00000000
00000100
00000010
00000000
00000100
00001000
00000000
00010000
00100000
00000000
01000000
00010000
10000000
01000000
00100000
,
00010000
00000000
00000000
00000000
11000000
00000000
10000000
00000000
01000000
00000000
00000000
00001000
00000000
00000000
00000100
00000000
,
00000110
00000000
00000000
00000000
00000101
00000000
00000001
00000000
00000100
00000000
00000000
00010000
00000000
00000000
01000000
00000000
,
00100000
00000000
00000000
10000000
00000000
00000000
00100000
00000000
01000000
00000000
00000000
00001000
00000000
00000000
00010000
00000000
,
00001000
00010000
00000010
00001000
00000001
00001000
00000100
00000010
00000001
00001000
00000100
00010000
00001000
00010000
01000000
00100000
,
00010000
00000000
10000000
00100000
10000000
00000000
00010000
00000000
10000000
01000000
00000000
01000000
00100000
00000000
00001000
00000000
,
00010000
00000100
00000000
00000100
00001000
00000000
00000001
00000000
00000100
00000010
00000000
00000010
00001000
00000001
00000010
00000100
,
00000010
00000000
00000001
00001000
00000010
00000000
00000100
00000000
00000001
00000010
00000000
00000010
00000100
00000000
00010000
00000000
,
00001000
00100000
00000000
00100000
00010000
00000000
10000000
00000000
00010000
00100000
00000000
00100000
01000000
10000000
00100000
01000000
,
00010000
00000000
00000000
00000000
10000000
01000000
00100000
00010000
01000000
00001000
00000000
00001000
00010000
00000000
00000100
00000000
,
00001100
00000000
00001000
00000000
00001001
00000000
00000000
00000000
00000001
00000010
00000000
00000100
00000010
00000000
00000001
00000000
,
00001000
00000010
00000100
00001000
00010000
00100000
01000000
00010000
,
10000000
00010000
00100000
00010000
10000000
00100000
01000000
00001000
00010000
00001000
00000010
00000100
00001000
00000001
00000100
00000010
,
00000200
00000000
00000000
00000000
,
00000000
00000000
00000000
00000300
00000000
00000000
00000000
00000000
;
