#VERSION:0.83;
#TITLE:SOMETHING WONDERFUL;
#ARTIST:L.E.D.;
#GENRE:EPIC TRANCE;
#BANNER:SOMETHING WONDERFUL.png;
#BACKGROUND:SOMETHING WONDERFUL-bg.png;
#CDTITLE:./CDTitles/bm IIDX 5th style CS.png;
#MUSIC:SOMETHING WONDERFUL.ogg;
#SAMPLESTART:81.6;
#SAMPLELENGTH:15;
#BPMS:0=150;
#BGSTAGE:22;

//--------------- dance-single - Fred-104 ----------------
#NOTEDATA:;
#STEPSTYPE:dance-single;
#DESCRIPTION:Fred-104;
#DIFFICULTY:Beginner;
#METER:2;
#CREDIT:Fred-104;
#NOTES:
0000
0000
0000
0000
,
0000
0000
0000
0000
,
0000
0000
0000
0000
,
1000
0000
0000
0000
,
0000
0000
0000
0000
,
1000
0000
0000
0000
,
0000
0000
0000
0000
,
0001
0000
0000
0000
,
0000
0000
0000
0000
,
0001
0000
0000
0000
,
0000
0000
0000
0000
,
1000
0000
0000
0000
,
1000
0000
0000
0000
,
0001
0000
0000
0000
,
0001
0000
0000
0000
,
1000
0000
0000
0000
,
1000
0000
0000
0000
,
0001
0000
0000
0000
,
0001
0000
0000
0000
,
2000
0000
0000
0000
,
0000
0000
0000
0000
,
3000
0000
0000
0000
,
0000
0000
0000
0000
,
0002
0000
0000
0000
,
0000
0000
0000
0000
,
0000
0000
0000
0000
,
0003
0000
0000
0000
,
2000
0000
0000
0000
,
3000
0000
0000
0000
,
0002
0000
0000
0000
,
0003
0000
0000
0000
,
2000
0000
0000
0000
,
3000
0000
0000
0000
,
0002
0000
0000
0000
,
0003
0000
0000
0000
,
1000
0000
0000
0000
,
0000
0000
0000
0000
,
0010
0000
0000
0000
,
0000
0000
0000
0000
,
0001
0000
0000
0000
,
0000
0000
0000
0000
,
0100
0000
0000
0000
,
0000
0000
0000
0000
,
1000
0000
0000
0000
,
1000
0000
0000
0000
,
0001
0000
0000
0000
,
0001
0000
0000
0000
,
1000
0000
0000
0000
,
1000
0000
0000
0000
,
0001
0000
0000
0000
,
0002
0000
0003
0000
,
1000
0000
0000
0000
,
1000
0000
0000
0000
,
0001
0000
0000
0000
,
1000
0000
0000
0000
,
0100
0000
0000
0000
,
1000
0000
0000
0000
,
1000
0000
0000
0000
,
0001
0000
0000
0000
,
0001
0000
0000
0000
,
1000
0000
0000
0000
,
1000
0000
0000
0000
,
0001
0000
0000
0000
,
0100
0000
0000
0000
,
0000
0000
0000
0000
,
0100
0000
0000
0000
,
0100
0000
0000
0000
,
0100
0000
0000
0000
,
0010
0000
0000
0000
,
0010
0000
0000
0000
,
0100
0000
0000
0000
,
0001
0000
0000
0000
,
1000
0000
0000
0000
,
0001
0000
0000
0000
,
1000
0000
0000
0000
,
1000
0000
0000
0000
;

//--------------- dance-single - Fred-104 ----------------
#NOTEDATA:;
#STEPSTYPE:dance-single;
#DESCRIPTION:Fred-104;
#DIFFICULTY:Easy;
#METER:4;
#CREDIT:Fred-104;
#NOTES:
0000
0000
0000
0000
,
0000
0000
0000
0000
,
0000
0000
0000
0000
,
1000
0000
0010
0000
,
0100
0100
0001
0000
,
1000
0000
0001
0000
,
0100
0100
1000
0000
,
0100
0000
0010
0000
,
1000
1000
0001
0000
,
0010
0000
0100
0000
,
0010
0010
0001
0000
,
1000
0010
1000
0000
,
0001
0001
0010
0100
,
0010
0010
0001
0000
,
1000
1000
0010
1000
,
1001
0000
0001
0000
,
1000
0000
0001
0000
,
1001
0000
1001
0000
,
0001
0001
1000
1000
,
0002
0000
0000
0003
,
2000
0000
0000
3000
,
0020
0000
0000
0030
,
0200
0000
0000
0300
,
0002
0000
0000
0000
,
0000
0003
2000
0000
,
0000
0000
0000
3000
,
0002
0000
0000
0003
,
1001
0000
1000
0000
,
0010
0000
1000
0000
,
0001
0000
0010
0000
,
0100
0000
0100
0000
,
2000
0000
0000
0000
,
3000
0000
0001
0000
,
0002
0000
0000
0003
,
2000
0000
0000
3000
,
1001
0000
0000
0000
,
0000
0000
0000
0000
,
0010
0000
0000
0000
,
0010
0000
0010
0000
,
0010
0000
0000
0000
,
0010
0000
0000
0000
,
0010
0000
0000
0000
,
0010
0000
0000
0000
,
1001
0000
0000
0000
,
0100
0000
0010
0010
,
0110
0000
0001
0000
,
1001
0000
1001
0000
,
1001
0000
1000
0000
,
1001
0000
0001
0000
,
1001
0000
1001
0000
,
1001
0000
0000
0000
,
1000
0000
0010
0000
,
1000
1000
1000
0000
,
0001
0000
1000
0000
,
0100
0100
0100
0000
,
0010
0000
0001
0000
,
1000
1000
1000
0000
,
0001
0000
1000
0000
,
0010
0010
0010
0000
,
1000
0000
0001
0000
,
0010
0010
0010
0000
,
0100
0000
0010
0000
,
0001
0001
0001
0000
,
1001
0000
1000
0000
,
0001
0000
1000
0000
,
0010
0000
0100
0000
,
0010
0010
0010
0000
,
1001
0000
0001
0000
,
1000
0000
0001
0000
,
0001
0000
0010
0000
,
0100
0000
1000
0000
,
0001
0000
0100
0000
,
1000
0000
0010
0000
,
0001
0000
0001
0000
,
1000
1000
1000
1000
,
1001
0000
0000
0000
;

//--------------- dance-single - Fred-104 ----------------
#NOTEDATA:;
#STEPSTYPE:dance-single;
#DESCRIPTION:Fred-104;
#DIFFICULTY:Medium;
#METER:9;
#CREDIT:Fred-104;
#NOTES:
0000
0000
0000
0000
,
0000
0000
0000
0000
,
0000
0000
0000
0000
,
1000
0100
0010
0001
,
1000
0000
0000
0000
0010
0000
0000
0010
0100
0000
0010
0000
1000
0000
0000
0000
,
0001
0010
0100
0010
,
0001
0000
0000
0000
0100
0000
0000
0100
0010
0000
0100
0000
0001
0000
0000
0000
,
1000
0100
0010
0001
,
1000
0000
0000
0000
0010
0000
0000
0010
1000
0000
0100
0000
0010
0000
0000
0000
,
0001
1000
0010
0100
,
0001
0000
0000
0000
0010
0000
0000
0010
0100
0000
0010
0000
0001
0000
0000
0000
,
1000
0100
0001
0000
0100
0000
1000
0000
,
0001
0000
0100
0000
1000
0000
0000
1000
0100
0000
0001
0000
1000
0000
0000
0000
,
0001
0010
1000
0000
0010
0000
0001
0000
,
1000
0000
0010
0000
0001
0000
0000
0001
0010
0000
1000
0000
0001
0000
0000
0000
,
1000
0010
1000
0000
1000
0100
1000
0000
,
0001
0100
0001
0000
0001
0010
0001
0000
,
1001
0100
1001
0010
,
1010
0101
1100
0011
,
0001
0000
0100
0200
0000
0000
0000
0000
,
0310
0000
0000
1000
0000
0000
0001
0000
,
1000
0000
0100
0200
0000
0000
0310
0000
,
0001
0000
0000
1000
0000
0000
0001
0000
,
0100
0020
0000
0000
,
0000
0000
0000
0000
0130
0000
0000
0002
,
0000
2000
0000
0000
0000
0000
0000
0000
,
0000
0000
0000
3003
,
1001
0000
0000
0001
0000
0000
0010
0000
,
0100
0000
0000
0100
0000
0000
1000
0000
,
0001
0000
0000
1000
0000
0000
0010
0000
,
0100
0000
0000
0001
0000
0000
1000
0000
,
0100
0020
0000
0000
,
0000
0000
0000
0000
0031
0000
0000
2000
,
0000
0002
0000
0000
0000
0000
3003
0000
,
1000
0000
0010
0100
0000
0001
0010
0000
,
1001
0000
0000
0000
,
0000
0000
0000
0000
,
0000
0000
0000
0000
0000
0000
0000
1000
,
0010
0000
1000
0001
0000
1000
0001
0000
,
0110
0000
0000
0000
,
0000
0000
0000
0000
,
0000
0000
0000
0000
,
0000
0000
0000
0000
,
1000
1000
0000
0010
0000
1000
0000
0001
,
0000
0010
0000
0100
0000
1000
1000
0001
,
0100
0100
0000
0010
0000
0100
0000
0001
,
0010
0010
0000
0100
1000
0000
1001
0000
,
0001
0100
1000
0000
1000
0100
0001
0000
,
1000
0100
0001
0000
0001
0100
1000
0000
,
0110
0001
0110
1000
,
1001
0000
0000
0000
,
0001
0010
0001
0000
1000
0010
1000
0000
,
0001
0000
0010
0000
0100
0100
1000
0001
,
0100
0010
0100
0000
0001
1000
0001
0000
,
1000
0000
0100
0000
0010
0010
0100
1000
,
0001
0100
0001
0000
1000
0010
1000
0000
,
0001
0000
1000
0000
0010
0010
1000
0001
,
0010
0100
0010
0000
0100
1000
0100
0000
,
1000
0000
0001
0000
0100
0100
0010
0100
,
0001
0010
0100
0000
1000
0010
0100
0000
,
0010
1000
0100
0000
0010
0001
1000
0000
,
0001
0100
1000
0000
0001
0010
1000
0000
,
0001
0010
1000
0000
0001
0100
1000
0000
,
2001
3002
0023
0230
,
0320
0032
0203
0320
,
1030
0100
1000
0000
0001
0010
0001
0000
,
1000
0010
1000
0010
0100
0001
0100
0001
,
1000
0100
0001
0100
,
0010
0000
0100
0000
1000
0001
0100
0000
,
0001
0010
0100
0010
,
1000
0000
0010
0000
0001
1000
0001
0000
,
1001
1000
0100
0010
,
1001
0001
0100
0010
,
1000
0100
1000
0000
0001
0010
0001
0000
,
1000
0010
1000
0001
1000
0001
0100
0000
,
0110
0000
0000
0000
;

//--------------- dance-single - Fred-104 ----------------
#NOTEDATA:;
#STEPSTYPE:dance-single;
#DESCRIPTION:Fred-104;
#DIFFICULTY:Hard;
#METER:13;
#CREDIT:Fred-104;
#NOTES:
0000
0000
0000
0000
,
0000
0000
0000
0000
,
0000
0000
0000
0000
,
1000
0010
1000
0100
1000
0001
0100
0010
,
1000
0000
0001
0000
0010
0000
0000
0010
0100
0000
0001
0000
0100
0000
1000
0000
,
0001
0100
0001
0010
0001
1000
0010
1000
,
0001
0000
0100
0000
0010
0000
0000
0010
0001
0000
0010
0000
1000
0000
0001
0000
,
0010
0100
1000
0010
1000
0100
1000
0001
,
0100
0000
0010
0000
1000
0000
0000
1000
0100
0000
0001
0000
0100
0000
0010
0000
,
0001
1000
0010
1000
0100
0010
0001
1000
,
0010
0000
0100
0000
0001
0000
0000
0001
1000
0000
1000
0000
0001
0000
0001
0000
,
0100
0010
1010
0000
1000
0100
0110
0000
,
0010
0000
0001
0000
1001
0000
0000
1000
0001
0000
0100
0000
0110
0000
0000
0000
,
0010
1000
1001
0000
0001
0010
0110
0000
,
0100
0000
1000
0000
1001
0000
0000
0001
0100
0000
0010
0000
1010
0000
0000
0000
,
1000
0100
0001
0100
0010
0100
1000
0001
,
0100
0000
1000
0000
0100
0000
0000
0100
0001
0000
0100
0010
0100
0000
0001
0000
,
0011
0100
1000
0000
1010
0100
0001
0000
,
1000
0000
0100
0000
1000
0000
0001
0000
0100
0010
0100
0010
0100
0010
0100
0010
,
0200
0000
0301
2000
0000
0000
0000
3100
,
0010
0000
0001
2000
0000
0000
3010
1000
,
0200
0000
0000
0000
0310
0001
0020
0000
0000
0000
0031
0000
1000
0000
0010
0000
,
0200
0000
0301
2000
0000
3200
0000
0301
,
0100
0010
0002
0000
1000
0000
0010
0000
,
0100
0000
0010
0000
2003
0000
3001
0020
,
0000
0200
0000
0000
0000
0000
0000
0000
,
0000
0000
0000
0330
,
1001
0000
1000
0020
0000
0031
1000
0100
,
0001
0000
1000
0200
0000
0000
0310
0001
,
0200
0000
0310
2000
0000
3001
0010
0100
,
0002
0000
0103
2000
0000
3002
0000
1003
,
0001
0100
0020
0000
0001
0000
1000
0000
,
0100
0000
1000
0000
0230
0000
0301
2000
,
0000
3200
0000
0001
0000
1000
0000
0310
,
0002
0000
0103
0020
0000
1030
0001
0000
,
2001
0000
3200
0000
,
0302
0000
0203
2300
,
3002
0000
0203
0000
,
0320
0000
0230
0302
0023
2030
3020
0000
,
0032
0000
2003
0000
,
3020
0000
0230
0302
,
2003
0000
3200
0000
,
0320
0000
0002
0033
,
2001
0000
0000
3020
2030
0000
3200
0320
,
0032
0000
0000
0000
2003
0000
3001
0100
0000
0010
0100
0000
0101
0000
0000
0000
,
1002
0000
0000
0023
0230
0000
2300
3010
,
0210
0000
0301
1000
1100
0100
0010
0000
,
0012
0000
2003
3020
0032
0000
0023
0130
,
0102
0000
0023
0230
2300
3002
0203
0310
,
1010
1000
0100
0010
0011
0001
0100
0010
,
1001
0000
0000
0000
0000
0000
0000
0000
0000
0000
0000
1000
0100
0000
1000
0000
,
0001
0100
0010
0100
0001
1000
0100
0010
,
0001
0000
1000
0000
0010
0000
0100
0001
0000
0100
0001
0000
1000
0000
0001
0000
,
0010
0100
0010
0001
1000
0010
1000
0001
,
0010
0000
0100
0000
1000
0000
0010
0100
0000
0010
0100
0000
0001
0000
1000
0000
,
0100
0010
0100
1000
0010
0100
0010
1000
,
0001
0000
0010
0000
0100
0000
1000
0010
0000
1000
0100
0000
0010
0000
0001
0000
,
1000
0010
0100
0010
1000
0100
0010
0001
,
1000
0000
0001
0000
0100
0000
0010
1000
0000
0001
1000
0001
1000
0000
0100
0000
,
0110
0010
0001
1000
0010
1000
0100
1000
,
0010
0000
0100
0000
0001
0000
1000
0100
0000
0010
0100
0000
1000
0000
0001
0000
,
0100
0010
0100
0001
0010
0100
1000
0001
,
0100
0000
0001
0000
0010
0000
0001
0100
0000
0010
1000
0000
0100
0000
0010
0000
,
0011
0001
1000
1000
0010
0010
0100
0100
,
0001
0001
1000
1000
0100
0100
0010
0010
,
0001
0010
0001
0000
1000
0100
1000
0000
0001
0100
0001
0000
1000
0010
1000
0000
,
0001
1000
0001
0000
0100
0010
0100
0000
0001
1000
0001
0000
0010
0100
0010
0000
,
0002
0000
0013
0100
0001
1000
0010
0001
,
0200
0000
0000
0000
0310
0000
0100
0001
0000
1000
0001
0000
0010
0000
0100
0000
,
2000
0000
3010
0100
1000
0001
0010
1000
,
0200
0000
0000
0000
0310
0000
0001
1000
0000
0001
0100
0000
0010
0000
1000
0000
,
1001
0001
0010
0010
0100
0100
1000
1000
,
1001
0001
0100
0100
0010
0010
1000
1000
,
0001
0010
0001
0000
1000
0100
1000
0000
0001
0100
0001
0000
1000
0010
1000
0000
,
0001
1000
0001
1000
0001
1000
0001
1000
0001
1000
0001
1000
0001
0000
0010
0000
,
0110
0000
0000
0000
;

//--------------- dance-single - Fred-104 ----------------
#NOTEDATA:;
#STEPSTYPE:dance-single;
#DESCRIPTION:Fred-104;
#DIFFICULTY:Challenge;
#METER:15;
#CREDIT:Fred-104;
#NOTES:
0000
0000
0000
0000
,
0000
0000
0000
0000
,
0000
0000
0000
0000
,
0001
1000
0001
0000
1000
0010
1000
0000
0001
0100
0001
0000
1000
0010
1000
0000
,
0001
1000
0001
0000
1000
0100
1000
0000
0001
0010
0001
0000
1000
0100
1000
0000
,
0001
0010
0001
0000
1000
0010
1000
0000
0001
0100
0001
0000
1000
0100
1000
0000
,
0001
0100
0001
0000
1000
0100
1000
0000
0001
0010
0001
0000
1000
0010
1000
0000
,
0001
0010
0100
0000
0010
0100
1000
0000
0100
1000
0001
0000
0010
0001
1000
0000
,
0001
0100
0010
0000
0100
0010
1000
0000
0010
1000
0001
0000
0100
0001
1000
0000
,
0100
0010
0001
0000
0010
0100
1000
0000
0001
0100
0010
0000
1000
0010
0100
0000
,
0001
1000
0100
0000
0010
0100
1000
0000
0010
0100
0001
0000
0100
0010
1000
0000
,
0001
0010
0110
0100
1000
0001
0101
0100
,
0010
0000
1000
0000
1001
0000
0001
0010
0100
0000
1000
0000
0010
0100
0001
0000
,
0100
0010
1010
1000
0001
0010
0110
0100
,
1000
0000
0001
0000
0011
0000
0010
0001
0100
0000
0010
0000
1000
0010
0100
0000
,
0001
0100
0001
0000
1000
0001
1000
0000
0010
1000
0010
0000
1000
0001
1000
0000
,
0001
0010
0001
0000
1000
0001
1000
0000
0100
1000
0100
0000
1000
0001
1000
0000
,
0010
0100
0010
0100
0001
0000
1000
0000
0100
0010
0100
0010
0001
0000
1000
0000
,
0001
0100
0001
0100
0001
0100
0001
0100
0010
1000
0010
1000
0010
1000
0010
1000
,
0002
0000
0000
0000
0013
0001
0020
0000
0000
0000
0000
0000
0000
0000
0130
0000
,
0002
0000
0103
2000
0000
0000
3001
1000
,
0020
0000
0000
0000
0130
0001
0200
0000
0000
0000
0301
0000
0010
0000
0100
0000
,
0010
0001
1000
0020
0000
0031
0010
0100
,
0001
0000
1000
0100
2000
0000
0000
0000
0000
0000
0000
0000
0000
0000
0000
0000
,
0000
0000
0000
0000
3002
0000
0103
0020
,
0000
2000
0000
0000
0000
0000
0000
0000
,
0000
0000
0000
3030
,
1002
0000
0000
0000
1003
0100
2000
0000
0000
0000
0000
0000
0000
0000
3010
0000
,
0200
0000
1300
0200
0000
0000
0301
1000
,
0200
0000
0000
0000
0310
0100
0020
0000
0000
0000
0031
0000
0100
0000
0010
0000
,
0001
1000
0100
0002
0000
1003
0001
0020
,
0000
0130
0020
0000
0000
0000
0000
0000
,
0000
0000
0000
0000
0032
0000
0103
0020
,
0000
2030
0000
0000
0000
0000
0000
3100
,
0010
0000
0001
0100
0000
0010
0100
0000
,
1002
0000
2003
0000
,
3200
0320
0032
2003
,
3020
0000
0001
0001
0032
0000
0010
0010
,
0023
0000
0130
0001
1000
0100
0010
0000
,
0012
0000
1003
1000
0020
0000
0230
0000
,
0302
0000
2003
0000
3100
0001
0200
0000
,
0320
0000
0000
0001
0032
0000
0203
0000
,
0320
2030
3002
1003
,
1001
0001
0000
0010
0000
0010
0000
0100
,
1000
1000
0000
0001
0000
0001
0101
0000
,
0110
0010
0000
0010
0000
0010
0000
0100
,
0101
0001
0000
1000
1100
0000
0011
0000
,
1010
1000
0001
0010
0100
1000
0001
0100
,
0110
0010
1000
0001
0010
0100
0010
0001
,
1000
0010
1000
0010
1000
0010
1000
0010
0100
0001
0100
0001
0100
0001
1000
0000
,
1001
0000
0000
0000
0000
0000
0000
0000
0000
0000
0000
0001
0010
0000
0001
0000
,
1000
0010
1000
0000
0001
0000
0010
0000
0100
1000
0100
0000
1000
0000
0001
0000
,
0100
0010
0100
0000
0001
0000
1000
0100
0000
0100
0010
0000
0001
0000
1000
0000
,
0010
1000
0010
0000
0100
0000
0001
0000
1000
0100
1000
0000
0001
0000
0100
0000
,
0010
1000
0010
0000
0100
0000
0001
1000
0000
1000
0100
0000
0010
0000
0001
0000
,
1000
0010
0100
0000
0001
0000
1000
0000
0100
0010
0001
0000
1000
0000
0001
0000
,
0100
0010
1000
0000
0001
0000
0010
0100
0000
0010
0001
0000
1000
0000
0010
0000
,
0100
0001
1000
0000
0100
0000
0010
0000
0100
1000
0001
0000
0100
0000
0001
0000
,
0010
0001
1000
0000
0010
0000
0100
0001
0000
1000
0100
1000
0100
0000
0010
0000
,
0001
1000
0010
0000
0100
0000
0001
0000
1000
0100
0010
0000
0001
0010
0100
0000
,
1000
0001
0100
0000
0010
0000
1000
0001
0010
0001
0010
0000
0100
1000
0010
0000
,
0100
0001
0100
0000
0010
0000
1000
0000
0001
0010
0100
0000
1000
0100
0010
0000
,
0001
1000
0010
0000
1000
0000
0001
0010
0100
0010
0100
0000
1000
0010
0100
0000
,
0001
0100
0001
0000
1000
0000
0100
0010
0100
0010
0001
0000
1000
0010
1000
0000
,
0001
0100
0001
0100
0001
0000
1000
0100
1000
0100
1000
0000
0001
1000
0001
0000
,
1000
0100
1000
0100
1000
0100
1000
0100
0010
0001
0010
0001
0010
0001
0010
0001
,
1000
0010
1000
0010
1000
0010
1000
0010
0100
0001
0100
0001
0100
0001
0100
0001
,
1000
0000
0001
0000
1000
0000
0100
0000
0010
0001
1000
0000
0010
0100
0001
0000
,
1000
0000
0001
0000
0010
0000
0100
1000
0001
1000
0010
0000
0100
0001
0100
0000
,
0001
0000
1000
0000
0100
0000
0010
0000
0001
0010
0100
0000
1000
0001
0100
0000
,
0010
0000
1000
0000
0010
0000
0100
0001
1000
0100
0010
0000
0001
1000
0001
0000
,
1001
1000
0010
0010
0100
0100
0001
0001
,
0010
0010
0100
0100
1000
1000
0001
0001
,
0100
0010
0100
0010
0100
0010
0100
0010
1000
0001
1000
0001
1000
0001
1000
0001
,
1000
0100
0010
0001
1000
0100
0010
0001
1000
0001
0100
0010
1000
0001
0100
0010
,
1000
0000
0000
0000
;

//--------------- dance-double - Fred-104 ----------------
#NOTEDATA:;
#STEPSTYPE:dance-double;
#DESCRIPTION:Fred-104;
#DIFFICULTY:Easy;
#METER:4;
#CREDIT:Fred-104;
#NOTES:
00000000
00000000
00000000
00000000
,
00000000
00000000
00000000
00000000
,
00000000
00000000
00000000
00000000
,
10000000
00000000
00010000
00000000
,
10000000
10000000
01000000
00000000
,
00100000
00000000
00001000
00000000
,
00010000
00010000
00001000
00000000
,
00000100
00000000
00000001
00000000
,
00001000
00001000
00000001
00000000
,
00000010
00000000
00000100
00000000
,
00010000
00010000
00001000
00000000
,
01000000
00010000
01000000
00000000
,
00010000
00010000
10000000
10000000
,
01000000
00100000
00001000
00000000
,
00010000
00010000
00000010
00001000
,
00001001
00000000
00000001
00000000
,
00000100
00000000
00001000
00000000
,
00011000
00000000
00011000
00000000
,
00001000
00010000
00001000
00000100
,
00000002
00000000
00000000
00000003
,
00002000
00000000
00000000
00003000
,
00000020
00000000
00000000
00000030
,
00020000
00000000
00000000
00030000
,
00002000
00000000
00000000
00000000
,
00000000
00003000
00020000
00000000
,
00000000
00000000
00000000
00030000
,
00002000
00000000
00000000
00003000
,
00011000
00000000
00001000
00000000
,
01000000
00000000
00001000
00000000
,
01000000
00000000
00010000
00000000
,
10000000
00000000
01000000
00000000
,
00200000
00000000
00000000
00000000
,
00300000
00000000
00001000
00000000
,
00020000
00000000
00000000
00030000
,
00002000
00000000
00000000
00003000
,
00011000
00000000
00000000
00000000
,
00000000
00000000
00000000
00000000
,
00000010
00000000
00000000
00000000
,
00010000
00000000
00000010
00000000
,
00010000
00000000
00000000
00000000
,
00001000
00000000
00000000
00000000
,
00100000
00000000
00000000
00000000
,
00010000
00000000
00000000
00000000
,
10010000
00000000
00000000
00000000
,
10000000
00000000
01000000
01000000
,
01100000
00000000
00001000
00000000
,
00011000
00000000
00011000
00000000
,
00011000
00000000
00000010
00000000
,
00001001
00000000
00000100
00000000
,
00011000
00000000
00011000
00000000
,
00011000
00000000
00000000
00000000
,
00001000
00000000
00010000
00000000
,
01000000
01000000
01000000
00000000
,
10000000
00000000
00010000
00000000
,
10000000
10000000
10000000
00000000
,
00100000
00000000
01000000
00000000
,
00100000
00100000
00100000
00000000
,
00010000
00000000
00001000
00000000
,
00010000
00010000
00010000
00000000
,
00000100
00000000
00001000
00000000
,
00000001
00000001
00000001
00000000
,
00001000
00000000
00000010
00000000
,
00000100
00001000
00010000
00000000
,
00011000
00000000
00001000
00000000
,
01000000
00000000
00010000
00000000
,
10000000
00000000
01000000
00000000
,
00100000
00100000
00100000
00000000
,
00011000
00000000
00010000
00000000
,
00001000
00000000
00010000
00000000
,
00010000
00000000
00000100
00000000
,
00001000
00000000
00000001
00000000
,
00000010
00000000
00001000
00000000
,
00010000
00000000
01000000
00000000
,
10000000
00000000
00100000
00000000
,
00010000
00010000
00001000
00001000
,
00011000
00000000
00000000
00000000
;

//--------------- dance-double - Fred-104 ----------------
#NOTEDATA:;
#STEPSTYPE:dance-double;
#DESCRIPTION:Fred-104;
#DIFFICULTY:Medium;
#METER:10;
#CREDIT:Fred-104;
#NOTES:
00000000
00000000
00000000
00000000
,
00000000
00000000
00000000
00000000
,
00000000
00000000
00000000
00000000
,
00001000
00010000
00001000
00000000
01000000
00010000
01000000
00000000
,
00100000
00000000
10000000
00000000
00100000
00000000
00000000
00100000
10000000
00000000
01000000
00000000
00100000
00000000
00000000
00000000
,
00001000
00010000
00000100
00000000
00001000
00000100
00000010
00000000
,
00000001
00000000
00001000
00000000
00000010
00000000
00000000
00000010
00000100
00000000
00001000
00000000
00010000
00000000
00000000
00000000
,
00001000
01000000
00010000
00000000
00100000
00001000
00010000
00000000
,
00001000
00000000
00010000
00000000
01000000
00000000
00000000
01000000
10000000
00000000
00010000
00000000
10000000
00000000
00000000
00000000
,
00100000
01000000
00100000
00000000
00010000
00001000
00010000
00000000
,
00000100
00000000
00000010
00000000
00000001
00000000
00000000
00000001
00000100
00000000
00001000
00000000
00010000
00000000
00000000
00000000
,
00001000
00010000
00001000
01000000
00010000
10000000
00010000
00000000
,
10000000
00000000
01000000
00000000
00100000
00000000
00000000
00100000
00001000
00000000
00010000
00000000
00001000
00000000
00000000
00000000
,
00010000
00000010
00001000
00000001
00001000
00000010
00000100
00000000
,
00000001
00000000
00001000
00000000
00000100
00000000
00000000
00000100
00000010
00000000
00001000
00000000
00010000
00000000
00000000
00000000
,
00001000
00010000
00100000
00000000
10000000
00100000
00010000
00000000
,
00001000
00000010
00000001
00000000
00000010
00001000
00010000
00000000
,
00011000
01000000
00011000
00000010
,
00011000
00000000
00011000
00000000
00010000
00001000
00010000
00001000
,
00010000
00000000
00001000
00002000
00000000
00000000
00000000
00103000
,
00100000
00000000
01000000
20000000
00000000
00000000
30010000
00000000
,
10000000
00000000
00100000
00200000
00000000
00000000
00310000
00001000
,
00010000
00000000
00000100
00001000
00000000
00000010
00000000
00001000
,
00000000
00000001
00000020
00000000
00000000
00000000
00000000
00000000
,
00000000
00000000
00000000
00000000
00001030
00000000
00010000
00002000
,
00000000
00020000
00000000
00000000
00000000
00000000
00000000
00000000
,
00000000
00000000
00000000
00033000
,
00011000
00000000
00001000
00020000
00000000
00000000
01030000
10000000
,
00010000
00000000
10000000
01000000
00000000
00000000
00100000
00000000
,
00001000
00000000
00010000
00000100
00000000
00000000
00001000
00000001
,
00000010
00000000
00000100
00010000
00000000
00001000
00000000
00010000
,
00000000
00100000
20000000
00000000
00000000
00000000
00000000
00000000
,
00000000
00000000
00000000
00000000
31000000
00000000
00100000
00020000
,
00000000
20000000
00000000
00000000
00000000
00000000
30030000
00010000
,
10000000
00000000
10000000
00100000
00000000
00100000
00010000
00000000
,
00011000
00000000
00000000
00000000
,
00000000
00000000
00000000
00000000
,
00000000
00000000
00000000
00000000
00000000
00000000
00000000
00000001
,
00000100
00000000
00001000
00010000
00000000
00100000
10000000
00000000
,
10010000
00000000
00000000
00000000
,
00000000
00000000
00000000
00000000
,
00000000
00000000
00000000
00000000
,
00000000
00000000
00000000
00000000
,
00000001
00000001
00000000
00000100
00000000
00010000
00000000
01000000
,
00000000
10000000
00000000
01000000
00000000
00010000
10000000
01000000
,
00100000
00100000
00000000
00001000
00000000
00000010
00000000
00000001
,
00001000
00001000
00000000
00000001
00000100
00001000
00011000
00000000
,
00001000
00010000
00100000
01000000
00100000
00010000
00001000
00000000
,
00010000
00001000
00000010
00000100
00000010
00001000
00010000
00000000
,
00011000
00000010
00011000
01000000
,
00011000
00000000
00000000
00000000
,
00001000
00100000
00010000
10000000
00100000
10000000
00010000
00000000
,
10000000
00000000
01000000
00000000
00100000
00000000
00000000
00100000
00001000
00000000
00010000
00000000
00001000
00000000
00000000
00000000
,
00010000
00001000
00000100
00000010
00000100
00000001
00000010
00000000
,
00000001
00000000
00000100
00000000
00001000
00000000
00000000
00001000
00010000
00000000
00001000
00000000
01000000
00000000
00000000
00000000
,
00010000
10000000
01000000
00100000
10000000
00100000
00010000
00000000
,
10000000
00000000
00100000
00000000
00010000
00000000
00000000
00010000
00001000
00000000
00010000
00000000
00000100
00000000
00000000
00000000
,
00000010
00000001
00001000
00000010
00000100
00001000
00010000
00000000
,
00001000
00000000
01000000
00000000
00010000
00000000
00000000
00010000
10000000
00000000
00010000
00000000
10010000
00000000
00000000
00000000
,
10000000
00100000
01000000
00010000
10000000
01000000
00100000
00000000
,
00001000
00000000
00010000
00000000
00001000
00000000
00000000
00001000
00010000
00000000
00000010
00000000
00010000
00000000
00000000
00000000
,
00001000
00010000
00000100
00001000
00000001
00000100
00000010
00000000
,
00001000
00000000
00000100
00000000
00000001
00000000
00000000
00000001
00000100
00000000
00001000
00000000
00000010
00000000
00000000
00000000
,
00021000
00032000
00003200
00000302
,
00002003
00003002
00000023
00002030
,
00013000
00001000
01000000
00000000
00100000
10000000
00010000
00000000
,
10000000
01000000
00100000
00010000
01000000
00100000
00010000
00001000
,
00010000
00001000
00000010
00000100
,
00010000
00000000
00000000
00000000
00001000
00000000
00000000
00001000
01000000
00000000
00010000
00000000
00100000
00000000
00000000
00000000
,
00001000
00010000
01000000
00100000
,
00001000
00000000
00000000
00000000
00010000
00000000
00000000
00010000
00100000
00000000
10000000
00000000
00010000
00000000
00000000
00000000
,
10010000
00000000
10000000
00000000
01000000
00100000
00001000
00000000
,
00011000
00000000
00010000
00000000
00001000
00000100
00000001
00000000
,
00001000
00000100
00000010
00000000
00000001
00000100
00001000
00000000
,
00010000
00001000
00010000
00000010
00001000
00000100
00000010
00000001
,
00001000
00000000
00000000
00000000
;

//--------------- dance-double - Fred-104 ----------------
#NOTEDATA:;
#STEPSTYPE:dance-double;
#DESCRIPTION:Fred-104;
#DIFFICULTY:Hard;
#METER:13;
#CREDIT:Fred-104;
#NOTES:
00000000
00000000
00000000
00000000
,
00000000
00000000
00000000
00000000
,
00000000
00000000
00000000
00000000
,
00000001
00001000
00000010
00000100
00000001
00001000
00000100
00000010
,
00001000
00010000
01000000
00100000
00010000
10000000
00100000
00010000
,
00001000
00010000
00000100
00001000
00000001
00000100
00000010
00010000
,
00001000
01000000
00010000
00100000
01000000
10000000
00010000
01000000
,
00100000
10000000
01000000
00100000
10000000
00100000
00010000
10000000
,
00100000
00010000
00001000
00010000
00000100
00000010
00000001
00001000
,
00000001
00000100
00000010
00000100
00001000
00010000
00001000
01000000
,
00010000
00100000
00001000
01000000
00100000
10000000
10010000
00000000
,
10000000
01000000
00100000
00001000
00010000
00000100
00000010
00000001
,
00000100
00000000
00001000
00000000
00010000
00000000
00000000
00010000
00001000
00000000
01000000
00000000
00010000
00000000
00100000
00000000
,
00001000
00010000
00000010
00001000
00000100
00010000
00001000
00000010
,
00000100
00000000
00010000
00000000
00001000
00000000
00000000
00001000
00000100
00000000
00000001
00000000
00000010
00000000
00000100
00000000
,
00001000
00000001
00000100
00001000
00010000
00001000
01000000
00001000
,
00010000
00000100
00000010
00000100
00001000
00000010
00010000
00001000
,
00011000
00010000
00000010
00000000
00011000
00001000
00100000
00000000
,
00010000
00000000
10000000
00000000
00100000
00000000
01000000
00000000
00001000
00010000
00001000
00010000
00001000
00010000
00001000
00010000
,
00002000
00000000
00013000
02000000
00000000
00000000
00000000
13000000
,
00020000
00000000
01030000
00200000
00000000
00310000
00001000
00010000
,
00000200
00000000
00000000
00000000
00000310
00000001
00000020
00000000
00000000
00000000
00000130
00000000
00001000
00000000
00000001
00000000
,
00000100
00001000
00010000
00002000
00000000
00003010
00001000
00010000
,
00001000
00100000
00002000
00000000
00010000
00000000
00000010
00000000
,
00100000
00000000
00000010
00000000
00023000
00000000
00031000
00020000
,
00000000
00000200
00000000
00000000
00000000
00000000
00000000
00000000
,
00000000
00000000
00000000
00030300
,
00002001
00000000
00003001
00000200
00000000
00001300
00010000
00001000
,
02000000
00000000
03010000
00200000
00000000
10300000
00100000
00001000
,
00020000
00000000
00030010
00000200
00000000
00000301
00001000
00000100
,
00000010
00001000
00010000
00002000
00000000
01003000
00001000
00010000
,
00001000
00000100
00000002
00000000
00000000
00000000
00000000
00000000
,
00000000
00000000
00000000
00000000
00000023
00000000
00000130
00020000
,
00000000
00002000
00000000
00000000
00000000
00030000
00000000
01003000
,
00020000
00000000
10030000
01000000
00010000
00001000
00000010
00000001
,
00002001
00000000
00003002
00000000
,
00000203
00000000
00002300
00023000
,
00032000
00000000
00023000
00000000
,
00230000
00000000
02300000
23000000
32000000
03020000
20030000
00000000
,
32000000
00000000
03200000
00000000
,
00302000
00000000
00023000
00030200
,
00000320
00000000
00000032
00000000
,
00002003
00003020
00000230
00001300
,
00011000
00000000
00010000
00000000
00001000
00100000
00010000
10000000
,
00100000
00000000
00000000
00000000
01000000
00000000
00010000
10000000
00000000
01000000
00100000
00000000
00101000
00000000
00000000
00000000
,
00011000
00000000
00010000
00000100
00000010
00000000
00000001
00001000
,
00000010
00000000
00000100
00000000
00000001
00000000
00001000
00000100
00000000
00010000
00001000
00000000
00011000
00000000
00000000
00000000
,
01000000
00010000
01000000
00100000
10000000
01000000
00100000
00001000
,
00010000
00000100
00000010
00000001
00001000
00000010
00000100
00000001
,
00001001
00000001
00000010
00000100
00010100
00010000
00001000
00010000
,
00011000
00000000
00000000
00000000
00000000
00000000
00000000
00000000
00000000
00000000
00000000
00010000
00000010
00000000
00001000
00000000
,
00000001
00000010
00000100
00010000
00001000
00010000
00000010
00000100
,
00001000
00000000
00010000
00000000
00100000
00000000
01000000
00010000
00000000
01000000
00010000
00000000
00100000
00000000
01000000
00000000
,
10000000
00010000
01000000
10000000
01000000
00100000
00010000
00001000
,
00010000
00000000
00001000
00000000
00000100
00000000
00000010
00001000
00000000
00000010
00001000
00000000
00000001
00000000
00000010
00000000
,
00000100
00001000
00000010
00010000
00100000
01000000
00001000
00010000
,
00100000
00000000
10000000
00000000
00010000
00000000
00100000
01000000
00000000
00100000
01000000
00000000
10000000
00000000
00010000
00000000
,
10000000
01000000
00100000
01000000
00010000
00001000
00010000
00000010
,
00001000
00000000
00000100
00000000
00010000
00000000
00000010
00001000
00000000
00000010
00000100
00000001
00001000
00000000
00000100
00000000
,
00000110
00000010
00000001
00000100
00000001
00000010
00000100
00010000
,
00001000
00000000
00100000
00000000
00001000
00000000
00010000
00000010
00000000
00010000
00001000
00000000
01000000
00000000
00010000
00000000
,
00100000
01000000
10000000
00010000
01000000
10000000
00010000
00100000
,
01000000
00000000
00010000
00000000
10000000
00000000
01000000
00100000
00000000
01000000
00010000
00000000
00001000
00000000
00010000
00000000
,
00011000
00001000
00010000
00010000
00000010
00000010
00001000
00001000
,
00000001
00000001
00000010
00000010
00000100
00000100
00010000
00010000
,
00001000
00100000
00001000
00000000
00100000
00010000
00100000
00000000
01000000
10000000
01000000
00000000
10000000
00010000
10000000
00000000
,
00100000
01000000
00100000
00000000
00010000
00001000
00010000
00000000
00000010
00001000
00000010
00001000
00000001
00001000
00000001
00001000
,
00000200
00000000
00000310
00001000
00000001
00000100
00001000
00000010
,
00020000
00000000
00000000
00000000
00031000
00000000
00100000
01000000
00000000
10000000
00010000
00000000
01000000
00001000
00010000
00000000
,
00002000
00000000
00103000
01000000
00010000
10000000
00100000
00010000
,
10000000
00000000
00100000
00000000
01000000
00000000
00100000
00010000
00000000
00001000
00010000
00000000
00000100
00001000
00000100
00000000
,
00010000
00010000
00001000
00001000
00000100
00000100
00000001
00000001
,
00001000
00001000
00000001
00000001
00000010
00000010
00000100
00000100
,
00010000
00001000
00010000
00000000
00001000
00100000
00001000
00000000
00100000
00010000
00100000
00000000
01000000
10000000
01000000
00000000
,
10000000
00010000
10000000
00010000
10000000
00010000
10000000
00010000
10000000
00010000
10000000
00010000
01000000
00000000
00001000
00000000
,
00011000
00000000
00000000
00000000
;

//--------------- dance-double - Fred-104 ----------------
#NOTEDATA:;
#STEPSTYPE:dance-double;
#DESCRIPTION:Fred-104;
#DIFFICULTY:Challenge;
#METER:15;
#CREDIT:Fred-104;
#NOTES:
00000000
00000000
00000000
00000000
,
00000000
00000000
00000000
00000000
,
00000000
00000000
00000000
00000000
,
00010000
00001000
00010000
00000000
00000010
00001000
00000010
00000000
00000100
00000001
00000100
00000000
00000001
00001000
00000001
00000000
,
00001000
00000100
00001000
00000000
00000100
00010000
00000100
00000000
00010000
00001000
00010000
00000000
00001000
00100000
00001000
00000000
,
00010000
00001000
00010000
00000000
00000010
00001000
00000010
00000000
00010000
00001000
00010000
00000000
00001000
01000000
00001000
00000000
,
01000000
00100000
01000000
00000000
00100000
10000000
00100000
00000000
10000000
00010000
10000000
00000000
00010000
01000000
00010000
00000000
,
10000000
01000000
00100000
00000000
01000000
00100000
00010000
00000000
00100000
00001000
00010000
00000000
00001000
00010000
00000100
00000000
,
00001000
00000100
00000010
00000000
00000100
00000010
00000001
00000000
00000010
00000001
00001000
00000000
00000001
00001000
00000100
00000000
,
00001000
00000001
00000100
00000000
00000010
00001000
00000100
00000000
00010000
00001000
00100000
00000000
00010000
01000000
00100000
00000000
,
10000000
00010000
00100000
00000000
01000000
00100000
00010000
00000000
10000000
00100000
01000000
00000000
00100000
00010000
00001000
00000000
,
00010000
00000000
00001000
00000000
00000100
00000010
00000001
00000000
00000010
00000000
00001000
00000000
00000001
00000010
00001000
00000000
,
00010000
00000000
00001000
00000000
00010000
01000000
00100000
00000000
10000000
00100000
00010000
00000000
10000000
00100000
00010000
00000000
,
00001000
00000000
00010000
00000000
00100000
01000000
10000000
00000000
01000000
00000000
00010000
00000000
10000000
01000000
00010000
00000000
,
00001000
00000000
00010000
00000000
00000100
00000010
00000001
00000000
00000100
00000010
00000001
00000000
00001000
00000100
00000010
00000000
,
00001000
00000001
00000010
00000000
00000100
00001000
00000001
00000000
00000100
00000010
00000100
00000000
00001000
00010000
00001000
00000000
,
01000000
00010000
00100000
00000000
01000000
10000000
00010000
00000000
01000000
00100000
00010000
00000000
00001000
00010000
00001000
00000000
,
00010000
00000100
00001000
00000100
00000010
00000000
00000001
00000000
00001000
00000010
00010000
00001000
00010000
00000000
00001000
00000000
,
01000000
00010000
01000000
00000000
00100000
10000000
00100000
00000000
10000000
00010000
10000000
00010000
10000000
01000000
10000000
01000000
,
00200000
00000000
00000000
00000000
00301000
00010000
00002000
00000000
00000000
00000000
00000000
00000000
00000000
00000000
00003100
00000000
,
00000002
00000000
00001003
00000020
00000000
00010030
00200000
00000000
,
02300000
00000000
00000000
00000000
03001000
00010000
00002000
00000000
00000000
00000000
00013000
00000000
01000000
00000000
10000000
00000000
,
00010000
01000000
00100000
00002000
00000000
00003010
00010000
00001000
,
00000100
00000000
00000001
00001000
00000200
00000000
00000000
00000000
00000000
00000000
00000000
00000000
00000000
00000000
00000000
00000000
,
00000000
00000000
00000000
00000000
00020300
00000000
00031000
00010000
,
00000000
00022000
00000000
00000000
00000000
00000000
00000000
00000000
,
00000000
00000000
00000000
00033000
,
01100000
00000000
00000000
00000000
10000000
01000000
00200000
00000000
00000000
00000000
00000000
00000000
00000000
00000000
00301000
00000000
,
00020000
00000000
00030010
00000002
00000000
00000013
00000200
00000000
,
00000302
00000000
00000000
00000000
00000013
00000100
00002000
00000000
00000000
00000000
00003010
00000000
00000100
00000000
00001000
00000000
,
00010000
00001000
01000000
00020000
00000000
00130000
10000000
00100000
,
00001000
00010000
00000020
00000000
00000000
00000000
00000000
00000000
,
00000000
00000000
00000000
00000000
00020030
00000000
00031000
00000200
,
00000000
00000302
00000000
00000000
00000000
00000000
00000000
00001003
,
00000002
00000000
00000013
00001000
00010000
00100000
10000000
00000000
,
10020000
00000000
20030000
00000000
,
30200000
00320000
00032000
00003200
,
00000302
00000000
00001000
00001000
00002003
00000000
00000100
00000100
,
00003200
00000000
00000310
00000001
00000100
00001000
00010000
00000000
,
00012000
00000000
00013000
00010000
02000000
00000000
03200000
00000000
,
00302000
00000000
00023000
00000000
00130000
10000000
02000000
00000000
,
03200000
00000000
00301000
00001000
00020000
00000000
00030200
00000000
,
00000302
00000000
00002003
00000000
00003010
00000100
00001000
00000000
,
00001001
00000001
00001000
00000010
00001000
00000001
00000010
00000100
,
00010000
00001000
00010000
00100000
10000000
01000000
01100000
00000000
,
10010000
10000000
00100000
01000000
00100000
00010000
00001000
00010000
,
00011000
00010000
00000100
00000010
00000011
00000000
00001001
00000000
,
00000001
00000100
00000001
00000000
00000010
00000000
00000100
00000000
00010000
00001000
00010000
00000000
00001000
00000000
00000010
00000000
,
00000001
00001000
00000001
00000000
00000100
00000000
00001000
00000000
00010000
00001000
00010000
00000000
01000000
00000000
00100000
00000000
,
00010000
10000000
00010000
10000000
00100000
00000000
01000000
00001000
00010000
00001000
00010000
00000010
00001000
00000001
00000010
00000000
,
00000110
00000000
00000000
00000000
00000000
00000000
00000000
00000000
00000000
00000000
00000000
00001000
00000001
00000000
00001000
00000000
,
00000001
00000010
00000100
00000000
00010000
00000000
00001000
00000000
00100000
00010000
10000000
00000000
00100000
01000000
00010000
00000000
,
10000000
00010000
01000000
00000000
00100000
00000000
00010000
00001000
00000000
00010000
00000100
00000000
00000010
00000001
00001000
00000000
,
00000010
00000100
00001000
00000000
00010000
00000000
00001000
00000000
00100000
00010000
01000000
00000000
00001000
00000000
00010000
00000000
,
00000100
00000010
00000001
00000000
00001000
00000000
00000001
00000100
00000000
00001000
00010000
00001000
00010000
00000000
00001000
00000000
,
00100000
00010000
10000000
00000000
00100000
00000000
01000000
00000000
00100000
00010000
00001000
00000000
00010000
00000100
00001000
00000000
,
00000100
00000010
00000001
00000000
00001000
00000000
00000010
00000100
00000000
00001000
00000100
00000000
00000001
00001000
00000100
00000000
,
00000010
00000001
00001000
00000000
00000010
00000000
00000100
00000000
00001000
00010000
00001000
00000000
01000000
00000000
00010000
00000000
,
00100000
01000000
00100000
00000000
00001000
00000000
00010000
00001000
00000000
01000000
00010000
10000000
00010000
00000000
00100000
00000000
,
01000000
10000000
00010000
00000000
01000000
00000000
00100000
00000000
10000000
00010000
00100000
00000000
01000000
00010000
00001000
00000000
,
00010000
00000100
00001000
00000000
00000001
00000000
00000100
00000010
00001000
00000010
00000100
00000000
00000001
00000000
00001000
00000000
,
00000100
00000010
00000001
00000000
00001000
00000000
00000001
00000000
00000010
00000100
00001000
00000000
00000100
00010000
00001000
00000000
,
00010000
00100000
10000000
00000000
00010000
00000000
00100000
01000000
10000000
01000000
00100000
00000000
00001000
00010000
00001000
00000000
,
00010000
00000100
00000010
00000000
00000001
00000000
00001000
00000010
00001000
00000001
00000010
00000000
00000100
00000010
00000001
00000000
,
00001000
00000001
00000100
00000000
00000010
00000000
00000100
00001000
00010000
00001000
00010000
00000000
00100000
01000000
00010000
00000000
,
10000000
01000000
10000000
01000000
10000000
01000000
00100000
00000000
00001000
00010000
00001000
00010000
00001000
00010000
00000010
00000000
,
00010000
00001000
00010000
00001000
00000010
00000100
00000010
00000100
00001000
00000001
00001000
00000001
00000100
00000010
00000100
00000010
,
00001000
00000000
00000100
00000000
00000010
00000000
00000001
00000000
00000100
00000010
00000001
00000000
00001000
00000100
00000001
00000000
,
00001000
00000000
00000001
00000000
00000100
00000000
00001000
00010000
00001000
00010000
00001000
00000000
00010000
01000000
00100000
00000000
,
00010000
00000000
10000000
00000000
00100000
00000000
10000000
00000000
00010000
00100000
01000000
00000000
00010000
10000000
00100000
00000000
,
00010000
00000000
10000000
00000000
01000000
00000000
00010000
00001000
00010000
00001000
00010000
00000000
00000100
00000010
00000001
00000000
,
00001001
00001000
00000001
00000001
00000100
00000100
00001000
00001000
,
00010000
00010000
00100000
00100000
10000000
10000000
01000000
01000000
,
00100000
00001000
00100000
00001000
00100000
00001000
00100000
00001000
00010000
00000010
00010000
00000010
00010000
00000010
00010000
00000010
,
00001000
00000001
00001000
00000001
00000010
00000100
00000010
00000100
00001000
00000100
00010000
00001000
00100000
00010000
10000000
00100000
,
01000000
00000000
00000000
00000000
;
