#VERSION:0.83;
#TITLE:SERVI;
#ARTIST:Des-ROW vibes Dr.Honda;
#BANNER:SERVI.png;
#BACKGROUND:SERVI-bg.png;
#CDTITLE:./CDTitles/RB VOLZZA.png;
#MUSIC:SERVI.ogg;
#SAMPLESTART:41.467;
#SAMPLELENGTH:15;
#BPMS:0=191;
#BGSTAGE:27;

//--------------- dance-single - Fred-104 ----------------
#NOTEDATA:;
#STEPSTYPE:dance-single;
#DESCRIPTION:Fred-104;
#DIFFICULTY:Beginner;
#METER:6;
#CREDIT:Fred-104;
#NOTES:
0000
0000
0000
0000
,
0000
0000
0000
0000
,
0000
0000
0000
0000
,
0000
0000
0000
0000
,
0000
0000
0000
0000
,
2000
0000
0000
0000
,
3000
0000
0000
0000
,
0002
0000
0000
0000
,
0003
0000
0000
0000
,
1000
0000
0010
0000
,
1000
0000
0001
0100
,
0001
0000
0010
0000
,
0100
0000
1000
0010
,
0100
0000
0010
0000
,
1000
0000
0100
0010
,
0001
0000
1000
0000
,
0001
0001
1000
1000
,
0002
0000
0023
0000
,
0230
0000
0000
0000
,
2300
0000
3020
0000
,
0230
0000
0000
0000
,
0302
0000
2003
0000
,
0002
0000
0000
3003
,
2000
0000
3200
0000
,
0320
0000
0032
0000
,
1003
0000
0001
0000
,
0010
0001
0001
1000
,
0001
0000
0100
0000
,
0010
1000
1000
0100
,
2000
0000
3002
0000
,
2000
0000
3003
0000
,
0002
0000
0203
0000
,
0320
0000
2030
0000
,
3001
0000
0100
0000
,
0001
0010
0010
0100
,
1000
0000
0001
0000
,
1000
0010
0010
1000
,
0100
0000
1000
0000
,
0001
1000
0100
0010
,
0100
0000
1000
0000
,
0001
0010
0001
0001
,
1000
0000
0100
0000
,
0001
0100
1000
0010
,
1000
0000
0001
0000
,
1000
0001
0010
0100
,
0010
0000
0001
0000
,
0010
1000
0010
0001
,
1000
0000
0010
0000
,
0001
0000
0100
0000
,
2000
0000
3020
0000
,
0130
0100
0001
0000
,
0020
0000
0032
0000
,
2003
0000
3002
0000
,
1003
1000
0010
0010
,
0100
0100
0001
0001
,
2000
0000
3002
0000
,
0103
0010
0100
0001
,
0010
0000
0002
2003
,
3001
0100
0010
0100
,
0001
0000
0020
0230
,
2300
3020
1030
0100
,
1000
0000
0002
0103
,
0001
0010
0001
1000
,
0001
0000
0100
0010
,
0100
0001
1000
0001
,
1001
0000
0001
0000
,
2000
0000
3020
0000
,
2030
0000
3200
0000
,
0320
0000
0032
2003
,
3001
0000
1000
0000
,
0010
0100
0001
1000
,
0001
0000
0010
0000
,
0001
0100
0010
0100
,
0001
0000
1000
0000
,
0100
0010
0100
1000
,
0010
0000
1000
0000
,
0001
1000
0010
0100
,
0001
0000
1000
0000
,
0001
0000
0100
0000
,
0011
0000
1100
0000
,
2002
0000
0000
0000
,
3003
0000
0000
0000
;

//--------------- dance-single - Fred-104 ----------------
#NOTEDATA:;
#STEPSTYPE:dance-single;
#DESCRIPTION:Fred-104;
#DIFFICULTY:Easy;
#METER:10;
#CREDIT:Fred-104;
#NOTES:
0000
0000
0000
0000
,
0000
0000
0000
0000
,
0000
0000
0000
0000
,
0000
0000
0000
0000
,
0000
0000
0000
0000
,
0001
0000
0100
0000
,
0001
0010
0100
0000
,
1000
0010
1000
1000
,
0001
0000
0100
0010
0000
1000
0010
0000
,
1000
0100
0010
0001
,
0000
0100
0000
0100
0010
0000
0100
0001
,
0100
0001
0010
0100
,
0000
1000
0000
1000
0010
0000
0100
0010
,
1000
0010
0100
0001
,
0000
0010
0000
0010
0001
0000
1000
0001
,
1000
0010
0100
0100
,
0001
0001
1000
0001
,
2001
0000
3002
0000
,
0203
0000
0000
0000
,
0302
0000
2003
0000
,
3020
0000
0000
0000
,
2030
0000
3200
0000
,
2000
0000
0000
3300
,
1000
0100
1000
0100
,
0001
0010
0001
0010
,
1000
0100
1000
0010
,
0100
0010
0000
0010
0100
0000
0001
0000
,
0010
0001
1000
0001
,
0010
0100
0000
0100
0010
0000
0001
0000
,
0100
0010
1000
0100
,
1100
0000
1000
0010
,
1000
0100
1000
0100
,
0001
0010
0001
0010
,
1000
0100
1000
0001
,
0100
0010
0100
0010
0100
0000
0001
0000
,
0010
0000
0001
1000
,
0010
1000
0100
0000
1000
0000
0010
0100
,
0010
1000
0100
0000
,
0010
0000
0001
0000
0100
0010
0100
0000
,
0001
0010
0001
1000
,
0100
1000
0100
0000
1000
0010
1000
0000
,
0010
0100
0010
0100
,
0010
1000
0010
0000
1000
0000
0001
0100
,
0001
0010
0001
0001
,
0100
0010
0100
0000
0001
0000
0010
0001
,
0010
0001
1000
0010
,
0100
0001
1000
0100
,
1000
0100
0001
0010
,
1000
0000
0100
0000
0010
0000
0001
0000
0100
0000
0010
0000
,
2000
0000
3010
1000
,
0200
0000
0000
0000
0320
0000
0000
0000
0031
0000
0000
0100
0000
0000
0001
0000
,
0010
0000
0002
0000
1000
1000
1003
0000
,
0020
0000
0230
0000
,
0301
0000
0001
0000
0100
0010
0100
0000
,
0001
0010
0001
0000
1000
0100
1000
0000
,
0001
0100
0010
0100
,
0001
1000
2002
3003
,
1000
0000
0200
0000
0010
0010
0310
0000
,
0001
0100
0010
0100
,
0001
0000
1000
0000
0001
0001
0001
0000
,
0100
0100
0100
0000
0010
0010
0010
0000
,
1000
0000
0100
1000
0010
0000
1000
0000
,
0001
0100
0001
0000
1000
0010
1000
0000
,
0001
0100
0010
0000
0100
0100
0100
0000
,
0010
0010
0010
0000
1000
0000
0001
0000
,
1001
0000
0001
0000
,
0100
0000
0002
0000
,
0023
0000
2030
0000
,
3200
0000
0302
0000
,
1003
0010
1000
0100
,
1000
0010
1000
0100
1000
0000
0001
0000
,
0100
0010
0100
0001
,
0010
0001
0010
0001
1000
0000
0001
0000
,
0100
0010
0100
0001
,
0100
0010
0100
0001
0100
0000
0010
0000
,
1000
0100
0001
0010
,
1000
0100
1000
0010
1000
0100
1000
0000
,
0010
1000
0100
0010
,
0011
0001
1000
0001
,
0101
0000
1100
0000
,
2002
0000
0000
0000
,
3003
0000
0000
0000
;

//--------------- dance-single - Fred-104 ----------------
#NOTEDATA:;
#STEPSTYPE:dance-single;
#DESCRIPTION:Fred-104;
#DIFFICULTY:Medium;
#METER:14;
#CREDIT:Fred-104;
#NOTES:
0000
0000
0000
0000
,
0000
0000
0000
0000
,
0000
0000
0000
0000
,
0000
0000
0000
0000
,
0000
0000
0000
0000
,
0001
0000
0010
0000
0001
0000
1000
0010
,
0100
0000
0010
0000
1000
0000
0100
0010
,
0001
0000
0100
0001
0010
0000
0001
0100
,
0010
0000
1000
0100
0000
1000
0010
0000
0100
0001
0100
0000
0001
1000
0001
0000
,
1000
0100
0010
0001
1000
0000
0001
0010
,
0001
0100
1000
0100
0001
0010
0100
1000
,
0001
0100
0010
1000
0010
0000
1000
0100
,
1000
0010
0001
0010
1000
0010
0100
0001
,
1000
0100
0010
1000
0010
0000
0001
0010
,
0100
1000
0010
0100
1000
0100
0010
1000
,
0001
0010
0100
1000
0001
0001
0100
0100
,
0010
0010
1000
1000
0001
1000
0001
0000
,
2001
0000
3020
0000
,
0230
0000
0000
0000
,
0302
0000
0023
0000
,
0230
0000
0000
0000
,
2300
0000
3002
0000
,
2000
0000
0000
3003
,
1000
0010
1000
0010
0000
0000
0100
0001
0100
0001
0000
0000
,
1000
0100
1000
0100
0000
0000
0010
0001
0010
0001
0000
0000
,
1000
0100
1000
0000
0001
1000
0001
0000
,
0100
0001
0010
0001
0100
0010
0001
0010
,
0100
0001
1000
0000
0010
1000
0100
0000
,
1000
0100
0010
0001
1000
0010
0001
0010
,
0100
0001
1000
0000
0010
1000
0001
0000
,
0100
0000
0000
1001
0000
0000
0001
0100
0001
0010
0000
0000
,
0100
1000
0010
1000
0000
0000
0001
0100
0010
1000
0000
0000
,
0001
0000
0001
0100
0000
0100
0020
0000
0000
2030
0000
0000
,
3001
0010
0001
1000
0001
0010
0001
0100
,
0001
0100
1000
0100
0001
0010
0001
0000
,
1000
0010
0100
0010
1000
0001
0010
0100
,
1000
0010
0100
1000
0100
0001
1000
0000
,
0010
1000
0100
1000
0001
1000
0100
0010
,
0100
0001
0100
1000
0001
0010
0001
0000
,
0100
0001
0010
0001
1000
0001
0100
0010
,
0001
0010
1000
0010
0100
0001
1000
0000
,
0001
0010
0100
1000
0010
0100
0001
0100
,
1000
0100
0010
1000
0100
0010
0100
1000
,
0001
0010
0100
0001
0100
0010
0001
1000
,
0100
0001
0100
0010
0001
1000
0001
0100
,
0010
1000
0100
0010
0001
0100
0010
0001
,
0010
1000
0001
0100
1000
0100
0010
1000
,
0001
0100
1000
0010
,
0001
0000
0010
0000
0100
1000
0100
0000
0010
0000
0001
0100
,
0002
0000
0100
0000
0010
0010
0013
0000
,
0100
0000
1000
0000
0002
0000
0000
0000
0103
0000
0000
0010
0000
0000
1000
0000
,
0100
1000
0020
0000
0100
0100
0130
0000
,
0001
0000
0000
0010
0000
0001
0000
0000
1000
0000
0001
0000
0100
0000
0000
0000
,
0002
0010
0010
0013
0200
1000
1000
1300
,
0020
0100
0100
0130
0001
1000
1001
0000
,
0001
0000
0000
0100
0000
0001
1000
0000
1000
0020
0000
0000
,
0130
0001
0010
0001
1000
0001
1001
0000
,
0002
0000
0100
0000
1000
1000
1003
0000
,
0001
1000
0100
1000
0001
0100
0010
1000
,
0100
0000
1000
0001
0020
0001
0001
0031
,
2000
0001
0001
3001
0100
0010
0110
0000
,
0100
0001
1000
0001
0200
0000
0301
0100
,
0001
0010
0100
1000
0100
0001
0100
1000
,
0010
0100
0001
0010
0001
1000
0001
0100
,
0001
0010
1000
0001
0100
1000
0001
0000
,
1001
0000
0100
0010
,
1001
0001
0100
0010
,
1000
0100
1000
0100
0000
0000
0010
0001
0010
0001
0000
0000
,
1000
0000
1000
0001
0000
0001
0200
0000
0000
0320
0000
0000
,
1030
0001
0010
0001
0100
0010
1000
0010
,
0100
0001
0010
1000
0010
0001
1000
0000
,
0001
0100
0001
0010
0001
1000
0100
0010
,
1000
0010
0100
1000
0001
0100
0010
0000
,
0100
0001
0010
0001
1000
0001
0010
0001
,
1000
0010
0001
0010
0100
0001
1000
0000
,
0001
0010
0001
0100
0010
1000
0100
1000
,
0001
0010
0100
1000
0010
0100
0001
1000
,
1100
0000
0000
0000
0101
0000
0000
0000
1100
0000
0000
1000
0010
0000
0000
0010
,
0100
0001
0010
0000
0001
1000
0010
0000
,
1010
0100
0011
0100
,
2002
0000
0000
0000
,
3003
0000
0000
0000
;

//--------------- dance-single - Fred-104 ----------------
#NOTEDATA:;
#STEPSTYPE:dance-single;
#DESCRIPTION:Fred-104;
#DIFFICULTY:Hard;
#METER:17;
#CREDIT:Fred-104;
#NOTES:
0000
0000
0000
0000
,
0000
0000
0000
0000
,
0000
0000
0000
0000
,
0000
0000
0000
0000
,
0000
0000
0000
0000
,
1000
0010
0100
0001
1000
0001
0010
0100
,
0010
0100
1000
0100
0010
0001
1000
0010
,
0001
0010
0100
0010
1000
0001
1000
0100
,
1000
0000
0001
0100
0001
1000
0010
1000
0100
0010
0001
0000
0100
0010
1000
0000
,
0001
0010
0100
1000
1010
0000
1000
0100
,
1000
0000
0000
0000
0000
0000
0000
0000
0001
0000
0000
0000
0010
0000
0000
0000
0001
0000
0000
0000
0000
0000
0000
0000
0100
0000
0000
0000
0001
0000
0000
0000
0100
0000
0000
0000
0000
0000
0000
0000
0001
0000
0000
0000
0000
0000
0000
0000
0020
0030
0000
0000
0000
0000
0000
0000
0020
0030
0000
0000
0000
0000
0000
0000
,
1000
0000
0001
0010
0001
0000
1000
0000
1001
0000
0000
0000
0010
0001
0010
0000
,
0001
0000
0000
0000
0000
0000
0000
0000
0100
0000
0000
0000
0001
0000
0000
0000
0100
0000
0000
0000
0000
0000
0000
0000
0010
0000
0000
0000
1000
0000
0000
0000
0010
0000
0000
0000
0000
0000
0000
0000
1000
0000
0000
0000
0000
0000
0000
0000
0200
0300
0000
0000
0000
0000
0000
0000
0200
0300
0000
0000
0000
0000
0000
0000
,
0001
0010
0001
1000
1100
0000
0001
1000
,
0100
0000
0000
0000
0000
0000
0000
0000
1000
0000
0000
0000
0010
0000
0000
0000
1000
0000
0000
0000
0000
0000
0000
0000
0001
0000
0000
0000
0100
0000
0000
0000
0001
0000
0000
0000
0000
0000
0000
0000
1000
0000
0000
0000
0000
0000
0000
0000
0200
0300
0000
0000
0000
0000
0000
0000
0200
0300
0000
0000
0000
0000
0000
0000
,
0001
0000
0010
0000
0100
0010
0100
0000
0110
0000
0100
0000
1000
0000
0001
0000
,
1000
0100
0100
0100
0010
0001
0001
0001
,
2001
0000
3020
0000
,
0032
0000
0203
2300
,
3002
0000
0023
0000
,
0230
0000
0000
0000
0000
0000
0000
0000
0000
0000
0000
0000
0000
0000
0000
0000
0000
0000
0000
0000
0000
0000
0000
0000
0000
0000
0000
0000
0000
0000
0000
0000
2300
0000
0000
0000
0000
0000
0000
0000
0000
0000
0000
0000
0000
0000
0000
0000
3020
0030
0000
0000
0000
0000
0000
0000
0020
0030
0000
0000
0000
0000
0000
0000
,
0002
0000
2003
0000
,
0002
0000
0000
3003
,
0001
0010
0100
1000
0100
0010
0001
0100
0010
1000
0010
0100
,
0001
0010
0001
1000
0100
1000
0001
0100
0001
1000
0010
1000
,
0001
0000
0100
0000
0001
0000
1000
0000
0100
0000
0010
0100
1000
0000
0001
0000
,
0010
0000
0000
0000
0000
0000
0000
0000
0001
0000
0000
0000
0100
0000
0000
0000
0001
0000
0000
0000
0000
0000
0000
0000
0100
0000
0000
0000
0010
0000
0000
0000
0100
0000
0000
0000
0000
0000
0000
0000
0001
0000
0000
0000
0000
0000
0000
0000
0200
0300
0000
0000
0000
0000
0000
0000
0200
0300
0000
0000
0000
0000
0000
0000
,
1000
0000
0010
0100
0001
0000
0010
0000
0001
0000
1000
0001
0010
0000
0100
0000
,
1000
0000
0000
0000
0000
0000
0000
0000
0001
0000
0000
0000
0010
0000
0000
0000
0001
0000
0000
0000
0000
0000
0000
0000
0100
0000
0000
0000
0001
0000
0000
0000
0100
0000
0000
0000
0000
0000
0000
0000
0001
0000
0000
0000
0000
0000
0000
0000
0020
0030
0000
0000
0000
0000
0000
0000
0020
0030
0000
0000
0000
0000
0000
0000
,
1000
0000
0010
0000
1000
0100
1000
0000
0001
0000
0100
0000
0010
1000
0010
0000
,
0100
0000
0000
0001
0000
1000
0100
0010
0001
0100
0010
1000
,
0001
0010
0100
1000
0001
0100
1000
0001
0010
1000
0001
0100
,
0010
0000
0000
0000
1000
0000
0000
0000
0010
0000
0000
0000
0100
0000
0000
0000
0001
0000
0000
0000
0100
0000
0000
0000
0001
0000
0000
0010
0000
0000
0100
0000
0000
1000
0000
0000
0001
0000
0000
0010
0000
0000
0100
0000
0000
1000
0000
0000
,
0001
0100
0010
1000
0100
0010
1000
0010
,
0001
0000
0000
0000
0000
0000
0000
0000
0100
0000
0000
0000
0010
0000
0000
0000
0100
0000
0000
0000
0000
0000
0000
0000
0001
0000
0000
0000
0010
0000
0000
0000
0001
0000
0000
0000
0000
0000
0000
0000
1000
0000
0000
0000
0000
0000
0000
0000
0200
0300
0000
0000
0000
0000
0000
0000
0200
0300
0000
0000
0000
0000
0000
0000
,
0001
0100
0010
1000
0100
0010
0100
1000
,
0001
0000
0000
0000
0000
0000
0000
0000
0100
0000
0000
0000
0010
0000
0000
0000
0100
0000
0000
0000
0000
0000
0000
0000
0001
0000
0000
0000
0010
0000
0000
0000
0001
0000
0000
0000
0000
0000
0000
0000
1000
0000
0000
0000
0000
0000
0000
0000
0020
0030
0000
0000
0000
0000
0000
0000
0020
0030
0000
0000
0000
0000
0000
0000
,
0001
0100
0010
1000
0001
0010
1000
0010
,
0001
0000
0000
0000
0000
0000
0000
0000
0010
0000
0000
0000
0100
0000
0000
0000
0010
0000
0000
0000
0000
0000
0000
0000
0100
0000
0000
0000
1000
0000
0000
0000
0100
0000
0000
0000
0000
0000
0000
0000
1000
0000
0000
0000
0000
0000
0000
0000
0200
0300
0000
0000
0000
0000
0000
0000
0200
0300
0000
0000
0000
0000
0000
0000
,
0001
1000
0100
0010
0001
0100
0010
1000
,
0100
0000
0000
0000
0000
0000
0000
0000
1000
0000
0000
0000
0010
0000
0000
0000
1000
0000
0000
0000
0000
0000
0000
0000
0001
0000
0000
0000
0100
0000
0000
0000
0001
0000
0000
0000
0000
0000
0000
0000
1000
0000
0000
0000
0000
0000
0000
0000
0020
0030
0000
0000
0000
0000
0000
0000
0020
0030
0000
0000
0000
0000
0000
0000
,
0001
0000
0010
0000
0100
1000
0100
0000
1000
0000
0001
0000
0100
0010
0100
0000
,
0001
0000
0000
0000
0000
0000
0000
0000
0010
0000
0000
0000
0100
0000
0000
0000
1000
0000
0000
0000
0000
0000
0000
0000
0010
0000
0000
0000
1000
0000
0000
0000
0100
0000
0000
0000
0000
0000
0000
0000
1000
0000
0000
0000
0000
0000
0000
0000
0020
0030
0000
0000
0000
0000
0000
0000
0020
0030
0000
0000
0000
0000
0000
0000
,
0001
0000
1000
0000
0100
0010
0001
0000
1000
0000
0001
0000
0010
0001
0100
0000
,
0010
0000
0000
0000
0000
0000
0000
0000
1000
0000
0000
0000
0010
0000
0000
0000
0100
0000
0000
0000
0000
0000
0000
0000
0001
0000
0000
0000
1000
0000
0000
0000
0100
0000
0000
0000
0000
0000
0000
0000
1000
0000
0000
0000
0000
0000
0000
0000
0200
0300
0000
0000
0000
0000
0000
0000
0200
0300
0000
0000
0000
0000
0000
0000
,
0001
0000
0010
0100
1000
0010
0100
0000
0010
0000
0100
0001
0010
0001
1000
0000
,
0100
0000
0000
0000
0000
0000
0000
0000
0010
0000
0000
0000
0001
0000
0000
0000
0100
0000
0000
0000
0000
0000
0000
0000
0010
0000
0000
0000
1000
0000
0000
0000
0100
0000
0000
0000
0000
0000
0000
0000
1000
0000
0000
0000
0000
0000
0000
0000
0020
0030
0000
0000
0000
0000
0000
0000
0020
0030
0000
0000
0000
0000
0000
0000
,
0001
0010
0100
1000
0100
0010
0001
0100
0010
1000
0010
0100
,
0001
0000
0100
0000
1000
0100
0001
0000
0010
0000
1000
0010
,
0002
0000
1000
0000
0100
0100
0100
0103
,
0010
0000
1000
0000
0200
0000
0000
0000
1300
0000
0000
0100
0000
0000
0010
0000
,
0001
1000
0020
0000
2030
0010
3002
0100
,
1003
0000
0000
0001
0000
1000
0000
0000
0200
0000
0000
0000
0320
0000
0000
0000
,
0032
0100
0100
0100
0010
0010
0010
0013
,
0200
1000
1000
1300
0001
0010
2000
0000
,
3010
0000
0100
1000
0001
1000
0010
0100
0100
2000
0000
0000
,
3001
0000
0100
0001
0010
0000
0001
1000
0100
1000
0001
0100
0002
0000
0000
0000
,
1003
0001
1001
0000
2000
3200
0302
0203
,
1300
0000
0000
0000
0000
0000
0000
0000
0001
0000
0000
0000
1000
0000
0000
0000
0010
0000
0000
0000
0000
0000
0000
0000
1000
0000
0000
0000
0001
0000
0000
0000
0100
0000
0000
0000
0000
0000
0000
0000
0001
0000
0000
0000
0000
0000
0000
0000
0020
0030
0000
0000
0000
0000
0000
0000
0020
0030
0000
0000
0000
0000
0000
0000
,
1000
0000
0100
0000
0110
0000
0000
0000
1000
0100
1000
0100
0010
0100
0010
0100
,
1000
0010
1000
0010
0100
0001
0100
0001
0100
0000
0010
0000
0100
0000
0001
0000
,
1000
0000
0100
0000
1000
0100
0010
0001
0200
0000
0000
0000
0310
0000
0100
0000
,
0001
0000
0000
0000
0000
0000
0000
0000
0100
0000
0000
0000
0001
0000
0000
0000
0010
0000
0000
0000
0000
0000
0000
0000
0001
0000
0000
0000
1000
0000
0000
0000
0100
0000
0000
0000
0000
0000
0000
0000
1000
0000
0000
0000
0000
0000
0000
0000
0020
0030
0000
0000
0000
0000
0000
0000
0020
0030
0000
0000
0000
0000
0000
0000
,
0001
0000
0100
0001
0010
0000
0001
0000
2000
0000
0001
0000
3020
0000
0100
0000
,
2030
0000
0001
0000
3200
0000
0010
0000
1300
0000
0100
1000
0001
0100
0010
0000
,
1001
0000
0100
0010
,
1001
0000
0000
0001
0100
0100
1000
0100
0010
0001
1000
0010
,
0100
0001
0100
0001
0100
1000
0100
0001
0010
0001
0010
1000
,
0010
0000
0000
0000
0001
0000
0000
0000
0100
0000
0000
0000
0010
0000
0000
0000
1000
0000
0000
0000
0100
0000
0000
0000
1000
0000
0000
0001
0000
0000
0010
0000
0000
0100
0000
0000
1000
0000
0000
0010
0000
0000
0100
0000
0000
0001
0000
0000
,
1000
0000
0100
0000
1000
0001
0010
0001
0100
0000
0010
0000
1000
0100
0010
0001
,
1000
0000
0000
0000
0000
0000
0000
0000
0001
0000
0000
0000
0100
0000
0000
0000
0001
0000
0000
0000
0000
0000
0000
0000
1000
0000
0000
0000
0010
0000
0000
0000
0100
0000
0000
0000
0000
0000
0000
0000
0001
0000
0000
0000
0000
0000
0000
0000
0200
0300
0000
0000
0000
0000
0000
0000
0200
0300
0000
0000
0000
0000
0000
0000
,
1000
0000
0100
0000
1000
0001
0010
0001
0100
0000
0010
0000
0100
0001
1000
0001
,
0010
0000
0000
0000
0000
0000
0000
0000
0100
0000
0000
0000
1000
0000
0000
0000
0010
0000
0000
0000
0000
0000
0000
0000
0100
0000
0000
0000
0001
0000
0000
0000
0010
0000
0000
0000
0000
0000
0000
0000
0001
0000
0000
0000
0000
0000
0000
0000
0020
0030
0000
0000
0000
0000
0000
0000
0020
0030
0000
0000
0000
0000
0000
0000
,
1000
0000
0001
0000
0010
0100
1000
0010
0100
0000
1000
0000
0100
0010
1000
0100
,
0010
0000
0000
0000
0000
0000
0000
0000
0001
0000
0000
0000
0010
0000
0000
0000
1000
0000
0000
0000
0000
0000
0000
0000
0001
0000
0000
0000
0100
0000
0000
0000
1000
0000
0000
0000
0000
0000
0000
0000
0001
0000
0000
0000
0000
0000
0000
0000
0200
0300
0000
0000
0000
0000
0000
0000
0200
0300
0000
0000
0000
0000
0000
0000
,
1000
0010
1000
0100
1000
0010
0100
0000
0001
0010
0100
0010
0001
1000
0001
0000
,
0100
0001
0100
0001
0010
0100
1000
0100
1000
0010
0100
0001
0100
0010
1000
0001
,
1000
0000
0000
0000
1100
0000
0000
0000
1000
0000
0000
0100
0010
0000
0000
0001
,
0100
0001
1000
0001
0100
0010
1000
0100
,
2100
3010
0102
0013
,
2002
0000
0000
0000
,
3003
0000
0000
0000
;

//--------------- dance-double - Fred-104 ----------------
#NOTEDATA:;
#STEPSTYPE:dance-double;
#DESCRIPTION:Fred-104;
#DIFFICULTY:Easy;
#METER:10;
#CREDIT:Fred-104;
#NOTES:
00000000
00000000
00000000
00000000
,
00000000
00000000
00000000
00000000
,
00000000
00000000
00000000
00000000
,
00000000
00000000
00000000
00000000
,
00000000
00000000
00000000
00000000
,
10000000
00000000
00010000
00000000
,
10000000
00100000
00010000
00000000
,
00001000
00010000
00000100
00000010
,
00000001
00000000
00000100
00000010
00000000
00001000
00000010
00000000
,
00000100
00000001
00000010
00000100
,
00000000
00010000
00000000
00010000
01000000
00000000
00100000
01000000
,
00100000
10000000
01000000
00100000
,
00000000
00001000
00000000
00001000
00000010
00000000
00000100
00000010
,
00000100
00000001
00000010
00000100
,
00000000
00010000
00000000
00010000
00100000
00000000
00010000
10000000
,
00010000
10000000
01000000
00010000
,
00001000
00010000
00100000
10000000
,
20010000
00000000
30200000
00000000
,
00320000
00000000
00000000
00000000
,
00032000
00000000
00003200
00000000
,
00000302
00000000
00000000
00000000
,
00002003
00000000
00003020
00000000
,
00000200
00000000
00000000
00000330
,
00000001
00000010
00000100
00001000
,
00010000
00100000
01000000
10000000
,
01010000
01000000
00100000
01000000
,
00010000
00100000
00000000
01000000
10000000
00000000
00100000
00000000
,
10000000
01000000
00100000
00001000
,
00010000
00000100
00000000
00000100
00001000
00000000
00000010
00000000
,
00000100
00000010
00001000
00000001
,
00001001
00000000
00000001
00000100
,
00000010
00000100
00001000
00010000
,
00100000
01000000
00010000
10000000
,
00010000
10000000
01000000
00100000
,
00001000
00100000
00001000
00100000
00001000
00000000
00010000
00000000
,
00001000
00000000
00000010
00000001
,
00001000
00000001
00000010
00000000
00000001
00000000
00000100
00000010
,
00000100
00000001
00000010
00000000
,
00001000
00000000
00010000
00000000
00001000
00100000
01000000
00000000
,
10000000
00010000
01000000
00100000
,
01000000
00010000
01000000
00000000
00001000
00010000
00001000
00000000
,
01000000
00010000
00100000
00001000
,
00010000
00000010
00010000
00000000
00000100
00000000
00001000
00000010
,
00000100
00000010
00001000
00000100
,
00010000
00001000
00010000
00000000
00000100
00000000
00001000
00000010
,
00010000
00001000
00100000
00010000
,
01000000
00100000
00010000
00001000
,
00000100
00000010
00010000
00001000
,
00010000
00000000
00001000
00000000
00000010
00000000
00001000
00000000
00010000
00000000
01000000
00000000
,
00020000
00000000
00031000
00010000
,
00002000
00000000
00000000
00000000
00023000
00000000
00000000
00000000
00030010
00000000
00000000
00001000
00000000
00000000
00000100
00000000
,
00010000
00000000
00002000
00000000
01000000
01000000
01003000
00000000
,
00020000
00000000
20030000
00000000
,
31000000
00000000
00010000
00000000
00001000
00010000
01000000
00000000
,
10000000
00100000
00010000
00000000
00001000
00010000
00100000
00000000
,
10000000
01000000
00010000
00001000
,
00010000
00000100
00000220
00000330
,
00000001
00000000
00002000
00000000
00000010
00000010
00003010
00000000
,
00000100
00000001
00000100
00000010
,
00001000
00000000
00000100
00000000
00010000
00010000
00010000
00000000
,
01000000
01000000
01000000
00000000
00100000
00100000
00100000
00000000
,
10000000
00000000
01000000
10000000
00010000
00000000
00100000
00000000
,
00001000
00010000
00001000
00000000
00000010
00000001
00001000
00000000
,
00000001
00000100
00000010
00000000
00001000
00001000
00001000
00000000
,
00000100
00000100
00000100
00000000
00010000
00000000
00001000
00000000
,
00011000
00000000
00001000
00000000
,
00010000
00000000
00200000
00000000
,
20300000
00000000
30020000
00000000
,
02030000
00000000
03200000
00000000
,
10300000
01000000
00100000
00010000
,
01000000
00100000
01000000
00010000
00100000
00000000
00001000
00000000
,
00010000
00001000
00000100
00000010
,
00001000
00000100
00000010
00000001
00001000
00000000
00000001
00000000
,
00000010
00000100
00001000
00000100
,
00010000
00001000
00010000
00000010
00010000
00000000
00001000
00000000
,
00100000
00010000
01000000
00001000
,
00010000
00001000
00100000
00001000
00010000
00000100
00001000
00000000
,
00000100
00000010
00000001
00000100
,
00001000
00010000
01000000
10000000
,
10100000
00000000
00110000
00000000
,
00022000
00000000
00000000
00000000
,
00033000
00000000
00000000
00000000
;

//--------------- dance-double - Fred-104 ----------------
#NOTEDATA:;
#STEPSTYPE:dance-double;
#DESCRIPTION:Fred-104;
#DIFFICULTY:Medium;
#METER:14;
#CREDIT:Fred-104;
#NOTES:
00000000
00000000
00000000
00000000
,
00000000
00000000
00000000
00000000
,
00000000
00000000
00000000
00000000
,
00000000
00000000
00000000
00000000
,
00000000
00000000
00000000
00000000
,
00001000
00000000
00010000
00000000
00100000
00000000
01000000
00001000
,
00010000
00000000
00100000
00000000
01000000
00000000
00001000
00010000
,
00001000
00000000
00000100
00000010
00001000
00000000
00000100
00000010
,
00000001
00000000
00000000
00000100
00000000
00000000
00000010
00000000
00001000
00000100
00001000
00000000
00000100
00010000
00000100
00000000
,
00010000
00001000
00010000
01000000
00100000
00000000
00010000
01000000
,
00100000
10000000
00010000
00100000
01000000
00000000
00100000
00010000
,
10000000
01000000
00010000
00001000
00010000
00000000
00000100
00000010
,
00000001
00000100
00001000
00010000
00001000
00000000
00000010
00000100
,
00001000
00000001
00000100
00000001
00001000
00000000
00000001
00000010
,
00001000
00010000
00001000
01000000
00100000
00000000
10000000
00100000
,
10000000
01000000
00100000
00001000
00010000
00001000
00000010
00000100
,
00001000
00000100
00000010
00000001
00000100
00001000
00010000
00001000
,
00020000
00000000
00032000
00000000
,
00003200
00000000
00000301
00000010
,
00002000
00000000
00023000
00000000
,
02030000
00000000
00000000
00000000
03100000
00000000
00010000
10000000
,
00200000
00000000
02300000
00000000
,
03002000
00000000
00000000
00003000
,
00001000
00000000
00001000
00010000
00000000
00010000
01000000
00000000
01000000
10000000
00000000
10000000
,
00010000
00000000
00010000
00100000
00000000
00100000
01000000
00000000
01000000
10000000
00000000
10000000
,
00100000
01000000
00010000
00000000
01000000
00100000
10000000
00000000
,
01000000
00100000
01000000
00010000
00001000
00000000
00000100
00000010
,
00001000
00000001
00001000
00000000
00000100
00000010
00000001
00000000
,
00001000
00000001
00000010
00001000
00010000
00000000
00001000
00100000
,
01000000
10000000
00010000
00000000
10000000
00010000
01000000
00000000
,
00010000
00000000
00000000
00110000
00000000
00100000
00001000
00000000
00001000
00010000
00000000
00010000
,
00000100
00000000
00000100
00001000
00000000
00001000
00000001
00000000
00000001
00000010
00000000
00000010
,
00000100
00000000
00000000
00000000
00000100
00000000
00001000
00000000
00000000
00000000
00001000
00000000
00000010
00000000
00000000
00010000
00000000
00000000
00001000
00000000
00000000
00010000
00000000
00000000
,
01000000
10000000
00010000
10000000
00100000
00000000
10000000
01000000
,
00100000
10000000
00100000
00010000
01000000
00000000
00001000
00010000
,
00001000
01000000
00010000
00100000
00001000
00000000
00010000
00001000
,
00000100
00000010
00001000
00000010
00000100
00000000
00000010
00010000
,
00001000
00010000
01000000
00100000
00010000
00000000
01000000
00100000
,
00010000
00100000
01000000
00001000
00010000
00000000
00001000
00000100
,
00000010
00001000
00000100
00001000
00000010
00000000
00000100
00001000
,
00010000
00100000
01000000
00001000
00010000
00000000
00001000
00010000
,
00001000
01000000
00010000
01000000
00100000
01000000
00010000
00100000
,
01000000
10000000
00100000
00010000
00001000
00000000
00000010
00000100
,
00001000
00000001
00001000
00000100
00001000
00000010
00000100
00000001
,
00000010
00000100
00010000
00001000
00000100
00000000
00000001
00001000
,
00000001
00000010
00000100
00001000
00000010
00010000
00001000
00010000
,
00000100
00010000
00001000
00010000
01000000
10000000
00010000
10000000
,
00100000
00000000
00100000
00010000
00000000
00010000
00001000
00000000
00001000
00000010
00000000
00000010
,
00000001
00000000
00000100
00000000
00001000
00010000
00001000
00000000
00000010
00000000
00000001
00001000
,
00000002
00000000
00001000
00000000
00000100
00000100
00000103
00000000
,
00000001
00000000
00000010
00000000
00002000
00000000
00000000
00000000
00013000
00000000
00000000
00001000
00000000
00000000
00000010
00000000
,
00000001
00000100
00000020
00000000
00000100
00000100
00000130
00000000
,
00000010
00000000
00000000
00010000
00000000
00001000
00000000
00000000
00010000
00000000
00100000
00000000
01000000
00000000
00000000
00000000
,
00010000
00100000
01000000
10000000
00010000
00100000
01000000
00100000
,
00001000
00010000
00000010
00001000
00000100
00010000
00011000
00000000
,
00010000
00000000
00000000
00001000
00000000
00010000
00000100
00000000
00010000
00001000
00000000
00000000
,
00010000
00001000
01000000
00001000
00010000
00001000
00101000
00000000
,
00001000
00010000
00000010
00001000
00000100
00000100
00000100
00000000
,
00010000
00001000
00100000
00010000
01000000
00001000
00010000
00000000
,
00001000
00000000
00000010
00000001
00002000
00000100
00000100
00003100
,
00000020
00000100
00000100
00000130
00001000
00000010
00000110
00000000
,
00000001
00000100
00001000
00010000
00002000
00000000
00103000
01000000
,
10000000
00010000
01000000
00100000
01000000
00010000
00100000
00001000
,
00010000
00001000
00000010
00000100
00001000
00000001
00000100
00000010
,
00000100
00001000
00010000
00100000
01000000
00010000
10000000
00000000
,
10010000
00000000
01000000
00000000
,
00110000
00000000
00000000
00001000
00000000
00001000
00010000
00000000
00010000
00000100
00000000
00000100
,
00001000
00000000
00001000
00000010
00000000
00000010
00000100
00000000
00000100
00000001
00000000
00000001
,
00000010
00000000
00000010
00000100
00000000
00000100
00020000
00000000
00000000
00032000
00000000
00000000
,
00013000
01000000
10000000
00010000
10000000
00100000
01000000
00010000
,
00001000
00000010
00010000
00001000
00100000
00000000
00001000
00010000
,
00001000
00000010
00000100
00001000
00000001
00000010
00000100
00001000
,
00000010
00001000
00010000
01000000
00100000
00000000
10000000
00010000
,
00100000
00001000
01000000
00001000
00010000
00100000
00010000
00001000
,
01000000
00001000
00010000
00001000
00000010
00000001
00001000
00000001
,
00000010
00000100
00000010
00001000
00010000
01000000
00100000
00010000
,
10000000
00100000
00010000
00001000
00000100
00000010
00001000
00000100
,
00000010
00000000
00000000
00000000
00000011
00000000
00000000
00000000
00001001
00000000
00000000
00000001
00000100
00000000
00000000
00000100
,
00010000
00001000
00000010
00001000
00010000
00001000
00100000
00010000
,
10010000
01000000
00011000
00000010
,
00002002
00000000
00000000
00000000
,
00003003
00000000
00000000
00000000
;

//--------------- dance-double - Fred-104 ----------------
#NOTEDATA:;
#STEPSTYPE:dance-double;
#DESCRIPTION:Fred-104;
#DIFFICULTY:Hard;
#METER:18;
#CREDIT:Fred-104;
#NOTES:
00000000
00000000
00000000
00000000
,
00000000
00000000
00000000
00000000
,
00000000
00000000
00000000
00000000
,
00000000
00000000
00000000
00000000
,
00000000
00000000
00000000
00000000
,
00010000
00001000
00000010
00000100
00001000
00000001
00001000
00000010
,
00000100
00000001
00001000
00000100
00000010
00001000
00010000
01000000
,
00100000
00010000
10000000
01000000
00100000
00010000
01000000
00001000
,
00010000
00000000
00000100
00001000
00000010
00001000
00000010
00000100
00000001
00000010
00000100
00000001
00000100
00000010
00000001
00000000
,
00000100
00000001
00001000
00000100
00000010
00000000
00000001
00001000
,
00000100
00010000
00000010
00001000
00000001
00000100
00010000
01000000
,
00100000
01000000
00010000
10000000
01000000
00000000
00100000
00001000
,
00010000
00100000
10000000
00010000
10000000
01000000
00001000
00000100
,
00001000
00000010
00000100
00000001
00001000
00000000
00010000
00001000
,
00000001
00000010
00000100
00001000
00000001
00000010
00010000
00100000
,
01000000
00010000
01000000
00100000
01000000
00100000
00010000
10000000
,
00100000
00010000
00001000
00000100
00000010
00001000
00000100
00000010
,
00000002
00000000
00002003
00000000
,
00003200
00000000
00010300
00001000
,
00020000
00000000
02030000
00000000
,
03200000
00000000
00000000
00000000
00310000
00000000
10000000
00010000
,
20000000
00000000
30020000
00000000
,
20000000
00000000
00000000
30030000
,
00010000
10000000
00100000
00010000
00001000
00010000
01000000
00010000
00001000
00000010
00000100
00010000
,
00000100
00001000
00001000
00000001
00000100
00001000
00010000
00001000
00000100
00000001
00000010
00000001
,
00001000
00000100
00000010
00000001
00001000
00000010
00010000
00100000
,
01000000
00000000
00000000
00000000
00000000
00000000
00000000
00000000
00010000
00000000
00000000
00000000
10000000
00000000
00000000
00000000
00010000
00000000
00000000
00000000
00000000
00000000
00000000
00000000
00100000
00000000
00000000
00000000
01000000
00000000
00000000
00000000
00100000
00000000
00000000
00000000
00000000
00000000
00000000
00000000
00010000
00000000
00000000
00000000
00000000
00000000
00000000
00000000
02000000
03000000
00000000
00000000
00000000
00000000
00000000
00000000
02000000
03000000
00000000
00000000
00000000
00000000
00000000
00000000
,
10000000
00010000
01000000
00001000
00100000
00010000
00000010
00001000
,
00010000
00000000
00000000
00000000
00000000
00000000
00000000
00000000
00001000
00000000
00000000
00000000
00010000
00000000
00000000
00000000
00001000
00000000
00000000
00000000
00000000
00000000
00000000
00000000
00010000
00000000
00000000
00000000
00000010
00000000
00000000
00000000
00010000
00000000
00000000
00000000
00000000
00000000
00000000
00000000
00000010
00000000
00000000
00000000
00000000
00000000
00000000
00000000
00002000
00003000
00000000
00000000
00000000
00000000
00000000
00000000
00002000
00003000
00000000
00000000
00000000
00000000
00000000
00000000
,
00010000
00001000
00000100
00000001
00001000
00000100
00000010
00000001
,
00001000
00000000
00000000
00000001
00000000
00001000
00000100
00000001
00000100
00001000
00010000
00001000
,
00000010
00001000
00010000
00100000
00010000
00001000
00010000
01000000
00010000
00001000
00010000
00100000
,
00010000
00000000
00000000
00000000
00001000
00000000
00000000
00000000
00010000
00000000
00000000
00000000
00001000
00000000
00000000
00000000
00100000
00000000
00000000
00000000
00010000
00000000
00000000
00000000
10000000
00000000
00000000
01000000
00000000
00000000
00100000
00000000
00000000
00010000
00000000
00000000
00100000
00000000
00000000
00001000
00000000
00000000
00010000
00000000
00000000
00001000
00000000
00000000
,
01000000
00010000
00100000
01000000
00001000
00000100
00000010
00001000
,
00010000
00000000
00000000
00000000
00000000
00000000
00000000
00000000
00000100
00000000
00000000
00000000
00001000
00000000
00000000
00000000
00000100
00000000
00000000
00000000
00000000
00000000
00000000
00000000
00010000
00000000
00000000
00000000
00001000
00000000
00000000
00000000
00010000
00000000
00000000
00000000
00000000
00000000
00000000
00000000
00000010
00000000
00000000
00000000
00000000
00000000
00000000
00000000
00002000
00003000
00000000
00000000
00000000
00000000
00000000
00000000
00002000
00003000
00000000
00000000
00000000
00000000
00000000
00000000
,
00100000
00010000
01000000
00100000
01000000
00001000
00010000
00000100
,
00001000
00000000
00000000
00000000
00000000
00000000
00000000
00000000
00000010
00000000
00000000
00000000
00010000
00000000
00000000
00000000
00001000
00000000
00000000
00000000
00000000
00000000
00000000
00000000
00010000
00000000
00000000
00000000
00000010
00000000
00000000
00000000
00001000
00000000
00000000
00000000
00000000
00000000
00000000
00000000
00000100
00000000
00000000
00000000
00000000
00000000
00000000
00000000
00020000
00030000
00000000
00000000
00000000
00000000
00000000
00000000
00020000
00030000
00000000
00000000
00000000
00000000
00000000
00000000
,
01000000
00001000
00100000
00010000
00000010
00001000
00010000
00001000
,
00010000
00000000
00000000
00000000
00000000
00000000
00000000
00000000
00000100
00000000
00000000
00000000
00010000
00000000
00000000
00000000
00001000
00000000
00000000
00000000
00000000
00000000
00000000
00000000
00010000
00000000
00000000
00000000
00000100
00000000
00000000
00000000
00001000
00000000
00000000
00000000
00000000
00000000
00000000
00000000
00000010
00000000
00000000
00000000
00000000
00000000
00000000
00000000
00020000
00030000
00000000
00000000
00000000
00000000
00000000
00000000
00020000
00030000
00000000
00000000
00000000
00000000
00000000
00000000
,
01000000
00100000
00010000
00001000
00000100
00000010
00010000
00001000
,
00010000
00000000
00000000
00000000
00000000
00000000
00000000
00000000
00000010
00000000
00000000
00000000
00001000
00000000
00000000
00000000
00000100
00000000
00000000
00000000
00000000
00000000
00000000
00000000
00001000
00000000
00000000
00000000
00000100
00000000
00000000
00000000
00000010
00000000
00000000
00000000
00000000
00000000
00000000
00000000
00000100
00000000
00000000
00000000
00000000
00000000
00000000
00000000
00020000
00030000
00000000
00000000
00000000
00000000
00000000
00000000
00020000
00030000
00000000
00000000
00000000
00000000
00000000
00000000
,
00100000
00000000
00010000
00000000
01000000
00100000
10000000
00000000
00010000
00000000
10000000
00000000
01000000
00100000
00001000
00000000
,
00010000
00000000
00000000
00000000
00000000
00000000
00000000
00000000
00001000
00000000
00000000
00000000
00000010
00000000
00000000
00000000
00000100
00000000
00000000
00000000
00000000
00000000
00000000
00000000
00001000
00000000
00000000
00000000
00000010
00000000
00000000
00000000
00000100
00000000
00000000
00000000
00000000
00000000
00000000
00000000
00000001
00000000
00000000
00000000
00000000
00000000
00000000
00000000
00000200
00000300
00000000
00000000
00000000
00000000
00000000
00000000
00000200
00000300
00000000
00000000
00000000
00000000
00000000
00000000
,
00001000
00000000
00000010
00000000
00000001
00000010
00001000
00000000
00000001
00000000
00000100
00000000
00001000
00010000
00001000
00000000
,
00100000
00000000
00000000
00000000
00000000
00000000
00000000
00000000
01000000
00000000
00000000
00000000
10000000
00000000
00000000
00000000
00010000
00000000
00000000
00000000
00000000
00000000
00000000
00000000
00100000
00000000
00000000
00000000
00010000
00000000
00000000
00000000
01000000
00000000
00000000
00000000
00000000
00000000
00000000
00000000
00010000
00000000
00000000
00000000
00000000
00000000
00000000
00000000
00200000
00300000
00000000
00000000
00000000
00000000
00000000
00000000
00200000
00300000
00000000
00000000
00000000
00000000
00000000
00000000
,
10000000
00000000
01000000
00010000
00001000
00000100
00000010
00000000
00001000
00000000
00000001
00000010
00000100
00000010
00001000
00000000
,
00010000
00000000
00000000
00000000
00000000
00000000
00000000
00000000
00100000
00000000
00000000
00000000
01000000
00000000
00000000
00000000
00010000
00000000
00000000
00000000
00000000
00000000
00000000
00000000
10000000
00000000
00000000
00000000
00010000
00000000
00000000
00000000
00100000
00000000
00000000
00000000
00000000
00000000
00000000
00000000
00010000
00000000
00000000
00000000
00000000
00000000
00000000
00000000
02000000
03000000
00000000
00000000
00000000
00000000
00000000
00000000
02000000
03000000
00000000
00000000
00000000
00000000
00000000
00000000
,
10000000
01000000
00010000
00001000
00000010
00000001
00000100
00001000
00010000
00100000
10000000
00010000
,
10000000
00000000
00010000
00000000
00001000
00000001
00001000
00000000
00010000
00000000
10000000
00010000
,
20000000
00000000
01000000
00000000
00010000
00010000
00100000
30100000
,
10000000
00000000
01000000
00000000
00020000
00000000
00000000
00000000
00031000
00000000
00000000
00000010
00000000
00000000
00000100
00000000
,
00001000
00000001
00000200
00000000
00000302
00000010
00002003
00000100
,
00003001
00000000
00000000
00000010
00000000
00001000
00000000
00000000
00020000
00000000
00000000
00000000
02030000
00000000
00000000
00000000
,
03200000
00010000
00010000
01300000
20000000
00100000
01000000
31000000
,
00100000
00001000
00010000
00000010
00010000
00001000
00011000
00000000
,
00010000
00000000
00001000
00000010
00000001
00001000
00000100
00000010
00000001
00000020
00000000
00000000
,
00000031
00000000
00000000
00000000
00000000
00000000
00000100
00000000
00000000
00001000
00000000
00000000
00010000
00000000
00000000
00000000
00000000
00000000
01000000
00000000
00000000
00100000
00000000
00000000
00010000
00000000
00000000
00000000
01000000
00000000
00000000
00000000
01000000
00000000
00000000
00000000
20000000
00000000
00000000
00000000
00000000
00000000
00000000
00000000
00000000
00000000
00000000
00000000
,
31000000
00100000
00101000
00000000
00002000
00023000
00030020
00020030
,
00031000
00000000
00010000
00001000
00000010
00000000
00000100
00001000
00000001
00000000
00000100
00000000
00000001
00000010
00000100
00000000
,
00010000
00000000
00001000
00000000
00011000
00000000
00000000
00000000
00010000
00100000
01000000
00010000
10000000
00010000
10000000
01000000
,
10000000
00100000
10000000
01000000
00100000
00010000
01000000
00010000
00100000
00000000
00001000
00000000
00010000
00000000
00001000
00000000
,
00000010
00000000
00000001
00000000
00001000
00000001
00000010
00000001
00000200
00000000
00000000
00000000
00000301
00000000
00000100
00000000
,
00000001
00000000
00000010
00001000
00010000
00000000
00100000
01000000
00010000
00000000
10000000
00000000
00100000
10000000
01000000
00000000
,
10000000
00000000
00100000
10000000
01000000
00000000
00100000
00000000
00001000
00010000
00001000
00000000
01000000
00001000
00010000
00000000
,
00002000
00000000
00003020
00000000
00000230
00000000
00002300
00000000
00003002
00000000
00000203
00000000
00000320
00000000
00002030
00003000
,
00001001
00000000
00001000
00010000
,
10010000
00000000
00000000
00010000
01000000
00100000
01000000
00010000
00001000
00000100
00000010
00000100
,
00001000
00010000
00100000
01000000
10000000
00100000
00010000
00001000
01000000
00001000
00010000
00100000
,
10000000
00000000
00000000
00000000
00010000
00000000
00000000
00000000
10000000
00000000
00000000
00000000
01000000
00000000
00000000
00000000
00100000
00000000
00000000
00000000
00001000
00000000
00000000
00000000
00010000
00000000
00000000
00000010
00000000
00000000
00001000
00000000
00000000
00000010
00000000
00000000
00000100
00000000
00000000
00000001
00000000
00000000
00000010
00000000
00000000
00000001
00000000
00000000
,
00000010
00000000
00000010
00000001
00001000
00000001
00000100
00000000
00000001
00000000
00000010
00000100
00001000
00000100
00000010
00000000
,
00000001
00000000
00000100
00000001
00000010
00000000
00000100
00001000
00000010
00000000
00010000
00000000
00001000
00100000
00001000
00000000
,
00100000
00000000
00010000
00100000
01000000
00100000
00010000
00000000
01000000
00000000
00010000
00100000
00010000
10000000
00100000
00000000
,
01000000
00000000
00010000
10000000
01000000
00000000
00100000
00010000
01000000
00000000
00001000
00000000
00010000
00001000
00010000
00000000
,
00000010
00000000
00001000
00000100
00000010
00000001
00001000
00000000
00000001
00000000
00001000
00000010
00000100
00000010
00001000
00000000
,
00000001
00000000
00000100
00001000
00010000
00000000
00100000
01000000
00010000
00000000
10000000
00000000
01000000
00100000
01000000
00000000
,
00100000
00001000
00010000
00001000
00000010
00000100
00001000
00000000
00000001
00000010
00000100
00001000
00000010
00010000
00001000
00000000
,
00010000
00000100
00001000
00000100
00000010
00000001
00000100
00000010
00000100
00001000
00010000
00100000
10000000
00010000
00100000
01000000
,
10000000
00000000
00000000
00000000
01100000
00000000
00000000
00000000
10010000
00000000
00000000
10000000
00010000
00000000
00000000
00010000
,
00001000
00000100
00000001
00001000
00000100
00000010
00000001
00001000
,
00001001
00000100
00011000
00100000
,
20020000
00000000
00000000
00000000
,
30030000
00000000
00000000
00000000
;
