#VERSION:0.83;
#TITLE:SEITEN NO TERIYAKI;
#ARTIST:Kobaryo;
#GENRE:CHAOTIC SPEEDCORE;
#BANNER:SEITEN NO TERIYAKI.png;
#BACKGROUND:SEITEN NO TERIYAKI-bg.png;
#CDTITLE:./CDTitles/RB VOLZZA.png;
#MUSIC:SEITEN NO TERIYAKI.ogg;
#SAMPLESTART:9.67;
#SAMPLELENGTH:15;
#DISPLAYBPM:28:273;
#BPMS:0=273,28=216.125,29.583333=170.625,30.833333=102.375,31.583333=56.875,32=68.25,33=136.5,34=273,188=216.125,188.791667=170.625,189.416667=102.375,189.791667=56.875,190.208333=102.375,190.583333=170.625,191.208333=216.125,192=273,224=136.5,224.5=273,225=546,226=273,233=546,234=273,248=108.063,248.395833=85.313,248.708333=51.187,248.895833=28.437,249=136.5,250=273,284=136.5,292=273,300=108.063,300.395833=85.313,300.708333=51.187,300.895833=28.437,301=136.5,302=273,368=136.5,376=216.125,377.583333=170.625,378.833333=102.375,379.583333=56.875,380=28.438,380.104167=51.187,380.291667=85.313,380.604167=108.062,381=136.5,382=273,423=546,424=273,431=432.25,431.395833=341.25,431.708333=204.75,431.895833=113.75,432=273;
#STOPS:233=0.027,233.25=0.028,233.5=0.027,233.75=0.027,423=0.028,423.25=0.027,423.5=0.028,423.75=0.028;
#BGSTAGE:14;

//--------------- dance-single - Fred-104 ----------------
#NOTEDATA:;
#STEPSTYPE:dance-single;
#DESCRIPTION:Fred-104;
#DIFFICULTY:Beginner;
#METER:7;
#CREDIT:Fred-104;
#NOTES:
0000
0000
0000
0000
,
0000
0000
0000
0000
,
0000
0000
0000
0000
,
0000
0000
0000
0000
,
0000
0000
0000
0000
,
0000
0000
0000
0000
,
0000
0000
0000
0000
,
2000
0000
0000
3000
,
2002
0000
3003
0000
,
1000
0000
1000
0000
,
0100
0000
0010
0000
,
0100
0000
1000
0000
,
0001
0000
0001
0000
,
1000
0000
1000
0000
,
0001
0000
0100
0000
,
0001
0000
1000
0000
,
1001
0000
0000
0000
,
0001
0000
0001
0000
,
0010
0000
0100
0000
,
1000
0000
0001
0000
,
1000
0000
1000
0000
,
0010
0000
1000
0000
,
0001
0000
1000
0000
,
0100
0000
0010
0000
,
1001
0000
0000
0000
,
0001
0000
0001
0000
,
1000
0000
0001
0000
,
1001
0000
0000
0000
,
0110
0000
0000
0000
,
0001
0000
1000
0000
,
0010
0000
1000
0000
,
1001
0000
0000
0000
,
0110
0000
0000
0000
,
1001
0000
0000
0000
,
1001
0000
0000
0000
,
0110
0000
0000
0000
,
0110
0000
0000
0000
,
1001
0000
0000
0000
,
1001
0000
0000
0000
,
0110
0000
0000
0000
,
0001
0000
1000
0000
,
0001
0000
0000
0000
,
1000
0000
0000
0000
,
0001
0000
0001
0000
,
1000
0000
1000
0000
,
1001
0000
0000
0000
,
0110
0000
0000
0000
,
2002
0000
3003
0000
,
1000
0000
0100
0000
,
0010
0000
0010
0000
,
0001
0000
1000
0000
,
0001
0000
0001
0000
,
0100
0000
0010
0000
,
0100
0000
0100
0000
,
0001
0000
1000
0000
,
1001
0000
0000
0000
,
0000
0000
0000
0000
,
1000
0001
1000
0000
,
1001
0000
0000
0000
,
0001
0000
1000
0000
,
0001
0000
0001
0000
,
1000
0001
1000
0000
,
2002
0000
3003
0000
,
0002
0000
0000
0000
,
0003
0000
0000
0000
,
2000
0000
0000
0000
,
3000
0000
0000
0000
,
0002
0000
0003
0000
,
2000
0000
3000
0000
,
0002
0000
0003
0000
,
2000
0000
3000
0000
,
1001
0000
0000
0000
,
0001
0001
0001
0001
,
0001
0000
0010
0000
,
0100
0000
1000
0000
,
2002
0000
3003
0000
,
1000
0000
1000
0000
,
0010
0000
0100
0000
,
0010
0000
1000
0000
,
0001
0000
0010
0000
,
0001
0000
0001
0000
,
1000
0000
0001
0000
,
1000
0000
0100
0000
,
0010
0000
0001
0000
,
1000
0000
1000
0000
,
0001
0000
0100
0000
,
0010
0000
0100
0000
,
0100
0000
0001
0000
,
1000
0000
1000
0000
,
0100
0000
0100
0000
,
0001
0000
0001
0000
,
0010
0000
0010
0000
,
2000
3000
0002
0003
,
0100
0100
0100
0100
,
0220
0000
0000
0000
,
0330
0000
0000
0000
,
0001
0000
0001
0000
,
1000
0000
1000
0000
,
0100
0000
0100
0000
,
0010
0000
0010
0000
,
0001
0000
1000
0000
,
0001
0000
0100
0000
,
0010
0000
1000
0000
,
1001
0000
0000
0000
,
0001
0000
0100
0000
,
0220
0000
0330
0000
,
1000
0000
0100
0000
,
0220
0000
0330
0000
,
0001
0000
1000
0000
,
0010
0000
1000
0000
,
0001
0000
0000
0000
,
1000
0000
0100
0000
,
2200
0000
0000
0000
,
0000
0000
3300
2002
,
0000
3003
0000
0000
;

//--------------- dance-single - Fred-104 ----------------
#NOTEDATA:;
#STEPSTYPE:dance-single;
#DESCRIPTION:Fred-104;
#DIFFICULTY:Easy;
#METER:10;
#CREDIT:Fred-104;
#NOTES:
0000
0000
0000
0000
,
0000
0000
0000
0000
,
0000
0000
0000
0000
,
0000
0000
0000
0000
,
0000
0000
0000
0000
,
0000
0000
0000
0000
,
0000
0000
0000
0000
,
0002
0000
0000
0000
,
2000
0000
3003
0000
,
1000
0000
0100
0000
,
1000
0001
1000
0000
,
0001
0000
0010
0000
,
0100
0000
0100
0000
,
1000
0000
0001
0000
,
0100
0010
0100
0000
,
0001
0000
1000
0000
,
2002
0000
0000
3003
,
0001
0000
0010
0000
,
0100
1000
0100
0000
,
0010
0000
0001
0000
,
1000
0000
1000
0000
,
0001
0000
0100
0000
,
0010
1000
0010
0000
,
0100
0000
0001
0000
,
2002
0000
0000
3003
,
1000
0000
0100
0000
,
0010
0000
0001
0000
,
1001
0000
0000
1000
0000
0000
1000
0000
,
0001
0000
0000
0001
0000
0000
0001
0000
,
0100
0000
0010
0000
,
0100
0000
0001
0000
,
1001
0000
0000
1000
0000
0000
1000
0000
,
0001
0000
0000
0001
0000
0000
0001
0000
,
1000
0000
0000
1100
0000
0000
0000
0000
,
0001
0000
0000
0101
0000
0000
0000
0000
,
1000
0000
0000
1010
0000
0000
0000
0000
,
0001
1000
0001
0010
,
0001
0000
0000
0011
0000
0000
0000
0000
,
1000
0000
0000
1100
0000
0000
0000
0000
,
0001
0000
0000
1001
0000
0000
0000
0000
,
1000
0100
0010
0001
,
1000
0000
0001
0000
,
0100
0000
0010
0000
,
0100
0100
0010
0010
,
0100
0100
0010
0010
,
0100
0001
1000
0000
,
0001
0010
0100
0000
,
2002
0000
3003
0000
,
1000
0000
0001
0000
,
0010
0010
0010
0000
,
0100
0000
1000
0000
,
0001
0001
0001
0000
,
0100
0000
0010
0000
,
0100
0100
0100
0000
,
0001
0000
1000
0000
,
0001
0000
1000
0000
0000
2002
0000
0000
,
0000
0000
3003
0000
,
0001
1000
0100
0000
,
2002
3003
0000
0000
,
0001
1000
0010
0000
,
0100
0010
0100
0000
,
0001
1000
0100
1000
,
2002
0000
3003
0000
,
0001
0000
0010
0000
,
0200
0000
0000
0000
,
1300
0000
0010
0000
,
0200
0000
0000
0000
,
0301
0000
1000
0000
,
0100
0000
0010
0000
,
0100
0000
0100
0000
,
1000
0001
2000
0000
,
3001
0000
0010
0000
0100
0100
1000
1000
,
0001
0100
0010
1000
0001
0000
1001
0000
,
0001
0000
0010
0000
,
0100
0010
0001
0000
,
2002
0000
3003
0000
,
0001
0010
0001
0010
,
0100
1000
0100
0000
,
1000
0001
1000
0001
,
1000
0010
0100
0000
,
0010
1000
0010
0100
,
0010
1000
0001
0000
,
0010
0100
0010
0100
,
0010
0001
0010
0000
,
0001
1000
0010
1000
,
0001
1000
0100
0000
,
0010
0100
0010
0001
,
1000
0001
1000
0000
,
0001
0000
1000
0000
,
0100
0010
0001
0000
,
1001
0000
0110
0000
,
1001
0000
0001
0000
,
2000
0000
3000
0200
0000
0300
0020
0000
,
0031
0000
1000
0000
0010
0100
0010
0000
,
2002
0000
0000
0000
,
3003
0000
0000
0000
,
0001
1000
0001
0010
,
0001
1000
0010
0000
,
0100
0010
1000
0100
,
0010
0100
1000
0000
,
0010
1000
0001
0010
,
0100
0010
0001
0000
,
0100
0001
1000
0001
,
0010
0100
1000
0000
,
0001
0100
1000
0000
,
0001
0010
2000
3000
,
0001
0010
0100
0000
,
1000
0010
0200
0300
,
0001
1000
0100
0010
,
0001
1000
0010
0100
,
0010
0000
1000
0000
0001
0000
0000
1001
,
0000
1000
0001
0000
,
1000
0000
0100
0000
0010
0000
0000
0001
,
0000
1000
0001
2002
,
0000
3003
0000
0000
;

//--------------- dance-single - Fred-104 ----------------
#NOTEDATA:;
#STEPSTYPE:dance-single;
#DESCRIPTION:Fred-104;
#DIFFICULTY:Medium;
#METER:13;
#CREDIT:Fred-104;
#NOTES:
0000
0000
0000
0000
,
0000
0000
0000
0000
,
0000
0000
0000
0000
,
0000
0000
0000
0000
,
0000
0000
0000
0000
,
0000
0000
0000
0000
,
0000
0000
0000
0000
,
2002
0000
0000
3003
,
0220
0000
0000
0330
1000
0000
0001
0000
1001
0000
0000
0000
0000
0000
0000
0000
,
0001
0010
0100
1000
,
0001
0100
0010
1000
,
0100
1000
0001
0100
,
1000
0100
0001
0000
,
1000
0010
0100
0010
,
1000
0001
0010
1000
,
0010
0001
1000
0001
,
0100
0010
0000
0010
0000
0010
0100
0000
,
0001
1000
0001
1000
,
0100
0010
0001
1000
,
0010
0100
1000
0100
,
0001
1000
0100
0000
,
0010
0001
1000
0010
,
0100
0010
1000
0100
,
0010
0001
1000
0001
,
0010
0100
0000
0100
0000
0100
1000
0000
,
1001
0000
0001
0000
,
1000
0100
0110
0000
,
0011
0000
0001
1000
0000
1000
0001
0000
,
0101
0000
0001
1000
0000
1000
0100
0000
,
0010
0000
0001
0000
1000
0000
0010
0100
,
0010
0100
0010
0000
1000
0000
0001
0000
,
0011
0000
0001
0100
0000
0001
1000
0000
,
1010
0000
1000
0100
0000
1000
0001
0000
,
1001
0000
0000
1100
0000
0000
0000
0000
,
1001
0000
0000
0101
0000
0000
0000
0000
,
1001
0000
0000
1010
0000
0000
0000
0000
,
0001
0010
1000
0010
,
0011
0000
0000
1001
0000
0000
1000
0000
,
1100
0000
0000
0110
0000
0000
0010
0000
,
0011
0000
0000
1001
0000
0000
0001
0000
,
0100
0010
1000
0001
,
0010
0100
0010
0100
,
1000
0010
1000
0010
,
0100
0100
0001
0001
,
1000
1000
0100
0100
,
1000
0000
0100
0000
0010
0001
0000
0001
,
0000
0100
0010
0000
1000
0001
1000
0000
,
2002
0000
3003
0000
,
1001
0000
0001
0010
,
0100
1000
0000
0100
1000
0000
0001
0000
,
0200
0000
0310
1000
,
0001
0010
0000
0001
0010
0000
0100
0000
,
2000
0000
3001
1000
,
0100
0010
0000
0100
0010
0000
0001
0000
,
2000
0000
3001
0100
,
0010
0000
0110
0000
0000
2002
0000
0000
,
0000
3003
0110
0000
,
0001
1000
0010
0000
,
0100
0000
0002
2003
3001
0000
0010
0000
,
0100
1000
0000
0100
1000
0000
0001
0000
,
0100
0010
0110
0000
,
1000
0000
0010
0100
0010
0000
1000
0001
,
2000
0000
3001
1000
1001
0000
0000
0000
,
2000
0000
0000
0000
3200
0000
0000
0320
,
0000
0000
0000
0000
,
2030
0000
0000
0000
3020
0000
0000
0032
,
0000
0000
0000
0000
,
2003
0000
0000
0000
3002
0000
0000
0200
,
0003
0000
0000
0000
,
2300
0000
0000
0000
3200
0000
0000
0001
,
0300
1000
0001
0000
0100
0000
0001
0000
,
1000
0100
0010
0001
1000
0100
0010
0001
,
1000
0000
0010
0000
0100
0001
0000
0001
0000
0002
0000
0000
0000
0000
0013
0000
,
0100
1000
0000
0001
0100
0000
0010
1000
,
0000
0001
0010
0000
0100
0000
1000
0000
,
2002
0000
0000
3003
0001
0000
1000
0000
1001
0000
0000
0000
0000
0000
0000
0000
,
0001
0010
0001
0010
,
0100
1000
0001
0100
,
0010
1000
0100
0001
,
0100
1000
0001
0100
,
0010
1000
0100
1000
,
0010
0100
0001
0010
,
0001
1000
0100
0001
,
0100
1000
1001
0000
,
0001
0010
0100
1000
,
0001
0100
0010
0100
,
0001
0010
0100
0010
,
0001
1000
0010
0100
,
0001
0010
0000
0010
0100
0000
1000
0010
,
0000
0010
0100
0000
0010
0000
1000
0000
,
1001
0000
0110
0000
,
1000
0100
1100
0000
,
0001
0100
1000
0001
0010
1000
0001
0010
,
0100
0001
1000
0010
0001
1000
0010
0100
,
0202
0000
0000
0000
,
0303
0000
0001
1000
2002
0000
3003
0000
,
1000
0100
0001
0100
,
1000
0100
0010
0001
,
1000
0010
0001
0010
,
1000
0001
0010
0000
,
0001
0010
1000
0010
,
0001
1000
0010
0100
,
1000
0100
0001
1000
,
0100
0010
0001
0000
,
1000
0000
0100
0000
1000
0000
0001
0010
,
0000
0010
0100
0010
0200
0000
0000
0000
,
1300
0000
0001
0000
0100
0000
0010
1000
,
0000
1000
0001
1000
0002
0000
0000
0000
,
0013
0000
0100
0000
1000
0000
0001
0100
,
0000
0100
0010
0100
0010
0000
0100
0000
,
0001
0000
0001
0000
1000
0100
1000
0100
,
0000
0010
0001
1001
,
0001
0000
0010
0000
0100
1000
0001
0100
,
0000
0010
1000
0001
0010
0000
0220
0000
,
0000
0330
0000
0000
;

//--------------- dance-single - Fred-104 ----------------
#NOTEDATA:;
#STEPSTYPE:dance-single;
#DESCRIPTION:Fred-104;
#DIFFICULTY:Hard;
#METER:16;
#CREDIT:Fred-104;
#NOTES:
0000
0000
0000
0000
,
0000
0000
0000
0000
,
0000
0000
0000
0000
,
0000
0000
0000
0000
,
0000
0000
0000
0000
,
0000
0000
0000
0000
,
0000
0000
0000
0000
,
2000
0000
0000
0000
,
0002
0000
0000
3003
0101
0000
1010
0000
0001
0000
1000
0000
0001
0000
1000
0000
,
0001
0000
1000
0100
0010
0001
1000
0010
,
0000
1000
0001
0010
0100
1000
0100
0000
,
1000
0001
0100
0001
0000
1000
0001
0010
,
0100
0000
0010
0001
1000
0010
0100
0000
,
0001
0000
1000
0100
0010
0001
0010
0100
,
0000
1000
0001
0100
0001
1000
0001
0000
,
0100
0010
0100
0001
0000
1000
0100
0010
,
0001
0001
0000
1001
0000
1000
0001
0100
,
0001
0000
1000
0010
0100
0010
1000
0001
,
0000
0010
0100
0010
0001
0000
1000
0001
,
0100
0001
1000
0001
0010
0100
1000
0100
,
0010
0100
1000
0010
0100
0001
0010
0000
,
0001
1000
0010
1000
0001
0100
0001
1000
,
0000
0100
0010
0100
1000
0001
0100
0000
,
0001
0100
0001
0100
1000
0100
1000
0100
,
0001
0001
0000
1001
0000
1000
0010
0100
,
0001
0000
1001
0000
,
1000
0100
0110
0000
,
1001
0000
1000
0100
0000
0010
0001
0000
,
1001
0000
0001
0100
0000
0010
1000
0000
,
0001
0000
0100
0000
0001
0000
1000
0100
,
0010
0001
0100
0000
0010
1000
0001
1000
,
1001
0000
1000
0010
0000
0100
0001
0000
,
1001
0000
1000
0000
0001
0010
0100
1000
,
1001
0000
0000
0202
0000
0300
0003
0000
,
1100
0000
0000
0022
0000
0030
0003
0000
,
1010
0000
0000
0101
0000
0000
0002
0000
,
1003
0100
0001
0000
1000
0010
0001
0000
,
1001
0000
0000
1000
0100
0010
0001
0000
,
0011
0000
0000
0001
0100
0010
1000
0000
,
0110
0000
0000
0001
1000
0100
2000
0000
,
3100
0010
0001
0000
1000
0010
0100
0000
,
0001
0100
0001
1000
0010
0100
0001
1000
,
0100
1000
0001
0010
0100
1000
0100
0000
,
1100
1000
0101
0001
,
1010
1000
0011
0001
,
1000
0100
0010
0001
1000
0010
0000
0110
,
0000
0100
0001
1000
0001
0010
0100
1000
,
2002
0000
3003
0000
,
2200
3300
0001
1000
,
0001
0000
0000
0000
0000
0000
0000
0000
0020
0030
0000
0000
0000
0000
0000
0000
0000
0000
0000
0000
0000
0000
0000
0000
0020
0030
0000
0000
0000
0000
0000
0000
1000
0000
0000
0000
0000
0000
0000
0000
0000
0000
0000
0000
0000
0000
0000
0000
0001
0000
0000
0000
0000
0000
0000
0000
0000
0000
0000
0000
0000
0000
0000
0000
,
0220
0330
1000
0001
,
1000
0000
0000
0000
0000
0000
0000
0000
0200
0300
0000
0000
0000
0000
0000
0000
0000
0000
0000
0000
0000
0000
0000
0000
0200
0300
0000
0000
0000
0000
0000
0000
0001
0000
0000
0000
0000
0000
0000
0000
0000
0000
0000
0000
0000
0000
0000
0000
0010
0000
0000
0000
0000
0000
0000
0000
0100
0000
0000
0000
0000
0000
0000
0000
,
0020
0000
0031
1000
,
0001
0000
0000
0000
0000
0000
0000
0000
0200
0300
0000
0000
0000
0000
0000
0000
0000
0000
0000
0000
0000
0000
0000
0000
0200
0300
0000
0000
0000
0000
0000
0000
1000
0000
0000
0000
0000
0000
0000
0000
0000
0000
0000
0000
0000
0000
0000
0000
0010
0000
0000
0000
0000
0000
0000
0000
0000
0000
0000
0000
0000
0000
0000
0000
,
0220
0330
0001
1000
,
1100
0000
0101
0000
0000
2002
0000
0000
,
0000
3003
0011
1000
,
0001
0100
0220
0330
,
1001
0000
0000
0000
0000
0000
0000
0000
0000
0000
0000
0000
0000
0000
0000
0000
2000
3000
0000
0000
0200
0300
0000
0000
2000
3000
0000
0000
0200
0300
0000
0000
1000
0000
0000
0000
0000
0000
0000
0000
0000
0000
0000
0000
0000
0000
0000
0000
0001
0000
0000
0000
0000
0000
0000
0000
0000
0000
0000
0000
0000
0000
0000
0000
,
0100
0010
0100
0001
0100
0000
1001
0000
,
1000
0100
0110
0001
,
1000
0000
0000
0000
0000
0000
0001
0000
0100
0000
0001
0000
0100
0000
0000
0000
0000
0000
0001
0000
0000
1000
0000
0000
,
0002
0000
0000
0000
2003
3000
2000
3000
0200
0000
0000
0000
0320
0000
0000
0000
,
0031
0000
0100
0000
1000
0001
0000
0010
,
0000
0200
0000
0000
0301
0000
1000
0001
,
1000
0000
0100
0000
0010
1000
0000
0001
,
0000
0200
0000
0000
1300
0001
0100
0001
,
1000
0000
0100
0000
0010
0100
0000
1100
,
0000
0000
0001
0000
1000
0000
0010
0100
,
0001
0000
0100
0001
1000
0100
0000
0110
,
0000
0010
0001
0000
1000
0001
0100
0000
,
0001
0000
0010
0000
0100
0000
1000
0000
0001
0000
0010
0000
0100
0000
1000
0000
0000
0000
1001
0000
0000
0000
0000
0000
0001
0000
0100
0000
0001
1000
0001
1000
,
0001
0000
0010
0000
0100
0010
0000
1000
0000
0020
0000
0000
0000
0000
0032
0000
,
1003
0100
0000
0001
0100
0000
1000
0100
,
0000
0010
0001
0000
1000
0010
0100
0000
,
2002
0000
0000
3003
1000
0000
0001
0000
0101
0000
0000
0000
1010
0000
0000
0000
,
1001
0000
0001
0000
1000
0010
0100
0001
,
1000
0100
0010
0100
1000
0001
0100
0001
,
1000
0000
0001
0000
0010
0100
1000
0001
,
0100
0010
1000
0010
0100
0001
0010
0100
,
1000
0000
0001
0000
0100
0001
1000
0100
,
0000
0100
0010
0000
0001
1000
0010
1000
,
0001
1000
0100
0010
0100
1000
0010
0100
,
0000
0100
0001
0000
1000
0100
0001
0100
,
1000
0000
0010
1000
0100
1000
0001
0100
,
0000
0010
1000
0001
0010
1000
0010
0001
,
1000
0000
0001
0100
0001
0010
0001
1000
,
0010
0100
1000
0100
0010
0100
0001
1000
,
0001
0100
0000
1000
0001
0000
0010
1000
,
0000
0001
0010
0000
0100
1000
0001
0100
,
0010
0000
1001
0000
,
1100
0000
0101
0000
1000
0100
0020
0000
,
0031
0000
1000
0000
0001
0000
0100
0010
1000
0001
0010
0000
0100
1000
0100
1000
,
0001
0100
0010
0001
1000
0100
0001
0100
,
0220
0000
0000
0000
,
0330
0000
0001
1000
0002
2003
3002
2003
,
3001
0000
1000
0001
0100
0001
1000
0100
,
0000
0010
0100
1000
0010
0000
0100
0001
,
1000
0001
0010
0100
0001
0100
0010
0001
,
0000
1000
0100
1000
0010
0100
1000
0100
,
0001
0000
1000
0100
0010
0001
1000
0010
,
0000
0100
0001
1000
0100
0000
0001
0100
,
0010
0001
1000
0001
1000
0010
0100
0010
,
1000
0100
0010
0001
0100
0010
1000
0000
,
0001
0010
1000
0010
0001
0010
0100
1000
,
0000
0000
0000
0000
0000
0000
0000
0000
0001
0000
0000
0000
0100
0000
0000
0000
0001
0000
0000
0000
0000
0000
0000
0000
1000
0000
0000
0000
0000
0000
0000
0000
0100
0000
0000
0000
0000
0000
0000
0000
0010
0000
0000
0000
0000
0000
0000
0000
0002
0003
0000
0000
2000
3000
0000
0000
0002
0003
0000
0000
2000
3000
0000
0000
,
0001
0100
0010
1000
0001
0010
0100
0010
,
0000
0000
0001
1000
0001
0000
0100
0000
0020
0000
2030
0000
3002
0000
0000
0003
,
1001
0000
1000
0100
0010
0001
1000
0010
,
0000
0000
1000
0001
1000
0000
0001
0000
0010
0000
0000
0000
0200
0000
0000
0300
,
1100
0000
0001
0000
0101
0000
1000
0100
,
0000
0000
0011
0000
1000
0010
0001
0010
,
2000
0000
3002
0000
1003
0100
0001
0100
,
0000
0010
1000
0010
0001
0000
2002
0000
,
0000
3003
0000
0000
;

//--------------- dance-double - Fred-104 ----------------
#NOTEDATA:;
#STEPSTYPE:dance-double;
#DESCRIPTION:Fred-104;
#DIFFICULTY:Easy;
#METER:10;
#CREDIT:Fred-104;
#NOTES:
00000000
00000000
00000000
00000000
,
00000000
00000000
00000000
00000000
,
00000000
00000000
00000000
00000000
,
00000000
00000000
00000000
00000000
,
00000000
00000000
00000000
00000000
,
00000000
00000000
00000000
00000000
,
00000000
00000000
00000000
00000000
,
00020000
00000000
00000000
00000000
,
00002000
00000000
00033000
00000000
,
00001000
00000000
00010000
00000000
,
00100000
10000000
00100000
00000000
,
10000000
00000000
01000000
00000000
,
00100000
00000000
00001000
00000000
,
00010000
00000000
00000100
00000000
,
00000010
00000001
00000010
00000000
,
00000100
00000000
00010000
00000000
,
00022000
00000000
00000000
00033000
,
00001000
00000000
00010000
00000000
,
01000000
10000000
00100000
00000000
,
01000000
00000000
00010000
00000000
,
10000000
00000000
01000000
00000000
,
00100000
00000000
00001000
00000000
,
00010000
00000010
00010000
00000000
,
00001000
00000000
00010000
00000000
,
00022000
00000000
00000000
00033000
,
00010000
00000000
00001000
00000000
,
00000100
00000000
00000001
00000000
,
00001001
00000000
00000000
00000001
00000000
00000000
00000010
00000000
,
00000100
00000000
00000000
00010000
00000000
00000000
00001000
00000000
,
01000000
00000000
00100000
00000000
,
10000000
00000000
01000000
00000000
,
01100000
00000000
00000000
00001000
00000000
00000000
00010000
00000000
,
00000010
00000000
00000000
00010000
00000000
00000000
00001000
00000000
,
00010000
00000000
00000000
00010100
00000000
00000000
00000000
00000000
,
00001000
00000000
00000000
01001000
00000000
00000000
00000000
00000000
,
00010000
00000000
00000000
00010010
00000000
00000000
00000000
00000000
,
00001000
00010000
00100000
10000000
,
01000000
00000000
00000000
01100000
00000000
00000000
00000000
00000000
,
00001000
00000000
00000000
00011000
00000000
00000000
00000000
00000000
,
00000100
00000000
00000000
00000110
00000000
00000000
00000000
00000000
,
00001000
00000100
00000010
00000001
,
00001000
00000000
00000010
00000000
,
00000100
00000000
00001000
00000000
,
00010000
00010000
00001000
00001000
,
00010000
00010000
00001000
00001000
,
00010000
00001000
01000000
00100000
,
10000000
01000000
00010000
00001000
,
00022000
00000000
00033000
00000000
,
00001000
00000000
00100000
00000000
,
00010000
00010000
00010000
00000000
,
10000000
00000000
01000000
00000000
,
00100000
00100000
00100000
00000000
,
00001000
00000000
00010000
00000000
,
00000100
00000100
00000100
00000000
,
00000010
00000000
00000001
00000000
,
00000100
00000000
00000010
00000000
00000000
00002002
00000000
00000000
,
00000000
00000000
00003003
00000000
,
00000001
00000100
00001000
00010000
,
00022000
00033000
00000000
00000000
,
00001000
00010000
00100000
00000000
,
10000000
01000000
00100000
00000000
,
00001000
00010000
00001000
00010000
,
00022000
00000000
00033000
00000000
,
00010000
00000000
00001000
00000000
,
00000200
00000000
00000000
00000000
,
00001300
00000000
00010000
00000000
,
00002000
00000000
00000000
00000000
,
00013000
00000000
00001000
00000000
,
01000000
00000000
00001000
00000000
,
00010000
00000000
01000000
00000000
,
10000000
00100000
02000000
00000000
,
03010000
00000000
00100000
00000000
00001000
00001000
00010000
00010000
,
00000010
00001000
00000001
00000010
00000100
00000000
00001001
00000000
,
00000001
00000000
00000010
00000000
,
00001000
00010000
00001000
00000000
,
00022000
00000000
00033000
00000000
,
00001000
00100000
00010000
00100000
,
01000000
10000000
01000000
00000000
,
10000000
01000000
10000000
00010000
,
00100000
00001000
00100000
00000000
,
00001000
00010000
00000010
00010000
,
00001000
00010000
00000100
00000000
,
00001000
00000100
00000001
00000100
,
00001000
00000001
00000100
00000000
,
00001000
00010000
00001000
00010000
,
01000000
10000000
00010000
00000000
,
10000000
00100000
00010000
00001000
,
00010000
00001000
00000010
00000000
,
00000001
00000000
00001000
00000000
,
00000010
00010000
00001000
00000000
,
00011000
00000000
01100000
00000000
,
00011000
00000000
00001000
00000000
,
00020000
00000000
00030000
00002000
00000000
00003000
02000000
00000000
,
03010000
00000000
10000000
00000000
01000000
00100000
00001000
00010000
,
00022000
00000000
00000000
00000000
,
00033000
00000000
00000000
00000000
,
00010000
00001000
00010000
00000010
,
00010000
00001000
00010000
00000000
,
00000100
00001000
00000100
00000010
,
00000100
00001000
00000001
00000000
,
00000100
00000010
00000100
00001000
,
00010000
00001000
01000000
00000000
,
00001000
00010000
00001000
00100000
,
01000000
10000000
00010000
00000000
,
10000000
00100000
00010000
00000000
,
00001000
00000010
00000002
00000003
,
00000001
00000100
00001000
00000000
,
00010000
01000000
20000000
30000000
,
00010000
10000000
01000000
00100000
,
00001000
00010000
00000100
00000010
,
00000100
00000000
00001000
00000000
00000001
00000000
00000000
00001001
,
00000000
00000010
00000100
00000000
,
00010000
00000000
00001000
00000000
00010000
00000000
00000000
00000010
,
00000000
00010000
00001000
00022000
,
00000000
00033000
00000000
00000000
;

//--------------- dance-double - Fred-104 ----------------
#NOTEDATA:;
#STEPSTYPE:dance-double;
#DESCRIPTION:Fred-104;
#DIFFICULTY:Medium;
#METER:13;
#CREDIT:Fred-104;
#NOTES:
00000000
00000000
00000000
00000000
,
00000000
00000000
00000000
00000000
,
00000000
00000000
00000000
00000000
,
00000000
00000000
00000000
00000000
,
00000000
00000000
00000000
00000000
,
00000000
00000000
00000000
00000000
,
00000000
00000000
00000000
00000000
,
00002000
00000000
00000000
00000000
,
00020000
00033000
00001000
00010000
00011000
00000000
00000000
00000000
,
00010000
00001000
00000100
00000001
,
00001000
00000100
00000010
00000001
,
00001000
00000010
00010000
00001000
,
00010000
00100000
10000000
00010000
,
00100000
01000000
00100000
00001000
,
00010000
00001000
01000000
00001000
,
00010000
00000100
00001000
00000100
,
00000010
00000001
00000000
00000001
00000000
00000001
00001000
00000000
,
00000001
00000100
00001000
00010000
,
00001000
00010000
01000000
10000000
,
01000000
00010000
00001000
00010000
,
00001000
01000000
00001000
00010000
,
00001000
00100000
00010000
10000000
,
00100000
00010000
00001000
00000010
,
00000001
00000010
00000100
00010000
,
00001000
00010000
00000000
00010000
00000000
00010000
00001000
00000000
,
00011000
00000000
00001000
00000000
,
01000000
00100000
10100000
00000000
,
10000000
00000000
01000000
00100000
00000000
00001000
00010000
00000000
,
00000100
00000000
00001000
00000001
00000000
00000100
00000010
00000000
,
00001000
00000000
00000010
00000000
00000100
00000000
00001000
00010000
,
00001000
00010000
00001000
00000000
00010000
00000000
00100000
00000000
,
01000000
00000000
00001000
00010000
00000000
00001000
00100000
00000000
,
00010000
00000000
10000000
00100000
00000000
01000000
00010000
00000000
,
00110000
00000000
00000000
11000000
00000000
00000000
00000000
00000000
,
10100000
00000000
00000000
01010000
00000000
00000000
00000000
00000000
,
00011000
00000000
00000000
00001100
00000000
00000000
00000000
00000000
,
00000100
00000010
00000001
00001000
,
00001010
00000000
00000000
00010010
00000000
00000000
00010000
00000000
,
00011000
00000000
00000000
00101000
00000000
00000000
00001000
00000000
,
00011000
00000000
00000000
00010100
00000000
00000000
00010000
00000000
,
00001000
00010000
01000000
10000000
,
00010000
00100000
00010000
00100000
,
00001000
00010000
00001000
00010000
,
00000010
00001000
00000100
00000001
,
00000100
00010000
00001000
01000000
,
00001000
00000000
00010000
00000000
00100000
10000000
00000000
10000000
,
00000000
10000000
01000000
00000000
00100000
00000000
00001000
00000000
,
00022000
00000000
00033000
00000000
,
00011000
00000000
00010000
00001000
,
00000010
00000100
00000000
00000010
00000100
00000000
00001000
00000000
,
00000002
00000000
00000103
00000010
,
00001000
00000001
00000000
00001000
00000001
00000000
00000010
00000000
,
00000200
00000000
00010300
00001000
,
01000000
00010000
00000000
01000000
00010000
00000000
00100000
00000000
,
02000000
00000000
13000000
00100000
,
00010000
00000000
00001000
00000000
00000000
00022000
00000000
00000000
,
00000000
00033000
00011000
00000000
,
00010000
00000010
00001010
00000000
,
00000001
00000000
00000020
00000230
00000310
00000000
00000001
00000000
,
00001000
00000100
00000000
00010000
00000100
00000000
00010000
00000000
,
00001000
00010000
00100000
10000000
,
00010000
00000000
00100000
01000000
00100000
00000000
00001000
00000000
,
00021000
00000000
00031000
00010000
00011000
00000000
00000000
00000000
,
00020000
00000000
00000000
00000000
00032000
00000000
00000000
00003200
,
00000000
00000000
00000000
00000300
,
00000002
00000000
00000000
00000000
00000023
00000000
00000000
00000230
,
00000000
00000000
00000000
00000300
,
00020000
00000000
00000000
00000000
00032000
00000000
00003000
00022000
,
00000000
00000000
00000000
00033000
,
00002000
00000000
00000000
00000000
02003000
00000000
03000000
10010000
,
00000000
10000000
00100000
00000000
10000000
00000000
00010000
00000000
,
10000000
01000000
00100000
00001000
00010000
00000100
00000010
00000001
,
00000100
00000000
00001000
00000000
00010000
00001000
00000000
00001000
00000000
02000000
00000000
00000000
00000000
00000000
03010000
00000000
,
10000000
01000000
00000000
01000000
00100000
00000000
00100000
00001000
,
00000000
00001000
00010000
00000000
00000100
00000000
00000010
00000000
,
00000022
00000000
00000000
00000033
00000001
00000000
00000100
00000000
00000110
00000000
00000000
00000000
00000000
00000000
00000000
00000000
,
00000001
00001000
00000010
00000100
,
00001000
00010000
00100000
10000000
,
00010000
00100000
01000000
10000000
,
00100000
00010000
00001000
00000100
,
00000010
00010000
00001000
00000010
,
00000001
00001000
00000010
00000100
,
00001000
00010000
01000000
00100000
,
00001000
00010000
00100000
10000000
,
00010000
00100000
00010000
00001000
,
00000100
00000010
00000001
00001000
,
00000001
00000100
00001000
00010000
,
00100000
10000000
01000000
00000000
,
00100000
00001000
00000000
00010000
00000010
00000000
00001000
00000001
,
00000000
00000010
00000100
00000000
00010000
00000000
00001000
00000000
,
00011000
00000000
01001000
00000000
,
00001000
00010000
00100000
00000000
,
10000000
01000000
00010000
00001000
00000100
00000001
00001000
00000100
,
00000010
00000100
00010000
00001000
00010000
00100000
01000000
00001000
,
00022000
00000000
00000000
00000000
,
00033000
00000000
00001000
00010000
00022000
00000000
00033000
00000000
,
00001000
00010000
01000000
00010000
,
00001000
00010000
01000000
10000000
,
00010000
10000000
00100000
00010000
,
00001000
00010000
00100000
00010000
,
00001000
00000010
00000001
00001000
,
00000010
00000100
00001000
00010000
,
00100000
10000000
00010000
00100000
,
01000000
00100000
00001000
00010000
,
00001000
00000000
00010000
00000000
00000100
00000000
00000100
00001000
,
00000000
00001000
00000001
00000100
00000002
00000000
00002003
00000000
,
00003100
00000000
00000010
00000000
00000001
00000000
00000100
00001000
,
00000000
00001000
00010000
00001000
00020000
00000000
00000000
00000000
,
00031000
00000000
00010000
00000000
01000000
00000000
00100000
00010000
,
00000000
00010000
10000000
00010000
10000000
00000000
01000000
00000000
,
00100000
00000000
00001000
00000000
00010000
00000010
00010000
00000010
,
00000000
00001000
00000001
00000011
,
00001000
00000000
00000001
00000000
00000100
00000010
00000100
00000010
,
00000000
00001000
00000001
00001000
00000100
00000000
00000220
00000000
,
00000000
00000330
00000000
00000000
;

//--------------- dance-double - Fred-104 ----------------
#NOTEDATA:;
#STEPSTYPE:dance-double;
#DESCRIPTION:Fred-104;
#DIFFICULTY:Hard;
#METER:16;
#CREDIT:Fred-104;
#NOTES:
00000000
00000000
00000000
00000000
,
00000000
00000000
00000000
00000000
,
00000000
00000000
00000000
00000000
,
00000000
00000000
00000000
00000000
,
00000000
00000000
00000000
00000000
,
00000000
00000000
00000000
00000000
,
00000000
00000000
00000000
00000000
,
00020000
00000000
00000000
00000000
,
00002000
00000000
00000000
00033000
00011000
00000000
00011000
00000000
00001000
00000000
00010000
00000000
00001000
00000000
00010000
00000000
,
00001000
00000000
00010000
01000000
00100000
01000000
00100000
00010000
,
00000000
10000000
00010000
01000000
00010000
10000000
01000000
00000000
,
00100000
00010000
00100000
00001000
00000000
00010000
00000010
00001000
,
00000010
00000000
00010000
00001000
00000010
00000001
00000010
00000000
,
00000100
00000000
00001000
00000001
00000100
00001000
00010000
00001000
,
00000000
00010000
01000000
00100000
01000000
10000000
00010000
00000000
,
10000000
00100000
00010000
00100000
00000000
10000000
00010000
00100000
,
00001000
00001000
00000000
00011000
00000000
00010000
00000010
00001000
,
00000010
00000000
00001000
00000001
00000010
00001000
00000010
00000001
,
00000000
00001000
00000010
00010000
00001000
00000000
00100000
00010000
,
10000000
01000000
00010000
01000000
10000000
00010000
01000000
00001000
,
00010000
00000100
00001000
00000100
00000010
00000001
00001000
00000000
,
00000001
00000100
00000010
00000100
00001000
00010000
00100000
01000000
,
00000000
00010000
10000000
01000000
00100000
00001000
00010000
00000000
,
00001000
00010000
00001000
00010000
01000000
00010000
01000000
00010000
,
00001000
00001000
00000000
00011000
00000000
00010000
00001000
00000100
,
00000001
00000000
00000110
00000000
,
00010000
00001000
00011000
00000000
,
01001000
00000000
00001000
00100000
00000000
00010000
10000000
00000000
,
11000000
00000000
10000000
01000000
00000000
00100000
00001000
00000000
,
00010000
00000000
00000100
00000000
00010000
00000000
00001000
00000010
,
00000100
00001000
00000001
00000000
00000100
00000010
00000100
00000000
,
00001001
00000000
00000001
00000100
00000000
00001000
00010000
00000000
,
00011000
00000000
00001000
00000000
00100000
00010000
10000000
00010000
,
10010000
00000000
00000000
22000000
00000000
30000000
03000000
00000000
,
01010000
00000000
00000000
00022000
00000000
00030000
00003000
00000000
,
00010100
00000000
00000000
00001001
00000000
00000000
00000002
00000000
,
00001003
00000100
00000001
00000000
00000001
00000100
00001000
00000000
,
00001001
00000000
00000000
00000001
00000010
00000100
00020000
00030000
,
00011000
00000000
00000000
00001000
01000000
00010000
20000000
30000000
,
11000000
00000000
00000000
01000000
00100000
00001000
00020000
00000000
,
00031000
00010000
00000010
00000000
00010000
00001000
01000000
00000000
,
00010000
00010000
10000000
10000000
,
01000000
01000000
00100000
00100000
,
00101000
00001000
00010010
00010000
,
00010100
00010000
01001000
00001000
,
00010000
00001000
00000010
00000100
00000010
00000001
00000000
00001001
,
00000000
00000001
00000100
00001000
00010000
00100000
01000000
00020000
,
20000000
00000000
30030000
00000000
,
02200000
03300000
10000000
01000000
,
00100000
00001000
00000000
00000010
00000100
00000000
00001000
00000000
,
00002002
00003003
00000001
00000100
,
00001000
00010000
00000000
01000000
10000000
00000000
00010000
10000000
,
00020000
00000000
10030000
01000000
,
00100000
00001000
00000000
00010000
00000010
00000000
00001000
00000000
,
00002002
00003003
00000001
00000100
,
00000110
00000000
00001010
00000000
00000000
00020020
00000000
00000000
,
00000000
00030030
00011000
00001000
,
01000000
00100000
20020000
30030000
,
11000000
00000000
00000000
00000000
00000000
00000000
00000000
00000000
00000000
00000000
00000000
00000000
00000000
00000000
00000000
00000000
00020000
00030000
00000000
00000000
02000000
03000000
00000000
00000000
00020000
00030000
00000000
00000000
02000000
03000000
00000000
00000000
00010000
00000000
00000000
00000000
00000000
00000000
00000000
00000000
00000000
00000000
00000000
00000000
00000000
00000000
00000000
00000000
10000000
00000000
00000000
00000000
00000000
00000000
00000000
00000000
00000000
00000000
00000000
00000000
00000000
00000000
00000000
00000000
,
01000000
00100000
00001000
00010000
00000010
00000000
00010010
00000000
,
00010000
00001000
01001000
00001000
,
00010000
00000000
00000000
00000000
00000000
00000000
00001000
00000000
00100000
00000000
00001000
00000000
00100000
00000000
00000000
00000000
00000000
00000000
00010000
00000000
00000000
10000000
00000000
00000000
,
00020000
00000000
00000000
00000000
20030000
30000000
20000000
30000000
01000000
00000000
00000000
00000000
00100000
00000000
00000000
00000000
,
00001000
00000000
00010000
00000000
00001000
00000100
00000000
00000010
,
00000000
00002000
00000000
00000000
00003001
00000000
00000010
00000100
,
00010000
00000000
00001000
00000000
00010000
00100000
00000000
01000000
,
00000000
00020000
00000000
00000000
10030000
01000000
00010000
01000000
,
10000000
00000000
01000000
00000000
00100000
00001000
00000000
00011000
,
00000000
00000000
00010000
00000000
00001000
00000000
00010000
00000010
,
00001000
00000000
00000001
00000010
00000100
00001000
00000000
00001001
,
00000000
00000001
00000100
00000000
00001000
00010000
01000000
00000000
,
10000000
00000000
01000000
00000000
00100000
00000000
00010000
00000000
00100000
00000000
00001000
00000000
00010000
00000000
00000010
00000000
00000000
00000000
00002000
00000000
00000000
00000000
00000000
00000000
00003001
00000000
00000001
00000000
00001000
00000001
00001000
00000001
,
00001000
00000000
00000010
00000000
00000100
00001000
00000000
00010000
00000000
00200000
00000000
00000000
00000000
00000000
20300000
00000000
,
30010000
00100000
00000000
01000000
00100000
00000000
10000000
00100000
,
00000000
00010000
10000000
00000000
00010000
01000000
00001000
00000000
,
00022000
00000000
00000000
00033000
00010000
00000000
00001000
00000000
00011000
00000000
00000000
00000000
00010010
00000000
00000000
00000000
,
00011000
00000000
00001000
00000000
00010000
00001000
00000010
00000100
,
00000000
00001000
00000001
00000100
00000010
00000100
00001000
00010000
,
00001000
00000000
00010000
00000000
00001000
00010000
00100000
01000000
,
00000000
00010000
10000000
01000000
00100000
00001000
00010000
00001000
,
01000000
00000000
00001000
00000000
00010000
00100000
01000000
00010000
,
00000000
10000000
01000000
00000000
00100000
00001000
00010000
00001000
,
00000010
00000001
00000010
00000100
00001000
00000001
00000100
00001000
,
00000000
00010000
00001000
00000000
01000000
00001000
00010000
00001000
,
00100000
00000000
00010000
10000000
01000000
00010000
01000000
10000000
,
00000000
01000000
00100000
00001000
00010000
00001000
00000100
00000001
,
00001000
00000000
00000100
00001000
00000001
00000100
00001000
00010000
,
00001000
00010000
00100000
01000000
00010000
10000000
01000000
10000000
,
00010000
01000000
00000000
10000000
00010000
00000000
00100000
01000000
,
00000000
00010000
10000000
00000000
00010000
00100000
00001000
00010000
,
00000010
00000000
00001010
00000000
,
00000110
00000000
00001001
00000000
00000001
00000010
00000200
00000000
,
00001300
00000000
00000001
00000000
00001000
00000000
00000100
00010000
00001000
00010000
00100000
00000000
01000000
00010000
10000000
00010000
,
00100000
01000000
00010000
00001000
00000010
00000100
00001000
00000001
,
00000202
00000000
00000000
00000000
,
00000303
00000000
00001000
00000001
00002000
00003200
00000320
00000032
,
00001003
00000000
00000001
00000010
00000100
00001000
00000010
00010000
,
00000000
00001000
00100000
00010000
10000000
00000000
00010000
00100000
,
01000000
00100000
00010000
10000000
00100000
01000000
00010000
10000000
,
00000000
01000000
00100000
00001000
00010000
00000010
00010000
00001000
,
00010000
00000000
00001000
00010000
00100000
01000000
00100000
00010000
,
00000000
00001000
01000000
00001000
00010000
00000000
00001000
00010000
,
00000100
00001000
00000100
00000010
00000001
00001000
00000010
00010000
,
00001000
00100000
00001000
00010000
00000100
00001000
00000001
00000000
,
00001000
00000100
00000001
00000100
00001000
00000001
00000100
00001000
,
00000000
00000000
00010000
00001000
00010000
00000000
00100000
00000000
01000000
00000000
00010000
00000000
10000000
01000000
10000000
01000000
,
00100000
00010000
00100000
00001000
00010000
00000010
00010000
00001000
,
00000000
00000000
00010000
00001000
00010000
00000000
00001000
00000000
00000200
00000000
00000302
00000000
00002003
00000000
00000000
00003000
,
00001001
00000000
00000001
00001000
00000010
00010000
00001000
01000000
,
00000000
00000000
00010000
10000000
00010000
00000000
10000000
00000000
01000000
00000000
00000000
00000000
00200000
00000000
00000000
00300000
,
00101000
00000000
00001000
00000000
00011000
00000000
00001000
00010000
,
00000000
00000000
00010010
00000000
00000010
00001000
00000001
00000100
,
00000020
00000000
00002030
00000000
00003001
00000010
00000100
00001000
,
00000000
00010000
00100000
01000000
10000000
00000000
20020000
00000000
,
00000000
30030000
00000000
00000000
;
