#VERSION:0.83;
#TITLE:SEED;
#ARTIST:DJ YOSHITAKA;
#BANNER:SEED.png;
#BACKGROUND:SEED-bg.png;
#CDTITLE:./CDTitles/REFLEC BEAT.png;
#MUSIC:SEED.ogg;
#SAMPLESTART:79.535;
#SAMPLELENGTH:15;
#DISPLAYBPM:152;
#BPMS:0=152.4,4=152;
#BGSTAGE:3;

//--------------- dance-single - Fred-104 ----------------
#NOTEDATA:;
#STEPSTYPE:dance-single;
#DESCRIPTION:Fred-104;
#DIFFICULTY:Beginner;
#METER:3;
#CREDIT:Fred-104;
#NOTES:
0000
0000
0000
0000
,
0000
0000
0000
0000
,
0000
0000
0000
0000
,
0000
0000
0000
0000
,
0000
0000
0000
0000
,
0002
0000
0000
0003
,
2000
0000
0000
3000
,
0002
0000
0000
0003
,
2000
3000
0002
0003
,
0020
0030
0010
0000
,
0200
0300
0100
0000
,
2000
3000
1000
0000
,
0001
0000
0100
0000
,
0020
0030
0020
0030
,
0200
0300
0200
0300
,
2000
3000
2000
3000
,
0100
0000
0001
0000
,
2000
3000
2000
3000
,
0200
0300
0200
0300
,
0002
0003
0002
0003
,
0100
0000
0010
0000
,
0002
0003
0002
0003
,
2000
3000
2000
3000
,
0002
0003
0200
0300
,
0010
0010
1000
0000
,
0002
0000
0000
0000
,
0000
0000
0000
0000
,
2003
0000
0000
0000
,
0000
0000
0000
0000
,
3002
0000
0000
0000
,
2003
0000
0000
0000
,
3002
0000
0000
0000
,
0000
0000
0000
0003
,
2000
0000
0000
0000
,
0000
0000
0000
3000
,
0200
0000
0000
0300
,
0020
0000
0000
0030
,
0002
0000
0000
0003
,
2000
0000
0000
3000
,
0002
0000
0000
0003
,
2000
0000
0000
3000
,
0002
0000
0000
0000
,
0003
0000
0000
0000
,
2000
0000
0000
0000
,
3000
0000
0000
0000
,
0002
0000
0000
0000
,
0003
0000
0000
0000
,
2000
0000
0000
3000
,
0001
0001
0001
0000
,
1001
0000
0000
0000
,
0000
0000
0000
0000
,
1000
0000
0000
0000
,
0010
0000
0000
0000
,
0001
0000
0000
0000
,
0010
0000
0010
0000
,
0100
0000
0000
0000
,
0001
0000
0000
0000
,
1000
0000
0000
0000
,
0001
0000
0001
0000
,
0010
0010
0010
0000
,
0100
0100
0100
0000
,
1000
0000
0001
0000
,
1000
0000
0001
0000
,
0100
0100
0100
0000
,
0010
0010
0010
0000
,
1000
0000
0001
0000
,
1000
0000
0001
0000
,
2000
0000
0000
0000
,
3000
0000
0000
0000
;

//--------------- dance-single - Fred-104 ----------------
#NOTEDATA:;
#STEPSTYPE:dance-single;
#DESCRIPTION:Fred-104;
#DIFFICULTY:Easy;
#METER:7;
#CREDIT:Fred-104;
#NOTES:
0000
0000
0000
0000
,
0000
0000
0000
0000
,
0000
0000
0000
0000
,
0000
0000
0000
0000
,
0000
0000
0000
0000
,
1000
0100
1000
1000
,
0001
0100
0010
0100
,
0001
0001
1000
1000
,
0100
0000
0010
0000
0001
0001
2000
0000
,
3000
0001
0000
0100
0000
0001
0000
0100
,
0000
0010
0000
1000
0000
0010
0000
1000
,
0000
0001
0000
0010
0000
0001
0000
0010
,
0010
0000
0100
0000
1000
1000
0002
0000
,
0003
1000
0000
0010
0000
1000
0000
0010
,
0000
0100
0000
0001
0000
0100
0000
0001
,
0000
1000
0000
0100
0000
0010
0000
0001
,
0001
0000
1000
0000
0001
0001
0200
0000
,
0300
0010
0000
1000
0000
0001
0000
0100
,
0000
0001
0000
1000
0000
0100
0000
0010
,
0000
0100
0000
1000
0000
0001
0000
0100
,
0100
0000
0010
0000
1000
1000
0002
0000
,
1003
1000
0000
0100
0000
0010
0000
0001
,
0001
0001
0000
1000
0000
0010
0000
0100
,
0100
0001
1000
0100
,
0010
0000
0001
0000
1000
0001
1000
0000
,
1002
0000
0000
0000
,
2003
0000
0000
0000
,
3020
0000
0000
0000
,
0200
0000
0000
0330
,
0002
0000
0000
0020
0000
0000
0033
0000
,
0200
0000
0000
2000
0000
0000
3300
0000
,
0002
0000
0000
0000
,
2000
0000
0000
3003
,
2000
0000
0000
0000
,
3020
0000
0230
0000
,
0302
0000
0000
2000
0000
0000
3003
0000
,
2000
0000
0000
3200
0000
0000
0320
0000
,
0032
0000
0000
2000
0000
0000
3003
0000
,
2000
0000
0000
0002
0000
0000
3003
0000
,
0002
0000
0000
0000
,
0103
0010
1000
0001
,
1001
0000
1000
0000
1000
0000
0001
0001
,
0000
0100
0000
0001
0000
0100
0000
0001
,
0001
0000
1000
0000
0001
0000
1000
1000
,
0000
0100
0000
1000
0000
0100
0000
0010
,
0010
0000
0100
0000
0010
0000
0100
0100
,
0000
1000
0000
0100
0000
1000
0000
0001
,
0001
0000
0100
0000
0010
0000
0100
0100
,
0000
0001
0000
0100
0000
0001
0001
0000
,
1001
0000
0000
0000
,
0000
0000
0000
0000
,
0002
0000
0003
0020
0000
0030
0100
0000
,
2000
0000
3000
0002
0000
0003
0100
0000
,
0020
0000
0030
2000
0000
3000
0001
0000
,
0020
0000
0030
0200
0000
0300
1000
0000
,
0002
0000
0003
0200
0000
0300
1000
0000
,
0200
0000
0300
0002
0000
0003
1000
0000
,
0002
0000
0003
0020
0000
0030
1000
0000
,
0020
0000
0030
0002
0000
0003
1000
0000
,
0001
0001
0002
0000
0203
0000
0310
0000
,
1000
1000
1000
0000
0002
0000
0023
0000
,
0230
0000
0300
2000
0000
3000
0001
0000
,
0200
0000
0300
0020
0000
0030
1000
0000
,
0001
0001
0002
0000
0023
0000
0130
0000
,
1000
1000
2000
0000
3020
0000
0130
0000
,
0002
0000
0003
2000
0000
3000
0100
0000
,
0020
0000
0030
0200
0000
0300
1000
0000
,
2002
0000
0000
0000
,
3003
0000
0000
0000
;

//--------------- dance-single - Fred-104 ----------------
#NOTEDATA:;
#STEPSTYPE:dance-single;
#DESCRIPTION:Fred-104;
#DIFFICULTY:Medium;
#METER:10;
#CREDIT:Fred-104;
#NOTES:
0000
0000
0000
0000
,
0000
0000
0000
0000
,
0000
0000
0000
0000
,
0000
0000
0000
0000
,
0000
0000
0000
0000
,
0001
0010
0001
0000
1000
0000
0010
0000
,
0100
0001
1000
0000
0100
0010
0001
0000
,
0100
0010
1000
0001
0010
0100
1000
0001
,
0200
0000
0320
0000
0130
0001
0100
0000
,
0000
0002
0000
0023
0000
0230
0000
2300
,
0000
3002
0000
2003
0000
3020
0000
0230
,
0000
0302
0000
2003
0000
3200
0000
0310
,
0100
1000
0001
0100
0010
1000
0001
0000
,
0000
0020
0000
0230
0000
2300
0000
3002
,
0000
0203
0000
0320
0000
0230
0000
0302
,
0000
2003
0000
3200
0000
0302
0000
0103
,
1000
0010
0100
0001
1000
0100
0010
0000
,
0001
0002
0000
0203
0000
0310
1000
0200
,
0000
0320
0000
0032
0000
1003
0001
0200
,
0000
0320
0000
2030
0000
3001
0010
0100
,
1000
0001
0100
0010
1000
0001
0020
0000
,
0130
0200
0000
2300
0000
3001
0100
0010
,
0100
0200
0000
0302
0000
1003
0100
0010
,
0001
0000
0001
0000
1000
0000
0010
0000
0100
0010
0100
0010
0100
0000
0001
0000
,
1000
0100
0001
0100
1000
0001
1000
0000
,
1002
0000
0000
0000
0000
0000
0013
0020
,
0000
0230
2300
3002
,
0203
0000
0000
0320
0000
0000
0000
1030
,
0001
0020
0000
0230
0000
0000
2300
0000
,
3002
0000
0000
0203
0000
0000
2300
0000
,
3002
0000
0000
0023
0000
0000
2030
0000
,
3002
0000
0000
0000
0000
0000
0013
0020
,
0000
0230
0000
2300
0000
0002
3003
0000
,
2100
0000
0000
0000
0000
0000
3001
0002
,
0000
0203
0320
2030
,
3002
0000
0000
0023
0000
0000
0000
0130
,
1000
0002
0000
0203
0000
0310
1000
0001
,
0020
0000
0000
2030
0000
0000
3020
0000
,
0032
0000
0000
0203
0000
0000
2300
0000
,
3200
0000
0000
0000
0000
0000
0301
2000
,
0000
3200
0000
0310
0100
1000
0001
1000
,
1001
0000
0002
0000
0023
0000
0130
0200
,
0000
2300
0000
3002
0000
0203
0000
0310
,
0110
0000
0002
0000
2003
0000
3100
0200
,
0000
0320
0000
0230
0000
2300
0000
3010
,
0110
0000
0002
0000
2003
0000
3001
0002
,
0000
0203
0000
0320
0000
0230
0000
0301
,
1001
0000
2000
0000
3020
0000
0130
0100
,
0001
0100
0010
1000
0100
0010
0001
1000
,
1001
0000
0000
0000
,
0000
0000
0000
0001
0010
0100
1000
0001
,
1000
0000
0000
0010
0000
0000
0100
0000
0000
0001
0000
0000
1000
0000
0001
0000
,
0010
0000
0000
0100
0000
0000
1000
0000
0000
0001
0000
0000
0100
0000
0010
0000
,
0100
0000
0000
0001
0000
0000
1000
0000
0000
0001
0000
0000
0010
0000
0100
0000
,
1000
0000
0000
0001
0000
0000
0100
0000
0000
1000
0000
0000
0100
0000
0001
0000
,
1000
0000
0000
0100
0000
0000
0010
0000
0000
0001
0000
0000
1000
0000
0001
0000
,
0100
0000
0000
0010
0000
0000
1000
0000
0000
0001
0000
0000
0010
0000
0100
0000
,
1000
0000
0000
0001
0000
0000
0100
0000
0000
0010
0000
0000
1000
0000
0100
0000
,
1000
0000
0000
0001
0000
0000
0100
0000
0000
0010
0000
0000
1000
0000
0001
0000
,
0010
0100
0010
0100
0010
0000
0200
0000
0300
2000
0000
3000
0001
0000
0100
0000
,
0010
0100
0010
0100
0010
0000
2000
0000
3000
0200
0000
0300
0010
0000
0001
0000
,
2000
0000
3000
0020
0000
0030
0002
0000
0003
0020
0000
0030
1000
0000
0001
0000
,
2000
0000
3000
0200
0000
0300
0002
0000
0003
0200
0000
0300
1000
0000
0001
0000
,
0200
0300
0200
0300
0200
0300
0020
0000
0030
2000
0000
3000
0001
0000
0010
0000
,
0200
0300
0200
0300
0200
0300
2000
0000
3000
0002
0000
0003
0100
0000
0010
0000
,
2000
0000
3000
0200
0000
0300
0002
0000
0003
2000
0000
3000
0010
0000
0001
0000
,
2000
0000
3000
0002
0000
0003
0200
0000
0300
0020
0000
0030
1000
0000
0001
0000
,
2002
0000
0000
0000
,
3003
0000
0000
0000
;

//--------------- dance-single - Fred-104 ----------------
#NOTEDATA:;
#STEPSTYPE:dance-single;
#DESCRIPTION:Fred-104;
#DIFFICULTY:Hard;
#METER:13;
#CREDIT:Fred-104;
#NOTES:
0000
0000
0000
0000
,
0000
0000
0000
0000
,
0000
0000
0000
0000
,
0000
0000
0000
0000
,
0000
0000
0000
0000
,
0001
0000
0010
0000
0100
1000
0000
1000
0001
0000
1000
0000
0010
0100
0000
0100
,
0001
0000
1000
0000
0100
0010
0000
0010
0001
0000
1000
0000
0010
0100
0010
0100
,
0010
1000
0100
0010
0001
1000
0010
0100
,
0001
0000
0010
0000
0100
0000
1000
0000
0001
1000
0001
1000
0002
0000
0000
0003
,
1000
0200
0000
0320
0000
0031
1000
0020
,
0000
0230
0000
0302
0000
1003
0100
0002
,
0000
0203
0000
2300
0000
3001
0100
0010
,
1000
0000
0001
0000
0010
0000
0100
0000
1000
0001
1000
0001
2000
0000
3002
0000
,
0103
0020
0000
2030
0000
3001
0010
2000
,
0000
3020
0000
0032
0000
1003
0001
0200
,
0000
0320
0000
0230
0000
1300
0100
0010
,
1000
0000
0001
0000
0010
0000
0100
0000
1000
0100
1000
0100
2000
0000
3002
0000
,
0103
0000
0010
1000
0000
0000
0010
1000
0000
0000
0001
1000
0000
0000
0100
0010
,
0000
0000
0001
1000
0000
0000
0001
0100
0000
0000
0001
0100
0000
0000
0010
1000
,
0000
0000
0001
0010
0000
0000
0001
0010
0000
0000
0100
1000
0000
0000
0001
0000
,
0100
0000
0010
0000
1000
0000
0100
0000
0010
0100
0010
0100
0010
0000
0001
0000
,
1001
0000
1000
0001
0000
0000
1000
0100
0000
0000
0010
0100
0010
0000
0001
1000
,
0000
0000
0010
1000
0000
0000
0001
1000
0000
0000
0100
0010
0100
0000
1000
0000
,
0001
0000
0100
0010
0100
0000
0001
0000
0100
0001
0100
0001
1000
0000
0010
0000
,
0100
0000
0001
0000
1000
0100
1000
0100
0010
0000
0100
0000
0010
0000
0000
0000
,
0012
0000
0000
0000
0000
0000
1003
2000
,
0000
3200
0320
0032
,
2003
0000
0000
3020
0000
0000
0000
0230
,
0302
0203
0000
2300
0000
0000
3200
0000
,
0302
0000
0000
0023
0000
0000
2030
0000
,
3002
0000
0000
0203
0000
0000
2300
0000
,
3002
0000
0000
0000
0000
0000
2003
0020
,
0030
0002
0003
0200
3300
2002
3003
0000
,
2001
0000
0000
0000
0000
0000
3100
0200
,
0000
0302
0203
0320
,
0032
0000
0000
2003
0000
0000
0000
3020
,
2030
3200
0000
0320
0000
0032
2003
3002
,
0203
0000
0000
2000
0000
3000
0302
0000
,
0023
0000
0000
2000
0000
3000
0032
0000
,
2003
0000
0000
0000
0000
0000
3002
0200
,
0300
2000
3000
0020
0030
2003
3002
0023
,
0230
0000
0000
0000
0020
0030
0000
0000
0020
0030
0000
0000
0320
0000
0032
0000
,
0000
0200
0300
2000
3000
0020
0030
2003
,
3020
0000
0000
0000
0200
0300
0000
0000
0200
0300
0000
0000
0230
0000
0320
0000
,
0000
2000
3000
0200
0300
0002
0003
2030
,
3002
0000
0000
0000
2000
3000
0000
0000
2000
3000
0000
0000
2003
0000
3200
0000
,
0000
0020
0030
0002
0003
0020
0030
2300
,
3002
0000
0000
0000
0020
0030
0000
0000
0020
0030
0000
0000
0023
0000
0230
0000
,
2300
0000
3002
0000
0203
0000
0320
0000
2030
0000
3002
0000
0023
0000
0230
0300
,
1001
0000
0000
0000
,
0000
0000
0000
1000
0010
0100
0001
1000
,
0002
0000
0003
0020
0000
0030
0200
0000
0300
2000
0000
3000
0001
0000
0100
0000
,
0020
0000
0030
2000
0000
3000
0200
0000
0300
0020
0000
0030
0001
0000
1000
0000
,
0020
0000
0030
0200
0000
0300
0020
0000
0030
2000
0000
3000
0100
0000
0010
0000
,
0002
0000
0003
2000
0000
3000
0020
0000
0030
0200
0000
0300
0001
0000
1000
0000
,
0002
0000
0003
0020
0000
0030
0200
0000
0300
0020
0000
0030
0001
0000
0100
0000
,
0020
0000
0030
2000
0000
3000
0200
0000
0300
2000
0000
3000
0010
0000
0100
0000
,
0002
0000
0003
0020
0000
0030
0200
0000
0300
2000
0000
3000
0001
0000
0100
0000
,
0020
0000
0030
2000
0000
3000
0200
0000
0300
0020
0000
0030
0001
0000
1000
0000
,
0001
0100
0001
0100
0001
0000
2000
0000
0000
3020
0000
0000
0130
0000
0001
0000
,
1000
0100
1000
0100
1000
0000
0200
0000
0000
0320
0000
0000
0031
0000
1000
0000
,
0002
0000
0000
0203
0000
0000
2300
0000
0000
3200
0000
0000
0301
0000
1000
0000
,
0002
0000
0000
0023
0000
0000
2030
0000
0000
3020
0000
0000
0031
0000
0100
0000
,
0110
0000
1010
0000
0110
0000
0200
0000
0000
0302
0000
0000
1003
0000
0100
0000
,
0110
0000
0011
0000
0110
0000
0200
0000
0000
2300
0000
0000
3001
0000
0100
0000
,
0020
0000
0000
2030
0000
0000
3200
0000
0000
0302
0000
0000
1003
0000
0010
0000
,
0002
0000
0000
0203
0000
0000
2300
0000
0000
3200
0000
0000
0301
1000
0010
1000
,
0020
0000
0000
0000
,
0030
0000
0000
0000
;

//--------------- dance-single - Fred-104† ----------------
#NOTEDATA:;
#STEPSTYPE:dance-single;
#DESCRIPTION:Fred-104†;
#DIFFICULTY:Challenge;
#METER:16;
#CREDIT:Fred-104†;
#NOTES:
0000
0000
0000
0000
,
0000
0000
0000
0000
,
0000
0000
0000
0000
,
0000
0000
0000
0000
,
0000
0000
0000
0000
,
0011
0000
0010
0001
0010
0000
0100
1000
0100
0000
1000
0010
1000
0000
0001
0100
,
0001
0000
0100
0010
0100
0000
0001
0010
0001
0000
1000
0001
1000
0000
1001
0000
,
0001
0100
0010
1000
0001
0100
0010
0000
1000
0100
0010
0001
1000
0100
0010
0000
,
0001
1000
0010
0100
0001
1000
0010
0000
0100
0001
1000
0100
0010
0001
0010
0001
,
0010
0000
0001
1000
0001
0000
0100
0010
0100
0000
0010
1000
0010
0000
1000
0001
,
1000
0000
0001
0010
0001
0000
0010
0100
0010
0000
0001
0010
0001
0000
1000
0001
,
1000
0000
0010
0100
0010
0000
1000
0010
1000
0000
0001
0100
0001
0000
0100
0010
,
0100
0001
0100
0001
1000
0000
0100
1000
0100
0010
0001
1000
0010
0100
0010
0100
,
0001
0000
1000
0100
1000
0000
0100
0010
0100
0000
1000
0001
1000
0000
0001
0100
,
0001
0000
0100
0010
0100
0000
0010
1000
0010
0000
1000
0100
1000
0000
0001
1000
,
0001
0000
0100
0010
0100
0000
0001
1000
0001
0000
0010
0100
0010
0000
0001
1000
,
0001
0100
0001
0100
0010
0000
1000
0001
0010
0100
1000
0001
0100
0010
0100
0010
,
1000
0000
0001
0010
0100
0000
1000
0001
0100
0000
0010
1000
0001
0000
1000
0100
,
0010
0000
0001
1000
0010
0000
0100
0001
1000
0000
0100
0010
0100
0000
1000
0001
,
0010
0000
0100
0010
0001
0000
1000
0010
0100
0000
0010
1000
0001
0000
0010
0100
,
1000
0100
0010
0001
1000
0000
0010
0100
0001
0010
0100
1000
0001
0100
0001
0100
,
0020
0000
1000
0031
0020
0000
0100
1030
0020
0000
0100
0031
0010
0000
0110
0000
,
0200
0000
1000
0301
0200
0000
0001
1300
0200
0000
0010
0301
0100
0000
0110
0000
,
1010
0000
0000
0000
1000
0000
0100
0000
0010
0000
0000
0000
0001
0000
0000
0000
2000
3000
0002
0003
2000
3000
0002
0003
2000
0000
3000
0000
0002
0003
0200
0300
,
0010
0000
1000
0000
0100
0000
0010
0000
0002
0003
2000
3000
0002
0003
2000
3000
0010
0000
0100
0000
0001
0000
0010
0000
0100
0000
0000
0000
0000
0000
0000
0000
,
2100
0000
0000
0000
0000
0000
3002
0200
,
0003
0000
2000
3000
0020
0030
0302
0000
,
0020
0003
0000
0200
0000
0030
0000
2300
,
3020
0000
0002
0000
0003
0000
0200
0000
0000
0300
0000
0000
2030
0000
0000
0000
,
0002
3000
0000
0020
0003
0000
0230
0000
,
2000
0300
0000
0002
3000
0000
0203
0000
,
0020
0000
0000
0000
0300
0000
2030
0200
,
0300
0002
0003
0020
0030
0002
3003
0000
,
0002
1000
0010
0010
0100
0100
2003
3002
,
0100
1000
2003
0100
3200
0010
0320
0001
,
0032
1000
0100
0203
1000
1000
0010
0302
,
2003
3200
0320
2030
3002
0203
0320
0032
,
2003
0010
0001
3002
0100
1000
2003
0001
,
3002
0010
1000
2003
0100
0001
3002
1000
,
2003
0010
0001
0001
0100
0100
0001
3002
,
0203
0000
0000
0000
0000
0000
0000
0000
0320
0000
0000
0000
0000
0000
0000
0000
0032
0000
0000
0000
0000
0000
0000
0000
2003
0000
0000
0000
0000
0000
0000
0000
3200
0000
0000
0000
0000
0000
0000
0000
0320
0000
0000
0000
0000
0000
0000
0000
2030
0000
0000
0000
0000
0000
0000
0000
3002
0000
0000
0000
0000
0000
0000
0003
,
2001
0000
0000
0000
0020
0030
0000
0000
0002
0003
0000
0000
3200
0000
2300
0000
,
3020
0230
2300
3002
2003
3200
0302
2003
,
3200
0000
0000
0000
2000
3000
0000
0000
0020
0030
0000
0000
0302
0000
2003
0000
,
3020
0000
0000
0000
0000
0000
0000
0000
0032
0000
0000
0000
0000
0000
0000
0000
0023
0000
0000
0000
0000
0000
0000
0000
0230
0000
0000
0000
0000
0000
0000
0000
2300
0000
0000
0000
0000
0000
0000
0000
3200
0000
0000
0000
0000
0000
0000
0000
0302
0000
0000
0000
0000
0000
0000
0000
2003
0000
0000
0000
0000
0000
0000
3000
,
1002
0000
0000
0000
0020
0030
0000
0000
2000
3000
0000
0000
0203
0000
0302
0000
,
0023
0000
0000
0000
0000
0000
0000
0000
2030
0000
0000
0000
0000
0000
0000
0000
3002
0000
0000
0000
0000
0000
0000
0000
0203
0000
0000
0000
0000
0000
0000
0000
2300
0000
0000
0000
0000
0000
0000
0000
3200
0000
0000
0000
0000
0000
0000
0000
0320
0000
0000
0000
0000
0000
0000
0000
0032
0000
0000
0000
0000
0000
0000
0003
,
0201
0000
0000
0000
2000
3000
0000
0000
0020
0030
0000
0000
0301
1000
0002
0000
,
0103
0010
2000
0000
3010
0100
0002
0000
0013
0100
1000
0001
0100
0010
1000
0000
,
1001
0000
0000
0000
,
0000
0000
0000
0001
0010
0100
1000
0001
,
2000
0000
3010
0200
0000
0301
2000
0000
3100
0020
0000
0031
2000
0000
3002
0000
,
0203
0000
0310
2000
0000
3001
0020
0000
0130
0020
0000
0031
2000
0000
3002
0000
,
0203
0000
0301
0020
0000
0130
2000
0000
3001
0200
0000
0310
2000
0000
3002
0000
,
0203
0000
0310
2000
0000
3100
2000
0000
3001
2000
0000
3010
0200
0000
0302
0000
,
2003
0000
3001
0200
0000
1300
0200
0000
0301
0200
0000
0310
2000
0000
3002
0000
,
2003
0000
3100
0002
0000
0103
2000
0000
3100
0020
0000
0031
2000
0000
3002
0000
,
0203
0000
0310
2000
0000
3010
0002
0000
0013
0200
0000
0301
2000
0000
3200
0000
,
0320
0000
0031
2000
0000
3001
0200
0000
1300
0200
0000
0310
2000
0000
3200
0000
,
0320
0030
0200
0300
0020
0030
0200
0300
0020
0000
0000
0000
0032
0000
0000
0000
0103
0000
0020
0000
0000
0000
1030
0000
0002
0000
0000
0000
0023
0000
0000
0000
,
0230
0300
2000
3000
0200
0300
2000
3000
0200
0000
0000
0000
0320
0000
0000
0000
1030
0000
0020
0000
0000
0000
0031
0000
2000
0000
0000
0000
3002
0000
0000
0000
,
0203
0000
0310
2000
0000
3010
0002
0000
1003
0200
0000
0310
2000
0000
3002
0000
,
0023
0000
0000
0000
0000
0000
0000
0000
0130
0000
0000
0000
0002
0000
0000
0000
0000
0000
0000
0000
1003
0000
0000
0000
0020
0000
0000
0000
0000
0000
0000
0000
0130
0000
0000
0000
2000
0000
0000
0000
0000
0000
0000
0000
3001
0000
0000
0000
0200
0000
0000
0000
0000
0000
0000
0000
0320
0000
0000
0000
0000
0000
0000
0030
,
2020
0000
0000
0000
3030
0000
0000
0000
0202
0000
0000
0000
0303
0000
0000
0000
2020
0000
0000
0000
3030
0000
0000
0000
0002
0000
0000
0000
0000
0000
0000
0000
1003
0000
0000
0000
0200
0000
0000
0000
0301
0000
0000
0000
0100
0000
0000
0000
2000
0000
0000
0000
0000
0000
0000
0000
3002
0000
0000
0000
0000
0000
0000
0003
,
0022
0033
2200
3300
0022
0033
2000
0000
3001
0200
1300
0100
0002
0000
2003
0000
,
3002
0000
0103
2000
0000
3100
0020
0000
0031
0020
0000
0130
0020
0000
2030
0000
,
3001
0010
0001
0100
0010
1000
0100
1000
0010
0100
0001
0010
0100
0010
0001
0000
,
2002
0000
0000
0000
,
3003
0000
0000
0000
;

//--------------- dance-double - Fred-104 ----------------
#NOTEDATA:;
#STEPSTYPE:dance-double;
#DESCRIPTION:Fred-104;
#DIFFICULTY:Easy;
#METER:7;
#CREDIT:Fred-104;
#NOTES:
00000000
00000000
00000000
00000000
,
00000000
00000000
00000000
00000000
,
00000000
00000000
00000000
00000000
,
00000000
00000000
00000000
00000000
,
00000000
00000000
00000000
00000000
,
00010000
00001000
01000000
00010000
,
00100000
00001000
00010000
00000010
,
00001000
00000100
00000010
00000001
,
00000100
00000000
00001000
00000000
00010000
00001000
00020000
00000000
,
00030000
00001000
00000000
00010000
00000000
00100000
00000000
10000000
,
00000000
00010000
00000000
10000000
00000000
01000000
00000000
00010000
,
00000000
00001000
00000000
00010000
00000000
00001000
00000000
00000100
,
00000001
00000000
00001000
00000000
00000100
00000010
00000200
00000000
,
00000300
00001000
00000000
00000010
00000000
00000100
00000000
00001000
,
00000000
00010000
00000000
00001000
00000000
01000000
00000000
00010000
,
00000000
00100000
00000000
00001000
00000000
00010000
00000000
00001000
,
00001000
00000000
01000000
00000000
00010000
10000000
00020000
00000000
,
00030000
10000000
00000000
01000000
00000000
00010000
00000000
00001000
,
00000000
00010000
00000000
00001000
00000000
00000010
00000000
00000001
,
00000000
00001000
00000000
00000001
00000000
00000100
00000000
00001000
,
00001000
00000000
00010000
00000000
00001000
01000000
00002000
00000000
,
00013000
00010000
00000000
00000100
00000000
00000010
00000000
00000001
,
00000001
00000001
00000000
00000100
00000000
00000010
00000000
00000100
,
00000100
00000000
00001000
00000000
00010000
00010000
00010000
00000000
,
00001000
00000000
00010000
00000000
00000010
00000010
00000010
00000000
,
00002001
00000000
00000000
00000000
,
00003002
00000000
00000023
00000000
,
00000230
00000000
00000000
00020000
00000000
00000000
00030300
00000000
,
00020000
00000000
00000000
00002000
00000000
00000000
00033000
00000000
,
00002000
00000000
00000000
02000000
00000000
00000000
03003000
00000000
,
02000000
00000000
00000000
00200000
00000000
00000000
03300000
00000000
,
00200000
00000000
00000000
00000000
,
20300000
32000000
00200000
03300000
,
00002000
00000000
00000000
00000000
,
00023000
00000000
00030020
00000000
,
00002030
00000000
00000000
00000200
00000000
00000000
00003300
00000000
,
00000020
00000000
00000000
00000002
00000000
00000000
00000033
00000000
,
00000002
00000000
00000000
00000200
00000000
00000000
00000303
00000000
,
00000200
00000000
00000000
00002000
00000000
00000000
00003300
00000000
,
00002000
00000000
00000000
00000000
,
00023000
00032000
00023000
00130000
,
10100000
00000000
10000000
00000000
10000000
00000000
01000000
01000000
,
00000000
00100000
00000000
00100000
00000000
00001000
00000000
00001000
,
00001000
00000000
00010000
00000000
00000010
00000000
00001000
00001000
,
00000000
00000001
00000000
00000001
00000000
00000010
00000000
00000010
,
00000010
00000000
00000100
00000000
00010000
00000000
00001000
00001000
,
00000000
00010000
00000000
00100000
00000000
10000000
00000000
00010000
,
00010000
00000000
00100000
00000000
01000000
00000000
00010000
00010000
,
00000000
00001000
00000000
00010000
00000000
00001000
00001000
00000000
,
00011000
00000000
00000000
00000000
,
00000000
00000000
00000000
00000000
,
00020000
00000000
00030000
00000020
00000000
00000030
00010000
00000000
,
00002000
00000000
00003000
00200000
00000000
00300000
01000000
00000000
,
20000000
00000000
30000000
00020000
00000000
00030000
01000000
00000000
,
00200000
00000000
00300000
00020000
00000000
00030000
00001000
00000000
,
00020000
00000000
00030000
00000200
00000000
00000300
00001000
00000000
,
00000020
00000000
00000030
00000200
00000000
00000300
00000001
00000000
,
00002000
00000000
00003000
00000200
00000000
00000300
00010000
00000000
,
00002000
00000000
00003000
02000000
00000000
03000000
00001000
00000000
,
00010000
00010000
00020000
00000000
00032000
00000000
00023000
00000000
,
00130000
00100000
00200000
00000000
20300000
00000000
31000000
00000000
,
00200000
00000000
00300000
00002000
00000000
00003000
00010000
00000000
,
00000020
00000000
00000030
00002000
00000000
00003000
00000001
00000000
,
00000010
00000010
00000020
00000000
00002030
00000000
00013000
00000000
,
01000000
01000000
02000000
00000000
03200000
00000000
00310000
00000000
,
20000000
00000000
30000000
00200000
00000000
00300000
00020000
00000000
,
00032000
00000000
00003000
00020000
00000000
00030000
00000010
00000000
,
00022000
00000000
00000000
00000000
,
00033000
00000000
00000000
00000000
;

//--------------- dance-double - Fred-104 ----------------
#NOTEDATA:;
#STEPSTYPE:dance-double;
#DESCRIPTION:Fred-104;
#DIFFICULTY:Medium;
#METER:10;
#CREDIT:Fred-104;
#NOTES:
00000000
00000000
00000000
00000000
,
00000000
00000000
00000000
00000000
,
00000000
00000000
00000000
00000000
,
00000000
00000000
00000000
00000000
,
00000000
00000000
00000000
00000000
,
00001000
00000000
00010000
00000000
00100000
10000000
00100000
00000000
,
01000000
00010000
10000000
00000000
01000000
00100000
00001000
00000000
,
00010000
00000010
00001000
00000000
00010000
01000000
00001000
00000000
,
00020000
00000000
00032000
00000000
00003100
00000001
00001000
00000000
,
00000000
00000002
00000000
00000023
00000000
00002030
00000000
00023000
,
00000000
00032000
00000000
00003200
00000000
00002300
00000000
00023000
,
00000000
00032000
00000000
00203000
00000000
00320000
00000000
10030000
,
00100000
01000000
00010000
00000000
10000000
01000000
00010000
00000000
,
00000000
00002000
00000000
00023000
00000000
00230000
00000000
00320000
,
00000000
00032000
00000000
00003020
00000000
00002030
00000000
00023000
,
00000000
00032000
00000000
00003200
00000000
00000302
00000000
00000013
,
00000100
00001000
00000010
00000000
00000100
00001000
00010000
00000000
,
00001000
00020000
00000000
00032000
00000000
01003000
00010000
20000000
,
00000000
32000000
00000000
03020000
00000000
00031000
00010000
00000020
,
00000000
00002030
00000000
00003200
00000000
00000310
00000001
00001000
,
00000001
00000100
00001000
00000000
00010000
01000000
10000000
00000000
,
00010000
00020000
00000000
02030000
00000000
03100000
10000000
01000000
,
00100000
00200000
00000000
00302000
00000000
00013000
00000100
00001000
,
00000001
00000000
00000001
00000000
00000100
00000000
00000000
00000000
00001000
00010000
00001000
00010000
00001000
00000000
00001000
00000000
,
00010000
00100000
10000000
01000000
00010000
01000000
10000000
00000000
,
20010000
00000000
00000000
00000000
00000000
00000000
30010000
00020000
,
00000000
02030000
03002000
00023000
,
00030200
00000000
00000000
00000320
00000000
00000000
00000000
00000031
,
00001000
00000020
00000000
00000230
00000000
00000000
00002300
00000000
,
00023000
00000000
00000000
00032000
00000000
00000000
02003000
00000000
,
03020000
00000000
00000000
00230000
00000000
00000000
00302000
00000000
,
00023000
00000000
00000000
00000000
00000000
00000000
00030100
00000200
,
00000000
00000320
00000000
00000032
00000000
00002000
00003003
00000000
,
00000021
00000000
00000000
00000000
00000000
00000000
00000100
00000230
,
00000000
00002300
00023000
00230000
,
02300000
00000000
00000000
23000000
00000000
00000000
00000000
30010000
,
01000000
00200000
00000000
00320000
00000000
00000000
00032000
00010000
,
00023000
00000000
00000000
00032000
00000000
00000000
00003200
00000000
,
00002300
00000000
00000000
00023000
00000000
00000000
00032000
00000000
,
02003000
00000000
00000000
00000000
00000000
00000000
00010000
03020000
,
00000000
20030000
00000000
31000000
00010000
00001000
00010000
00100000
,
02000000
00000000
00010000
00000000
00010000
00000000
03010000
00020000
,
00000000
20030000
00000000
32000000
00000000
03020000
00000000
00031000
,
00020000
00000000
00000100
00000000
00000100
00000000
00030100
00000200
,
00000000
00002300
00000000
00003002
00000000
00000203
00000000
00000310
,
00020000
00000000
00001000
00000000
00001000
00000000
00031000
00002000
,
00000000
00203000
00000000
02300000
00000000
23000000
00000000
30010000
,
02000000
00000000
00100000
00000000
00100000
00000000
00100000
03100000
,
10000000
01000000
00010000
00000000
00001000
00000100
00000001
00000000
,
00001001
00000000
00000000
00000000
,
00000000
00000000
00000000
00000001
00000010
00001000
00010000
00100000
,
10000000
00000000
00000000
00010000
00000000
00000000
00100000
00000000
00000000
01000000
00000000
00000000
00010000
00000000
00001000
00000000
,
00010000
00000000
00000000
00000010
00000000
00000000
00001000
00000000
00000000
00000100
00000000
00000000
00010000
00000000
00001000
00000000
,
00010000
00000000
00000000
00000100
00000000
00000000
00001000
00000000
00000000
00000010
00000000
00000000
00001000
00000000
00000100
00000000
,
00000010
00000000
00000000
00000001
00000000
00000000
00001000
00000000
00000000
00000010
00000000
00000000
00000100
00000000
00001000
00000000
,
00010000
00000000
00000000
00001000
00000000
00000000
00100000
00000000
00000000
01000000
00000000
00000000
00100000
00000000
00010000
00000000
,
01000000
00000000
00000000
00100000
00000000
00000000
10000000
00000000
00000000
01000000
00000000
00000000
00010000
00000000
00001000
00000000
,
00010000
00000000
00000000
00000100
00000000
00000000
00000001
00000000
00000000
00000100
00000000
00000000
00000010
00000000
00000001
00000000
,
00001000
00000000
00000000
00000010
00000000
00000000
00000100
00000000
00000000
00001000
00000000
00000000
00010000
00000000
00001000
00000000
,
00010000
00001000
00010000
00001000
00010000
00000000
00002000
00000000
00003000
00000020
00000000
00000030
00000001
00000000
00000100
00000000
,
00000010
00001000
00000010
00001000
00000010
00000000
00000200
00000000
00000300
00002000
00000000
00003000
00010000
00000000
00001000
00000000
,
00020000
00000000
00030000
02000000
00000000
03000000
00200000
00000000
00300000
20000000
00000000
30000000
00100000
00000000
00010000
00000000
,
20000000
00000000
30000000
00200000
00000000
00300000
00020000
00000000
00030000
00002000
00000000
00003000
00000100
00000000
00000001
00000000
,
00000020
00000030
00000020
00000030
00000020
00000030
00000002
00000000
00000003
00000200
00000000
00000300
00001000
00000000
00010000
00000000
,
00002000
00003000
00002000
00003000
00002000
00003000
00020000
00000000
00030000
00200000
00000000
00300000
10000000
00000000
01000000
00000000
,
00200000
00000000
00300000
00020000
00000000
00030000
02000000
00000000
03000000
00002000
00000000
00003000
00010000
00000000
00001000
00000000
,
00000200
00000000
00000300
00000002
00000000
00000003
00000200
00000000
00000300
00000020
00000000
00000030
00001000
00000000
00000100
00000000
,
00002002
00000000
00000000
00000000
,
00003003
00000000
00000000
00000000
;

//--------------- dance-double - Fred-104 ----------------
#NOTEDATA:;
#STEPSTYPE:dance-double;
#DESCRIPTION:Fred-104;
#DIFFICULTY:Hard;
#METER:13;
#CREDIT:Fred-104;
#NOTES:
00000000
00000000
00000000
00000000
,
00000000
00000000
00000000
00000000
,
00000000
00000000
00000000
00000000
,
00000000
00000000
00000000
00000000
,
00000000
00000000
00000000
00000000
,
00010000
00000000
00001000
00000000
01000000
00000000
00010000
10000000
00010000
00000000
10000000
00000000
01000000
00000000
00100000
00010000
,
00100000
00000000
00001000
00000000
00010000
00000000
00000010
00001000
00000010
00000000
00000100
00000000
00000001
00001000
00000001
00000000
,
00000100
00001000
00000100
00000010
00001000
00010000
01000000
00100000
,
10000000
00000000
01000000
00000000
00010000
00000000
00001000
00000000
00010000
00001000
00010000
00001000
00020000
00000000
00000000
00030000
,
00001000
00000000
00010000
00000010
00000000
00000000
00000010
00001000
00000000
00000000
00001000
00000001
00000000
00000000
00000001
00000010
,
00000000
00000000
00000010
00000100
00000000
00000000
00000100
00010000
00000000
00000000
00010000
00001000
00000000
00000000
00001000
00010000
,
00000000
00000000
00010000
00100000
00000000
00000000
00100000
10000000
00000000
00000000
10000000
01000000
00000000
00000000
01000000
00100000
,
01000000
00000000
10000000
00000000
00100000
00000000
00010000
00000000
00001000
00010000
00001000
00010000
00002000
00000000
00023000
00000000
,
00031000
00000000
00100000
00010000
00000000
00000000
00010000
01000000
00000000
00000000
01000000
00100000
00000000
00000000
00100000
10000000
,
00000000
00000000
10000000
01000000
00000000
00000000
01000000
00100000
00000000
00000000
00100000
00001000
00000000
00000000
00001000
00010000
,
00000000
00000000
00010000
00000010
00000000
00000000
00000010
00001000
00000000
00000000
00001000
00000100
00000000
00000000
00000100
00000010
,
00000001
00000000
00000100
00000000
00001000
00000000
00010000
00000000
00001000
00010000
00001000
00010000
00002000
00000000
00023000
00000000
,
00031000
00000000
00010000
00000000
00100000
00000000
10000000
00000000
01000000
00000000
00100000
00000000
00010000
00000000
01000000
00100000
,
01000000
00000000
00100000
00000000
00010000
00000000
00001000
00000000
00010000
00000000
00000100
00000000
00000010
00000000
00000100
00001000
,
00000100
00000000
00000010
00000000
00000001
00000000
00001000
00000000
00000010
00000000
00000100
00000000
00001000
00000000
00010000
00001000
,
00010000
00000000
00100000
00000000
01000000
00000000
10000000
00000000
01000000
00010000
01000000
00010000
10000000
00000000
01000000
00000000
,
01100000
00000000
00100000
00001000
00000000
00000000
00001000
00010000
00000000
00000000
00010000
00000010
00001000
00000000
00000100
00000010
,
00000100
00000000
00000010
00000001
00000000
00000000
00000100
00000010
00000000
00000000
00001000
00000001
00000010
00000000
00000100
00000000
,
00001000
00000000
00000100
00010000
00001000
00000000
00010000
00000000
00100000
01000000
00100000
01000000
00100000
00000000
10000000
00000000
,
00010000
00000000
10000000
00000000
01000000
00100000
01000000
00100000
00010000
00000000
00100000
00000000
00001000
00000000
00000000
00000000
,
00021000
00000000
00000000
00000000
00000000
00000000
00030010
00002000
,
00000000
00003200
00000320
00000032
,
00000203
00000000
00000000
00002300
00000000
00000000
00000000
00023000
,
00032000
02003000
00000000
03020000
00000000
00000000
20030000
00000000
,
32000000
00000000
00000000
03200000
00000000
00000000
00302000
00000000
,
00023000
00000000
00000000
00030020
00000000
00000000
00000230
00000000
,
00002300
00000000
00000000
00000000
00000000
00000000
00023000
00002000
,
00003000
00000020
00000030
00002000
00003000
00002000
00033000
00000000
,
00201000
00000000
00000000
00000000
00000000
00000000
00010000
00320000
,
00000000
20030000
30200000
00320000
,
00032000
00000000
00000000
00023000
00000000
00000000
00000000
00030200
,
00000302
00000203
00000000
00000320
00000000
00000230
00002300
00000000
,
00003020
00000000
00000000
00000230
00000000
00000000
00002300
00000000
,
00023000
00000000
00000000
00230000
00000000
00000000
20300000
00000000
,
32000000
00000000
00000000
00000000
00000000
00000000
03100000
00200000
,
00000000
00002000
00003000
00020000
00030000
00302000
00023000
00030200
,
00020300
00000000
00000000
00000000
00002000
00003000
00000000
00000000
00002000
00003000
00000000
00000000
00001000
00000000
00032000
00000000
,
00000000
00200000
00300000
00020000
00030000
00000020
00000030
00023000
,
00032000
00000000
00000000
00000000
02000000
03000000
00000000
00000000
02000000
03000000
00000000
00000000
01000000
00000000
02003000
00000000
,
00000000
00020000
00030000
20000000
30000000
00200000
00300000
03020000
,
20030000
00000000
00000000
00000000
02000000
03000000
00000000
00000000
02000000
03000000
00000000
00000000
31000000
00000000
02000000
00000000
,
00000000
03020000
00001000
00032000
00000100
00003200
00000001
00000302
,
00002003
00000000
00000000
00000000
00000200
00000300
00000000
00000000
00000200
00000300
00000000
00000000
00003200
00000000
00000320
00000000
,
00000032
00000000
00000203
00000000
00000320
00000000
00002030
00000000
00023000
00000000
02030000
00000000
03200000
00000000
20300000
30000000
,
10010000
00000000
00000000
00000000
,
00000000
00000000
00000000
10000000
01000000
00010000
00001000
00000010
,
00000002
00000000
00000003
00002000
00000000
00003000
00000020
00000000
00000030
00000200
00000000
00000300
00001000
00000000
00010000
00000000
,
00002000
00000000
00003000
00200000
00000000
00300000
02000000
00000000
03000000
00020000
00000000
00030000
00001000
00000000
00010000
00000000
,
00000020
00000000
00000030
00002000
00000000
00003000
00000200
00000000
00000300
00020000
00000000
00030000
00001000
00000000
00010000
00000000
,
00200000
00000000
00300000
20000000
00000000
30000000
02000000
00000000
03000000
00200000
00000000
00300000
00010000
00000000
10000000
00000000
,
00200000
00000000
00300000
02000000
00000000
03000000
00020000
00000000
00030000
20000000
00000000
30000000
01000000
00000000
00010000
00000000
,
00002000
00000000
00003000
00020000
00000000
00030000
00000200
00000000
00000300
00000020
00000000
00000030
00000100
00000000
00001000
00000000
,
00000002
00000000
00000003
00000200
00000000
00000300
00002000
00000000
00003000
00000200
00000000
00000300
00000010
00000000
00010000
00000000
,
00002000
00000000
00003000
00200000
00000000
00300000
02000000
00000000
03000000
00020000
00000000
00030000
00001000
00000000
00010000
00000000
,
00001000
00010000
00001000
00010000
00001000
00000000
02000000
00000000
00000000
03020000
00000000
00000000
00130000
00000000
01000000
00000000
,
10000000
00100000
10000000
00100000
10000000
00000000
00020000
00000000
00000000
00230000
00000000
00000000
01300000
00000000
00010000
00000000
,
00002000
00000000
00000000
00023000
00000000
00000000
00230000
00000000
00000000
00320000
00000000
00000000
00031000
00000000
00010000
00000000
,
00002000
00000000
00000000
00023000
00000000
00000000
02030000
00000000
00000000
03020000
00000000
00000000
00031000
00000000
00010000
00000000
,
00010010
00000000
00001010
00000000
00010010
00000000
00020000
00000000
00000000
00032000
00000000
00000000
00013000
00000000
00001000
00000000
,
00011000
00000000
01001000
00000000
00011000
00000000
00002000
00000000
00000000
00023000
00000000
00000000
00130000
00000000
01000000
00000000
,
00020000
00000000
00000000
00230000
00000000
00000000
02300000
00000000
00000000
23000000
00000000
00000000
30100000
00000000
00010000
00000000
,
00002000
00000000
00000000
00003200
00000000
00000000
00000302
00000000
00000000
00000023
00000000
00000000
00001030
00010000
00001000
00010000
,
00002000
00000000
00000000
00000000
,
00003000
00000000
00000000
00000000
;

//--------------- dance-double - Fred-104† ----------------
#NOTEDATA:;
#STEPSTYPE:dance-double;
#DESCRIPTION:Fred-104†;
#DIFFICULTY:Challenge;
#METER:16;
#CREDIT:Fred-104†;
#NOTES:
00000000
00000000
00000000
00000000
,
00000000
00000000
00000000
00000000
,
00000000
00000000
00000000
00000000
,
00000000
00000000
00000000
00000000
,
00000000
00000000
00000000
00000000
,
00011000
00000000
00001000
00010000
00001000
00000000
00100000
00010000
00100000
00000000
00001000
00010000
00001000
00000000
00010000
00000010
,
00010000
00000000
00001000
00010000
00001000
00000000
01000000
00010000
01000000
00000000
00001000
00010000
00001000
00000000
00011000
00000000
,
00010000
00000100
00001000
00000010
00010000
00001000
00010000
00000000
00001000
01000000
00010000
00100000
00001000
00010000
00001000
00000000
,
00010000
00000100
00001000
00000001
00000100
00000000
00000010
00001000
00000001
00000010
00000100
00010000
00001000
00100000
00001000
00100000
,
00010000
00000000
01000000
00100000
01000000
00000000
00010000
10000000
00010000
00000000
10000000
01000000
00100000
00000000
00001000
00000000
,
00010000
00000000
00000100
00001000
00000100
00000000
00000010
00000001
00000010
00000000
00000100
00001000
00000010
00000000
00010000
00000000
,
00001000
00000000
00010000
00100000
01000000
00000000
00010000
00100000
01000000
00000000
10000000
00010000
01000000
00000000
00100000
00000000
,
10000000
00010000
00100000
00010000
10000000
00000000
01000000
00100000
00001000
00010000
00001000
00010000
00000010
00001000
00000010
00000100
,
00000001
00000000
00001000
00000100
00000010
00000000
00000001
00001000
00000010
00000000
00000100
00001000
00000100
00000000
00001000
00000000
,
00010000
00000000
00001000
00100000
00010000
00000000
01000000
00010000
00100000
00000000
01000000
10000000
01000000
00000000
00010000
00000000
,
00001000
00000000
00010000
00000100
00001000
00000000
00000100
00000010
00000001
00000000
00001000
00000010
00001000
00000000
00010000
00000000
,
01000000
00010000
01000000
00010000
00100000
00000000
01000000
00100000
00001000
00010000
00001000
00010000
00000010
00001000
00000100
00000010
,
00000001
00000000
00001000
00000001
00000100
00000000
00000010
00001000
00000100
00000000
00000001
00000100
00001000
00000000
00000100
00010000
,
00001000
00000000
00010000
00100000
10000000
00000000
00010000
00100000
10000000
00000000
00100000
00010000
01000000
00000000
00100000
10000000
,
00010000
00000000
10000000
01000000
00010000
00000000
01000000
10000000
00100000
00000000
10000000
00100000
00010000
00000000
00001000
00010000
,
00000100
00001000
00000100
00010000
00001000
00000000
00010000
00100000
01000000
00100000
01000000
00100000
10000000
00010000
00100000
01000000
,
00020000
00000000
00000000
00000000
00000000
00000000
00000000
00000000
00001000
00000000
00000000
00000000
00100000
00000000
00000000
00030000
00020000
00000000
00000000
00000000
00000000
00000000
00000000
00000000
00100000
00000000
00000000
00000000
00001000
00000000
00000000
00030000
00020000
00000000
00000000
00000000
00000000
00000000
00000000
00000000
00001000
00000000
00000000
00000000
00100000
00000000
00000000
00030000
00010000
00000000
00000000
00000000
00000000
00000000
00000000
00000000
01010000
00000000
00000000
00000000
00000000
00000000
00000000
00000000
,
02000000
00000000
00000000
00000000
00000000
00000000
00000000
00000000
00100000
00000000
00000000
00000000
10000000
00000000
00000000
03000000
02000000
00000000
00000000
00000000
00000000
00000000
00000000
00000000
00100000
00000000
00000000
00000000
00010000
00000000
00000000
03000000
02000000
00000000
00000000
00000000
00000000
00000000
00000000
00000000
00100000
00000000
00000000
00000000
10000000
00000000
00000000
03000000
01000000
00000000
00000000
00000000
00000000
00000000
00000000
00000000
01010000
00000000
00000000
00000000
00000000
00000000
00000000
00000000
,
00011000
00000000
00000000
00000000
00001000
00000000
00010000
00000000
00000100
00000000
00000000
00000000
00000010
00000000
00000000
00000000
00000002
00000003
00002000
00003000
00000002
00000003
00002000
00003000
00000002
00000000
00000003
00000000
00000200
00000300
00000020
00000030
,
00001000
00000000
00000001
00000000
00000010
00000000
00000100
00000000
00020000
00030000
00002000
00003000
00020000
00030000
00002000
00003000
00010000
00000000
00000010
00000000
00001000
00000000
00000100
00000000
00010000
00000000
00000000
00000000
00000000
00000000
00000000
00000000
,
00012000
00000000
00000000
00000000
00000000
00000000
00023000
00002000
,
00030000
00000000
00000020
00000030
00200000
00300000
00023000
00000000
,
00002000
00030000
00000000
00000200
00000000
00003000
00000000
00000302
,
00000023
00000000
00002000
00000000
00003000
00000000
00000200
00000000
00000000
00000300
00000000
00000000
00000032
00000000
00000000
00000000
,
00000200
00000000
00000000
00000000
00000003
00000000
00002000
00000000
00000000
00000300
00000000
00000000
00023000
00000000
00000000
00000000
,
00200000
00030000
00000000
20000000
00300000
00000000
32000000
00000000
,
00200000
00000000
00000000
00000000
03000000
00000000
00302000
00023000
,
00000000
00230000
02300000
03020000
00000000
20000000
30030000
00000000
,
00020000
00100000
10000000
10000000
01000000
01000000
00032000
00003020
,
00000230
00000001
00000302
00000010
00000023
00001000
00002030
00010000
,
00023000
00001000
00000100
00030200
00001000
00001000
00000010
00002300
,
00003002
00000203
00002300
00023000
00230000
20300000
32000000
03020000
,
00032000
00010000
00010000
02003000
00010000
00010000
03002000
00010000
,
00023000
00000010
00000010
00032000
01000000
01000000
00023000
00001000
,
00032000
00100000
00010000
00010000
00000100
00000100
00023000
00032000
,
00023000
00000000
00000000
00000000
00000000
00000000
00000000
00000000
00230000
00000000
00000000
00000000
00000000
00000000
00000000
00000000
20300000
00000000
00000000
00000000
00000000
00000000
00000000
00000000
32000000
00000000
00000000
00000000
00000000
00000000
00000000
00000000
03020000
00000000
00000000
00000000
00000000
00000000
00000000
00000000
00032000
00000000
00000000
00000000
00000000
00000000
00000000
00000000
00003020
00000000
00000000
00000000
00000000
00000000
00000000
00000000
00000032
00000000
00000000
00000000
00000000
00000000
00000000
00000003
,
00000201
00000000
00000000
00000000
00002000
00003000
00000000
00000000
00000020
00000030
00000000
00000000
00000302
00000000
00002003
00000000
,
00000000
00000000
00000000
00000000
00000000
00000000
00000000
00000000
00000020
00000000
00000000
00000000
00000000
00000000
00000000
00000000
00000030
00000000
00000000
00000000
00000000
00000000
00000000
00000000
00020000
00000000
00000000
00000000
00000000
00000000
00000000
00000000
00030000
00000000
00000000
00000000
00000000
00000000
00000000
00000000
00003020
00000000
00000000
00000000
00000000
00000000
00000000
00000000
00020030
00000000
00000000
00000000
00000000
00000000
00000000
00000000
00032000
00000000
00000000
00000000
00000000
00000000
00000000
00003000
,
00021000
00000000
00000000
00000000
00000200
00000300
00000000
00000000
02000000
03000000
00000000
00000000
00032000
00000000
00023000
00000000
,
00001000
00000000
00000000
00000000
00000000
00000000
00000000
00000000
00030020
00000000
00000000
00000000
00000000
00000000
00000000
00000000
00000100
00000000
00000000
00000000
00000000
00000000
00000000
00000000
00020030
00000000
00000000
00000000
00000000
00000000
00000000
00000000
00000010
00000000
00000000
00000000
00000000
00000000
00000000
00000000
00032000
00000000
00000000
00000000
00000000
00000000
00000000
00000000
00010000
00000000
00000000
00000000
00000000
00000000
00000000
00000000
00203000
00000000
00000000
00000000
00000000
00000000
00000000
00300000
,
02100000
00000000
00000000
00000000
00002000
00003000
00000000
00000000
00200000
00300000
00000000
00000000
23000000
00000000
30020000
00000000
,
02030000
00000000
00000000
00000000
00000000
00000000
00000000
00000000
03200000
00000000
00000000
00000000
00000000
00000000
00000000
00000000
00320000
00000000
00000000
00000000
00000000
00000000
00000000
00000000
00032000
00000000
00000000
00000000
00000000
00000000
00000000
00000000
00023000
00000000
00000000
00000000
00000000
00000000
00000000
00000000
02030000
00000000
00000000
00000000
00000000
00000000
00000000
00000000
03200000
00000000
00000000
00000000
00000000
00000000
00000000
00000000
00320000
00000000
00000000
00000000
00000000
00000000
00000000
00030000
,
02010000
00000000
00000000
00000000
20000000
30000000
00000000
00000000
00200000
00300000
00000000
00000000
03002000
00000000
00023000
00000000
,
00031000
00100000
00020000
00000000
01030000
00100000
20000000
00000000
30010000
00100000
01000000
10000000
00010000
00100000
00001000
00000000
,
00011000
00000000
00000000
00000000
,
00000000
00000000
00000000
00001000
00000010
00000001
00000100
00001000
,
00020000
00000000
00031000
00020000
00000000
00031000
00200000
00000000
00310000
02000000
00000000
03100000
20000000
00000000
30020000
00000000
,
20030000
00000000
31000000
00200000
00000000
00310000
00200000
00000000
00301000
00020000
00000000
00030010
00002000
00000000
00003200
00000000
,
00000320
00000000
00000031
00000200
00000000
00000310
00002000
00000000
00003100
00000020
00000000
00001030
00020000
00000000
00032000
00000000
,
00203000
00000000
00310000
02000000
00000000
03100000
02000000
00000000
03100000
20000000
00000000
31000000
00200000
00000000
00302000
00000000
,
00023000
00000000
00030010
00002000
00000000
00003100
00020000
00000000
00031000
02000000
00000000
03010000
00200000
00000000
00302000
00000000
,
00023000
00000000
00030100
00002000
00000000
00003010
00020000
00000000
00031000
02000000
00000000
03010000
00200000
00000000
00302000
00000000
,
00023000
00000000
00031000
00000200
00000000
00000301
00002000
00000000
00003100
00000020
00000000
00000031
00002000
00000000
00003020
00000000
,
00000230
00000000
00001300
00020000
00000000
00130000
02000000
00000000
03100000
20000000
00000000
30010000
00200000
00000000
02300000
00000000
,
03020000
00030000
00002000
00003000
00020000
00030000
00002000
00003000
00020000
00000000
00000000
00000000
00030020
00000000
00000000
00000000
00001030
00000000
00000200
00000000
00000000
00000000
00000310
00000000
00000002
00000000
00000000
00000000
00002003
00000000
00000000
00000000
,
00003020
00000030
00000200
00000300
00000020
00000030
00000200
00000300
00000020
00000000
00000000
00000000
00000230
00000000
00000000
00000000
00001300
00000000
00020000
00000000
00000000
00000000
00031000
00000000
02000000
00000000
00000000
00000000
03200000
00000000
00000000
00000000
,
20300000
00000000
30010000
00200000
00000000
10300000
00200000
00000000
01300000
00200000
00000000
00301000
00020000
00000000
00030020
00000000
,
00002030
00000000
00000000
00000000
00000000
00000000
00000000
00000000
00003100
00000000
00000000
00000000
00000002
00000000
00000000
00000000
00000000
00000000
00000000
00000000
00000103
00000000
00000000
00000000
00000020
00000000
00000000
00000000
00000000
00000000
00000000
00000000
00000130
00000000
00000000
00000000
00002000
00000000
00000000
00000000
00000000
00000000
00000000
00000000
00003100
00000000
00000000
00000000
00020000
00000000
00000000
00000000
00000000
00000000
00000000
00000000
00032000
00000000
00000000
00000000
00000000
00000000
00000000
00003000
,
00022000
00000000
00000000
00000000
00033000
00000000
00000000
00000000
02020000
00000000
00000000
00000000
03030000
00000000
00000000
00000000
00022000
00000000
00000000
00000000
00033000
00000000
00000000
00000000
00020000
00000000
00000000
00000000
00000000
00000000
00000000
00000000
00031000
00000000
00000000
00000000
00000020
00000000
00000000
00000000
00000000
00000000
00000000
00000000
00001030
00000000
00000000
00000000
00020000
00000000
00000000
00000000
00000000
00000000
00000000
00000000
00032000
00000000
00000000
00000000
00000000
00000000
00000000
00003000
,
00022000
00033000
00002200
00003300
00022000
00033000
00020000
00000000
00031000
00020000
00000000
00130000
00020000
00000000
00032000
00000000
,
00023000
00000000
00030100
00002000
00000000
00003010
00000200
00000000
00000301
00000020
00000000
00000130
00000020
00000000
00000032
00000000
,
00001003
00000010
00000100
00000001
00000010
00001000
00020000
00000000
00031000
00010000
01000000
10000000
00100000
01000000
00010000
00000000
,
20020000
00000000
00000000
00000000
,
30030000
00000000
00000000
00000000
;
