#TITLE:SAMURAI TIGER;
#ARTIST:ぽんきち&ゆんゆん;
#ARTISTTRANSLIT:ponkichi&Yunyun;
#BANNER:SAMURAI TIGER.png;
#BACKGROUND:SAMURAI TIGER-bg.png;
#CDTITLE:./CDTitles/SDVX VIVID WAVE.png;
#MUSIC:SAMURAI TIGER.ogg;
#SAMPLESTART:60.721;
#SAMPLELENGTH:15;
#BPMS:0=165,28=82.5,30=165,62=82.5,64=165,128=82.5,136=165,220=82.5,232=165;
#TIMESIGNATURES:0=4=4,28=2=4,30=4=4,62=2=4,64=4=4;
#BGSTAGE:3;

//--------------- dance-single - Fred-104 ----------------
#NOTES:
     dance-single:
     Fred-104:
     Beginner:
     3:
     :
0000
0000
0000
0000
,
0000
0000
0000
0000
,
0000
0000
0000
0000
,
1000
0000
0000
0000
,
0000
0000
0000
0000
,
1000
0000
0000
0000
,
0000
0001
0001
1000
,
2000
0000
0000
3000
0001
0000
0000
0000
,
0000
0000
1000
0000
,
0000
0000
0010
0000
,
0000
0000
1000
0000
,
0000
0000
0001
0000
,
0000
0000
0010
0000
,
0000
0000
0010
0000
,
0000
0000
0000
0000
,
0000
0000
0200
0300
,
0100
0000
0000
0000
,
1000
0000
0000
0000
,
0001
0000
0000
0000
,
1000
0000
0000
0000
,
0001
0000
0000
0000
,
0100
0000
0000
0000
,
0010
0000
0000
0000
,
1000
0000
0000
0000
,
0001
0000
0000
0000
,
1000
0000
0000
0000
,
0100
0000
0100
0000
,
0010
0000
0010
0000
,
0002
0003
0001
0000
,
2000
3000
1000
0000
,
0001
0000
0100
0000
,
1000
0000
0010
0000
,
0001
0000
0000
0000
,
1000
0000
0000
0000
,
0001
0000
0000
0001
,
0000
0000
0001
0000
,
1000
0000
0000
0000
,
1000
0000
0000
0000
,
0001
0001
1001
0000
,
1000
0000
0000
0000
,
0001
0000
0000
0000
,
1000
0000
0000
0000
,
0010
0000
0010
0000
,
0010
0000
0000
0000
,
0100
0000
0000
0000
,
0100
0000
0000
0000
,
0001
0000
0000
0000
,
1000
0000
0000
0000
,
0001
0000
0000
0000
,
0100
0000
0000
0000
,
0010
0000
0000
0000
,
0100
0000
0000
0000
,
0100
0000
0000
0000
,
0010
0000
0010
0000
,
0010
0000
0000
0000
,
1001
0000
0000
0000
,
0001
0000
1000
0000
,
1000
0000
1000
0000
,
0002
0000
0000
0003
,
1000
1000
1001
0000
,
0001
0000
0000
0000
,
1000
0000
1000
0000
,
1000
0000
0000
0000
,
0100
0000
0100
0000
,
0001
0000
0000
0000
,
0010
0000
0010
0000
,
1000
0000
1000
0000
,
0001
0000
1000
0000
,
0002
0000
0000
0003
,
2000
0000
0000
3000
,
2002
0000
0000
0000
,
0000
0000
0000
0000
,
0000
0000
0000
0000
,
0000
0000
0000
0000
,
0000
3003
0000
0000
0000
0000
0000
0000
0000
0000
0000
0000
0000
0000
0000
0000
;

//--------------- dance-single - Fred-104 ----------------
#NOTES:
     dance-single:
     Fred-104:
     Easy:
     8:
     :
0000
0000
0000
0000
,
0000
0000
0000
0000
,
0000
0000
0000
0000
,
0001
0000
0000
0001
0000
0000
0000
0000
1000
0000
0000
1000
0000
0000
0000
0000
,
0001
0000
0000
0000
1000
0000
0000
1000
0000
0000
0010
0000
0010
0000
0000
0000
,
0100
0000
0000
0000
0001
0000
0000
0000
1000
0000
0000
0001
0000
0000
1001
0000
,
0000
1000
0001
0100
,
0010
0010
0100
0110
0001
0000
0010
0000
,
1000
0010
0001
1000
,
0001
0000
1000
0100
,
0020
0030
0001
0100
,
0010
0010
0100
0001
,
0020
0030
0100
1000
,
0020
0000
0030
0000
1000
0000
0000
0100
,
0000
0000
0010
0000
0000
0001
0000
0000
,
1000
0000
0001
0000
2002
0000
0000
3003
,
1000
0100
0010
0000
,
0001
0100
0010
0000
,
1000
0100
0001
0010
,
1000
0001
1001
0000
,
0001
0100
1000
1000
,
0001
0010
1000
1000
,
0001
0010
0100
1000
,
0010
0000
0100
0000
0001
1000
0001
0000
,
1000
1000
0000
0000
0010
0000
0100
0000
,
0010
0010
0000
0000
0100
0000
0001
0000
,
0010
0100
1000
0001
,
0100
0100
0110
0000
,
0001
0001
0001
0000
1000
0000
1000
0000
,
0010
0010
0010
0000
0100
0000
0100
0000
,
0001
1000
0100
0010
,
0001
1000
1001
0000
,
0001
0000
0110
0000
1000
0100
0010
0000
,
0001
0000
0110
0000
1000
0010
0100
0000
,
0001
0000
0000
0010
0000
0000
1000
0000
,
0000
0100
0000
0000
0001
0000
1000
0000
,
0001
0000
0000
0100
0000
0000
0010
0000
,
0100
0100
0001
1000
,
0100
0010
2002
3003
,
0002
0013
2000
3100
,
0001
1000
0001
0000
,
2000
3100
0002
0013
,
1000
0001
1000
0000
,
0100
0010
0001
1000
,
0001
1000
1001
0000
,
0001
0100
1000
0100
,
0001
0000
1000
0000
,
0100
0100
0010
0010
,
0001
0000
1000
0000
0010
1000
0010
0000
,
0100
0100
0001
1000
,
0100
0000
0010
0000
0001
1000
0001
0000
,
1000
0000
0000
0010
0000
0000
1000
0000
,
0001
0000
0010
0010
,
0100
1000
0001
0100
,
0010
0000
0010
0000
1000
0001
1000
0000
,
1001
0000
0110
0000
1000
0100
0010
0000
,
0001
0100
1000
0000
0001
0010
1000
0000
,
0002
0000
2003
0000
3002
0000
0103
0110
,
0010
0000
1000
0000
0001
1000
0001
0000
,
0100
0000
0000
0100
0000
0000
0100
0000
0220
0000
0000
0000
0330
0000
0000
0000
,
0002
0103
2000
3010
,
0001
1000
0001
0000
,
2000
3010
0002
0103
,
1000
0100
0010
0000
,
0001
0001
0001
0000
1000
1000
1000
0000
,
0001
0100
0110
0000
,
1000
0100
0001
0100
,
1000
0001
0100
0010
,
1000
0000
0000
1000
0000
0000
0000
0000
0001
0000
0000
0001
0000
0000
0000
0000
,
0100
0000
0000
0000
0010
0000
0000
0010
0000
0000
0100
0000
0100
0000
0000
0000
,
0001
0000
1000
0000
0001
0000
0000
0000
1000
0000
0000
0001
0000
0000
2002
0000
,
0000
0000
0000
0000
0000
0000
0000
0000
0000
0000
0000
0000
0000
0000
0000
3003
,
0000
0000
0000
0000
0000
2002
0000
0000
0000
0000
0000
0000
0000
0000
0000
0000
,
0000
0000
0000
0000
,
0000
3003
0000
0000
0000
0000
0000
0000
0000
0000
0000
0000
0000
0000
0000
0000
;

//--------------- dance-single - Fred-104 ----------------
#NOTES:
     dance-single:
     Fred-104:
     Medium:
     11:
     :
0000
0000
0000
0000
,
0000
0000
0000
0000
,
0000
0000
0000
0000
,
0001
0000
0000
0011
0000
0000
0000
0000
1000
0000
0000
1010
0000
0000
0000
0000
,
0011
0000
0000
0000
1001
0000
0000
1000
0000
0000
0010
0000
0100
0000
0000
0000
,
0001
0000
1000
0000
0100
0000
0000
0000
0010
0000
0000
0100
0000
0000
2002
0000
,
0000
0000
0000
3003
,
0001
0100
1000
0000
0001
0010
2000
0000
3001
0000
0010
0000
0011
0000
0000
0000
,
1000
0100
1100
0000
0001
1000
0100
0001
,
0100
1000
0001
0000
1000
0100
0010
0001
,
1000
0000
0001
1000
0010
0100
0001
0000
,
0001
0100
0010
0000
1000
0100
0001
0100
,
1000
0000
0001
1000
0001
0100
1000
0100
,
0001
0000
0000
0000
0010
0000
0100
0000
1000
0000
0000
1100
0000
0000
0100
0000
,
0000
0110
0000
0000
0010
0000
0000
0011
0000
0000
0001
0000
0000
1001
0000
0000
,
0110
0000
0110
0000
2002
0000
0000
3003
,
0001
0000
0000
0001
0000
0000
0001
0000
1000
0000
0000
0000
0010
0000
0000
0000
,
0100
0000
0000
0100
0000
0000
0100
0000
0010
0000
0000
0000
0100
0000
0001
0000
,
1000
0000
0100
0000
0000
0000
0100
0000
0001
0000
0000
0100
0000
0000
0100
0000
,
1000
0000
0000
0010
0000
0000
0001
0000
0010
0000
0100
0000
0010
0000
0000
0000
,
1000
0000
0000
0001
0000
0000
0001
0000
0010
0000
0100
0000
1000
0000
0000
0000
,
0001
0000
0000
0001
0000
0000
0001
0000
0100
0000
0000
0010
0000
0000
0010
0000
,
1000
0100
0001
0000
1000
0010
0001
0000
,
0010
0100
1000
0001
0100
0010
0100
0001
,
1000
0000
1000
0000
0100
0000
0000
0000
0010
0000
0000
0010
0000
0000
0010
0000
,
0001
0000
0001
0000
0100
0000
0000
0000
0010
0000
0000
0010
0000
0000
0001
0000
,
1000
0100
0001
0000
1000
0010
0100
0000
,
1000
0001
0100
0010
0100
0001
1000
0100
,
1000
0000
1000
0000
0010
0000
0000
0000
0100
0000
0000
0001
0000
0000
0010
0000
,
0100
0000
0100
0000
0010
0000
0000
0000
0001
0000
0000
1000
0000
0000
0001
0000
,
1000
0010
0001
0000
1000
0100
0010
0000
,
1000
0100
0001
0100
1000
0000
0001
1000
,
0001
0000
0100
0000
0110
0000
0010
0000
1000
0100
0010
0001
1000
0000
0001
0000
,
0100
0000
0010
0000
0110
0000
0100
0000
0001
1000
0100
0010
0001
1000
0001
0000
,
1000
0000
0000
0100
0000
0000
0001
0000
0000
0100
0000
0000
1000
0000
0000
0010
,
0000
0000
0001
0000
0000
0010
0000
0000
1000
0000
0001
0000
1000
0000
0001
0000
,
1000
0100
0010
0001
0000
0001
1000
0000
,
0001
0100
0001
0100
0010
1000
0010
1000
,
0001
0000
0000
0001
0000
0000
0001
0000
2002
0000
0000
0000
3003
0000
0000
0000
,
2000
3100
0002
0013
,
1000
0100
0010
0001
1000
0000
0001
0000
,
1000
0000
0010
0000
0001
0010
0100
0000
,
0010
1000
0001
1000
0100
0000
0010
0000
,
0001
0000
1000
0000
0010
1000
0010
0100
,
0001
0000
0000
0001
0000
0000
0001
0000
1001
0000
0000
0000
0110
0000
0000
0000
,
1000
0000
0100
0000
0010
0001
1000
0000
,
0010
0100
0010
0000
0100
0001
1000
0000
,
0001
0010
0001
0000
0010
0100
0010
0000
,
0100
1000
0001
0000
0100
0001
1000
0000
,
0100
0010
0001
0000
1000
0010
0100
0100
,
0000
0001
1000
0000
0100
0000
1001
0000
,
0001
0100
0000
0010
1000
0000
0001
0010
,
0100
0000
0100
0000
1000
0001
1000
0000
,
0001
0000
0000
0000
0001
0000
0100
0000
0000
0000
0100
0000
0010
0000
0100
0000
0010
0000
0100
0000
0000
0100
0000
0000
,
0001
1000
0100
0000
0010
0100
1000
0000
,
1001
0000
0110
0000
1000
0100
0110
0000
,
0001
0010
1000
0010
0100
0001
0100
1000
,
0002
0000
0203
0000
0320
0000
0000
0030
,
1000
0100
1000
0100
0001
0100
0001
0100
,
1000
0000
0000
1000
0000
0000
1000
0000
2002
0000
0000
0000
3003
0000
0000
0000
,
0001
0000
1000
0100
0010
0000
0001
0100
,
0010
1000
0010
1000
0001
0000
0010
0100
,
1000
0000
0001
1000
0010
1000
0001
0000
,
1000
0100
0010
0001
1000
0000
0001
0000
,
0100
0100
0110
0000
0010
0010
0110
0000
,
0001
0000
0000
1000
0000
0000
0001
0000
1001
0000
0000
0000
0110
0000
0000
0000
,
1000
0000
0100
0000
0001
0100
1000
0000
,
0001
0100
1000
0000
0100
0001
1000
0000
,
0001
0000
0000
0101
0000
0000
0000
0000
1000
0000
0000
1100
0000
0000
0000
0000
,
0001
0000
0010
0000
0100
0000
0000
0100
0000
0000
1000
0000
0001
0000
0000
0000
,
1000
0000
0000
0000
0010
0000
0000
0000
0100
0000
0000
0001
0000
0000
2002
0000
,
0000
0000
0000
0000
0000
0000
0000
0000
0000
0000
0000
0000
0000
0000
0000
3003
,
0000
0000
0000
0000
0000
2002
0000
0000
0000
0000
0000
0000
0000
0000
0000
0000
,
0000
0000
0000
0000
,
0000
3003
0000
0000
0000
0000
0000
0000
0000
0000
0000
0000
0000
0000
0000
0000
;

//--------------- dance-single - Fred-104 ----------------
#NOTES:
     dance-single:
     Fred-104:
     Hard:
     16:
     :
0000
0000
0000
0000
,
0000
0000
0000
0000
,
0000
0000
0000
0000
,
1010
0000
0000
1010
0000
0000
0000
0000
0101
0000
0000
0101
0000
0000
0000
0000
,
1100
0000
0000
0000
0011
0000
0000
1010
0000
0000
0001
0100
0001
0000
1000
0000
,
0100
0000
0010
0001
0010
0001
0010
0001
0010
0000
0001
0100
0000
0100
0010
0000
,
0000
0000
1000
0001
1000
0001
1000
0001
1000
0100
0010
0001
1000
0100
0010
0000
,
0001
0000
1000
0000
0001
0000
1000
0000
0001
1000
0001
1000
0020
0000
0230
0000
0301
0000
0000
0000
0100
0000
0000
0000
0001
0000
0100
0000
0000
0000
0000
0000
,
1000
0000
0100
0000
1000
0100
0000
0000
0001
0000
1000
0000
0100
0000
0010
0001
,
0010
0001
1000
1000
0001
0100
0010
0001
,
0020
0000
0000
0000
0130
0000
0010
1000
0001
0000
0010
0000
0010
0100
0000
0100
,
1000
0100
1000
0100
1000
0000
0001
0010
0001
0000
1000
0000
0001
0000
0100
0000
,
0010
0000
0010
1000
0001
0000
0010
0000
0001
0000
1000
0000
0010
0100
0001
0100
,
0010
0000
0010
0000
1000
0001
1000
0001
1000
0000
0000
1100
0000
0000
0110
0000
,
0000
0011
0000
0000
1010
0000
0000
0110
0000
0000
0101
0000
0000
1001
0000
0000
,
0001
0000
0100
0000
0010
0000
1000
0000
0002
0000
0000
0000
0000
0000
0000
0000
2003
0000
0000
0000
3200
0000
0000
0000
0320
0000
0000
0000
0031
1000
0001
1000
,
0001
0000
0000
0100
0000
0000
0010
0000
0110
0000
0000
0000
1000
0000
0001
0100
,
0001
0000
0000
0010
0000
0000
0100
0000
0110
0000
0000
0000
1000
0000
0001
0000
,
0101
0000
0000
0000
0000
0000
0100
0000
0000
0000
0000
0000
0000
0000
0000
0000
0000
0000
0110
0000
0000
0000
0000
0000
0010
0000
0000
0000
0000
0000
0000
0000
0000
1000
0000
0000
0000
0000
0000
0000
0000
0000
0001
0000
1000
0000
0001
0000
,
1000
0000
0000
1100
0000
0000
1001
0000
0001
0000
0100
0010
0100
0000
0001
0000
,
1000
0000
0100
0010
0000
0100
0010
0000
0001
0000
1000
0010
0100
0000
0010
1000
,
0001
0000
0010
0100
0000
0010
0100
0000
1100
0000
1000
0001
0000
0100
0001
1000
,
0001
0000
0100
0010
0100
0000
1000
0000
0001
0000
0010
0100
0010
0000
1000
0000
,
0001
0000
0010
0100
1000
0000
0001
0000
1000
0010
1000
0010
1000
0010
1000
0010
,
1000
0000
0000
0000
0000
0000
0001
0000
0000
0000
0000
0000
0021
0000
0000
0000
0000
0000
0031
0000
1000
0000
0001
0000
1000
0000
0000
0000
0000
0000
0000
0000
0000
0100
0000
0000
0000
0000
0000
0000
0000
0000
0010
0000
0001
0000
0010
0000
,
0001
0000
0000
0000
0000
0000
1000
0000
0000
0000
0000
0000
1020
0000
0000
0000
0000
0000
1030
0000
0001
0000
1000
0000
0001
0000
0000
0000
0000
0000
0000
0000
0000
1000
0000
0000
0000
0000
0000
0000
0000
0000
0001
0000
0100
0000
0001
0000
,
0100
0000
0001
1000
0100
0000
0010
0000
0001
0000
1000
0010
1000
0000
0001
0000
,
0010
0000
0100
0000
0010
0001
0010
0001
1000
0000
0000
0000
0001
0010
0100
1000
,
0001
0000
0000
0000
0000
0000
0100
0000
0000
0000
0000
0000
0102
0000
0000
0000
0000
0000
1003
0000
0100
0000
1000
0000
0100
0000
0000
0000
0000
0000
0000
0000
0000
0010
0000
0000
0000
0000
0000
0000
0000
0000
0001
0000
1000
0000
0001
0000
,
1000
0000
0000
0000
0000
0000
0100
0000
0000
0000
0000
0000
2100
0000
0000
0000
0000
0000
3001
0000
0100
0000
0001
0000
0100
0000
0000
0000
0000
0000
0000
0000
0000
0010
0000
0000
0000
0000
0000
0000
0000
0000
1000
0000
0001
0000
1000
0000
,
0001
0000
0010
0100
0010
0000
0001
0000
1000
0000
0010
0100
0010
0000
1000
0000
,
0001
0010
0001
0010
0100
0010
0100
0010
0002
0000
0000
0000
1003
0010
0100
0001
,
1000
0000
0000
0000
0010
0000
0100
0000
2100
0000
0000
0000
3100
0000
0010
0000
1000
0000
0100
0010
0001
0000
0010
0000
0012
0000
0000
0000
1003
0000
0001
0000
,
0010
0000
0000
0000
0100
0000
0001
0000
0201
0000
0000
0000
0310
0000
0001
0000
1000
0010
1000
0010
0100
0000
0001
0000
1000
0000
0100
0000
0010
0001
0010
0001
,
1000
0000
0000
1100
0000
0000
0110
0000
0000
0011
0000
0000
0101
0000
0000
0110
,
0000
0000
1010
0000
0000
1001
0000
0000
0001
0010
0001
0010
0001
0010
0001
0010
,
0001
0000
1000
0010
1000
0000
0100
0000
0000
0000
0100
0000
0010
0001
0010
0000
,
0001
0000
1000
0000
0010
0000
0100
0000
0001
1000
0001
1000
0100
0010
0100
0010
,
0100
0000
0000
0100
0000
0000
0100
0000
1001
0000
0000
0000
0001
0000
1000
0000
,
0002
0000
1003
0100
0002
0000
1003
0010
,
0001
0000
0100
0001
0010
0000
0100
0000
2000
0000
0000
0000
3001
0000
1000
0000
,
0200
0000
0301
0100
0010
0100
1000
0001
,
0100
0000
1000
0100
0010
0000
0100
0000
0101
0000
0001
0000
1001
0000
1000
0000
,
0200
0000
0000
0000
0000
0000
0301
0000
0000
1000
0000
0000
0010
0000
0000
0100
0000
0000
0010
0000
0000
0001
1000
0001
,
1000
0000
0000
0001
0000
0000
0010
0000
0011
0000
0000
0000
0100
1000
0100
1000
,
0100
0000
1000
0000
0001
0000
1000
0000
0010
0100
0010
0100
0010
1000
0010
1000
,
0010
0000
0000
0000
1000
0001
1000
0000
0001
0010
0001
0010
0100
1000
0100
1000
,
0001
0000
0010
0000
0100
0000
1000
0000
0001
0100
0001
0100
0010
0000
0100
0001
,
0100
0000
0010
0000
1000
0000
0001
0000
0010
0100
1000
0000
0001
1000
0100
0000
,
0010
0000
0001
1000
0001
0000
0100
0001
0100
0000
0010
0000
1000
0001
1000
0002
,
0000
0000
0013
0000
0001
1000
0001
0000
0100
0000
0010
0000
0110
0000
0000
0000
,
1000
0100
1000
0000
0001
0000
1000
0010
1000
0000
0001
0000
1000
0100
1000
0001
,
0010
0100
1000
0000
0001
0000
1000
0000
0001
0100
0001
0100
0010
1000
0001
0000
,
1000
0000
0000
0000
0100
0000
0000
0000
0010
0000
0000
0000
0100
0000
0000
0000
1000
0000
0000
0000
0001
0000
0000
0000
0100
0000
0000
0000
0010
0000
0000
0000
0100
0000
0000
0000
0001
0000
0000
0000
0000
0000
1000
0000
0000
0001
0000
0000
,
1000
0000
0001
0010
0100
0000
1000
0001
0100
0010
1000
0001
0010
0000
0100
0000
,
1100
0000
0000
0000
0100
0000
0010
0001
0010
0000
0000
0000
0001
0000
0100
0010
0100
0000
0010
1000
0010
0000
1000
0000
0001
0010
0001
0000
1000
0100
1000
0000
,
0001
0000
0000
0000
0000
0000
0100
0000
0000
0010
0000
0000
0100
0000
0000
0010
0000
0000
1000
0000
0000
0010
0000
0000
1000
0000
0000
0000
0000
0000
0001
0000
0000
1000
0000
0000
0100
0000
0000
0000
0000
0000
0010
0000
0000
0000
0000
0000
0001
0000
0000
0000
0000
0000
1000
0000
0010
0000
1000
0000
0010
0000
0000
0000
0000
0000
1000
0000
0000
0000
0000
0000
1010
0000
0000
0000
0000
0000
1000
0000
0000
0001
0000
0000
0010
0000
0000
0000
0000
0000
0100
0000
0000
0000
0000
0000
,
2000
0000
0001
0000
0000
0000
3001
1000
0020
0000
0000
0000
0000
0000
0130
0002
1000
0000
0000
1000
0000
0000
1003
0000
0100
0000
0000
0000
0011
0000
0000
0000
,
0001
0000
1000
0010
0100
0000
0010
1000
0001
0000
0010
0001
0010
0001
0010
0001
,
0010
0000
0000
0010
0000
0000
0010
0000
0011
0000
0000
0000
1000
0000
0001
0000
,
2000
0000
3001
0010
2000
0000
3001
0100
,
0010
0000
0001
0100
0001
0000
1000
0000
0200
0000
0000
0000
0301
0000
0100
0000
,
0020
0000
0130
1000
0001
0100
0010
1000
,
0001
0000
0010
0001
0100
0000
0001
0000
0010
0000
0001
0000
1000
0000
0010
0000
,
1000
0000
0000
0100
0000
0000
1100
0000
0000
0000
0000
0000
0001
0000
0000
0100
0000
0000
0110
0000
0000
0010
1000
0010
,
1000
0000
0000
0001
0000
0000
0010
0000
0011
0000
0000
0000
0001
1000
0001
1000
,
0001
0000
0100
0000
0010
0000
1000
0000
0001
0010
0001
0010
0100
0010
0100
0010
,
0001
0000
1000
0000
0001
0100
0001
0000
1000
0001
0010
0100
1000
0100
0010
0001
,
1000
0000
0000
1100
0000
0000
0000
0000
0101
0000
0000
1100
0000
0000
0000
0000
,
1000
0001
0010
0001
1000
0000
0000
1010
0000
0000
0001
1000
0001
0000
0010
0000
,
0100
0000
1000
0001
0100
0001
1000
0001
0010
0000
1000
0010
0000
0200
2000
0000
,
0000
0000
0000
0000
0000
0000
0000
0000
0000
0000
0000
0000
0000
0000
0000
3300
,
0000
0000
0000
0000
0000
1001
0000
0000
1000
0000
0000
0001
0000
1000
0000
0100
,
0000
0010
0000
0001
0000
0100
0000
0000
0100
0000
0000
0100
0000
0000
0000
0000
,
0000
0100
0000
0000
0000
0000
0000
0000
0000
0000
0000
0000
0000
0000
0000
0000
;

//--------------- dance-double - Fred-104 ----------------
#NOTES:
     dance-double:
     Fred-104:
     Easy:
     7:
     :
00000000
00000000
00000000
00000000
,
00000000
00000000
00000000
00000000
,
00000000
00000000
00000000
00000000
,
00010000
00000000
00000000
00010000
00000000
00000000
00000000
00000000
00001000
00000000
00000000
00001000
00000000
00000000
00000000
00000000
,
00010000
00000000
00000000
00000000
00001000
00000000
00000000
00001000
00000000
00000000
00010000
00000000
00000010
00000000
00000000
00000000
,
00001000
00000000
00000000
00000000
00000001
00000000
00000000
00000000
00000010
00000000
00000000
00000100
00000000
00000000
00000220
00000000
,
00000000
00000000
00000000
00000330
,
00000001
00000100
00001000
00011000
00001000
00000000
00010000
00000000
,
00100000
00010000
00001000
00010000
,
00001000
01000000
00010000
00100000
,
01000000
10000000
00100000
00010000
,
00001000
00000000
00010000
00001000
,
00000100
00000001
00001000
00000100
,
00000010
00000000
00000000
00000000
00000001
00000000
00000000
00000100
,
00000000
00000000
00001000
00000000
00000000
00010000
00000000
00000000
,
01000000
00000000
10000000
00000000
20020000
00000000
00000000
30030000
,
10000000
00100000
00010000
00000000
,
00001000
00010000
00001000
00000000
,
00010000
00001000
00000010
00000001
,
00000100
00000010
00000110
00000000
,
00000001
00000100
00001000
00000000
,
00010000
01000000
10000000
00000000
,
00100000
01000000
00010000
00100000
,
00001000
00000000
00010000
00000000
00001000
00010000
00001000
00000000
,
00010000
00010000
00000000
00000000
00001000
00000000
00010000
00000000
,
00000100
00000100
00000000
00000000
00001000
00000000
00000001
00000000
,
00000010
00000100
00001000
00000100
,
00010000
00001000
01000000
00000000
,
00010000
00010000
00010000
00000000
00100000
00000000
01000000
00000000
,
10000000
10000000
10000000
00000000
00100000
00000000
01000000
00000000
,
00010000
10000000
01000000
00010000
,
00001000
00010000
00011000
00000000
,
00000110
00000000
00001000
00000000
00000001
00000010
00000100
00000000
,
00010000
00000000
00011000
00000000
00001000
01000000
00010000
00000000
,
10000000
00000000
00000000
01000000
00000000
00000000
00100000
00000000
,
00000000
00001000
00000000
00000000
00010000
00000000
00001000
00000000
,
00010000
00000000
00000000
00000100
00000000
00000000
00001000
00000000
,
00000100
00000010
00000001
00001000
,
00000010
00010000
00022000
00033000
,
00020000
00031000
00000020
00001030
,
00010000
00001000
00010000
00000000
,
00002000
00013000
00200000
00310000
,
00001000
00010000
00001000
00000000
,
00010000
00001000
00000100
00000001
,
00000010
00000100
00001100
00000000
,
00000001
00000010
00001000
00010000
,
00001000
00010000
00100000
10000000
,
01000000
00100000
00010000
00100000
,
00001000
00010000
00000100
00000000
,
00001000
00000001
00000010
00000100
,
00010000
00000000
00001000
00000000
00010000
00001000
00010000
00000000
,
00001000
00000000
00000000
01000000
00000000
00000000
00010000
00000000
,
00100000
00000000
01000000
10000000
,
00010000
10000000
01000000
00010000
,
00001000
00000000
00001000
00000000
00010000
00001000
00010000
00000000
,
00011000
00000000
00001000
00000000
00010000
00000100
00001000
00000000
,
00000100
00000000
00000010
00000000
00000001
00000100
00000010
00000000
,
00000200
00000000
00002300
00000000
00023000
00000000
00031000
00011000
,
00010000
00001000
01000000
00010000
,
01000000
00000000
00000000
01000000
00000000
00000000
01000000
00000000
02200000
00000000
00000000
00000000
03300000
00000000
00000000
00000000
,
20000000
31000000
00020000
00130000
,
10000000
01000000
00010000
00000000
,
00001000
00010000
00000010
00010000
,
00001000
00010000
00000100
00000000
,
00000010
00000011
00000100
00001100
,
00000001
00000000
00000000
00001000
00000000
00000000
00000001
00000000
00000100
00000000
00000000
00000000
00001000
00000000
00000000
00000000
,
00010000
00001000
00100000
00001000
,
00010000
01000000
00100000
00010000
,
10000000
00000000
00000000
10000000
00000000
00000000
00000000
00000000
00010000
00000000
00000000
00010000
00000000
00000000
00000000
00000000
,
10000000
00000000
00000000
00000000
01000000
00000000
00000000
01000000
00000000
00000000
00100000
00000000
00001000
00000000
00000000
00000000
,
00010000
00000000
00000000
00000000
00000010
00000000
00000000
00000000
00001000
00000000
00000000
00000001
00000000
00000000
00002002
00000000
,
00000000
00000000
00000000
00000000
00000000
00000000
00000000
00000000
00000000
00000000
00000000
00000000
00000000
00000000
00000000
00003003
,
00000000
00000000
00000000
00000000
00000000
00002002
00000000
00000000
00000000
00000000
00000000
00000000
00000000
00000000
00000000
00000000
,
00000000
00000000
00000000
00000000
,
00000000
00003003
00000000
00000000
00000000
00000000
00000000
00000000
00000000
00000000
00000000
00000000
00000000
00000000
00000000
00000000
;

//--------------- dance-double - Fred-104 ----------------
#NOTES:
     dance-double:
     Fred-104:
     Medium:
     11:
     :
00000000
00000000
00000000
00000000
,
00000000
00000000
00000000
00000000
,
00000000
00000000
00000000
00000000
,
00001000
00000000
00000000
00011000
00000000
00000000
00000000
00000000
00010000
00000000
00000000
00011000
00000000
00000000
00000000
00000000
,
00010000
00000000
00001000
00000000
00000100
00000000
00000000
00000100
00000000
00000000
00000010
00000000
00001000
00000000
00000001
00000000
,
00000010
00000000
00001000
00000000
00010000
00000000
00100000
00000000
10000000
00000000
00000000
00010000
00000000
00000000
20020000
00000000
,
00000000
00000000
00000000
30030000
,
10000000
01000000
00010000
00000000
10000000
00100000
00020000
00000000
10030000
00000000
01000000
00000000
00100000
00000000
00000000
00000000
,
00010000
01000000
00100000
00000000
10000000
01000000
00100000
00000000
,
00001000
00010000
00000010
00000000
00001000
00000100
00000010
00000001
,
00001000
00000000
00000010
00000100
00001000
00010000
00001000
00000000
,
00000010
00000001
00001000
00000000
00000001
00000100
00000010
00000100
,
00001000
00000000
00010000
00000000
00001000
00010000
01000000
00100000
,
00010000
00000000
00000000
00000000
10000000
00000000
00000000
00000000
00100000
00000000
00000000
01100000
00000000
00000000
01000000
00000000
,
00000000
01010000
00000000
00000000
00001000
00000000
00000000
00011000
00000000
00000000
00010000
00000000
00000000
00010010
00000000
00000000
,
00001010
00000000
00000101
00000000
00002002
00000000
00000000
00003003
,
00000001
00000000
00000000
00001000
00000000
00000000
00000010
00000000
00010000
00000000
00000000
00000000
00001000
00000000
00010000
00000000
,
00100000
00000000
00000000
01000000
00000000
00000000
00100000
00000000
10000000
00000000
00000000
00000000
01000000
00000000
00100000
00000000
,
00001000
00000000
00010000
00000000
00000000
00000000
00010000
00000000
00000100
00000000
00000000
00000010
00000000
00000000
00000100
00000000
,
00001000
00000000
00000000
00000001
00000000
00000000
00000100
00000000
00000010
00000000
00001000
00000000
00000100
00000000
00000000
00000000
,
00000010
00000000
00000000
00000001
00000000
00000000
00000001
00000000
00000100
00000000
00001000
00000000
00010000
00000000
00000000
00000000
,
00001000
00000000
00000000
00001000
00000000
00000000
00001000
00000000
00010000
00000000
01000000
00000000
10000000
00000000
00000000
00000000
,
00010000
01000000
10000000
00000000
00010000
00100000
10000000
00000000
,
01000000
00100000
00001000
00010000
00000100
00001000
00000001
00000000
,
00000100
00000000
00000100
00000000
00000010
00000000
00000000
00000000
00001000
00000000
00000000
00001000
00000000
00000000
00001000
00000000
,
00000001
00000000
00000100
00000000
00000100
00000000
00000000
00000000
00001000
00000000
00000000
00001000
00000000
00000000
00001000
00000000
,
00010000
00100000
00000000
01000000
00100000
10000000
00000000
01000000
,
00100000
00001000
00010000
00000000
01000000
00010000
10000000
00000000
,
01000000
00000000
01000000
00000000
00100000
00000000
00000000
00000000
00001000
00000000
00000000
00001000
00000000
00000000
00001000
00000000
,
00010000
00000000
00000010
00000000
00001000
00000000
00000000
00000000
00000100
00000000
00000000
00000100
00000000
00000000
00000100
00000000
,
00000010
00000001
00000100
00000000
00000010
00000100
00001000
00000000
,
00010000
00001000
01000000
00010000
00100000
01000000
10000000
00000000
,
00010000
00000000
01000000
00000000
01100000
00000000
00100000
00000000
10000000
01000000
00010000
00001000
00010000
00000000
00000100
00000000
,
00000010
00000000
00000001
00000000
00001001
00000000
00001000
00000000
00000010
00000100
00001000
00010000
00001000
00100000
00001000
00000000
,
00010000
00000000
00000000
00001000
00000000
00000000
00000100
00000000
00000000
00000001
00000000
00000000
00000010
00000000
00000000
00001000
,
00000000
00000000
00010000
00000000
00000000
01000000
00000000
00000000
10000000
00000000
00100000
00000000
00010000
00000000
00001000
00000000
,
00010000
00001000
00010000
00001000
00000000
00000100
00000001
00000000
,
00000010
00000000
00000100
00000000
00010000
00001000
00010000
00000000
,
00001000
00000000
00000000
01000000
00000000
00000000
00010000
00000000
20020000
00000000
00000000
00000000
30030000
00000000
00000000
00000000
,
20000000
00000000
31000000
00010000
00002000
00000000
00013000
00001000
,
00000100
00000001
00001000
00000100
00000010
00000000
00000001
00000000
,
00001000
00000000
00000010
00000000
00000100
00001000
00010000
00000000
,
00001000
01000000
00010000
10000000
01000000
00000000
00100000
00000000
,
00001000
00000000
00010000
00000000
00001000
00000100
00000010
00000001
,
00000010
00000000
00000000
00001000
00000000
00000000
00000001
00000000
00000010
00000000
00000000
00000000
00000110
00000000
00000000
00000000
,
00011000
00000000
00001000
00000000
01000000
00010000
00100000
00010000
,
01000000
00000000
00100000
10000000
01000000
00100000
00001000
00000000
,
00010000
00001000
00010000
00000000
00000010
00001000
00000010
00000000
,
00000100
00000001
00000010
00000000
00000100
00001000
00000010
00000000
,
00000100
00001000
00010000
00000000
00100000
01000000
00010000
00000000
,
00100000
01000000
10000000
00000000
00100000
00000000
01100000
00000000
,
10000000
01000000
00000000
00010000
01000000
00000000
00010000
00001000
,
00010000
00000000
00001000
00000000
00000010
00000100
00001000
00000000
,
00000100
00000000
00000000
00000000
00000100
00000000
00000010
00000000
00000000
00000000
00000010
00000000
00000001
00000000
00000000
00000000
00000001
00000000
00000100
00000000
00000000
00001000
00000000
00000000
,
00000100
00001000
00010000
00000000
00001000
01000000
00001000
00000000
,
00011000
00000000
00000110
00000000
00001000
00000100
00000010
00000000
,
00000001
00000100
00000010
00000100
00001000
00010000
00100000
10000000
,
02000000
00000000
03200000
00000000
00302000
00000000
00013000
00011000
,
00010000
00001000
00000100
00000000
00000001
00001000
00000100
00000000
,
00000010
00000000
00000000
00001000
00000000
00000000
00010000
00000000
00022000
00000000
00000000
00000000
00033000
00000000
00000000
00000000
,
00002000
00000000
00013000
00100000
02000000
00000000
03010000
00100000
,
01000000
10000000
01000000
00100000
00020000
00000000
10030000
00100000
,
00020000
00000000
00031000
00010000
00000010
00001000
00000100
00000000
,
00000010
00000100
00001000
00000001
00000100
00001000
00010000
00000000
,
00001000
00010000
00011000
00000000
00010000
00001000
01001000
00000000
,
01000000
00000000
00000000
00010000
00000000
00000000
10000000
00000000
01000000
00000000
00000000
00000000
00100000
00000000
00001000
00000000
,
00010000
00000000
00001000
00000000
00000100
00000001
00000010
00000000
,
00000100
00001000
00000001
00000000
00000100
00001000
00010000
00000000
,
00001000
00000000
00000000
00101000
00000000
00000000
00000000
00000000
00010000
00000000
00000000
00010010
00000000
00000000
00000000
00000000
,
00001000
00000000
00010000
00000000
00000100
00000000
00000000
00001000
00000000
00000000
00000100
00000000
00000010
00000000
00000001
00000000
,
00000100
00000000
00000010
00000000
00000100
00000000
00001000
00000000
00010000
00000000
00000000
00100000
00000000
00000000
20200000
00000000
,
00000000
00000000
00000000
00000000
00000000
00000000
00000000
00000000
00000000
00000000
00000000
00000000
00000000
00000000
00000000
30300000
,
00000000
00000000
00000000
00000000
00000000
20020000
00000000
00000000
00000000
00000000
00000000
00000000
00000000
00000000
00000000
00000000
,
00000000
00000000
00000000
00000000
,
00000000
30030000
00000000
00000000
00000000
00000000
00000000
00000000
00000000
00000000
00000000
00000000
00000000
00000000
00000000
00000000
;

//--------------- dance-double - Fred-104 ----------------
#NOTES:
     dance-double:
     Fred-104:
     Hard:
     16:
     :
00000000
00000000
00000000
00000000
,
00000000
00000000
00000000
00000000
,
00000000
00000000
00000000
00000000
,
00101000
00000000
00000000
00101000
00000000
00000000
00000000
00000000
00010010
00000000
00000000
00010010
00000000
00000000
00000000
00000000
,
01001000
00000000
00000000
00000000
00010100
00000000
00000000
00011000
00000000
00000000
00001000
00010000
00001000
00000000
01000000
00000000
,
00010000
00000000
10000000
01000000
10000000
01000000
00100000
00000000
00001000
00000000
00000000
00010000
00000000
00000000
00011000
00000000
,
00000000
00000000
00010000
00000100
00010000
00000100
00001000
00000000
00000100
00000010
00000001
00001000
00000010
00000000
00000100
00000000
,
00000001
00000000
00000010
00000000
00000100
00000000
00001000
00000000
00000010
00000100
00000010
00000100
00000020
00000000
00002030
00000000
00003001
00000000
00000000
00000000
00000100
00000000
00000000
00000000
00001000
00000000
00010000
00000000
00000000
00000000
00000000
00000000
,
00001000
00000000
00010000
00000000
01000000
10000000
00000000
00000000
00010000
00000000
10000000
00000000
01000000
00000000
00100000
00010000
,
00100000
00001000
00010000
00000010
00001000
00100000
01000000
00010000
,
02000000
00000000
00000000
00000000
13000000
00000000
01000000
00100000
01000000
00000000
00010000
00000000
00100000
01000000
00000000
01000000
,
00100000
00010000
00100000
00001000
00010000
00000000
00001000
00010000
00001000
00000000
00000100
00000000
00000010
00000000
00000100
00000000
,
00000001
00000000
00001000
00000001
00001000
00000000
00000100
00000000
00000010
00000000
00000001
00001000
00000010
00000000
00010000
00001000
,
00010000
00000000
00000100
00000000
00010000
00001000
00010000
00001000
00010000
00000000
00000000
00010010
00000000
00000000
00001000
00000000
,
00000000
00101000
00000000
00000000
00010000
00000000
00000000
00010100
00000000
00000000
00001000
00000000
00000000
01001000
00000000
00000000
,
00010000
00000000
00001000
00000000
00010000
00000000
00001000
00000000
00020000
00000000
00000000
00000000
00000000
00000000
00000000
00000000
00032000
00000000
00000000
00000000
00003200
00000000
00000000
00000000
00000302
00000000
00000000
00000000
00000013
00001000
00000010
00001000
,
00010000
00000000
00000000
00001000
00000000
00000000
00010000
00000000
00011000
00000000
00000000
00000000
00010000
00000000
00000100
00001000
,
00000100
00000000
00000000
00000010
00000000
00000000
00000001
00000000
00000101
00000000
00000000
00000000
00001000
00000000
00000001
00000000
,
00000010
00000000
00000110
00000000
00000000
00000000
00011000
00000000
00010000
00000000
00000000
00001000
00000000
00000000
01000000
00010000
,
00100000
00000000
00000000
01000000
00000000
00000000
10010000
00000000
10000000
00000000
00010000
01000000
00100000
00000000
10000000
00000000
,
01000000
00000000
00100000
00010000
00000000
00010000
00100000
00000000
00001000
00000000
00010000
00000010
00001000
00000000
00000100
00000010
,
00000001
00000000
00001000
00000010
00000000
00001000
00000010
00000000
00000110
00000000
00000001
00000010
00000000
00000100
00001000
00000100
,
00010000
00000000
00001000
00000010
00001000
00000000
00010000
00000000
00001000
00000000
00010000
01000000
00010000
00000000
00001000
00000000
,
00010000
00000000
00100000
00000000
10000000
00000000
00100000
00000000
01000000
00010000
01000000
00010000
01000000
00010000
01000000
00010000
,
10000000
00000000
00010000
00000000
00100000
00000000
00001000
00010000
00001000
00000000
00000000
00000100
00000000
00000000
00000001
00000010
,
00000100
00000000
00001000
00000000
00000001
00000000
00000100
00000010
00000100
00000000
00000000
00001000
00000000
00000000
00010000
00001000
,
00010000
00000000
00001000
00000100
00001000
00000000
00010000
00000000
00001000
00000000
00010000
00100000
00010000
00000000
00001000
00000000
,
00010000
00000000
00001000
00000000
00000100
00000001
00001000
00000100
00001000
00000000
00000000
00000000
00000001
00001000
00000010
00010000
,
00001000
00000000
00010000
00000000
00001000
00000000
00010000
00100000
01000000
00000000
00000000
00010000
00000000
00000000
10000000
01000000
,
00100000
00000000
01000000
00000000
00010000
00000000
00001000
00010000
00001000
00000000
00000000
00000010
00000000
00000000
00000001
00001000
,
00000001
00000000
00000100
00000010
00000100
00000000
00001000
00000000
00010000
00000000
00100000
01000000
00100000
00000000
10000000
00000000
,
01000000
00100000
00010000
00000000
00100000
00001000
00010000
00000000
00002000
00000000
00000000
00000000
00013000
00001000
00010000
00000000
,
00011000
00000000
00010000
00001000
00000020
00000000
00001030
00010000
00001000
00000100
00000001
00000010
00000200
00000000
00001300
00000001
,
00001000
00000000
00000000
00000000
00000100
00000000
00000001
00000000
00000200
00000000
00000000
00000000
00001300
00000000
00000001
00000000
00000100
00000010
00000100
00000010
00000100
00000000
00001000
00000000
00010000
00000000
00100000
00000000
01000000
00010000
01000000
00010000
,
10000000
00000000
00000000
11000000
00000000
00000000
01010000
00000000
00000000
00011000
00000000
00000000
00001010
00000000
00000000
00000011
,
00000000
00000000
00000101
00000000
00000000
00001100
00000000
00000000
00010000
00001000
00010000
00001000
00010000
00001000
00010000
00001000
,
00010000
00000000
00001000
01000000
00001000
00000000
00010000
00000000
00000000
00000000
00010000
00000000
01000000
00100000
01000000
00000000
,
10000000
00000000
01000000
00000000
00010000
00000000
00001000
00000000
00010000
00001000
00010000
00001000
00000010
00000100
00000010
00000100
,
00000010
00000000
00000000
00000001
00000000
00000000
00000010
00000000
00000011
00000000
00000000
00000000
00001000
00000000
00000001
00000000
,
00002000
00000000
00003001
00000100
00002000
00000000
00103000
00010000
,
10000000
00000000
00100000
10000000
01000000
00000000
10000000
00000000
00020000
00000000
00000000
00000000
01030000
00000000
00100000
00000000
,
00020000
00000000
00030100
00001000
00000001
00001000
00000010
00000100
,
00001000
00000000
00010000
00001000
00010000
00000000
00001000
00000000
00010000
00000000
00001000
00000000
00011000
00000000
00010000
00000000
,
00002000
00000000
00000000
00000000
00013000
00000000
01000000
00000000
00100000
00000000
00010000
00000000
10000000
00000000
00100000
00010000
,
00001000
00000000
00000000
00010000
00000000
00000000
00000010
00000000
00001010
00000000
00000000
00000000
00000001
00001000
00000001
00001000
,
00000100
00000000
00000010
00000000
00000001
00000000
00000100
00000000
00000010
00001000
00000010
00000000
00010000
00001000
00010000
00000000
,
00011000
00000000
00000000
00000000
00001000
00100000
00001000
00000000
00100000
00010000
00100000
00010000
00100000
01000000
00100000
01000000
,
10000000
00000000
00010000
00000000
01000000
00000000
00100000
00000000
00010000
00001000
00010000
00000010
00001000
00000000
00000001
00001000
,
00000001
00000000
00000100
00000000
00000010
00000000
00000100
00000000
00001000
00010000
00001000
00000000
00100000
00010000
00100000
00000000
,
01000000
00000000
10000000
00010000
01000000
00000000
00010000
10000000
01000000
00000000
00100000
00000000
00001000
00010000
00001000
00020000
,
00000000
00000000
00030010
00000000
00001000
00000010
00010000
00000000
00002000
00000000
00010000
00000000
00013000
00000000
00000000
00000000
,
00010000
00001000
00010000
00000000
00000010
00000000
00010000
00001000
00010000
00000000
00000100
00000000
00010000
00001000
00010000
00000000
,
00001000
00100000
00001000
00000000
00010000
00000000
01000000
00000000
10000000
00100000
01000000
00000000
00010000
00100000
01000000
00000000
,
10000000
00000000
00000000
00000000
00100000
00000000
00000000
00000000
01000000
00000000
00000000
00000000
00100000
00000000
00000000
00000000
00010000
00000000
00000000
00000000
00001000
00000000
00000000
00000000
00000100
00000000
00000000
00000000
00000010
00000000
00000000
00000000
00000100
00000000
00000000
00000000
00000001
00000000
00000000
00000000
00000000
00000000
00001000
00000000
00000000
00000001
00000000
00000000
,
00000010
00000000
00000100
00001000
00000100
00000000
00010000
00001000
00010000
00000010
00001000
00000010
00010000
00000000
00001000
00000000
,
00011000
00000000
00000000
00000000
00010000
00000000
00100000
01000000
00100000
00000000
00000000
00000000
10000000
00000000
01000000
00100000
01000000
00000000
00100000
00010000
00100000
00000000
00001000
00000000
00010000
00001000
00010000
00000000
00001000
00000100
00001000
00000000
,
00000100
00000000
00000001
00001000
00000001
00001000
00000100
00001000
00000100
00000000
00010000
00001000
00010000
00000000
00100000
00000000
01000000
00000000
00010000
10000000
00010000
00000000
10000000
00000000
11000000
00000000
01000000
00000000
00010000
00001000
00010000
00000000
,
00002000
00000000
00010000
00000000
00000000
00000000
00013000
00000000
00000200
00000000
00000000
00000000
00000000
00000000
00001300
00000002
00001000
00000000
00000000
00001000
00000000
00000000
00001003
00000000
00000001
00000000
00000000
00000000
00001001
00000000
00000000
00000000
,
00001000
00000000
00000010
00000100
00001000
00000000
00010000
00100000
10000000
00000000
00010000
00100000
01000000
00000000
00010000
00001000
,
00010000
00000000
00000000
00001000
00000000
00000000
00000100
00000000
00000101
00000000
00000000
00000000
00001000
00000000
00000001
00000000
,
00002000
00000000
00003001
00000100
00002000
00000000
01003000
00010000
,
10000000
00000000
01000000
00010000
01000000
00000000
10000000
00000000
00200000
00000000
00000000
00000000
00310000
00000000
00000010
00000000
,
00002000
00000000
00003100
00000010
00000001
00001000
00000010
00000100
,
00001000
00000000
00010000
00001000
00010000
00000000
01000000
00000000
00100000
00000000
00010000
00000000
01000000
00000000
00001000
00000000
,
00010000
00000000
00001000
00000000
00011000
00000000
00000000
00000000
00010000
00000000
00000100
00000000
00001100
00000000
00001000
00000001
,
00000010
00000000
00000000
00001000
00000000
00000000
00010000
00000000
00011000
00000000
00000000
00000000
00010000
00001000
00010000
00001000
,
00010000
00000000
00100000
00000000
01000000
00000000
00010000
00000000
10000000
01000000
10000000
01000000
00100000
00010000
00100000
00010000
,
00100000
00000000
00001000
00000000
00010000
00001000
00010000
00000000
00000010
00001000
00000010
00010000
00001000
00010000
00000100
00000000
,
00010100
00000000
00000000
01001000
00000000
00000000
00000000
00000000
00010010
00000000
00000000
00101000
00000000
00000000
00000000
00000000
,
00001000
00010000
00001000
01000000
00010000
00000000
00000000
01100000
00000000
00000000
10000000
00100000
01000000
00000000
00100000
00000000
,
00010000
00000000
00001000
00010000
00000100
00001000
00000001
00000100
00001000
00000000
00000100
00000001
00000000
00000020
00000200
00000000
,
00000000
00000000
00000000
00000000
00000000
00000000
00000000
00000000
00000000
00000000
00000000
00000000
00000000
00000000
00000000
00000330
,
00000000
00000000
00000000
00000000
00000000
00001000
00000000
00000000
00000001
00000000
00000000
00000100
00000000
00000010
00000000
00000100
,
00000000
00001000
00000000
00010000
00000000
00100000
00000000
00000000
10000000
00000000
00000000
01000000
00000000
00000000
00000000
00000000
,
00000000
00011000
00000000
00000000
00000000
00000000
00000000
00000000
00000000
00000000
00000000
00000000
00000000
00000000
00000000
00000000
;
