#TITLE:龍と少女とデコヒーレンス;
#ARTIST:黒猫ダンジョン;
#TITLETRANSLIT:Ryuu to shoujo to decoherence;
#ARTISTTRANSLIT:Kuro neko dungeon;
#GENRE:EPIC TECHNO;
#BANNER:Ryuu to shoujo to decoherence.png;
#BACKGROUND:Ryuu to shoujo to decoherence-bg.png;
#CDTITLE:,/CDTitles/bm IIDX 20 tricoro.png;
#MUSIC:Ryuu to shoujo to decoherence.ogg;
#SAMPLESTART:24.711;
#SAMPLELENGTH:15;
#BPMS:0=165;

//--------------- dance-single - Fred-104 ----------------
#NOTES:
     dance-single:
     Fred-104:
     Beginner:
     3:
     :
0000
0000
0000
0000
,
0000
0000
0000
0000
,
0000
0000
0000
0000
,
0000
0000
0000
0000
,
0000
0000
0000
0000
,
1000
0000
0000
0000
,
0100
0000
0000
0000
,
1000
0000
0000
0000
,
0001
0000
0000
0000
,
2000
0000
0000
0000
,
3002
0000
0000
0000
,
2003
0000
0000
0000
,
3002
0000
0000
0003
,
1001
0000
0000
0000
,
0110
0000
0000
0000
,
1001
0000
0110
0000
,
0110
0000
1001
0000
,
0001
0000
1000
0000
,
0100
0000
0100
0000
,
0010
0000
0010
0000
,
0002
0000
1003
0000
,
1000
0000
1000
0000
,
0001
0000
0001
0000
,
0100
0000
0010
0000
,
0200
0000
0301
0000
,
0002
0000
0003
0000
,
2000
0000
3000
0000
,
0200
0000
0300
0000
,
0020
0000
0030
0000
,
0002
0000
1003
0000
,
0002
0000
1003
0000
,
0200
0000
0310
0000
,
0002
0000
1003
0000
,
0002
0000
0000
0000
,
0000
0000
0000
0000
,
2003
0000
0000
0000
,
0000
0000
0000
0000
,
3002
0000
0000
0000
,
0000
0000
0000
0000
,
2003
0000
0000
0000
,
0000
0000
0000
3000
,
0002
0000
0000
0000
,
0000
0000
0000
0000
,
2003
0000
0000
0000
,
0000
0000
0000
0000
,
3002
0000
0000
0000
,
0000
0000
0000
0000
,
2003
0000
0000
0000
,
0000
0000
0000
3000
,
1001
0000
0000
0000
,
0001
0000
0000
0000
,
1000
0000
0000
0000
,
0001
0000
0000
0000
,
0100
0000
0000
0000
,
0010
0000
0000
0000
,
0100
0000
0000
0000
,
0001
0000
0000
0000
,
1001
0000
0000
0000
,
0000
0000
0000
0000
,
0110
0000
0000
0000
,
0000
0000
0000
0000
,
1001
0000
0000
0000
,
0000
0000
0000
0000
,
2002
0000
0000
0000
,
0000
0000
3003
0000
,
1000
0000
0100
0100
,
0100
0000
0010
0000
,
0001
0000
1000
1000
,
1000
0000
0001
0000
,
0100
0000
0010
0010
,
0010
0000
0100
0000
,
0001
0001
0001
0000
,
1000
0000
0001
0000
,
1000
0000
0010
0000
,
0001
0000
0100
0000
,
1000
0000
0001
0000
,
0010
0000
0001
0000
,
1000
0000
0100
0000
,
0001
0000
0010
0000
,
1000
0000
0001
0000
,
2000
0000
0000
3000
,
0002
0000
0000
0000
,
0000
0000
0000
0003
,
2002
0000
0000
0000
,
0000
0000
0000
0000
,
3003
0000
0000
0000
;

//--------------- dance-single - Fred-104 ----------------
#NOTES:
     dance-single:
     Fred-104:
     Easy:
     7:
     :
0000
0000
0000
0000
,
0000
0000
0000
0000
,
0000
0000
0000
0000
,
0000
0000
0000
0000
,
0000
0000
0000
0000
,
1000
0100
0010
0000
,
0001
0010
0100
0000
,
1000
0010
0100
0000
,
0001
0100
0010
0000
,
1001
0000
1000
0000
,
0100
0000
0100
0000
,
0010
0000
0010
0000
,
0001
0000
0001
0000
,
1000
0100
0001
0000
,
1000
0010
0001
0000
,
1000
1000
0001
0001
,
0100
0000
0100
0000
0010
0100
0010
0000
,
1000
1100
0000
0010
,
0001
0101
0000
0001
,
1000
1100
0000
0100
,
0010
0011
0000
0001
,
1000
1001
0000
0100
,
0010
0110
0000
0010
,
0001
0011
0000
0001
,
1000
1010
0000
1000
,
0001
0010
0001
0010
,
1000
0010
0001
0000
,
1000
0010
1000
0010
,
0001
0010
1000
0000
,
0001
0100
0001
0100
,
1000
0100
0001
0000
,
1000
0100
1000
0100
,
0001
0100
1000
0000
,
1002
0000
0000
0000
,
0000
0000
0000
0000
,
2003
0000
0000
0000
,
0000
0000
0000
0000
,
3002
0000
0000
0000
,
0000
0000
0000
0000
,
2000
0000
0000
0000
,
0000
0000
0000
3003
,
2000
0000
3200
0000
,
0320
0000
0031
1000
,
0002
0000
0203
0000
,
0320
0000
0130
0001
,
2000
0000
3200
0000
,
0302
0000
0103
1000
,
0002
0000
0203
0000
,
2300
0000
3100
0001
,
2001
0000
3002
0000
,
2003
0000
3200
0000
,
0320
0000
0032
0000
,
0203
0000
0320
0000
,
2030
0000
3002
0000
,
0023
0000
0230
0000
,
2300
0000
3002
0000
,
2003
0000
0002
3003
,
1001
1000
0001
0100
,
0010
0100
0001
0000
,
0110
0100
0010
0100
,
0001
1000
0100
0000
,
1001
1000
0001
0100
,
0010
0100
0001
0000
,
0110
0100
0001
1000
,
0100
0100
0100
0000
0010
0001
0010
0000
,
1001
0000
0001
0010
,
0100
1000
0001
0100
,
0110
0000
0010
1000
,
0100
1000
0010
0100
,
0101
0000
0001
1000
,
0001
0100
0010
1000
,
1100
0000
1000
0100
,
0001
0100
1000
0001
,
1001
0000
0001
0010
,
0100
0000
1000
0000
0001
1000
0001
0000
,
1001
0000
1000
0010
,
0100
0000
0010
0000
1000
0100
1000
0000
,
1001
0000
0001
0010
,
0100
0000
0010
0000
0001
1000
0001
0000
,
1000
0010
0100
0001
,
0010
0100
0010
0000
0001
1000
0001
0000
,
2002
0000
0000
0000
,
0000
0000
0000
3003
,
2002
0000
0000
0000
,
0000
0000
0000
0000
,
3003
0000
0000
0000
;

//--------------- dance-single - Fred-104 ----------------
#NOTES:
     dance-single:
     Fred-104:
     Medium:
     12:
     :
0000
0000
0000
0000
,
0000
0000
0000
0000
,
0000
0000
0000
0000
,
0000
0000
0000
0000
,
0000
0000
0000
0000
,
1000
0100
0010
0000
0001
0000
1000
0000
,
0001
0100
0010
0000
0100
0000
0001
0000
,
1000
0100
0001
0000
0100
0000
1000
0000
,
0001
0100
1000
0000
0100
0000
0001
0000
,
1000
0100
0020
0000
0000
0000
0031
0000
,
0001
0100
0020
0000
0000
0000
1030
0000
,
1000
0010
0200
0000
0000
0000
0301
0000
,
0001
0010
0200
0000
0000
0000
1300
0000
,
1001
0001
0010
0100
,
1001
1000
0010
0100
,
0001
0010
0100
0000
1000
0010
0100
0000
,
0001
0000
0001
0000
1000
0000
1000
0000
0001
1000
0001
1000
0001
0000
0000
0000
,
1000
0100
0110
0000
0011
0000
1001
0000
,
0001
0100
0110
0000
1010
0000
0101
0000
,
1000
0100
1100
0000
0101
0000
0110
0000
,
1000
0100
0110
0000
0011
0000
1001
0000
,
0001
0100
0110
0000
0010
1000
0001
0000
,
1000
0100
0110
0000
0001
1000
0100
0000
,
0010
0100
1100
0000
0001
0100
0010
0000
,
1000
0100
0110
0000
0010
0001
1000
0000
,
0001
0010
0100
1000
0001
1000
0010
0000
,
0100
0010
1000
0010
0100
0001
1000
0000
,
0100
0010
0001
1000
0010
0100
0001
0000
,
0010
0100
0010
0001
1000
0010
0100
0000
,
0010
1000
0100
1000
0001
0100
0010
0000
,
0100
0001
1000
0100
0010
0100
1000
0000
,
0010
1000
0100
1000
0001
0100
0010
0000
,
0100
0010
0100
0001
1000
0100
0010
0001
,
2001
0000
0000
0000
,
0000
0000
0000
0000
,
3002
0000
0000
0000
,
0000
0000
0000
0000
,
0203
0000
0000
0000
,
0000
0000
0000
0000
,
0020
0000
0000
0000
,
0000
0000
0000
0330
,
1001
0000
0001
0000
0000
0010
0000
0000
0001
0000
0000
1000
0000
0000
0010
0000
,
0000
0100
0000
0000
0010
0000
0000
1000
0000
0000
0100
0000
0000
0010
0000
0000
,
0001
0000
1000
0000
0000
0010
0000
0000
1000
0000
0000
0100
0000
0000
1000
0000
,
0000
0010
0000
0000
0100
0000
0000
0010
0000
0000
1000
0000
0000
0100
0000
0000
,
0010
0000
0001
0000
0000
1000
0000
0000
0001
0000
0000
0100
0000
0000
0010
0000
,
0000
1000
0000
0000
0100
0000
0000
0010
0000
0000
0001
0000
0000
0100
0000
0000
,
0010
0000
0100
0000
0000
0001
0000
0000
0010
0000
0000
0100
0000
0000
1000
0000
,
0000
0001
0000
0000
0100
0000
0000
0010
0000
0000
1000
0000
0000
0001
0000
0000
,
2001
0000
3002
0000
,
0203
0000
0320
0000
,
2030
0000
3002
0000
,
0023
0000
0230
0000
,
2300
0000
3200
0000
,
0302
0000
0023
0000
,
2030
0000
3020
0000
,
0230
0000
0301
0110
,
1001
0000
0001
0000
0100
0010
0100
0000
,
0001
0100
1000
0100
0001
1000
0001
0000
,
1001
0000
0100
0000
1000
0010
0100
0000
,
0001
0100
1000
0100
0001
1000
0001
0000
,
0011
0000
0100
0000
1000
0010
0100
0000
,
0010
1000
0001
1000
0100
0010
0001
0000
,
1000
0010
0100
0001
0010
0100
1000
0001
,
0100
0000
0010
0000
0100
0000
0001
0000
1000
0001
1000
0001
1000
0000
0100
0000
,
1100
0000
0101
0000
1000
0100
0010
0001
,
1000
0100
0010
0100
1000
0001
0100
0000
,
0110
0000
1001
0000
0001
0010
0100
0010
,
0001
1000
0010
0100
0010
1000
0001
0000
,
0110
0000
1001
0000
0001
1000
0100
1000
,
0010
0100
0010
1000
0001
0010
0100
0000
,
1100
0000
0101
0000
1000
0100
0010
0001
,
1000
0010
0100
0010
1000
0001
0010
0100
,
1100
0000
0110
0000
0001
1000
0010
0100
,
0010
1000
0100
1000
0001
0100
0010
1000
,
1100
0000
0101
0000
1000
0001
0010
0100
,
1000
0001
0100
0010
1000
0001
0010
0001
,
0101
0000
1100
0000
0001
0010
0100
1000
,
0001
0100
0010
1000
0010
0100
0001
1000
,
0100
0000
0010
0100
1000
0010
0100
0001
,
1000
0000
0100
0000
1000
0000
0100
0000
0010
0100
0010
0100
0010
0100
0010
0100
,
0020
0000
0000
0000
,
0000
0000
0000
0030
,
2002
0000
0000
0000
,
0000
0000
0000
0000
,
3003
0000
0000
0000
;

//--------------- dance-single - Fred-104 ----------------
#NOTES:
     dance-single:
     Fred-104:
     Hard:
     16:
     :
0000
0000
0000
0000
,
0000
0000
0000
0000
,
0000
0000
0000
0000
,
0000
0000
0000
0000
,
0000
0000
0000
0000
,
0001
0000
1000
0000
0010
0000
0100
0000
0001
1000
0001
0000
1000
0000
0100
0000
,
0010
0001
0010
0000
0100
0000
1000
0000
0010
1000
0010
0000
0100
0000
0001
1000
,
0001
0000
0010
0000
0100
0000
0010
0000
0100
1000
0100
0000
1000
0000
0001
0000
,
0100
0010
0100
0000
1000
0000
0100
0000
0001
1000
0001
1000
0100
0000
0010
0000
,
0001
0020
0100
0000
0001
0000
0130
0000
,
1000
0002
0100
0000
1000
0000
0103
0000
,
0010
2000
0100
0000
0010
0000
3100
0000
,
0010
0200
1000
0000
0010
0000
1300
0000
,
1001
0001
0010
0000
0100
0000
1000
0000
,
1001
1000
0010
0000
0100
0000
0001
0000
,
1000
0100
1000
0100
0010
0001
0010
0001
1000
0010
1000
0010
0100
0001
0100
0001
,
1000
0000
1000
0000
0001
0000
0001
0000
1000
0100
0010
0001
1000
0000
0000
0000
,
0001
0000
0100
0001
1000
0000
0001
0000
0010
0100
0000
0100
2000
0000
3000
0000
,
0001
0000
1000
0010
0100
0000
0001
0000
1000
0100
0000
0100
0020
0000
0030
0000
,
0001
0000
1000
0001
0100
0000
0010
0000
1000
0001
0000
0001
0020
0000
0030
0000
,
0100
0000
0010
0001
1000
0000
0010
0000
0100
0001
0000
0001
2000
0000
3000
0000
,
0001
0000
0010
0100
1000
0000
0001
0000
0100
0010
0000
1000
0010
0000
0100
0000
,
0001
0000
1000
0100
0010
0000
0001
0000
1000
0010
0000
0100
0010
0000
1000
0000
,
0001
0000
0010
0100
1000
0000
0001
0000
0100
0001
0000
1000
0001
0000
0010
0000
,
0100
0000
1000
0001
0100
0000
0010
0000
1000
0100
0000
0010
0001
0000
1000
0000
,
0001
0000
0100
0000
0001
0000
1000
0001
0000
0010
0000
0001
1000
0010
0100
0000
,
0001
0000
1000
0000
0100
0000
0010
0100
0000
1000
0000
0001
0100
0010
1000
0000
,
0001
0000
0010
0000
0100
0000
1000
0001
0000
0100
0000
0010
1000
0001
0010
0000
,
0100
0000
0010
0000
0001
0000
1000
0010
0000
0100
0000
0010
1000
0010
0100
0000
,
0001
0000
0010
0000
0100
0000
1000
0001
0000
0100
0000
0010
1000
0100
0010
0000
,
0100
0000
1000
0000
0001
0000
0100
0010
0000
1000
0000
0100
0010
0001
1000
0000
,
0001
0000
0010
0000
0100
0000
1000
0010
0000
0100
0000
0001
1000
0100
0010
0000
,
0001
0010
0001
0010
0100
1000
0100
1000
0001
0100
0001
0100
0010
1000
0001
0010
,
0200
0000
0000
0000
,
0000
0000
0000
0000
,
2300
0000
0000
0000
,
0000
0000
0000
0000
,
3002
0000
0000
0000
,
0000
0000
0000
0000
,
2000
0000
0000
0000
,
0000
0000
0000
3003
,
0012
0000
0010
0000
0000
0010
0000
0000
0100
0000
0000
0100
0000
0000
1000
0000
,
0000
1000
0000
0000
0010
0000
0000
0010
0000
0000
0100
0000
0003
0100
0000
0100
,
0020
0000
1000
0000
0000
1000
0000
0000
0100
0000
0000
0100
0000
0000
0001
0000
,
0000
0001
0000
0000
0100
0000
0000
0100
0000
0000
1000
0000
0030
1000
0000
0001
,
2000
0000
0001
0000
0000
0001
0000
0000
0100
0000
0000
0100
0000
0000
0010
0000
,
0000
0010
0000
0000
0100
0000
0000
0100
0000
0000
0001
0000
3000
0001
0000
1000
,
0200
0000
1000
0000
0000
0010
0000
0000
0001
0000
0000
1000
0000
0000
0010
0000
,
0000
0001
0000
0000
0010
0000
0000
1000
0000
0000
0001
0000
0300
1000
0000
0000
,
0001
0100
0010
1000
0010
0100
0001
0010
0100
1000
0100
0010
,
0001
0010
0100
1000
0001
0100
0010
1000
0010
0100
0000
0000
,
0001
1000
0100
0010
0001
0010
0100
1000
0010
0100
0001
0100
,
0010
1000
0100
0010
0100
1000
0010
0100
0001
1000
0000
0000
,
0100
0010
0100
1000
0010
0100
0001
0100
0010
1000
0001
0010
,
0100
0001
0100
1000
0001
0100
0010
0001
0010
1000
0000
0000
,
0001
0100
0010
0001
0010
1000
0001
0010
1000
0010
0100
1000
,
0010
0100
1000
0100
0001
1000
0100
0001
0100
0010
0001
1000
,
1001
0000
0001
0100
1000
0001
0010
0100
,
0010
1000
0001
0010
1000
0010
0100
1000
,
1001
0000
1000
0100
0001
1000
0010
0100
,
1000
0001
0100
1000
0001
0010
0100
0001
,
1001
0000
0001
0010
1000
0001
0100
0010
,
0001
1000
0010
0001
1000
0100
0010
1000
,
0001
0100
0001
0100
0010
1000
0001
0000
1000
0100
1000
0100
0010
0001
1000
0000
,
0001
0010
0001
0010
0100
1000
0100
1000
0001
0100
0010
1000
0010
0100
0001
1000
,
0100
0000
0000
0000
0110
0000
0000
0000
0010
0001
1000
0001
0100
0001
1000
0100
,
0010
0000
0001
0100
0001
0000
1000
0100
1000
0000
0001
0100
0001
0000
0000
0000
,
1001
0000
0000
0000
1100
0000
0000
0000
1000
0100
1000
0001
0100
0001
1000
0100
,
0010
0000
0001
0010
0001
0000
1000
0010
1000
0000
0001
0010
0001
0000
0000
0000
,
0110
0000
0000
0000
1001
0000
0000
0000
0001
0100
0010
1000
0001
0010
0100
1000
,
0001
0000
0100
0010
1000
0000
0100
0010
0001
0000
0100
0010
1000
0000
0000
0000
,
1001
0000
0000
0000
0110
0000
0000
0000
1000
0001
0100
0010
1000
0001
0010
0100
,
0010
0001
1000
0000
0010
1000
0001
0000
0010
0100
1000
0000
0010
0100
0001
0000
,
0101
0000
0000
0000
1001
0000
0000
0000
0001
0010
0100
1000
0001
0100
0010
1000
,
0100
0000
0010
0001
1000
0000
0010
0100
0001
0000
1000
0001
0010
0001
1000
0000
,
1010
0000
0000
0000
0101
0000
0000
0000
1000
0100
0010
0001
1000
0100
0010
0001
,
0010
0100
1000
0000
0010
0100
0001
0000
1000
0100
0010
0001
0010
0100
1000
0000
,
1001
0000
0000
0000
1010
0000
0000
0000
0001
1000
0100
1000
0001
0010
0100
1000
,
0001
0100
0010
0000
1000
0010
0100
0000
0001
1000
0100
0010
0001
1000
0010
0000
,
0100
0000
0001
0000
1000
0000
0100
0000
0010
0100
0010
0100
1000
0100
1000
0100
,
1000
0001
0100
0010
1000
0010
0100
0001
1000
0100
0010
0001
0010
0100
1000
0010
,
0200
0000
0000
0000
,
0000
0000
0000
0300
,
2002
0000
0000
0000
,
0000
0000
0000
0000
,
3003
0000
0000
0000
;

//--------------- dance-single - Fred-104† ----------------
#NOTES:
     dance-single:
     Fred-104†:
     Challenge:
     18:
     :
0000
0000
0000
0000
,
0000
0000
0000
0000
,
0000
0000
0000
0000
,
0000
0000
0000
0000
,
0000
0000
0000
0000
,
0001
0000
0100
0000
0001
0010
0000
0100
0000
1000
0001
0000
0100
0010
1000
0010
,
0100
0000
0001
0000
1000
0100
0000
0010
0000
0100
1000
0000
0001
0100
0010
1000
,
0100
0000
0010
0000
0100
1000
0000
0010
0000
0100
0001
0000
0010
0001
1000
0001
,
0100
0000
0010
0000
1000
0010
0000
0100
0000
0001
1000
0000
0100
0010
0001
1000
,
2020
0000
0000
3030
,
0202
0000
0000
0303
,
2200
0000
0000
3300
,
0022
0000
0000
0033
,
1001
0100
0010
0000
0000
0000
0010
0000
,
1001
0100
0010
0000
0000
0000
0010
0000
,
0001
1000
0010
0100
0001
1000
0100
0010
0001
0100
0010
1000
0001
0010
0100
1000
,
1100
0000
1000
0000
0101
0000
0001
0000
1000
0100
0010
0001
1000
0000
0000
0000
,
0001
0000
1000
0010
0100
0000
1000
0100
0010
1000
0000
0001
0010
0000
0100
0000
,
1000
0000
0001
0100
0010
0000
0001
0010
0100
0001
0000
0010
0100
0000
1000
0000
,
0001
0000
0010
0100
0001
0000
0100
0010
0001
1000
0000
0010
0100
0000
0010
0000
,
1000
0000
0100
0010
1000
0000
0010
0100
1000
0001
0000
0100
0010
0000
1000
0000
,
0001
0000
1000
0010
0100
0000
1000
0100
0001
1000
0000
0100
0010
0001
1000
0000
,
0001
0000
0010
0100
0001
0000
0100
1000
0100
0010
0000
0001
1000
0010
0100
0000
,
0001
0000
1000
0010
0100
0000
1000
0001
0010
0100
0000
0001
1000
0100
0010
0000
,
0001
0000
1000
0100
0001
0000
1000
0010
0100
0010
0000
0001
1000
0010
0100
0000
,
0001
0000
0100
1000
0100
0000
0001
1000
0000
0100
0010
0001
1000
0010
0100
0000
,
0001
0000
0010
1000
0010
0000
0001
1000
0000
0010
0100
0010
1000
0100
0010
0000
,
0100
0000
1000
0010
0100
0000
1000
0100
0000
0010
1000
0001
0010
0100
1000
0000
,
0001
0000
0010
0100
0001
0000
0100
0010
0000
0001
0010
0100
1000
0010
0100
0000
,
0001
0000
0100
1000
0100
0000
0001
1000
0100
0010
0001
0100
0010
0001
0010
0000
,
1000
0000
0001
0010
1000
0000
0010
0100
1000
0010
0100
0001
0100
0010
1000
0000
,
0001
0010
0100
1000
0010
0100
1000
0001
0010
0100
0001
1000
0100
0010
0001
1000
,
0010
1000
0001
0010
1000
0001
0100
0010
0001
1000
0100
0010
0001
0100
0010
1000
,
0002
0000
0000
0000
,
0000
0000
0000
0000
,
0203
0000
0000
0000
,
0000
0000
0000
0000
,
2300
0000
0000
0000
,
0000
0000
0000
0000
,
3020
0000
0000
0000
,
0000
0000
0000
0030
,
1001
0000
1000
0000
0001
0100
0000
0010
0100
0000
1000
0100
0000
0001
1000
0000
,
0001
0010
0000
0100
0010
0000
1000
0010
0000
0001
0010
0000
0100
1000
0000
0001
,
0100
0000
0010
0000
1000
0100
0000
0001
0100
0000
0010
0100
0000
1000
0001
0000
,
0100
1000
0000
0100
0010
0000
0100
0001
0000
1000
0100
0000
0010
0001
0000
1000
,
0001
0000
0010
0000
0100
0010
0000
1000
0010
0000
0001
1000
0000
0010
0001
0000
,
0010
0100
0000
0010
1000
0000
0001
0010
0000
0100
1000
0000
0001
0100
0000
0010
,
1000
0000
0001
0000
0100
1000
0000
0100
0001
0000
1000
0100
0000
0001
0100
0000
,
1000
0001
0000
0010
1000
0000
0010
0001
0000
1000
0010
0000
0001
0010
1000
0000
,
1001
0001
0100
0010
1000
0010
0100
0001
1000
0100
0001
0100
,
0010
0001
0100
0010
0001
0010
1000
0001
0010
1000
0010
0100
,
1000
0001
0010
1000
0010
0100
1000
0010
0100
1000
0100
0001
,
1000
0100
0001
0100
0010
0001
0100
0010
0001
0010
0100
0001
,
1000
0001
0010
0100
0001
0100
0010
0001
0100
0010
0001
0010
,
0100
0001
1000
0010
0100
1000
0100
0010
1000
0100
0010
1000
,
0010
0100
1000
0001
0100
0010
0001
0010
0100
0001
0010
0100
,
1000
0100
0001
1000
0010
0001
1000
0010
0001
1000
0100
0001
,
1001
0000
0000
0000
0001
0010
0100
1000
0100
0010
0001
1000
0010
0100
0001
0100
,
0010
1000
0001
0010
0100
1000
0010
0100
0001
0010
0100
1000
0100
0010
0001
0000
,
1001
0000
0000
0000
1000
0010
0100
0001
1000
0100
0010
0001
0100
0010
1000
0010
,
0100
0001
0010
0100
1000
0001
0100
0001
1000
0100
0010
0100
1000
0001
0100
0000
,
0110
0000
0000
0000
0010
1000
0001
0010
0100
1000
0100
0010
0001
0100
0010
1000
,
0100
0010
0001
0010
0100
1000
0010
0100
0001
0010
0100
1000
0001
0100
0010
0000
,
1000
0001
0100
0010
1000
0001
0010
0100
1000
0100
0010
0001
1000
0010
0100
0001
,
0100
0010
1000
0001
0010
0001
0100
0010
1000
0100
1000
0010
0100
0001
0010
0001
,
1000
0000
0000
0000
0001
1000
0001
1000
0001
0010
0100
1000
0010
0100
0001
0010
,
0100
1000
0100
0010
0001
0100
0010
1000
0001
0100
1000
0100
0001
0000
0000
0000
,
0110
0000
0000
0000
1000
0001
1000
0001
0010
0100
1000
0010
0100
0001
0100
0010
,
1000
0100
0010
0001
0100
0010
1000
0001
0010
1000
0010
0001
1000
0000
0000
0000
,
1001
0000
0000
0000
0001
1000
0001
1000
0001
0100
0010
1000
0100
0010
0001
1000
,
0010
0100
0001
0010
0100
1000
0010
0100
0001
0000
1000
0000
1001
0000
0000
0000
,
0110
0000
0000
0000
1000
0001
1000
0001
1000
0010
0100
0001
1000
0100
0010
0100
,
1000
0010
0100
0001
0010
0100
0010
0001
1000
0010
0100
0001
1000
0010
0100
0001
,
1000
0000
0000
0000
0001
0010
0100
1000
0001
0100
0010
0001
0010
0100
0001
0010
,
0100
0001
0100
0010
0001
0100
0010
0001
0010
0100
1000
0100
0010
1000
0100
0010
,
0001
0000
0000
0000
1000
0100
0010
0001
1000
0001
0100
1000
0100
0010
0001
0010
,
1000
0001
0010
0100
0001
0100
0010
0001
0100
0010
0001
0010
0100
0001
1000
0100
,
0010
0000
0000
0000
0001
0100
0010
1000
0001
0010
0100
0001
1000
0010
0100
1000
,
0001
1000
0010
0100
1000
0001
0010
0100
0001
1000
0100
0010
0001
0100
0010
1000
,
0001
0010
0100
0001
1000
0010
0100
1000
0001
0100
0010
0001
1000
0100
0001
1000
,
0100
0010
1000
0001
0100
1000
0001
0010
0100
0001
1000
0010
0001
0100
0010
1000
,
0002
0000
0000
0000
,
0000
0000
0000
0003
,
2002
0000
0000
0000
,
0000
0000
0000
0000
,
3003
0000
0000
0000
;

//--------------- dance-double - Fred-104 ----------------
#NOTES:
     dance-double:
     Fred-104:
     Easy:
     7:
     :
00000000
00000000
00000000
00000000
,
00000000
00000000
00000000
00000000
,
00000000
00000000
00000000
00000000
,
00000000
00000000
00000000
00000000
,
00000000
00000000
00000000
00000000
,
00000001
00001000
00000001
00000000
,
00000100
00001000
00010000
00000000
,
01000000
10000000
00010000
00000000
,
10000000
01000000
00100000
00000000
,
00011000
00000000
00001000
00000000
,
00010000
00000000
00010000
00000000
,
00000010
00000000
00000010
00000000
,
00010000
00000000
00010000
00000000
,
00001000
00010000
00100000
00000000
,
01000000
00010000
10000000
00000000
,
01000000
01000000
00100000
00100000
,
00001000
00000000
00001000
00000000
00010000
00001000
00010000
00000000
,
00001000
00011000
00000000
00010000
,
00000010
00001010
00000000
00000100
,
00000010
00000011
00000000
00000001
,
00001000
00001100
00000000
00000100
,
00010000
00011000
00000000
00001000
,
01000000
01010000
00000000
10000000
,
01000000
01100000
00000000
00100000
,
00001000
00101000
00000000
00001000
,
00010000
00001000
00010000
00001000
,
00000010
00001000
00010000
00000000
,
00001000
00010000
00001000
00010000
,
00100000
00010000
00001000
00000000
,
00010000
00001000
00010000
00001000
,
00000100
00001000
00010000
00000000
,
00001000
00010000
00001000
00010000
,
01000000
00010000
00001000
00000000
,
00012000
00000000
00000000
00000000
,
00000000
00000000
00000000
00000000
,
02003000
00000000
00000000
00000000
,
00000000
00000000
00000000
00000000
,
03020000
00000000
00000000
00000000
,
00000000
00000000
00000000
00000000
,
20000000
00000000
00000000
00000000
,
00000000
00000000
00000000
30030000
,
20000000
00000000
32000000
00000000
,
03200000
00000000
00301000
00010000
,
00002000
00000000
00023000
00000000
,
00030020
00000000
00010030
00001000
,
00000020
00000000
00000032
00000000
,
00000023
00000000
00000130
00001000
,
00000200
00000000
00020300
00000000
,
00032000
00000000
00013000
00001000
,
00021000
00000000
00032000
00000000
,
02003000
00000000
03002000
00000000
,
00023000
00000000
00032000
00000000
,
02003000
00000000
03020000
00000000
,
20030000
00000000
32000000
00000000
,
03020000
00000000
00032000
00000000
,
00003200
00000000
00000302
00000000
,
00000023
00000000
00000200
00000330
,
00011000
00001000
00010000
01000000
,
10000000
00010000
00100000
00000000
,
01100000
01000000
10000000
00010000
,
01000000
00001000
00010000
00000000
,
00011000
00010000
00000100
00001000
,
00000100
00000010
00000001
00000000
,
00001001
00000001
00000100
00001000
,
00010000
00010000
00010000
00000000
00001000
00010000
00001000
00000000
,
00011000
00000000
00001000
00010000
,
00100000
01000000
00010000
10000000
,
10010000
00000000
10000000
01000000
,
00100000
00001000
00010000
00001000
,
00011000
00000000
00010000
00001000
,
00000010
00000100
00001000
00000001
,
00001001
00000000
00000001
00000010
,
00001000
00010000
00100000
10000000
,
10010000
00000000
10000000
01000000
,
00100000
00000000
00001000
00000000
00010000
00000010
00010000
00000000
,
00011000
00000000
00010000
00001000
,
00000010
00000000
00000100
00000000
00001000
00000001
00001000
00000000
,
00001001
00000000
00001000
00000010
,
00000100
00000000
00001000
00000000
00010000
00001000
00010000
00000000
,
00100000
01000000
00010000
10000000
,
01000000
00010000
00001000
00000000
00000100
00000001
00001000
00000000
,
00000220
00000000
00000000
00000000
,
00000000
00000000
00000000
00000330
,
00002002
00000000
00000000
00000000
,
00000000
00000000
00000000
00000000
,
00003003
00000000
00000000
00000000
;

//--------------- dance-double - Fred-104 ----------------
#NOTES:
     dance-double:
     Fred-104:
     Medium:
     12:
     :
00000000
00000000
00000000
00000000
,
00000000
00000000
00000000
00000000
,
00000000
00000000
00000000
00000000
,
00000000
00000000
00000000
00000000
,
00000000
00000000
00000000
00000000
,
00010000
10000000
00100000
00000000
10000000
00000000
01000000
00000000
,
00100000
00001000
00010000
00000000
00001000
00000000
00000010
00000000
,
00000001
00000010
00000100
00000000
00010000
00000000
00001000
00000000
,
00010000
00100000
01000000
00000000
00010000
00100000
01000000
00000000
,
11000000
01000000
00200000
00000000
,
00301000
00010000
00000020
00000000
,
00001030
00000100
00000002
00000000
,
00000103
00010000
00002000
00003000
,
00011000
00010000
00000010
00001000
,
00001001
00000001
00000010
00000100
,
00010000
00001000
00010000
00000000
00001000
00100000
00010000
00000000
,
10000000
00000000
10000000
00000000
00010000
00000000
00010000
00000000
10000000
00010000
10000000
00010000
10000000
00000000
00000000
00000000
,
00010000
00100000
01100000
00000000
11000000
00000000
01010000
00000000
,
10000000
01000000
01100000
00000000
00101000
00000000
00011000
00000000
,
00010000
00000100
00001100
00000000
00000101
00000000
00001001
00000000
,
00000001
00000010
00000110
00000000
00001100
00000000
00010100
00000000
,
00010000
00001000
01001000
00000000
00001000
00010000
00100000
00000000
,
01000000
00010000
10010000
00000000
10000000
01000000
00100000
00000000
,
00001000
00010000
00010010
00000000
00001000
00010000
00000100
00000000
,
00001000
00000100
00000110
00000000
00000010
00000001
00001000
00000000
,
00000001
00000100
00001000
00010000
01000000
10000000
00010000
00000000
,
10000000
00100000
00010000
00001000
00000010
00000001
00001000
00000000
,
00000001
00000010
00001000
00010000
00100000
10000000
00010000
00000000
,
10000000
01000000
00010000
00001000
00000100
00000001
00001000
00000000
,
00000001
00000010
00000100
00000010
00000100
00001000
00000010
00000100
,
00001000
00010000
00100000
01000000
00010000
00100000
01000000
10000000
,
00010000
01000000
00100000
10000000
01000000
00100000
00001000
00010000
,
00100000
10000000
00010000
00100000
01000000
00100000
00001000
00000000
,
00021000
00000000
00000000
00000000
,
00000000
00000000
00000000
00000000
,
00032000
00000000
00000000
00000000
,
00000000
00000000
00000000
00000000
,
00023000
00000000
00000000
00000000
,
00000000
00000000
00000000
00000000
,
00002000
00000000
00000000
00000000
,
00000000
00000000
00000000
00033000
,
00011000
00000000
00001000
00000000
00000000
01000000
00000000
00000000
00001000
00000000
00000000
00100000
00000000
00000000
00010000
00000000
,
00000000
00100000
00000000
00000000
01000000
00000000
00000000
10000000
00000000
00000000
00010000
00000000
00000000
01000000
00000000
00000000
,
00100000
00000000
10000000
00000000
00000000
01000000
00000000
00000000
00100000
00000000
00000000
00001000
00000000
00000000
00010000
00000000
,
00000000
00000100
00000000
00000000
00000010
00000000
00000000
00000001
00000000
00000000
00000010
00000000
00000000
00000100
00000000
00000000
,
00001000
00000000
00000001
00000000
00000000
00000100
00000000
00000000
00001000
00000000
00000000
00010000
00000000
00000000
01000000
00000000
,
00000000
10000000
00000000
00000000
00010000
00000000
00000000
01000000
00000000
00000000
00100000
00000000
00000000
10000000
00000000
00000000
,
00010000
00000000
10000000
00000000
00000000
00100000
00000000
00000000
00010000
00000000
00000000
00001000
00000000
00000000
00000010
00000000
,
00000000
00000001
00000000
00000000
00001000
00000000
00000000
00000100
00000000
00000000
00010000
00000000
00000000
00001000
00000000
00000000
,
00021000
00000000
00032000
00000000
,
02003000
00000000
03002000
00000000
,
00023000
00000000
00030200
00000000
,
00002300
00000000
00003002
00000000
,
00000023
00000000
00000230
00000000
,
00020300
00000000
00032000
00000000
,
00203000
00000000
02300000
00000000
,
23000000
00000000
30020000
10030000
,
10010000
00000000
10000000
01000000
00100000
00001000
00010000
00000000
,
00001000
00010000
00000010
00001000
00000001
00000010
00000100
00000000
,
00001100
00000000
00000001
00000100
00001000
00000100
00000001
00000000
,
00001000
00000100
00000010
00000001
00000100
00001000
00010000
00000000
,
00011000
00000000
00001000
00010000
00100000
10000000
00010000
00000000
,
00100000
01000000
10000000
00010000
01000000
00100000
10000000
00000000
,
01000000
00100000
00001000
00010000
00001000
00000010
00000001
00000010
,
00000100
00000000
00001000
00000000
00000010
00000000
00000100
00000000
00001000
00010000
00001000
00010000
00001000
00000000
00000000
00000000
,
00011000
00000000
01001000
00000000
00001000
00010000
01000000
00100000
,
00010000
10000000
01000000
00100000
00001000
00010000
00001000
00000000
,
00011000
00000000
00010010
00000000
00010000
00001000
00000100
00000001
,
00001000
00000100
00000010
00000001
00001000
00000010
00000100
00000000
,
00000101
00000000
00001100
00000000
00000001
00000010
00000100
00010000
,
00001000
00010000
00100000
01000000
00100000
10000000
00010000
00000000
,
10010000
00000000
01100000
00000000
10000000
00010000
00100000
01000000
,
00100000
00001000
00010000
00001000
01000000
00001000
00010000
00000100
,
00001100
00000000
00010100
00000000
00010000
00001000
00000100
00000010
,
00001000
00000100
00000010
00000001
00000100
00000010
00001000
00000001
,
00000011
00000000
00001010
00000000
00000001
00000100
00001000
00010000
,
01000000
10000000
01000000
00100000
00001000
00010000
00001000
00000000
,
00011000
00000000
01001000
00000000
00001000
00010000
00100000
10000000
,
00010000
10000000
00100000
00010000
00001000
00000010
00000001
00000000
,
00001000
00000100
00000010
00000001
00000100
00000010
00000100
00001000
,
00010000
00000000
00100000
00000000
01000000
00000000
00100000
00000000
10000000
00010000
10000000
00010000
10000000
00010000
10000000
00010000
,
20000000
00000000
00000000
00000000
,
00000000
00000000
00000000
30000000
,
20020000
00000000
00000000
00000000
,
00000000
00000000
00000000
00000000
,
30030000
00000000
00000000
00000000
;

//--------------- dance-double - Fred-104 ----------------
#NOTES:
     dance-double:
     Fred-104:
     Hard:
     16:
     :
00000000
00000000
00000000
00000000
,
00000000
00000000
00000000
00000000
,
00000000
00000000
00000000
00000000
,
00000000
00000000
00000000
00000000
,
00000000
00000000
00000000
00000000
,
00010000
00000100
00001000
00000100
00000010
00000001
00001000
00000001
,
00000100
00000010
00000100
00001000
00010000
00100000
01000000
00010000
,
10000000
00010000
00100000
10000000
00100000
01000000
10000000
01000000
,
00010000
00001000
00000100
00000001
00001000
00000100
00000110
00000000
,
00000001
00000200
00000010
00000000
00000001
00000000
00000310
00000000
,
00001000
00000200
00000010
00000000
00001000
00000000
00000310
00000000
,
00000001
00002000
00000010
00000000
00000001
00000000
00003010
00000000
,
00010000
00000200
00001000
00000000
00010000
00000000
00001300
00000000
,
00001001
00000001
00000010
00000000
00000100
00000000
00010000
00000000
,
00011000
00001000
01000000
00000000
00010000
00000000
10000000
00000000
,
01000000
00100000
01000000
00000000
00100000
00010000
00100000
00000000
00001000
00010000
00001000
00010000
00000010
00001000
00000010
00001000
,
00000001
00000000
00000001
00000000
00001000
00000000
00001000
00000000
00000001
00000010
00000100
00001000
00000001
00000000
00000000
00000000
,
00001000
00000000
00000001
00000010
00000100
00000000
00010000
00000000
00001000
00100000
00000000
00100000
00020000
00000000
00030000
00000000
,
10000000
00000000
00100000
10000000
01000000
00000000
00100000
00000000
00001000
00010000
00000000
00010000
00000020
00000000
00000030
00000000
,
00010000
00000000
00001000
00000100
00000010
00000000
00001000
00000000
00000001
00000010
00000000
00000010
00000200
00000000
00000300
00000000
,
00010000
00000000
00000010
00010000
00001000
00000000
01000000
00000000
00100000
10000000
00000000
10000000
00020000
00000000
00030000
00000000
,
10000000
00000000
01000000
00100000
00001000
00000000
00010000
00000000
00000010
00001000
00000000
00000010
00001000
00000000
00000001
00000000
,
00000010
00000000
00000100
00000010
00000001
00000000
00001000
00000000
00000010
00010000
00000000
00000010
00010000
00000000
00001000
00000000
,
00010000
00000000
01000000
00100000
00010000
00000000
01000000
00000000
00100000
10000000
00000000
00100000
10000000
00000000
00010000
00000000
,
01000000
00000000
00100000
10000000
00010000
00000000
00100000
00000000
01000000
00100000
00000000
01000000
00100000
00000000
00001000
00000000
,
00010000
00000000
00000010
00000000
00001000
00000000
00000100
00000010
00000000
00000001
00000000
00000010
00000100
00001000
00000001
00000000
,
00000100
00000000
00001000
00000000
00010000
00000000
00100000
01000000
00000000
00010000
00000000
00100000
01000000
10000000
00010000
00000000
,
01000000
00000000
00100000
00000000
10000000
00000000
01000000
00100000
00000000
00001000
00000000
00010000
00001000
01000000
00001000
00000000
,
00010000
00000000
00001000
00000000
00000100
00000000
00000001
00001000
00000000
00000100
00000000
00000010
00000001
00000010
00000100
00000000
,
00001000
00000000
00000010
00000000
00000100
00000000
00001000
00010000
00000000
00100000
00000000
01000000
00010000
01000000
00100000
00000000
,
10000000
00000000
01000000
00000000
00100000
00000000
00001000
00010000
00000000
00001000
00000000
00000010
00000001
00000010
00000100
00000000
,
00001000
00000000
00000001
00000000
00000010
00000000
00001000
00010000
00000000
00100000
00000000
01000000
00010000
10000000
00010000
00000000
,
10000000
01000000
00100000
00000000
00001000
00010000
00001000
00000000
00010000
00000010
00001000
00000010
00000100
00000001
00001000
00000100
,
00000020
00000000
00000000
00000000
,
00000000
00000000
00000000
00000000
,
00000230
00000000
00000000
00000000
,
00000000
00000000
00000000
00000000
,
00002300
00000000
00000000
00000000
,
00000000
00000000
00000000
00000000
,
00000002
00000000
00000000
00000000
,
00000000
00000000
00000000
00003003
,
00000101
00000000
00000100
00000000
00000000
00001000
00000000
00000000
00010000
00000000
00000000
00100000
00000000
00000000
01000000
00000000
,
00000000
00010000
00000000
00000000
10000000
00000000
00000000
01000000
00000000
00000000
00100000
00000000
00000000
00001000
00000000
00010000
,
00001000
00000000
00000010
00000000
00000000
00000001
00000000
00000000
00000100
00000000
00000000
00000010
00000000
00000000
00010000
00000000
,
00000000
00001000
00000000
00000000
00010000
00000000
00000000
01000000
00000000
00000000
10000000
00000000
00000000
01000000
00000000
00100000
,
00001000
00000000
00010000
00000000
00000000
00100000
00000000
00000000
01000000
00000000
00000000
00001000
00000000
00000000
00010000
00000000
,
00000000
00100000
00000000
00000000
10000000
00000000
00000000
00010000
00000000
00000000
00100000
00000000
00000000
01000000
00000000
00100000
,
00001000
00000000
00000010
00000000
00000000
00000001
00000000
00000000
00000100
00000000
00000000
00000010
00000000
00000000
00010000
00000000
,
00000000
00100000
00000000
00000000
01000000
00000000
00000000
00010000
00000000
00000000
00100000
00000000
00000000
01000000
00000000
00000000
,
10000000
01000000
00100000
00010000
00100000
01000000
10000000
01000000
00100000
00001000
00010000
00001000
,
01000000
00001000
00010000
00000100
00001000
00000001
00000100
00000010
00001000
00000001
00000000
00000000
,
00000010
00000100
00000010
00000001
00001000
00000010
00000100
00000001
00001000
00000100
00000010
00000001
,
00001000
00000010
00010000
00001000
00100000
00010000
10000000
00100000
01000000
00010000
00000000
00000000
,
10000000
01000000
00100000
00001000
00010000
00100000
10000000
01000000
00100000
00001000
00010000
00100000
,
10000000
01000000
00010000
00001000
00000100
00000001
00001000
00000100
00000010
00000001
00000000
00000000
,
00001000
00000010
00000001
00000010
00000100
00001000
00010000
00100000
01000000
10000000
01000000
00010000
,
10000000
01000000
00010000
00001000
00000010
00000001
00000010
00000100
00001000
00000001
00000100
00000010
,
00001010
00000000
00000001
00000100
00010000
01000000
00100000
10000000
,
00010000
00100000
01000000
00001000
00000100
00000010
00000001
00001000
,
00001010
00000000
00000001
00000010
00010000
00100000
01000000
00100000
,
00010000
10000000
00100000
00001000
00000010
00000100
00000010
00010000
,
00011000
00000000
00001000
00010000
01000000
00100000
00010000
01000000
,
00100000
00010000
00001000
00000100
00000010
00010000
00001000
00010000
,
00000100
00010000
00000100
00000000
00010000
00001000
00010000
00000000
00001000
01000000
00001000
00000000
01000000
00010000
01000000
00000000
,
00010000
10000000
00010000
10000000
01000000
00100000
01000000
00100000
00001000
00010000
00000010
00001000
00000010
00000100
00000001
00001000
,
00000100
00000000
00000000
00000000
00000110
00000000
00000000
00000000
00000010
00000001
00001000
00000010
00000100
00000001
00001000
00000100
,
00000010
00000000
00000001
00000100
00001000
00000000
00010000
01000000
10000000
00000000
00010000
00000000
10010000
00000000
00000000
00000000
,
01100000
00000000
00000000
00000000
10010000
00000000
00000000
00000000
10000000
01000000
00100000
00010000
00100000
00001000
00010000
00000010
,
00001000
00000000
00000010
00010000
00001000
00000000
00100000
00001000
00010000
00000000
00000100
00000000
00001000
00000000
00000100
00000000
,
00000110
00000000
00000000
00000000
00000011
00000000
00000000
00000000
00001000
00000001
00000010
00000100
00001000
00000100
00010000
00001000
,
00100000
00000000
00001000
00010000
00100000
00000000
01000000
00010000
10000000
00000000
01000000
00000000
01100000
00000000
00000000
00000000
,
00110000
00000000
00000000
00000000
10010000
00000000
00000000
00000000
10000000
00100000
01000000
00100000
10000000
00010000
00100000
00010000
,
10000000
01000000
00100000
00000000
00001000
00010000
00001000
00000000
00010000
00000010
00001000
00000010
00000100
00000001
00001000
00000100
,
00000010
00000000
00000000
00000000
00000011
00000000
00000000
00000000
00001000
00000001
00000100
00000001
00001000
00000100
00010000
00000100
,
00001000
00000000
00000100
00010000
00001000
00000000
00010000
00100000
01000000
00000000
00010000
10000000
01000000
00100000
01000000
00000000
,
01100000
00000000
00000000
00000000
00100000
00000000
00010000
00000000
10000000
00010000
01000000
00010000
10000000
01000000
00100000
00001000
,
00010000
00001000
00000010
00000000
00000001
00000010
00000100
00000000
00001000
00000010
00000100
00000001
00001000
00000100
00010000
00000000
,
00011000
00000000
00000000
00000000
00001000
00000000
00010000
00000000
00001000
01000000
00010000
01000000
00001000
00010000
00001000
00100000
,
00010000
10000000
00100000
00000000
01000000
00010000
10000000
00000000
01000000
00100000
00001000
00000000
00010000
00000100
00001000
00000000
,
00000100
00000000
00000010
00000000
00000001
00000000
00001000
00000000
00000010
00000100
00001000
00010000
00100000
01000000
00010000
10000000
,
01000000
00100000
01000000
10000000
00010000
01000000
00001000
00010000
00000100
00001000
00000001
00000010
00000100
00001000
00000100
00010000
,
00002000
00000000
00000000
00000000
,
00000000
00000000
00000000
00003000
,
00022000
00000000
00000000
00000000
,
00000000
00000000
00000000
00000000
,
00033000
00000000
00000000
00000000
;

//--------------- dance-double - Fred-104† ----------------
#NOTES:
     dance-double:
     Fred-104†:
     Challenge:
     18:
     :
00000000
00000000
00000000
00000000
,
00000000
00000000
00000000
00000000
,
00000000
00000000
00000000
00000000
,
00000000
00000000
00000000
00000000
,
00000000
00000000
00000000
00000000
,
00001000
00000000
00010000
00000000
01000000
00100000
00000000
00010000
00000000
10000000
01000000
00000000
00100000
00000000
00001000
00010000
,
00001000
00000000
00000010
00000000
00000001
00000010
00000000
00000100
00000000
00001000
00000001
00000000
00000100
00000000
00001000
00010000
,
00100000
00000000
01000000
00000000
00010000
00100000
00000000
01000000
00000000
00100000
00001000
00000000
00010000
00000000
00001000
00000100
,
00000010
00000000
00001000
00000000
00000001
00000100
00000000
00001000
00000000
00010000
00100000
00000000
01000000
00010000
10000000
01000000
,
00200000
00000000
00000000
00000000
,
00302000
00000000
00000000
00000000
,
00003020
00000000
00000000
00000000
,
00000032
00000000
00000000
00000003
,
00001001
00000001
00000100
00000000
00001000
00000000
00010000
00000000
,
00011000
00001000
00010000
00000000
01000000
00000000
10000000
00000000
,
00010000
10000000
00100000
01000000
00001000
00010000
00001000
00000010
00000001
00000010
00000100
00001000
00000010
00000100
00001000
00010000
,
00011000
00000000
00001000
00000000
00011000
00000000
00010000
00000000
00001000
00010000
00001000
00010000
00001000
00000000
00000000
00000000
,
01000000
00000000
00010000
00100000
01000000
00000000
10000000
00000000
00010000
01000000
00000000
10000000
01000000
00000000
00010000
00000000
,
10000000
00000000
01000000
00100000
00001000
00000000
00010000
00000000
00001000
00000100
00000000
00000001
00000010
00000000
00001000
00000000
,
00000010
00000000
00000001
00001000
00000100
00000000
00000010
00000000
00000001
00000100
00000000
00001000
00010000
00000000
00100000
00000000
,
01000000
00000000
00001000
00010000
00100000
00000000
10000000
00000000
01000000
00100000
00000000
00001000
00010000
00000000
00001000
00000000
,
00000100
00000000
00000010
00010000
00001000
00000000
00010000
00000000
00100000
01000000
00000000
00010000
00100000
01000000
00100000
00000000
,
00001000
00000000
00010000
00001000
00000100
00000000
00000010
00000000
00010000
00001000
00000000
00000010
00000001
00000010
00000100
00000000
,
00001000
00000000
00000010
00000100
00000001
00000000
00001000
00000000
00000010
00000100
00000000
00001000
00010000
00100000
01000000
00000000
,
00100000
00000000
10000000
00010000
00100000
00000000
01000000
00000000
00100000
00010000
00000000
10000000
01000000
00010000
00001000
00000000
,
00010000
00000000
00001000
00000100
00000010
00000000
00001000
00000100
00000000
00000010
00000001
00000010
00000100
00010000
00001000
00000000
,
01000000
00000000
00001000
00010000
00001000
00000000
00000010
00000001
00000000
00001000
00000010
00000100
00001000
00010000
00001000
00000000
,
00010000
00000000
00001000
01000000
00010000
00000000
01000000
00001000
00000000
00010000
00001000
00100000
00010000
01000000
00001000
00000000
,
00010000
00000000
00001000
00000100
00000001
00000000
00000010
00000100
00000000
00001000
00000001
00000010
00000100
00010000
00001000
00000000
,
00100000
00000000
00001000
00010000
00100000
00000000
10000000
00010000
00100000
01000000
00100000
00010000
00001000
00000100
00000010
00000000
,
00000001
00000000
00000100
00000010
00000001
00000000
00000010
00000100
00001000
00010000
00100000
01000000
10000000
01000000
00010000
00000000
,
10000000
01000000
00100000
00010000
01000000
00100000
00010000
00001000
00100000
00010000
00001000
00000100
00010000
00001000
00000100
00000010
,
00001000
00000001
00000010
00000100
00000001
00000100
00000010
00001000
00010000
01000000
00100000
10000000
00100000
00010000
00100000
01000000
,
20000000
00000000
00000000
00000000
,
00000000
00000000
00000000
00000000
,
30020000
00000000
00000000
00000000
,
00000000
00000000
00000000
00000000
,
00032000
00000000
00000000
00000000
,
00000000
00000000
00000000
00000000
,
00000002
00000000
00000000
00000000
,
00000000
00000000
00000000
00003003
,
00001001
00000000
00000001
00000000
00000100
00001000
00000000
00010000
00100000
00000000
01000000
00010000
00000000
00100000
01000000
00000000
,
00100000
00001000
00000000
00010000
00001000
00000000
00000100
00000010
00000000
00001000
00000100
00000000
00000010
00000001
00000000
00001000
,
00000010
00000000
00000100
00000000
00000001
00000010
00000000
00000100
00010000
00000000
00001000
00100000
00000000
01000000
10000000
00000000
,
01000000
00100000
00000000
00010000
10000000
00000000
01000000
00100000
00000000
00001000
00010000
00000000
00100000
01000000
00000000
00001000
,
00010000
00000000
00100000
00000000
10000000
00010000
00000000
00100000
01000000
00000000
00100000
00001000
00000000
00000010
00000100
00000000
,
00001000
00000001
00000000
00000100
00001000
00000000
00010000
01000000
00000000
10000000
01000000
00000000
00100000
00001000
00000000
00010000
,
00100000
00000000
01000000
00000000
00100000
10000000
00000000
01000000
00100000
00000000
00001000
00010000
00000000
00001000
00000010
00000000
,
00000100
00001000
00000000
00000001
00000100
00000000
00010000
01000000
00000000
00100000
10000000
00000000
00010000
00100000
01000000
00000000
,
10000000
01000000
00010000
00001000
00010000
01000000
10000000
00100000
00010000
00001000
00010000
00100000
,
10000000
01000000
00010000
00001000
00000010
00000001
00000010
00000100
00001000
00000010
00000100
00000001
,
00001000
00000001
00000100
00001000
00010000
01000000
10000000
00010000
10000000
00100000
00010000
00001000
,
00000010
00000001
00001000
00000010
00000100
00001000
00010000
00100000
01000000
00010000
00100000
01000000
,
10000000
00100000
01000000
10000000
01000000
00100000
00010000
00001000
00000100
00000010
00000001
00000010
,
00000100
00000001
00000010
00000100
00001000
00000010
00000100
00001000
00010000
00100000
10000000
00010000
,
00100000
01000000
00100000
00001000
00010000
00001000
00000010
00000001
00000010
00000100
00010000
00001000
,
00000100
00000001
00001000
00000100
00000010
00000001
00000100
00001000
00010000
00100000
10000000
00010000
,
10010000
00000000
00000000
00000000
10000000
01000000
00100000
00001000
00010000
00001000
00000010
00000001
00000010
00000100
00001000
00000010
,
00000100
00001000
00010000
00100000
01000000
00010000
00100000
01000000
00100000
00001000
00010000
00001000
00000100
00000001
00001000
00000000
,
00001100
00000000
00000000
00000000
00000001
00000010
00000100
00001000
00000010
00000100
00001000
00010000
00100000
01000000
00010000
00100000
,
01000000
10000000
00100000
01000000
00010000
10000000
01000000
00100000
00001000
00010000
00001000
00100000
00001000
00010000
00000010
00000000
,
00011000
00000000
00000000
00000000
00010000
00001000
00000100
00000001
00001000
00000100
00000010
00000001
00001000
00000010
00000100
00001000
,
00010000
00100000
01000000
00010000
10000000
01000000
00100000
01000000
00010000
00001000
00000010
00000100
00000010
00000001
00001000
00000000
,
00000001
00000010
00000100
00000010
00000001
00001000
00000010
00001000
00000001
00000100
00001000
00010000
00100000
01000000
00010000
10000000
,
00100000
01000000
00100000
00010000
00001000
00000100
00000010
00000100
00000001
00001000
00000100
00000010
00000001
00000100
00000010
00001000
,
00000001
00000000
00000000
00000000
00001000
00000001
00001000
00000000
00000001
00000010
00000100
00001000
00000010
00010000
00001000
00100000
,
00010000
10000000
00100000
01000000
00010000
00100000
00001000
00010000
00001000
00010000
00100000
00010000
00001000
00000000
00000000
00000000
,
01100000
00000000
00000000
00000000
10000000
00100000
01000000
00000000
00010000
00100000
01000000
10000000
01000000
00100000
00001000
00010000
,
00001000
00000100
00000001
00000100
00000010
00001000
00000001
00000010
00000100
00010000
00001000
01000000
00001000
00000000
00000000
00000000
,
01100000
00000000
00000000
00000000
00010000
10000000
00100000
00000000
10000000
01000000
00100000
00010000
00100000
00001000
00010000
00001000
,
00000100
00000001
00001000
00000100
00000010
00000001
00000100
00000010
00001000
00000100
00001000
00000100
00000010
00000000
00000000
00000000
,
00001001
00000000
00000000
00000000
00001000
00000001
00001000
00000000
00000001
00000100
00000010
00000001
00000010
00000100
00001000
00010000
,
00100000
01000000
10000000
01000000
00010000
10000000
01000000
00100000
00001000
00010000
00000100
00000010
00000001
00000100
00000010
00001000
,
00000001
00000000
00000000
00000000
00001000
00000100
00000010
00000000
00000001
00000100
00000010
00000001
00000010
00000100
00000001
00001000
,
00000001
00000010
00001000
00010000
01000000
10000000
00010000
10000000
00100000
01000000
00010000
10000000
01000000
00100000
00001000
00010000
,
00001000
00000000
00000000
00000000
00010000
00000010
00001000
00000000
00000010
00010000
00001000
00000100
00000010
00001000
00000001
00000010
,
00000100
00010000
00001000
00010000
00100000
01000000
00010000
00100000
01000000
10000000
00100000
01000000
10000000
01000000
00100000
10000000
,
01000000
00000000
00000000
00000000
00100000
00001000
00010000
00000000
00001000
00000010
00000100
00001000
00000010
00000100
00000001
00000010
,
00001000
00010000
01000000
10000000
00010000
10000000
00100000
00010000
00001000
00000100
00000001
00001000
00000100
00000010
00000001
00000000
,
00001000
00000001
00000100
00000010
00000100
00001000
00010000
00100000
10000000
00100000
01000000
00010000
01000000
10000000
01000000
00010000
,
00100000
01000000
00100000
00001000
00010000
00001000
00000100
00000001
00001000
00000100
00000010
00000001
00000100
00001000
00010000
00100000
,
20000000
00000000
00000000
00000000
,
00000000
00000000
00000000
30000000
,
20020000
00000000
00000000
00000000
,
00000000
00000000
00000000
00000000
,
30030000
00000000
00000000
00000000
;
