#TITLE:Roll the Dice;
#ARTIST:lapix;
#BANNER:Roll the Dice.png;
#BACKGROUND:Roll the Dice-bg.png;
#CDTITLE:./CDTitles/jb clan.png;
#MUSIC:Roll the Dice.ogg;
#SAMPLESTART:95.991;
#SAMPLELENGTH:15;
#BPMS:0=165;
#BGSTAGE:27;

//--------------- dance-single - Fred-104 ----------------
#NOTES:
     dance-single:
     Fred-104:
     Beginner:
     4:
     :
0000
0000
0000
0000
,
0000
0000
0000
0000
,
0000
0000
0000
0000
,
0000
0000
0000
0000
,
0000
0000
0000
0000
,
0000
0000
0000
0000
,
1000
0000
0001
0000
,
1000
0000
0001
0000
,
1000
0000
0001
0000
,
2002
0000
3003
0000
,
0001
0000
0000
0000
,
1000
0000
0000
0000
,
0010
0000
0000
0000
,
1000
0000
0000
0000
,
0001
0000
0000
0000
,
1000
0000
0000
0000
,
0001
0001
0001
0001
,
2002
0000
0000
3003
,
1000
0000
0001
0000
,
1000
0000
0001
0000
,
0100
0000
0010
0000
,
0100
0000
0010
0000
,
1000
0000
0010
0000
,
1000
0000
0010
0000
,
0001
0000
0100
0000
,
0001
0000
0100
0000
,
1000
0000
1000
0000
,
0001
0000
0001
0000
,
0100
0000
0010
0000
,
0100
0000
0010
0000
,
1000
0000
0001
0000
,
1000
0000
0001
0000
,
1000
1000
1000
1000
,
2002
0000
0000
3003
,
0001
0000
0001
0000
,
0100
0000
0000
0000
,
0001
0000
1000
0000
,
1000
0000
0000
0000
,
0010
0000
0010
0000
,
0100
0000
0000
0000
,
0001
0000
1000
0000
,
0001
0000
0000
0000
,
1000
0000
0000
1000
,
0000
0000
1000
0000
,
0001
0000
0000
0001
,
0000
0000
0001
0000
,
1000
0000
0000
0001
,
0000
0000
1000
0000
,
0001
0000
0000
1000
,
0000
0000
0001
0000
,
2000
0000
0000
0000
,
0000
0000
0000
0000
,
3002
0000
0000
0000
,
0000
0000
0000
0000
,
2003
3000
0002
0003
,
2000
3000
0002
0003
,
0200
0300
0020
0030
,
0200
0300
0020
0030
,
1000
0000
0010
0000
,
1000
0000
0100
0000
,
1000
0000
0001
0000
,
0001
0000
1000
0000
,
0001
0000
0001
0000
,
1000
0000
1000
0000
,
0001
0001
0001
0001
,
2002
0000
0000
3003
,
1000
0000
0010
0000
,
1000
0000
0100
0100
,
0100
0000
1000
0000
,
0001
0000
0010
0001
,
0010
0000
0001
0000
,
1000
0000
0100
1000
,
0010
0000
0100
0000
,
1001
0000
0000
0000
,
0001
0000
0100
0010
,
0100
0000
0001
1000
,
0001
0000
1000
0010
,
0100
0000
0001
1000
,
0001
1000
0001
0000
,
0100
0000
0010
0000
,
1001
0000
0000
0000
,
0001
0010
0100
1000
,
2002
0000
0000
0000
,
3003
0000
0000
0000
;

//--------------- dance-single - Fred-104 ----------------
#NOTES:
     dance-single:
     Fred-104:
     Easy:
     8:
     :
0000
0000
0000
0000
,
0000
0000
0000
0000
,
0000
0000
0000
0000
,
0000
0000
0000
0000
,
0000
0000
0000
0000
,
0000
0000
0000
0000
,
1000
0100
1000
0000
0010
0000
0000
0000
,
0100
0001
0100
0000
0001
0000
0000
0000
,
0001
0010
0001
0000
1000
0010
1000
0000
,
2002
0000
3003
0000
,
1000
1000
0010
0100
,
0010
0000
0010
0000
0100
0001
0100
0000
,
0001
0001
0010
0001
,
0100
0000
0010
0000
0100
0001
1000
0000
,
0001
0010
0001
0001
,
1000
0100
1000
1000
,
0001
0100
0001
0000
1000
0010
1000
0000
,
0200
0300
0200
0300
0200
0300
1001
0000
,
1100
0000
0011
0000
,
1010
0000
0101
0000
,
1100
0000
1001
0000
,
0001
0000
1000
0000
0001
0100
0001
0000
,
0011
0000
1100
0000
,
0101
0000
1010
0000
,
1001
0000
0001
0000
0100
0010
0100
0000
,
0001
0000
1000
0000
0100
1000
0100
0000
,
1010
0000
0101
0000
,
1100
0000
0011
0001
,
1001
0000
0110
0000
,
0100
0010
0100
0000
0001
0000
1000
0000
,
0001
0100
1000
0010
,
0001
0100
0010
1000
,
0001
0001
0001
0000
1000
1000
1000
0000
,
2002
0000
0000
3003
,
0002
0023
0032
2003
,
3001
0001
0020
0030
,
0100
0100
1000
0010
,
0001
0010
2000
3000
,
2000
3002
2003
3200
,
0310
0001
0200
0300
,
0001
0001
1000
1000
,
1001
0000
0000
0110
0000
0000
1001
0000
,
0001
0010
1000
0001
,
0100
1000
0002
0003
,
1000
0000
0000
0000
0100
0000
0000
0000
0010
0000
0000
0000
0001
0000
0000
0001
,
0000
0000
1000
0000
0000
1000
0000
0000
2002
0000
0000
0000
3003
0000
0000
0000
,
1000
0100
0001
1000
,
0010
0001
2000
3000
,
0001
0000
0000
0001
0000
0000
0010
0000
0000
0000
0000
0000
0100
0000
0000
1000
,
0000
0000
1000
0000
0000
0001
0000
0000
0001
0000
0000
0000
1000
0000
0000
0000
,
0002
0000
0000
0000
,
2003
0000
0000
0000
,
3002
0000
0000
0000
,
2003
0000
0000
0000
,
3001
0100
0101
0000
,
1000
0100
1100
0000
,
0001
0010
0011
0000
,
1000
0010
2020
3030
,
1000
0000
0100
0000
1000
0000
0001
0010
,
0001
0000
0100
0000
0010
0000
1000
0010
,
1000
0000
0001
0000
0100
0000
0010
0100
,
0010
0000
1000
0000
0001
1000
0001
0000
,
1000
1000
0100
0100
,
0001
0001
0010
0010
,
1000
0100
1000
0000
0001
0010
0001
0000
,
2002
0000
0000
3003
,
1000
0000
0100
0000
1000
0000
0100
0100
,
0010
0000
0001
0000
0100
0010
0100
0000
,
0001
0000
0010
0000
0001
0000
1000
1000
,
0010
0000
0100
0000
0001
0010
0001
0000
,
0100
0000
0010
0000
0100
0000
0001
0001
,
0010
0000
0100
0000
1000
0001
1000
0000
,
0010
0000
1000
0000
0100
0000
1000
1000
,
0001
0000
0000
0001
0000
0000
1000
0000
0000
1000
0000
0000
0001
0000
0100
0000
,
0010
0000
1000
0000
0100
0000
0010
0010
,
0001
0000
1000
0000
0001
0001
0100
0000
,
0001
0000
0010
0000
0001
0000
0100
0100
,
0010
0000
0100
0000
0010
0010
1000
0000
,
0001
1000
0001
0000
0100
0000
0010
0010
,
0010
0000
0100
0000
0001
1000
1000
0000
,
1001
0000
0000
0110
0000
0000
1001
0000
,
0001
0100
0001
0000
1000
0010
1000
0000
,
2002
0000
0000
0000
,
3003
0000
0000
0000
;

//--------------- dance-single - Fred-104 ----------------
#NOTES:
     dance-single:
     Fred-104:
     Medium:
     13:
     :
0000
0000
0000
0000
,
0000
0000
0000
0000
,
0000
0000
0000
0000
,
0000
0000
0000
0000
,
1000
1001
0000
0000
0000
0000
0000
0000
,
0000
0000
0000
0000
,
1000
0100
0010
0000
0010
0001
0100
0000
,
0100
0010
1000
0000
1000
0001
0010
0000
,
0010
0001
0100
0010
1000
0010
0100
0001
,
2002
0000
0000
3003
1000
0100
0001
0100
,
1000
0000
0000
0010
0000
0000
0100
0000
0010
0000
1000
0000
0100
0000
0010
0000
,
0001
0000
0000
1000
0000
0000
0001
0000
0100
0000
0010
0000
0100
0000
0001
0000
,
0010
0000
0000
0001
0000
0000
1000
0000
0010
0000
0100
0000
0010
0000
1000
0000
,
0100
0000
0000
1000
0000
0000
0010
0000
0001
0000
0010
0000
0100
0000
0010
0000
,
1010
0000
1010
0000
1000
0100
0010
0001
,
0011
0000
0011
0000
0001
0100
0010
1000
,
0001
0100
1000
0100
0001
0010
0100
1000
,
0200
0300
0200
0300
0200
0300
0200
0300
0200
0000
0300
0000
1001
0000
0000
0000
,
2100
3010
0102
0013
,
1000
0100
0001
1000
0010
0001
1000
0000
,
0001
0100
2000
0000
3001
0010
2000
0000
,
3002
0000
2003
0000
3020
0030
0020
0030
0001
0000
0100
0000
0010
0000
1000
0000
,
2010
3100
0012
0103
,
1000
0010
0001
1000
0100
0001
2000
0000
,
3001
0000
1000
0000
0002
0000
0000
0000
0103
0010
0100
0010
0100
0000
0001
0000
,
2000
0010
3001
1001
,
0001
0010
0011
0000
1000
0100
1100
0000
,
0001
0100
0002
0013
0001
1000
0010
1000
,
0100
0010
0012
0000
0103
0010
2010
0000
,
3002
0000
2003
0000
3002
0000
0000
0000
1003
0001
1000
0001
1000
0000
0010
0000
,
2000
3100
0002
0103
2000
3010
0002
0013
,
1000
0100
0020
0000
0031
0100
0020
0000
,
1030
0001
0100
0010
0100
0001
1000
0100
,
1000
0010
1000
0000
0001
0100
0001
0000
1000
0001
1000
0001
1000
0000
0000
0000
,
1010
0000
0101
0000
1100
0000
0100
0010
,
0001
0100
0010
0001
0010
1000
0001
1000
,
0100
0001
0100
0010
0001
1000
0010
0100
,
1000
0100
0010
1000
0100
0010
0001
0000
,
0011
0000
1010
0000
0101
0000
0100
0010
,
1000
0100
0010
1000
0010
0001
0010
0100
,
1000
0000
0001
0000
0100
0000
0010
0100
0000
0001
0100
0000
0010
0000
1000
0000
,
0001
0100
0000
0010
0000
0000
1000
0100
0000
0010
0000
0000
0001
1000
0001
0000
,
1000
0000
0000
1010
0000
0000
0001
0000
0101
0000
0000
0000
0001
0000
0000
0011
,
0000
0000
0100
0000
0000
1100
0000
0000
1000
0000
0001
0000
2002
0000
3003
0000
,
0001
0000
0000
0011
0000
0000
1000
0000
1100
0000
0000
0000
1000
0000
0000
1010
,
0000
0000
0100
0000
0000
0101
0000
0000
0001
0000
1000
0000
2002
0000
3003
0000
,
1000
0100
1000
0010
1000
0100
0010
0001
,
0100
0001
0010
0001
0100
0010
1000
0001
,
1000
0000
0000
1010
0000
0000
1001
0000
0000
0000
0001
0000
0011
0000
0000
1100
,
0000
0000
0101
0000
0000
0110
0000
0000
1001
0000
0001
0000
0100
0000
0010
0000
,
2010
0000
0000
0000
,
3200
0000
0302
0000
,
2003
0000
0000
0000
,
3020
0000
0032
0000
,
1003
0100
1000
0100
0000
0000
1000
0100
0010
0001
0000
0000
,
0100
0001
0100
0001
0000
0000
0100
0010
1000
0001
0000
0000
,
0010
0100
0010
0100
0000
0000
0010
0100
0001
1000
0000
0000
,
0001
0000
0010
0000
0100
0000
1000
0000
0000
0000
0000
0000
0001
0000
0000
0100
0000
0000
1000
0000
0000
0100
0000
0000
,
0001
0010
0001
1000
0010
0100
0010
1000
,
0100
0010
0001
1000
0010
1000
0100
0000
,
1000
0001
0100
0001
0010
0100
1000
0001
,
0010
0100
0001
0100
1000
0001
1000
0000
,
1010
0101
1100
0011
,
1000
0100
0001
0000
1000
0010
0001
0000
,
1000
0100
0010
0100
1000
0001
0100
0010
,
2000
3200
0320
0032
0203
0310
0110
0000
,
0001
0000
0000
0010
0000
0000
0001
0000
1000
0000
0000
0001
0000
0000
0100
0000
,
0010
0000
0000
1000
0000
0000
0100
0000
1000
0000
0010
0000
0001
0000
0010
0000
,
1000
0000
0000
0001
0000
0000
0100
0000
0010
0000
0000
1000
0000
0000
0100
0000
,
1000
0000
0000
0001
0000
0000
0100
0000
0010
0000
0100
0000
0110
0000
0000
0000
,
0001
0000
0000
0010
0000
0000
0100
0000
0010
0000
0000
0001
0000
0000
1000
0000
,
0010
0000
0000
0100
0000
0000
1000
0000
0100
0000
0001
0000
0100
0000
0010
0000
,
1000
0000
0000
0001
0000
0000
0100
0000
0010
0000
0000
0100
0000
0000
0001
0000
,
0011
0000
0000
1001
0000
0000
1010
0000
0000
1001
0000
0000
0001
0000
1000
0000
,
0001
0000
0100
0001
0000
0100
0001
0000
0010
0000
0000
0100
0000
0000
1000
0000
,
0010
0000
0100
0010
0000
1000
0010
0000
0100
0000
0001
0000
1000
0000
0100
0000
,
0010
0000
0100
1000
0000
0001
1000
0000
0001
0000
0000
0100
0000
0000
0010
0000
,
0100
0000
0001
0010
0000
0001
1000
0000
0100
0000
0010
0000
0001
0000
1000
0000
,
0001
0000
0001
0000
1001
0000
0000
0000
1000
0000
0000
0010
0000
0000
0100
0000
,
0010
0000
1000
0100
0000
0010
0001
0000
1000
0000
0001
0000
0100
0000
0010
0000
,
0110
0000
0000
1001
0000
0000
0110
0000
,
1000
0100
1000
0000
0001
0010
0001
0000
1000
0001
1000
0001
1000
0000
0000
0000
,
2002
0000
0000
0000
,
3003
0000
0000
0000
;

//--------------- dance-single - Fred-104 ----------------
#NOTES:
     dance-single:
     Fred-104:
     Hard:
     17:
     :
0000
0000
0000
0000
,
0000
0000
0000
0000
,
0000
0000
0000
0000
,
0000
0000
0000
0000
,
0110
1001
0000
0000
0000
0000
0000
0000
,
0002
0000
2000
3003
,
1000
0010
1000
0100
1000
0000
0000
0000
0001
0010
0100
1000
0010
0000
0000
0000
,
0100
0010
0100
0001
1000
0000
0000
0000
0001
1000
0100
0010
0001
0000
0000
0000
,
0100
0010
0100
0000
0001
0010
0001
0000
1000
0010
1000
0010
0100
0001
0100
0001
,
0200
0000
0000
0000
0000
0000
0000
0000
0310
1000
0001
0000
1000
0000
0100
0010
,
0001
0000
0100
0001
0000
0010
0001
0000
1000
0010
0000
1000
0100
0010
0001
0100
,
0010
0000
1000
0001
0000
0100
0001
0000
1000
0001
0000
0010
0100
0010
0001
0100
,
0010
0000
1000
0001
0000
0010
0001
0000
0100
0001
0000
0010
0100
1000
0010
1000
,
0100
0000
1000
0010
0000
0100
0001
0000
1000
0100
0010
0000
0001
0000
0100
0010
,
1000
0000
0100
0000
1100
0000
0000
1000
0010
0100
0000
0010
0100
0000
0001
0000
,
0010
0001
0010
0001
1000
0010
1000
0010
0100
0001
0010
0100
1000
0010
0100
0001
,
1000
0100
0001
0000
1000
0010
0001
0000
1000
0100
0010
0001
0010
0100
1000
0001
,
0200
0300
0200
0300
0200
0300
0200
0300
0200
0000
0300
0000
1001
0000
0000
0000
,
2100
3010
0002
0003
2010
3100
0002
0003
,
2100
3010
0100
0001
0120
0130
1000
0001
,
2010
3100
0012
0103
2001
3100
1002
0013
,
2000
0000
3200
0000
0302
0000
0023
0000
1030
0010
0100
0010
1000
0001
0010
0000
,
0210
1300
0002
0003
0210
0301
2000
3000
,
1200
0310
0001
1000
1002
0103
2001
3010
,
0012
0000
2003
0000
3020
0000
0230
0000
0301
0010
0001
1000
0001
0010
0001
1000
,
0001
0100
0000
0100
1000
0000
0100
0010
0001
1000
0010
0000
0100
0000
0001
0000
,
2100
0000
3002
0000
0203
0000
0300
0000
0102
0000
2003
0000
3200
0000
2300
3000
,
1020
0000
0000
0000
0000
0000
0000
0000
0230
0000
0000
0000
0000
0000
0000
0000
0302
0000
0000
0000
0000
0000
0000
0000
0013
0000
0000
0000
0001
0000
0000
0000
0200
0300
0000
0000
0000
0000
0000
0000
0200
0300
0000
0000
0000
0000
0000
0000
1000
0000
0000
0000
0001
0000
0000
0000
0020
0000
0000
0000
0030
0000
0000
0000
,
0012
0000
0000
2003
0000
0000
3002
0000
0000
0003
0000
0000
2010
0000
0000
3002
0000
0000
1003
0010
0100
0001
0000
0000
,
0200
0300
0200
0300
0220
0000
0330
0000
1000
0001
0100
0001
1000
0001
0100
0001
,
2000
3100
1002
0103
2001
3010
1002
0013
,
2100
0000
3002
0000
0023
0000
0000
0000
0031
0100
0010
0000
2000
0000
3100
0010
,
0001
0000
1000
0000
0001
0000
0100
0000
0010
1000
0100
0010
0001
1000
0010
0100
,
0001
1000
0001
0010
0100
1000
0100
0010
0001
0100
0010
1000
0001
0000
0000
0000
,
2000
0000
0100
0000
3002
0000
0010
0000
1003
0000
0100
1000
0020
0000
0000
0000
,
0130
0001
1000
0001
0100
0000
0001
0010
0100
1000
0001
0100
0010
1000
0010
0100
,
0001
0010
0001
1000
0001
0000
0100
0010
1000
0010
0100
0001
1000
0100
1000
0000
,
0001
1000
0010
1000
0001
0000
1000
0001
0100
0001
1000
0100
0010
0001
0100
0010
,
2000
0000
0010
0000
3002
0000
0100
0000
1003
0000
0010
1000
0200
0000
0000
0000
,
1300
0100
1000
0001
0100
0000
0001
0010
0100
0010
0001
0000
0100
0001
0010
0001
,
1000
0100
0010
0001
1000
0000
0001
0010
0000
0010
1000
0000
0001
1000
0010
1000
,
0100
0010
0000
0001
0000
0100
0010
1000
0000
0010
0000
0100
0001
1000
0100
0010
,
0001
0000
1000
0000
0001
0100
0000
0010
1000
0000
0100
0000
0010
0000
1000
0000
,
0010
0000
0001
0000
0010
0100
0000
1000
0001
0000
0100
0000
0020
0000
0000
0000
,
1030
0000
0001
0000
0010
1000
0010
0000
0001
0000
0100
1000
0100
0000
0000
0101
,
0000
0000
0011
0000
0000
1100
0000
0000
1010
0000
0110
0000
2002
0000
0000
3003
,
1000
0000
0010
0000
1000
0010
0000
0100
1000
0000
0100
0000
0001
0100
0010
0000
,
1000
0001
0010
0001
0100
0010
0100
0010
0100
0001
1000
0100
1000
0000
0010
0000
,
1010
0000
0000
0101
0000
0000
1100
0000
0000
0000
1001
0000
0011
0000
0000
1010
,
0000
0000
0101
0000
0000
1100
0000
0000
1001
0000
0110
0000
1001
0000
0001
1000
,
0002
0000
0000
0000
,
0203
0000
0320
0000
,
2030
0000
0000
0000
,
3200
0000
0320
0000
,
0031
0010
0100
1000
0100
0010
0011
0001
0100
0010
1000
0100
,
1000
0001
0100
0010
1000
0100
1100
1000
0001
0100
0010
0100
,
0001
1000
0100
0001
0100
1000
1010
0010
0100
0001
1000
0001
,
0100
0000
1000
0000
0100
0000
0001
0000
0010
0000
0001
0000
0101
0000
0000
0001
0000
0000
1100
0000
0000
1000
0000
0000
,
0001
0000
1000
0100
0000
1000
0001
0000
0010
0100
0000
0010
0001
1000
0001
0100
,
0001
0000
0010
0001
0000
1000
0001
0000
0100
0010
0000
1000
0010
0100
0001
1000
,
0100
0000
1000
0010
0000
1000
0100
1000
0001
0010
0000
0001
0100
0001
0010
0001
,
1000
0000
0010
0100
0000
0010
0001
0000
0010
1000
0001
0000
1000
0000
0100
0010
,
0001
0000
0100
0001
0100
0000
0010
0100
0010
0000
1000
0100
1000
0000
0001
0000
,
0010
0001
0010
0000
0100
1000
0100
0000
1000
0010
1000
0000
0001
0100
0001
0000
,
1000
0001
1000
0001
0010
0100
0010
0100
1000
0010
0100
0001
0100
0010
1000
0001
,
0020
0000
0230
0000
2300
0000
3020
0000
0230
0000
0302
0003
1001
0000
0000
0000
,
1100
0000
1000
0010
0000
1000
0100
1000
0001
0000
0100
0010
0000
1000
0010
0100
,
0010
0000
1000
0001
0000
0100
0001
1000
0001
0000
0010
0100
0000
0010
0001
0100
,
0001
0000
0010
0100
0000
1000
0010
1000
0100
0000
1000
0001
0000
0100
0001
0010
,
0100
0000
0010
0001
0000
0100
0010
1000
0001
0000
1000
0000
1001
0000
0000
0000
,
1010
0000
1000
0001
0000
0010
0001
1000
0001
0000
0100
0010
0000
1000
0010
0100
,
0001
0000
0010
0100
0000
0010
0001
0100
0001
0000
1000
0010
0000
1000
0100
1000
,
0001
0000
1000
0001
0000
0100
0010
1000
0010
0000
0100
0001
0000
0010
0100
0000
,
1100
0000
0000
0101
0000
0000
1010
0000
0000
0011
0000
0000
1000
0100
0010
0001
,
1000
0000
0010
0100
0000
0010
1000
0001
1000
0000
0001
0010
0000
0100
0010
0001
,
0100
0000
0001
0010
0000
0001
0100
0010
0100
0000
0001
0010
0000
0100
1000
0010
,
1000
0000
0001
1000
0000
0010
1000
0001
1000
0000
0100
0010
0000
0001
1000
0100
,
0010
0000
0001
0100
0000
0010
0100
0001
0100
0000
0010
1000
0001
0000
1000
0000
,
0100
0000
0100
0000
0110
0000
0010
0001
1000
0000
0010
1000
0000
0100
0010
0000
,
0011
0000
0000
1010
0000
0000
0101
0000
0000
0000
0001
1000
0010
0100
0001
0000
,
0101
0000
0000
1010
0000
0000
0011
0000
,
0001
1000
0100
1000
0001
0100
0010
1000
0001
0010
0100
1000
0001
0000
0000
0000
,
2002
0000
0000
0000
,
3003
0000
0000
0000
;

//--------------- dance-double - Fred-104 ----------------
#NOTES:
     dance-double:
     Fred-104:
     Easy:
     8:
     :
00000000
00000000
00000000
00000000
,
00000000
00000000
00000000
00000000
,
00000000
00000000
00000000
00000000
,
00000000
00000000
00000000
00000000
,
00000000
00000000
00000000
00000000
,
00000000
00000000
00000000
00000000
,
00010000
00001000
00000010
00000001
,
00001000
00000100
00000010
00000001
,
00000100
00001000
00010000
00001000
,
00022000
00000000
00033000
00000000
,
00001000
00010000
01000000
10000000
,
00010000
00000000
00100000
00000000
01000000
10000000
01000000
00000000
,
10000000
00100000
00010000
00001000
,
00010000
00000000
01000000
00000000
00010000
00001000
00010000
00000000
,
00001000
00000010
00001000
00010000
,
00001000
00000100
00000001
00001000
,
00000001
00000010
00000001
00000000
00001000
00000010
00001000
00000000
,
00000200
00000300
00000200
00000300
00000200
00000300
00001001
00000000
,
00001001
00000000
00000110
00000000
,
00001010
00000000
00010100
00000000
,
01001000
00000000
00010010
00000000
,
00001000
00000000
00100000
00000000
00010000
10000000
00010000
00000000
,
01010000
00000000
10100000
00000000
,
11000000
00000000
00110000
00000000
,
10010000
00000000
10000000
00000000
01000000
00100000
01000000
00000000
,
00100000
00000000
00001000
00000000
00010000
00001000
00010000
00000000
,
00011000
00000000
00010010
00000000
,
01001000
00000000
00010100
00010000
,
00011000
00000000
00001010
00000010
,
00000001
00000100
00000001
00000000
00001000
00000000
00000100
00000000
,
00001000
00000010
00000100
00000010
,
00010000
00001000
01000000
00001000
,
00010000
00001000
00000010
00000000
00001000
00010000
00100000
00000000
,
00022000
00000000
00000000
00033000
,
00020000
00032000
00203000
00302000
,
00013000
00001000
02000000
03000000
,
00010000
00100000
01000000
10000000
,
00010000
10000000
00200000
00300000
,
20000000
32000000
03020000
00032000
,
00003100
00000010
00002000
00003000
,
00000001
00000010
00001000
00010000
,
00011000
00000000
00000000
00110000
00000000
00000000
10010000
00000000
,
10000000
01000000
00010000
01000000
,
10000000
00100000
00010000
00000000
,
00100000
00000000
00000000
00000000
10000000
00000000
00000000
00000000
01000000
00000000
00000000
00000000
00010000
00000000
00000000
00001000
,
00000000
00000000
00010000
00000000
00000000
00001000
00000000
00000000
00000010
00000000
00000000
00000000
00000100
00000000
00000000
00000000
,
00001000
00000001
00000100
00001000
,
00000100
00000001
00002000
00003000
,
00000001
00000000
00000000
00001000
00000000
00000000
00000010
00000000
00000000
00000000
00000000
00000000
00001000
00000000
00000000
00000100
,
00000000
00000000
00010000
00000000
00000000
00001000
00000000
00000000
00010000
00000000
00000000
00000000
01000000
00000000
00000000
00000000
,
00200000
00000000
00000000
00000000
,
00320000
00000000
00000000
00000000
,
20030000
00000000
00000000
00000000
,
32000000
00000000
00000000
00000000
,
03100000
00001000
00011000
00000000
,
00010000
00000100
00001100
00000000
,
00001000
00000100
00000110
00000000
,
00000001
00000100
00000202
00000303
,
00000001
00000010
00001000
00010000
,
00001000
00000000
00000010
00000000
00000001
00000000
00001000
00000001
,
00001000
00000001
00000100
00001000
,
00010000
00000000
00100000
00000000
01000000
00010000
10000000
00000000
,
00100000
01000000
00010000
00100000
,
00001000
00010000
00000010
00001000
,
00000100
00000100
00000100
00000000
00010000
00010000
00010000
00000000
,
00022000
00000000
00000000
00033000
,
00001000
00000000
00010000
00000000
01000000
00000000
10000000
00010000
,
01000000
00000000
00100000
00000000
10000000
01000000
10000000
00000000
,
01000000
00000000
00100000
00000000
00001000
00000000
00010000
00001000
,
00010000
00000000
00000010
00000000
00001000
00000100
00001000
00000000
,
00000100
00000000
00000010
00000000
00000001
00000000
00000100
00000010
,
00000100
00000000
00001000
00000000
00010000
00100000
01000000
00000000
,
00010000
00000000
00100000
00000000
01000000
00000000
00100000
00001000
,
00010000
00000000
00000000
00010000
00000000
00000000
00001000
00000000
00000000
00001000
00000000
00000000
00011000
00000000
00000000
00000000
,
00010000
00001000
00000100
00000001
,
00001000
00000100
00000010
00000001
,
00001000
00000001
00000010
00000100
,
00000010
00000000
00001000
00000000
00010000
00100000
10000000
00000000
,
00010000
10000000
01000000
00000000
00100000
00000000
00001000
00001000
,
00001000
00000000
00010000
00000000
00000100
00001000
00001000
00000000
,
00001010
00000000
00000000
00000101
00000000
00000000
00001100
00000000
,
00000001
00001000
00000010
00000100
,
00002002
00000000
00000000
00000000
,
00003003
00000000
00000000
00000000
;

//--------------- dance-double - Fred-104 ----------------
#NOTES:
     dance-double:
     Fred-104:
     Medium:
     13:
     :
00000000
00000000
00000000
00000000
,
00000000
00000000
00000000
00000000
,
00000000
00000000
00000000
00000000
,
00000000
00000000
00000000
00000000
,
00000100
00001001
00000000
00000000
00000000
00000000
00000000
00000000
,
00000000
00000000
00000000
00000000
,
00000001
00000100
00001000
00000000
00010000
01000000
10000000
00000000
,
10000000
00100000
00010000
00000000
00001000
00000010
00000001
00000000
,
00001000
00000100
00000010
00000001
00000100
00001000
00010000
00001000
,
00022000
00000000
00000000
00033000
00010000
00001000
00000010
00001000
,
00010000
00000000
00000000
00001000
00000000
00000000
00100000
00000000
00010000
00000000
01000000
00000000
00100000
00000000
10000000
00000000
,
00010000
00000000
00000000
00100000
00000000
00000000
01000000
00000000
00100000
00000000
00010000
00000000
01000000
00000000
00001000
00000000
,
00010000
00000000
00000000
00000010
00000000
00000000
00001000
00000000
00000100
00000000
00010000
00000000
00000100
00000000
00001000
00000000
,
00000001
00000000
00000000
00000100
00000000
00000000
00001000
00000000
00000100
00000000
00000010
00000000
00001000
00000000
00000100
00000000
,
00000110
00000000
00000011
00000000
00000001
00000100
00001000
00010000
,
00011000
00000000
00110000
00000000
00100000
10000000
00010000
10000000
,
01000000
00100000
00001000
00010000
00100000
10000000
01000000
00010000
,
00002000
00003000
00002000
00003000
00002000
00003000
00002000
00003000
00002000
00000000
00003000
00000000
00011000
00000000
00000000
00000000
,
00020100
00031000
01002000
00013000
,
00010000
00001000
00000010
00001000
00010000
00100000
00010000
00000000
,
00020010
00031000
00102000
00013000
,
00020000
00000000
00030020
00000000
00002030
00003000
00002000
00003000
00010000
00000000
00001000
00000000
00100000
00000000
00010000
00000000
,
02010000
03100000
00012000
00103000
,
00001000
00010000
00000100
00001000
00000010
00001000
00000200
00000000
,
00000310
00000000
00000001
00000000
00002000
00000000
00000000
00000000
00003001
00001000
00000001
00001000
00000001
00000000
00000100
00000000
,
00000020
00001000
00000130
00000110
,
00000001
00000100
00001000
00000000
00010000
01000000
10000000
00000000
,
00010000
00100000
02000000
13000000
00010000
01000000
00100000
00010000
,
00001000
00010000
00012000
00000000
00013000
00001000
00021000
00000000
,
00032000
00000000
00023000
00000000
00030020
00000000
00000000
00000000
00001030
00000100
00001000
00000100
00000010
00000000
00000001
00000000
,
00002000
00003010
00000002
00000013
00002000
00003100
00000002
00000103
,
00001000
00000001
00000020
00000000
00000130
00010000
00002000
00000000
,
01003000
00010000
10000000
01000000
00100000
00010000
00100000
01000000
,
10000000
01000000
10000000
00000000
00010000
01000000
00010000
00000000
00100000
00001000
00100000
00001000
00010000
00000000
00000000
00000000
,
00011000
00010010
01001000
00011000
,
00010000
00001000
00000100
00000001
00001000
00000100
00000010
00000001
,
00001000
00000100
00000010
00001000
00010000
01000000
00100000
00010000
,
01000000
00100000
10000000
01000000
00100000
00010000
01010000
00000000
,
00101000
00010010
01001000
00010100
,
00001000
00010000
01000000
10000000
00010000
00100000
01000000
10000000
,
00010000
00100000
01000000
00010000
00001000
00000010
00000100
00001000
,
00000001
00000010
00000000
00000100
00000000
00000000
00001000
00000010
00000000
00000100
00000000
00000000
00000001
00000000
00001000
00000000
,
00000100
00000000
00000000
00010100
00000000
00000000
00010000
00000000
00001000
00000000
00000000
00000000
00100000
00000000
00000000
01010000
,
00000000
00000000
00100000
00000000
00000000
00011000
00000000
00000000
00001000
00000000
00010000
00000000
00022000
00000000
00033000
00000000
,
00010000
00000000
00000000
00010010
00000000
00000000
00000010
00000000
00001000
00000000
00000000
00000000
00000100
00000000
00000000
00000110
,
00000000
00000000
00000001
00000000
00000000
00000101
00000000
00000000
00000001
00000000
00001000
00000000
00002002
00000000
00003003
00000000
,
00000001
00000100
00001000
00010000
00001000
00100000
01000000
10000000
,
00010000
10000000
00100000
01000000
00010000
00100000
01000000
00001000
,
00000100
00000000
00000000
00000110
00000000
00000000
00000101
00000000
00000000
00000000
00000001
00000000
00000101
00000000
00000000
00001010
,
00000000
00000000
00011000
00000000
00000000
00101000
00000000
00000000
00001000
00000000
00100000
00000000
00010000
00000000
10000000
00000000
,
02000000
00000000
00000000
00000000
,
03200000
00000000
00000000
00000000
,
00302000
00000000
00000000
00000000
,
00023000
00000000
00030200
00000000
,
00001300
00000100
00000010
00000001
00000000
00000000
00001000
00000100
00000010
00000001
00000000
00000000
,
00000100
00000010
00001000
00000100
00000000
00000000
00010000
00000010
00001000
00000010
00000000
00000000
,
00010000
00001000
00100000
00010000
00000000
00000000
01000000
00100000
10000000
00010000
00000000
00000000
,
00100000
00000000
01000000
00000000
10000000
00000000
00010000
00000000
00000000
00000000
00000000
00000000
01000000
00000000
00000000
00100000
00000000
00000000
10000000
00000000
00000000
00100000
00000000
00000000
,
01000000
00010000
10000000
01000000
00010000
00001000
00010000
00000010
,
00000100
00000001
00001000
00000100
00000010
00000001
00000100
00000000
,
00000001
00000010
00000001
00001000
00000100
00010000
00001000
00010000
,
00000010
00010000
00001000
00010000
00100000
00010000
00001000
00000000
,
00011000
00101000
00010010
00011000
,
00010000
00001000
00000010
00000001
00000100
00001000
00010000
00001000
,
00010000
00100000
01000000
00010000
00100000
01000000
10000000
00010000
,
20000000
00000000
32000000
00000000
03020000
00000000
00032000
00000000
00003020
00000000
00000032
00000003
00001001
00000000
00000000
00000000
,
00001000
00000000
00000000
00000100
00000000
00000000
00000010
00000000
00000001
00000000
00000000
00000100
00000000
00000000
00001000
00000000
,
00010000
00000000
00000000
01000000
00000000
00000000
00100000
00000000
00010000
00000000
00000000
10000000
00000000
00000000
00100000
00000000
,
01000000
00000000
00000000
00010000
00000000
00000000
00100000
00000000
10000000
00000000
00000000
00100000
00000000
00000000
00010000
00000000
,
00001000
00000000
00000000
00000100
00000000
00000000
00000010
00000000
00000001
00000000
00001000
00000000
00001010
00000000
00000000
00000000
,
00001000
00000000
00000000
00000001
00000000
00000000
00000010
00000000
00000100
00000000
00000000
00000001
00000000
00000000
00000100
00000000
,
00001000
00000000
00000000
00000100
00000000
00000000
00000010
00000000
00000001
00000000
00000100
00000000
00001000
00000000
00010000
00000000
,
00001000
00000000
00000000
00100000
00000000
00000000
01000000
00000000
10000000
00000000
00000000
00100000
00000000
00000000
01000000
00000000
,
01100000
00000000
00000000
10100000
00000000
00000000
01010000
00000000
00000000
00101000
00000000
00000000
00001000
00000000
00010000
00000000
,
00000010
00000000
00001000
00000100
00000000
00001000
00000100
00000000
00000010
00000000
00000000
00000001
00000000
00000000
00001000
00000000
,
00000010
00000000
00000100
00000001
00000000
00000100
00000010
00000000
00001000
00000000
00000000
00000100
00000000
00000000
00010000
00000000
,
00001000
00000000
00100000
00010000
00000000
01000000
00001000
00000000
00010000
00000000
00000000
00000010
00000000
00000000
00001000
00000000
,
00000100
00000000
00001000
00000010
00000000
00010000
00001000
00000000
00100000
00000000
00010000
00000000
01000000
00000000
00001000
00000000
,
00010000
00000000
00010000
00000000
00011000
00000000
00000000
00000000
00010000
00000000
00000000
00001000
00000000
00000000
00000100
00000000
,
00000001
00000000
00001000
00000100
00000000
00000010
00000001
00000000
00001000
00000000
00000001
00000000
00000100
00000000
00000010
00000000
,
00001010
00000000
00000000
00011000
00000000
00000000
01010000
00000000
,
00010000
00100000
00010000
00000000
10000000
01000000
10000000
00000000
00010000
10000000
00010000
10000000
00010000
00000000
00000000
00000000
,
20020000
00000000
00000000
00000000
,
30030000
00000000
00000000
00000000
;

//--------------- dance-double - Fred-104 ----------------
#NOTES:
     dance-double:
     Fred-104:
     Hard:
     17:
     :
00000000
00000000
00000000
00000000
,
00000000
00000000
00000000
00000000
,
00000000
00000000
00000000
00000000
,
00000000
00000000
00000000
00000000
,
10100000
01010000
00000000
00000000
00000000
00000000
00000000
00000000
,
00020000
00000000
00002000
00033000
,
00010000
00000100
00001000
00000100
00000010
00000000
00000000
00000000
00000001
00000000
00000100
00000010
00001000
00000000
00000000
00000000
,
00000001
00000010
00000100
00000010
00000001
00000000
00000000
00000000
00001000
00000000
00000010
00010000
00001000
00000000
00000000
00000000
,
00010000
00100000
01000000
00000000
00010000
00100000
01000000
00000000
10000000
01000000
00100000
01000000
10000000
00100000
01000000
00010000
,
02000000
00000000
00000000
00000000
00000000
00000000
00000000
00000000
03001000
00010000
00001000
00000000
00100000
00000000
00001000
00010000
,
00001000
00000000
00010000
00000100
00000000
00001000
00000001
00000000
00001000
00000100
00000000
00000010
00000001
00000100
00000001
00000000
,
00000100
00000000
00000001
00000010
00000000
00000001
00001000
00000000
00000010
00000100
00000000
00000010
00001000
00000100
00010000
00000000
,
00001000
00000000
00010000
00000010
00000000
00001000
00000010
00000000
00010000
00001000
00000000
00100000
00010000
01000000
00001000
00000000
,
00100000
00000000
00010000
10000000
00000000
00010000
00100000
00000000
01000000
00100000
00000000
00010000
10000000
00000000
01000000
00100000
,
00010000
00000000
00100000
00000000
00110000
00000000
00000000
00100000
00001000
00100000
00000000
00001000
00010000
00000000
00000010
00000000
,
00001000
00000100
00000010
00000000
00000001
00000100
00000010
00000000
00001000
00000001
00000010
00000100
00001000
00000100
00000010
00000000
,
00000001
00000100
00001000
00000000
00000001
00000010
00001000
00000000
00000001
00000010
00000100
00001000
00000100
00010000
00001000
01000000
,
00020000
00030000
00020000
00030000
00020000
00030000
00020000
00030000
00020000
00000000
00030000
00000000
00011000
00000000
00000000
00000000
,
00011000
00010000
00000200
00000300
00011000
00001000
02000000
03000000
,
00012000
00013000
00000010
00001000
00002100
00003100
00000010
00000001
,
00000102
00000013
00002100
00003010
00001002
00000103
00002001
00003010
,
00000001
00000000
00000100
00000000
00002000
00000000
00000000
00000000
00013000
00100000
01000000
00010000
00100000
01000000
10000000
00000000
,
20100000
30100000
02000000
03000000
00120000
00130000
02000000
03000000
,
20100000
00000000
30200000
00000000
00320000
00000000
00032000
00000000
00003200
00000000
00000320
00000000
00002030
00000000
00003002
00000003
,
00000201
00000000
00000320
00000000
00002030
00000000
00003200
00000000
00001300
00000010
00010000
00001000
00100000
00010000
01000000
00001000
,
00010000
00001000
00000000
00000010
00000100
00000000
00001000
00000001
00000100
00000001
00001000
00000000
00000100
00000000
00000010
00000000
,
00000002
00000203
00002300
00000000
00023000
02030000
23000000
30020000
,
20030000
00000000
00000000
00000000
00000000
00000000
00000000
00000000
32000000
00000000
00000000
00000000
00000000
00000000
00000000
00000000
03200000
00000000
00000000
00000000
00000000
00000000
00000000
00000000
00310000
00000000
00000000
00000000
01000000
00000000
00000000
00000000
00002000
00003000
00000000
00000000
00000000
00000000
00000000
00000000
00002000
00003000
00000000
00000000
00000000
00000000
00000000
00000000
00000100
00000000
00000000
00000000
00001000
00000000
00000000
00000000
00000020
00000000
00000000
00000000
00000030
00000000
00000000
00000000
,
00000210
00000000
00000000
00000302
00000000
00000000
00002003
00000000
00000000
00003000
00000000
00000000
00000210
00000000
00000000
00002300
00000000
00000000
00003001
00000010
00000100
00001000
00000000
00000000
,
00000200
00000000
00020300
00030000
00022000
00000000
00033000
00000000
00001000
00100000
00010000
00100000
00001000
00100000
00010000
00000000
,
02010000
03100000
12000000
03100000
20100000
31000000
00120000
01030000
,
20010000
00000000
32000000
00000000
03200000
00000000
00000000
00000000
00301000
00010000
00001000
00000000
02000000
00000000
03001000
00010000
,
00001000
00000000
00000100
00000000
00000010
00000000
00001000
00000000
00000001
00001000
00000001
00001000
00000010
00000100
00000001
00000100
,
00000010
00001000
00000100
00010000
00001000
00100000
00010000
00100000
01000000
10000000
00010000
10000000
01000000
00000000
00000000
00000000
,
20100000
00000000
31000000
00000000
00120000
00000000
01030000
00000000
10000000
00000000
00010000
01000000
00020000
00000000
00000000
00000000
,
10030000
00010000
01000000
00010000
10000000
00000000
01000000
00100000
01000000
00010000
00001000
00000010
00000100
00001000
00000001
00000000
,
00000100
00000001
00000010
00000001
00001000
00000000
00000010
00000100
00000010
00001000
00000100
00000000
00010000
00001000
00010000
00000000
,
00001000
00100000
00010000
01000000
00001000
00000000
00100000
00010000
00100000
00001000
00010000
00000010
00001000
00000100
00000010
00000000
,
00000012
00000000
00000103
00000000
00002010
00000000
00003100
00000000
00000001
00000000
00001000
00000100
00002000
00000000
00000000
00000000
,
00003001
00000100
00000001
00000010
00000001
00000000
00001000
00000010
00000100
00000010
00001000
00000100
00010000
00001000
00100000
00000000
,
00010000
01000000
00100000
01000000
00010000
00000000
10000000
00100000
00000000
00100000
00010000
00000000
10000000
00100000
01000000
00000000
,
00001000
00010000
00000000
00100000
00000000
01000000
00001000
00100000
00000000
00010000
00000000
01000000
00001000
00010000
00001000
00010000
,
00000100
00000000
00001000
00000000
00000001
00000100
00000000
00000001
00000010
00000000
00000001
00000000
00001000
00000000
00000100
00000000
,
00000010
00000000
00001000
00000000
00000010
00000001
00000000
00000100
00001000
00000000
00010000
00000000
00200000
00000000
00000000
00000000
,
01300000
00000000
00010000
00000000
10000000
00100000
01000000
00000000
10000000
00000000
01000000
00010000
10000000
00000000
00000000
11000000
,
00000000
00000000
00110000
00000000
00000000
00101000
00000000
00000000
00001000
00000000
00010000
00000000
00022000
00000000
00033000
00000000
,
00010000
00000000
00001000
00000000
00000010
00000001
00000000
00001000
00000100
00000000
00000010
00000000
00000001
00000100
00001000
00000000
,
00010000
00100000
01000000
00010000
01000000
00010000
10000000
00010000
10000000
01000000
00100000
00010000
00100000
00000000
00001000
00000000
,
00011000
00000000
00000000
01001000
00000000
00000000
00011000
00000000
00000000
00000000
00010010
00000000
00001010
00000000
00000000
00000101
,
00000000
00000000
00001100
00000000
00000000
00000011
00000000
00000000
00000001
00000000
00000100
00000000
00001000
00000000
00000100
00000001
,
00000020
00000000
00000000
00000000
,
00000230
00000000
00020300
00000000
,
00032000
00000000
00000000
00000000
,
00203000
00000000
00320000
20030000
,
30010000
01000000
10000000
01000000
00010000
10000000
01000000
00100000
00010000
10000000
00100000
00010000
,
00100000
10000000
00100000
00010000
00001000
00010000
01000000
00010000
00001000
00000100
00001000
00010000
,
00001000
00000010
00000001
00000010
00001000
00010000
00001000
00000100
00001000
00010000
01000000
00010000
,
00001000
00000000
00000100
00000000
00000001
00000000
00001000
00000000
00000100
00000000
00000010
00000000
00000001
00000000
00000000
00000101
00000000
00000000
00001000
00000000
00000000
00001010
00000000
00000000
,
00000001
00000000
00000100
00000001
00000000
00001000
00000010
00000000
00000100
00000010
00000000
00001000
00000001
00000010
00000100
00001000
,
00000100
00000000
00010000
00001000
00000000
00100000
00010000
00000000
01000000
00001000
00000000
00010000
00001000
00100000
00010000
01000000
,
00100000
00000000
10000000
00100000
00000000
01000000
00010000
00000000
00100000
00001000
00000000
01000000
00001000
00010000
00001000
00100000
,
00001000
00000000
00010000
00000010
00000000
00001000
00000100
00000000
00000010
00000001
00001000
00000000
00000010
00000000
00001000
00000100
,
00001000
00000000
00000001
00000010
00000100
00000000
00000100
00010000
00001000
00000000
00001000
00100000
00010000
00000000
01000000
00000000
,
00100000
10000000
00100000
00000000
01000000
00010000
01000000
00000000
00010000
00100000
00010000
00000000
10000000
01000000
10000000
00000000
,
00100000
10000000
00100000
01000000
00010000
00100000
00001000
00010000
00000010
00001000
00000100
00001000
00000100
00000010
00000001
00001000
,
00000002
00000000
00000203
00000000
00002300
00000000
00023000
00000000
00230000
00000000
20300000
30000000
20020000
00000000
30030000
00000000
,
10100000
00000000
10000000
01000000
00000000
00100000
00010000
00100000
00010000
00000000
01000000
00001000
00000000
00010000
00001000
00100000
,
00001000
00000000
00010000
00000010
00000000
00001000
00000010
00000100
00000010
00000000
00001000
00000100
00000000
00000010
00000001
00000000
,
00001000
00000000
00000001
00000010
00000000
00000100
00000010
00000001
00000100
00000000
00000010
00001000
00000000
00000100
00010000
00001000
,
00010000
00000000
01000000
00100000
00000000
00010000
10000000
00100000
01000000
00000000
00010000
10000000
00010000
00000000
00100000
00000000
,
01000000
00000000
00100000
00001000
00000000
00010000
00001000
00010000
00000010
00000000
00001000
00000100
00000000
00000010
00000001
00001000
,
00000010
00000000
00000100
00000001
00000000
00000010
00000100
00000010
00000001
00000000
00001000
00000100
00000000
00010000
00000100
00000000
,
00010000
00000000
00001000
00100000
00000000
00001000
00010000
00001000
00100000
00000000
00001000
00010000
00000000
00001000
01000000
00000000
,
01001000
00000000
00000000
00010010
00000000
00000000
00101000
00000000
00000000
00010100
00000000
00000000
00010000
00001000
00010000
00001000
,
00010000
00000000
00000100
00001000
00000000
00000100
00001000
00000001
00000100
00000000
00000010
00001000
00000000
00000001
00000010
00000100
,
00000010
00000000
00000001
00000010
00000000
00000100
00000010
00001000
00010000
00000000
00100000
01000000
00000000
00010000
10000000
00010000
,
01000000
00000000
00100000
10000000
00000000
00010000
00100000
01000000
00100000
00000000
00010000
01000000
00000000
00010000
00100000
00001000
,
00010000
00000000
00001000
00010000
00000000
00000100
00001000
00000100
00000010
00000000
00000001
00000100
00001000
00000000
00000100
00000000
,
00000001
00000000
00000001
00000000
00001001
00000000
00000001
00001000
00000010
00000000
00001000
00000100
00000000
00010000
00000100
00010000
,
00001000
00000000
00000000
00011000
00000000
00000000
00101000
00000000
00000000
00000000
00010100
00000000
00011000
00000000
00000000
00000000
,
00010010
00000000
00000000
01001000
00000000
00000000
00011000
00000000
,
00010000
00000010
00001000
00000100
00010000
00001000
01000000
00010000
00100000
00001000
00010000
00000010
00001000
00000000
00000000
00000000
,
00022000
00000000
00000000
00000000
,
00033000
00000000
00000000
00000000
;
