#TITLE:ロボット☆ライフ;
#ARTIST:Qrispy Joybox feat.林ももこ;
#TITLETRANSLIT:Robot life;
#ARTISTTRANSLIT:Qrispy Joybox feat.Momoko Hayashi;
#BANNER:Robot life.png;
#BACKGROUND:Robot life-bg.png;
#CDTITLE:./CDTitles/RB colette -Autumn-.png;
#MUSIC:Robot life.ogg;
#SAMPLESTART:45.678;
#SAMPLELENGTH:15;
#BPMS:0=177;
#BGSTAGE:16;

//--------------- dance-single - Fred-104 ----------------
#NOTES:
     dance-single:
     Fred-104:
     Beginner:
     3:
     :
0000
0000
0000
0000
,
0000
0000
0000
0000
,
0000
0000
0000
0000
,
0000
0000
0000
0000
,
0000
0000
0000
0000
,
1000
0000
0000
0000
,
0000
0000
0000
0000
,
0001
0000
0000
0000
,
0000
0000
0000
0000
,
1000
0000
0000
1000
,
0000
0000
0000
0000
,
0001
0000
0000
0001
,
0000
0000
0000
0000
,
1000
0000
0000
1000
,
0000
0000
1000
0000
,
0001
0000
0000
1001
,
0000
0000
0000
0000
,
1000
0000
0100
0000
,
1000
0000
0000
0000
,
0100
0000
0001
0000
,
0100
0000
0000
0000
,
0001
0000
0001
0000
,
0001
0000
0000
0000
,
0010
0000
1000
0000
,
0010
0000
1000
0000
,
0001
0000
0000
0000
,
1000
0000
0000
0000
,
0001
0000
0000
0000
,
1000
0000
0000
0000
,
0001
0000
0001
0000
,
1000
0000
1000
0000
,
0001
0000
0001
0000
,
1000
1000
1000
1000
,
0000
0000
0000
0000
,
0001
0000
0100
0000
,
0010
0000
1000
0000
,
0002
0000
0000
0000
,
2003
0000
3001
0000
,
1000
0000
0100
0000
,
0010
0000
0010
0000
,
0010
0000
0001
0000
,
1000
0000
0001
0000
,
1000
0000
0001
0000
,
0100
0000
0010
0000
,
0200
0000
0000
0300
,
0001
0000
1000
0000
,
0001
0000
0001
0000
,
1000
0000
1000
0000
,
0001
0000
0000
1001
,
0000
0000
0000
0000
,
1000
0000
0001
0000
,
0010
0000
0100
0000
,
0020
0000
0000
0030
,
0200
0000
0000
0300
,
1000
0000
1000
0000
,
0001
0000
1000
0000
,
0001
0000
0000
0002
,
0000
0000
0003
0000
,
1000
0000
0010
0000
,
0001
0000
0100
0000
,
2000
0000
0000
3000
,
0002
0000
0000
0003
,
1000
0000
0000
1000
,
0000
0000
1000
0000
,
0001
0000
0000
1001
,
0000
0000
0000
0000
,
1000
0000
0000
1001
,
0000
0000
0000
0000
,
0001
0000
0000
1001
,
0000
0000
0000
0000
,
1000
0000
0000
0001
,
0000
0000
1000
0000
,
0002
0000
0000
1003
;

//--------------- dance-single - Fred-104 ----------------
#NOTES:
     dance-single:
     Fred-104:
     Easy:
     6:
     :
0000
0000
0000
0000
,
0000
0000
0000
0000
,
0000
0000
0000
0000
,
0000
0000
0000
0000
,
0000
0000
0000
0000
,
1000
0000
1000
0000
,
0100
0000
0010
0000
,
0010
0000
0001
0000
,
1000
0000
0001
0001
,
1000
0000
0000
0001
0000
0000
2002
0000
,
0000
0000
3003
0000
,
1000
0000
0000
0001
0000
0000
2002
0000
,
0000
0000
3003
0000
,
1000
0000
0000
0100
0000
0000
0010
0000
,
0000
0001
0000
0000
1000
0000
1000
0000
,
0001
0000
0000
0100
0000
0000
0220
0000
,
0000
0000
0330
0000
,
0001
0000
0001
0000
,
1000
1000
0100
0000
,
0010
0000
0010
0000
,
0001
0001
1000
1000
,
0010
0000
0100
0000
,
0001
0001
1000
0000
,
0100
0000
0001
0000
,
0100
0000
0100
0000
1000
0000
0000
1001
,
0000
0000
0000
0000
0001
0000
0000
1000
,
0000
0000
0000
0000
0001
0000
0000
1001
,
0000
0000
0000
0000
1000
0000
0000
0001
,
0000
0000
1000
1000
,
0100
0000
0010
0000
,
0001
0010
1000
0010
,
0001
0000
1000
0000
,
0001
0001
1000
1000
,
0000
0000
0000
0000
,
1000
0000
0100
0000
,
0001
0001
0100
1000
,
0002
0000
0000
0003
,
1000
0010
1000
1000
,
0001
0000
0010
0000
,
1000
0000
0000
1000
0000
0000
0010
0000
,
0001
0000
0000
1000
0000
0000
0001
0000
,
0100
0010
0100
0100
,
0001
0000
1000
0000
,
0100
0001
0100
1000
,
0002
0000
1003
0001
,
0100
0010
1000
1000
,
0001
0000
0010
0010
,
0100
0000
0000
1000
0000
0000
0001
0000
,
1001
0000
0000
1001
0000
0000
2002
0000
,
0000
0000
3003
0000
,
0001
0000
0100
0000
,
1000
0100
0001
1000
,
0200
0000
0010
0300
,
0020
0000
0001
0031
,
1000
0010
0100
0001
,
1000
0000
0000
0100
0000
0000
0010
0000
,
1001
0000
0000
1001
0000
0000
2002
0000
,
0000
0000
0000
3003
,
0001
0000
0010
0000
,
1000
0010
0100
0010
,
0002
0000
1003
0001
,
0200
0000
0310
0010
,
1000
0000
0000
0001
0000
0000
0010
0000
,
0000
0100
0000
0000
1000
0000
0001
0000
,
1001
0000
0000
1001
0000
0000
2002
0000
,
0000
0000
0000
3003
,
0001
0000
0000
0010
0000
0000
0200
0000
,
0000
0000
0300
0000
,
1000
0000
0000
0010
0000
0000
0200
0000
,
0000
0000
0300
0000
,
0001
0000
0000
1000
0000
0000
0100
0000
,
0000
0010
0000
0000
0001
0000
1000
0000
,
0001
0000
0000
0100
0000
0000
0010
0000
;

//--------------- dance-single - Fred-104 ----------------
#NOTES:
     dance-single:
     Fred-104:
     Medium:
     10:
     :
0000
0000
0000
0000
,
0000
0000
0000
0000
,
0000
0000
0000
0000
,
0000
0000
0000
0000
,
0000
0000
0000
0000
,
0001
0000
0001
0000
,
0010
0000
0010
1000
,
0100
0000
0100
0000
,
0001
0000
1000
1000
,
1001
0000
0000
0110
0000
0000
2002
0000
,
0000
3003
0001
0001
,
0011
0000
0000
1100
0000
0000
0202
0000
,
0000
0000
0300
0003
,
0001
0010
0000
0010
0100
0000
0100
1000
,
0000
1000
0010
0000
0110
0000
1001
0000
,
1100
0000
0001
0100
0000
1000
0200
0000
,
0000
0000
0301
0001
,
1000
0100
1000
0000
0100
1000
0100
0000
,
0010
0000
0001
1000
0000
0010
0100
0000
,
0001
1000
0001
0000
1000
0000
0100
0001
,
0000
0001
0100
0000
0110
0000
0011
0000
,
0001
0000
1000
0000
0010
0010
0000
0110
,
0000
0100
0001
0000
0001
1000
0000
1001
,
0000
0001
0100
0000
0010
0000
0100
0001
,
0000
0001
1000
0000
0100
0100
0000
1001
,
0000
0000
0000
0000
0001
0001
0000
1000
,
0000
0100
0010
0000
0001
0001
0000
1001
,
0000
0000
0000
0000
1000
1000
0000
0001
,
0000
0100
0100
0000
0010
1000
0010
0000
,
0100
0001
1000
0001
,
1000
0010
0001
0000
0001
0010
1000
0000
,
0001
0010
0100
0100
,
1000
0000
1000
0000
0001
0100
0010
1000
,
0000
0000
0000
0000
0000
0000
0001
0010
,
0100
0000
1000
0100
0010
0000
0001
1000
,
0010
0000
0100
0001
1000
0000
0100
0000
,
0020
0001
0032
1000
,
2003
0000
0010
0000
3010
0000
0100
0001
,
1000
0000
0001
0010
0100
0000
1000
0010
,
0100
0000
0001
1000
0000
0001
1000
0000
,
0100
0010
0000
0001
0000
0010
0010
0000
,
0001
0000
1000
0000
0010
0000
0100
0001
,
1000
0000
0100
0010
0001
0000
0010
0100
,
1000
0000
0001
0000
0100
0010
1000
0000
,
0200
0000
0010
0000
0310
0000
0001
1000
,
0001
0000
0100
0000
0010
1000
0010
0000
,
0100
0100
0000
0001
1000
0000
0100
0000
,
0010
0001
1000
0010
0000
1000
0001
0000
,
1001
0000
0000
0110
0000
0000
2002
0000
,
0000
0000
0000
0000
3003
0000
1000
0100
,
0010
0000
0001
0100
0010
0000
1000
0010
,
0100
0000
0001
0010
0100
0000
1000
0000
,
0002
0100
0100
0103
,
2000
0000
0100
0000
3100
0000
0001
1000
,
0001
0000
0010
0100
1000
0000
0001
1000
,
0010
0000
0100
0001
0000
0001
0010
0000
,
0110
0000
0000
1010
0000
0000
2002
0000
,
0000
0000
0000
0000
3003
0000
1000
0001
,
0100
0000
0010
1000
0100
0000
0010
0001
,
1000
0000
0001
0010
0100
1000
0001
0000
,
0200
0000
0010
0000
0010
0000
0310
1000
,
0002
0000
0010
0000
0013
0100
1000
0000
,
0001
0000
0000
0100
0000
0000
1000
0000
,
0000
0100
0000
0000
0001
0000
0010
0000
,
0110
0000
0000
1100
0000
0000
2002
0000
,
0000
0000
0000
3003
,
0001
0010
0000
1000
0010
0000
0022
0000
,
0000
0033
1000
1000
,
0001
0100
0000
1000
0100
0000
0202
0000
,
0000
0000
0303
0000
0001
1000
0001
0000
,
1000
0100
0000
0010
0001
0000
1000
0010
,
0000
0100
0001
0000
0011
0000
1100
0000
,
0010
0000
0000
0010
0000
0000
0010
0000
;

//--------------- dance-single - Fred-104 ----------------
#NOTES:
     dance-single:
     Fred-104:
     Hard:
     13:
     :
0000
0000
0000
0000
,
0000
0000
0000
0000
,
0000
0000
0000
0000
,
0000
0000
0000
0000
,
0000
0000
0000
0000
,
1000
0000
0000
0001
0100
0001
0100
0000
0000
0010
1000
0010
,
1000
0000
0000
0001
0010
0001
0010
0000
0010
0100
0000
0100
,
1000
0000
0000
0001
1000
0001
1000
0000
0000
0010
0100
0010
,
0100
0000
0000
0001
1000
0100
0020
0000
0000
0031
0000
0000
,
1001
0000
1000
1100
0000
0001
0202
0000
,
0000
0000
0000
0000
0303
0000
0100
0010
0100
0000
0000
0000
1001
0000
0000
0000
,
1010
0000
0001
0011
0000
1000
2200
0000
,
0000
0000
3000
0300
,
1000
0100
0100
0010
0001
0001
0100
0010
,
0010
0100
0001
0010
0110
0000
1100
0000
,
1001
0000
0000
0000
0001
0100
0001
0000
0000
0000
1000
0020
2000
0000
0000
0000
,
0000
0000
0030
3000
,
0001
1000
0100
0010
0100
0010
0001
1000
,
0010
0000
0001
0010
0000
0100
0010
1000
,
0001
0010
0001
0010
0100
1000
0001
0100
,
0000
0100
1000
0000
1100
0000
0110
0000
,
0010
1000
0010
1000
0100
0010
0000
0011
,
0000
0001
0100
0010
0001
1000
0000
1100
,
0000
0100
0010
0000
1000
0001
0010
0100
,
1000
0010
0100
0100
0010
1000
0000
2002
,
0000
0000
3003
0000
1000
1100
0000
0011
,
0000
0000
0001
1000
0001
0000
0100
0000
0010
0000
1010
0000
0000
0000
0202
0000
,
0000
0000
0303
0000
0100
0110
0000
1001
,
0000
0000
1000
0100
1000
0000
0100
0000
0010
0000
0001
0000
1000
0000
0001
0000
,
0100
0001
1100
0001
,
1000
0100
1000
0100
0001
0100
0001
0100
,
1000
0000
0001
0100
1000
0100
0001
1000
,
0001
0001
0010
0010
1000
0010
0100
1000
,
0000
0000
0000
0000
0000
0000
0001
0100
,
1000
0000
1000
0100
0001
0000
1000
0100
,
0001
0000
0001
0100
1000
0010
0100
0001
,
0020
1000
0100
0031
,
2000
0000
0100
0000
0010
0000
3001
0010
,
1000
0000
1000
0010
0001
0000
1000
0010
,
0100
0000
0001
0010
0000
0010
0100
1000
,
0001
0100
0010
0001
0010
0100
0001
0000
,
1000
0100
0010
0000
0001
1000
0001
0010
,
1000
0000
1000
0010
0001
0000
1000
0010
,
0100
0001
1000
0100
0010
0001
1000
0001
,
0200
0000
0010
0000
1000
0000
0301
1000
,
0001
0100
0010
0001
1000
0100
0001
1000
,
0100
0100
0000
0010
0001
1000
0010
1000
,
0001
0010
1000
0001
0100
1000
0010
0100
,
0001
0001
0010
0100
0100
0010
0022
0000
,
0000
0000
0000
0000
0033
1000
1000
1000
,
0001
0010
1000
0010
1000
0010
0001
0010
,
0001
1000
0010
0100
0010
1000
0001
1000
,
0200
0001
0010
1300
,
0002
0000
0100
0000
1000
0000
0013
0100
,
1000
0001
0100
0010
0100
0001
1000
0001
,
0010
1000
0001
0100
0010
0001
1000
0000
,
1001
0000
0001
0101
0000
1000
2020
0000
,
0000
0000
0000
0000
3030
0010
0010
0010
,
0100
0001
1000
0100
0001
0100
1000
0001
,
0100
0010
1000
0100
1000
0001
0100
0001
,
0020
0000
1000
0000
0100
0000
0031
1000
,
0020
0000
0100
0000
0001
0000
1030
0001
,
0100
0010
1000
0100
0010
0001
0100
0000
,
0010
1000
0100
1000
0010
0100
0001
0010
,
0110
0000
0000
0000
1000
0100
1000
0000
0000
0000
0001
0010
0002
0000
0000
0000
,
0000
0000
0000
0003
,
1000
0100
0100
0010
0001
0001
2002
0000
,
0000
3003
0001
0001
,
1000
0010
0010
0100
0001
0001
2002
0000
,
0000
0000
0000
0000
3003
0000
0000
0000
1000
0100
1000
0000
0001
0000
0000
0000
,
1000
1000
0100
0001
0001
0100
1000
1000
,
0010
0001
0001
0010
0110
0000
0101
0000
,
1000
0000
0000
0100
0000
0000
0010
0000
;

//--------------- dance-double - Fred-104 ----------------
#NOTES:
     dance-double:
     Fred-104:
     Easy:
     6:
     :
00000000
00000000
00000000
00000000
,
00000000
00000000
00000000
00000000
,
00000000
00000000
00000000
00000000
,
00000000
00000000
00000000
00000000
,
00000000
00000000
00000000
00000000
,
00001000
00000000
00010000
00000000
,
00001000
00000000
01000000
00000000
,
00100000
00000000
01000000
00000000
,
00010000
00000000
10000000
10000000
,
01000000
00000000
00000000
00010000
00000000
00000000
00022000
00000000
,
00000000
00000000
00033000
00000000
,
00010000
00000000
00000000
00001000
00000000
00000000
00022000
00000000
,
00000000
00000000
00033000
00000000
,
00010000
00000000
00000000
00001000
00000000
00000000
00000100
00000000
,
00000000
00000001
00000000
00000000
00000010
00000000
00001000
00000000
,
00010000
00000000
00000000
01000000
00000000
00000000
20020000
00000000
,
00000000
00000000
30030000
00000000
,
00010000
00000000
10000000
00000000
,
01000000
01000000
00100000
00000000
,
00001000
00000000
00001000
00000000
,
00010000
00001000
00000100
00000010
,
00010000
00000000
00010000
00000000
,
00001000
00000010
00000100
00000000
,
00000010
00000000
00000001
00000000
,
00000100
00000000
00001000
00000000
00010000
00000000
00000000
00011000
,
00000000
00000000
00000000
00000000
00001000
00000000
00000000
01000000
,
00000000
00000000
00000000
00000000
00100000
00000000
00000000
10010000
,
00000000
00000000
00000000
00000000
10000000
00000000
00000000
00010000
,
00000000
00000000
10000000
01000000
,
00010000
00000000
01000000
00000000
,
00100000
00010000
10000000
00100000
,
00010000
00000000
00001000
00000000
,
00010000
00000100
00000010
00000001
,
00000000
00000000
00000000
00000000
,
00000001
00000000
00000010
00000000
,
00001000
00010000
00100000
10000000
,
02000000
00000000
00000000
03000000
,
00100000
00100000
00001000
00001000
,
00010000
00000000
00100000
00000000
,
10000000
00000000
00000000
10000000
00000000
00000000
00100000
00000000
,
00010000
00000000
00000000
00001000
00000000
00000000
00010000
00000000
,
00001000
00000100
00001000
00010000
,
00001000
00000000
00010000
00000000
,
00000100
00001000
00000010
00000100
,
00000002
00000000
00000013
00000100
,
00010000
00001000
01000000
00100000
,
01000000
00000000
00010000
00010000
,
10000000
00000000
00000000
01000000
00000000
00000000
00010000
00000000
,
00011000
00000000
00000000
00010100
00000000
00000000
00002002
00000000
,
00000000
00000000
00003003
00000000
,
00000001
00000000
00000100
00000000
,
00001000
00010000
00001000
00010000
,
00002000
00000000
01000000
00003000
,
02000000
00000000
00100000
03100000
,
10000000
00010000
00100000
01000000
,
10000000
00000000
00000000
00100000
00000000
00000000
00010000
00000000
,
00011000
00000000
00000000
00110000
00000000
00000000
00022000
00000000
,
00000000
00000000
00000000
00033000
,
00001000
00000000
00010000
00000000
,
00100000
10000000
01000000
00010000
,
00002000
00000000
00013000
00000100
,
00000020
00000000
00000031
00001000
,
00000001
00000000
00000000
00000100
00000000
00000000
00001000
00000000
,
00000000
00010000
00000000
00000000
00100000
00000000
10000000
00000000
,
10010000
00000000
00000000
01100000
00000000
00000000
20020000
00000000
,
00000000
00000000
00000000
30030000
,
10000000
00000000
00000000
01000000
00000000
00000000
00020000
00000000
,
00000000
00000000
00030000
00000000
,
00001000
00000000
00000000
00000010
00000000
00000000
00000002
00000000
,
00000000
00000000
00000003
00000000
,
00000001
00000000
00000000
00000100
00000000
00000000
00001000
00000000
,
00000000
00010000
00000000
00000000
00100000
00000000
10000000
00000000
,
01000000
00000000
00000000
00010000
00000000
00000000
00001000
00000000
;

//--------------- dance-double - Fred-104 ----------------
#NOTES:
     dance-double:
     Fred-104:
     Medium:
     10:
     :
00000000
00000000
00000000
00000000
,
00000000
00000000
00000000
00000000
,
00000000
00000000
00000000
00000000
,
00000000
00000000
00000000
00000000
,
00000000
00000000
00000000
00000000
,
10000000
00000000
10000000
00000000
,
01000000
00000000
01000000
00010000
,
00001000
00000000
00001000
00000000
,
00000010
00000000
00000001
00000100
,
00000101
00000000
00000000
00010010
00000000
00000000
00022000
00000000
,
00000000
00033000
00001000
00001000
,
00011000
00000000
00000000
00101000
00000000
00000000
22000000
00000000
,
00000000
00000000
03000000
30000000
,
00010000
10000000
00000000
01000000
00100000
00000000
00001000
00010000
,
00000000
00000100
00010000
00000000
00011000
00000000
00001100
00000000
,
00000101
00000000
00000001
00000010
00000000
00001000
00000020
00000000
,
00000000
00000000
00000031
00000001
,
00001000
00000010
00001000
00000000
00000010
00001000
00000010
00000000
,
00000100
00000000
00001000
00010000
00000000
00001000
01000000
00000000
,
00100000
10000000
00010000
00000000
10000000
00000000
01000000
00100000
,
00000000
00100000
00001000
00000000
00011000
00000000
00010010
00000000
,
00010000
00000000
00001000
00000000
00000100
00000100
00000000
00000101
,
00000000
00000001
00000010
00000000
00000010
00000100
00000000
00001100
,
00000000
00000100
00010000
00000000
00001000
00000000
00010000
00100000
,
00000000
00100000
10000000
00000000
01000000
01000000
00000000
10010000
,
00000000
00000000
00000000
00000000
10000000
10000000
00000000
01000000
,
00000000
00010000
00001000
00000000
00010000
00010000
00000000
00011000
,
00000000
00000000
00000000
00000000
00010000
00010000
00000000
00001000
,
00000000
00000010
00000100
00000000
00001000
00000001
00001000
00000000
,
00000001
00000100
00001000
00010000
,
00001000
00000010
00001000
00000000
00010000
00100000
00010000
00000000
,
00001000
00010000
00100000
00100000
,
01000000
00000000
01000000
00000000
00100000
10000000
01000000
00100000
,
00000000
00000000
00000000
00000000
00000000
00000000
00001000
00010000
,
00001000
00000000
01000000
00010000
01000000
00000000
00001000
00010000
,
00001000
00000000
00100000
00010000
00001000
00000000
00000100
00000000
,
00010000
00001000
01000000
00000000
00010000
00000000
10000000
00000000
,
01000000
00100000
00001000
00000000
00010000
00000000
00010000
00000100
,
00001000
00000000
00000010
00000100
00000001
00000000
00001000
00000100
,
00000010
00000000
00000001
00000100
00000000
00001000
00000100
00000000
,
00000001
00000001
00000000
00000010
00000000
00001000
00010000
00000000
,
00010000
00000000
00001000
00000000
00100000
00000000
00010000
10000000
,
01000000
00000000
00100000
00010000
01000000
00000000
00100000
10000000
,
01000000
00000000
00100000
00000000
00001000
00010000
00001000
00000000
,
00020000
00000000
00001000
00000000
00031000
00000000
00010000
00000010
,
00001000
00000100
00000010
00000001
,
00000100
00000100
00000000
00000010
00001000
00000000
00000100
00000000
,
00010000
00000000
00001000
00010000
00000000
00100000
10000000
00000000
,
10010000
00000000
00000000
01100000
00000000
00000000
20020000
00000000
,
00000000
00000000
00000000
00000000
30030000
00000000
10000000
01000000
,
00100000
00000000
00001000
00010000
00001000
00000000
00000100
00000010
,
00001000
00000100
00000010
00000000
00000001
00000000
00000100
00000000
,
00000020
00001000
00001000
00001030
,
00000200
00000000
00010000
00000000
00010300
00000000
00001000
00010000
,
01000000
00000000
00100000
00010000
10000000
00000000
00100000
01000000
,
00010000
00000000
10000000
01000000
00000000
01000000
00010000
00000000
,
00011000
00000000
00000000
00001010
00000000
00000000
00022000
00000000
,
00000000
00000000
00000000
00000000
00033000
00000000
00010000
00001000
,
00010000
00000000
00000100
00000010
00000001
00000000
00000100
00000010
,
00001000
00000000
00000001
00000010
00000100
00010000
00001000
00000000
,
00200000
00000000
00001000
00000000
00001000
00000000
00301000
00010000
,
00002000
00000000
00100000
00000000
00103000
00010000
01000000
00000000
,
00100000
00000000
00000000
10000000
00000000
00000000
01000000
00000000
,
00000000
00010000
00000000
00000000
00001000
00000000
00000010
00000000
,
00000011
00000000
00000000
00000110
00000000
00000000
00020200
00000000
,
00000000
00000000
00000000
00030300
,
00001000
00010000
00000000
00100000
10000000
00000000
20020000
00000000
,
00000000
30030000
00010000
00010000
,
10000000
01000000
00000000
00010000
00001000
00000000
00022000
00000000
,
00000000
00000000
00033000
00000000
00010000
00001000
00010000
00000000
,
00001000
00010000
00000000
00100000
00010000
00000000
00001000
00010000
,
00000000
01000000
00010000
00000000
00011000
00000000
00011000
00000000
,
00010000
00000000
00000000
00001000
00000000
00000000
00010000
00000000
;

//--------------- dance-double - Fred-104 ----------------
#NOTES:
     dance-double:
     Fred-104:
     Hard:
     13:
     :
00000000
00000000
00000000
00000000
,
00000000
00000000
00000000
00000000
,
00000000
00000000
00000000
00000000
,
00000000
00000000
00000000
00000000
,
00000000
00000000
00000000
00000000
,
00000001
00000000
00000000
00000100
00000001
00000100
00000001
00000000
00000000
00001000
00000010
00001000
,
00000010
00000000
00000000
00000100
00001000
00000100
00001000
00000000
00001000
00010000
00000000
00010000
,
00100000
00000000
00000000
01000000
00100000
01000000
00100000
00000000
00000000
10000000
00010000
10000000
,
00010000
00000000
00000000
01000000
00100000
00010000
00002000
00000000
00000000
00013000
00000000
00000000
,
00011000
00000000
00010000
00010100
00000000
00001000
00202000
00000000
,
00000000
00000000
00000000
00000000
00303000
00000000
00001000
00010000
00001000
00000000
00000000
00000000
00010010
00000000
00000000
00000000
,
00001010
00000000
00000001
00000011
00000000
00001000
00002200
00000000
,
00000000
00000000
00003000
00000300
,
00000010
00000001
00000001
00000100
00001000
00001000
00010000
00100000
,
00100000
10000000
01000000
01000000
01100000
00000000
00101000
00000000
,
00011000
00000000
00000000
00000000
00010000
00000010
00010000
00000000
00000000
00000000
00001000
02000000
00002000
00000000
00000000
00000000
,
00000000
00000000
03000000
00003000
,
00010000
00001000
00010000
00001000
00010000
00000100
00001000
00000001
,
00000010
00000000
00000100
00000010
00000000
00001000
00010000
00001000
,
00100000
00010000
00000000
00010000
01000000
00100000
00010000
00001000
,
00000000
00001000
00000100
00000000
00000110
00000000
00010010
00000000
,
00010000
00001000
01000000
00010000
00100000
10000000
00000000
10010000
,
00000000
00010000
01000000
10000000
00010000
01000000
00000000
01100000
,
00000000
00100000
00010000
00000000
00001000
00010000
00000000
00010000
,
00000010
00001000
00000100
00000100
00000010
00000001
00000000
00002002
,
00000000
00000000
00003003
00000000
00000001
00000101
00000000
00001010
,
00000000
00000000
00001000
00000001
00001000
00000000
00000100
00000000
00010000
00000000
00010100
00000000
00000000
00000000
00022000
00000000
,
00000000
00000000
00033000
00000000
00001000
01001000
00000000
10010000
,
00000000
00000000
00010000
01000000
00010000
00000000
10000000
00000000
01000000
00000000
00010000
00000000
01000000
00000000
00010000
00000000
,
00001000
00000100
00000101
00000001
,
00001000
00000100
00000001
00000100
00001000
00000100
00000001
00000100
,
00001000
00000000
00000001
00000100
00001000
00010000
01000000
10000000
,
00010000
00000000
00010000
00000000
10000000
01000000
00010000
00001000
,
00000000
00000000
00000000
00000000
00000000
00000000
00010000
00001000
,
00000010
00000000
00000010
00000001
00000010
00000000
00000010
00001000
,
00010000
00000000
00010000
00001000
01000000
00010000
00100000
01000000
,
00100000
00010000
10000000
00000000
00100000
10000000
00010000
00000000
,
00100000
01000000
00010000
01000000
00010000
00001000
00010000
00001000
,
00000100
00000000
00000100
00000001
00000010
00000000
00000010
00000001
,
00000100
00000000
00000100
00001000
00000000
00001000
00010000
00001000
,
01000000
00010000
00100000
01000000
10000000
00100000
01000000
00000000
,
00010000
10000000
01000000
00000000
00010000
00001000
00010000
00001000
,
00000010
00000000
00001000
00010000
00001000
00000000
00010000
00001000
,
00000100
00001000
00010000
00100000
01000000
00001000
00010000
00001000
,
00000010
00000100
00000001
00000000
00000100
00001000
00000001
00000100
,
00000010
00001000
00000100
00000010
00001000
00010000
00001000
01000000
,
00100000
00100000
00000000
01000000
00010000
10000000
00010000
10000000
,
01000000
00010000
10000000
00100000
00010000
01000000
00100000
00000000
,
10000000
10000000
00100000
00010000
00010000
00001000
00022000
00000000
,
00000000
00000000
00000000
00000000
00033000
00010000
00010000
00010000
,
00001000
00010000
00001000
00010000
00100000
00010000
00100000
00010000
,
00001000
00010000
00000010
00001000
00000100
00000010
00000001
00001000
,
00000020
00000000
00000001
00000000
00000100
00000000
00001030
00000100
,
00020000
00000000
00001000
00000000
01000000
00000000
00031000
00010000
,
00001000
00100000
01000000
10000000
00010000
10000000
00100000
01000000
,
00001000
00010000
00000100
00000010
00001000
00010000
00001000
00000000
,
00011000
00000000
00010000
00010010
00000000
00001000
00202000
00000000
,
00000000
00000000
00000000
00000000
00303000
00001000
00001000
00001000
,
00010000
00001000
00000010
00000001
00001000
00000001
00000100
00001000
,
00010000
00001000
00100000
00010000
00001000
00000100
00010000
00001000
,
00020000
00000000
00000010
00000000
00001000
00000000
00130000
00010000
,
00002000
00000000
00010000
00000000
00000100
00000000
00013000
00001000
,
01000000
00100000
00010000
00001000
00000100
00000010
00010000
00000000
,
00001000
00010000
01000000
00100000
00001000
00010000
00000100
00000010
,
00000011
00000000
00000000
00000000
00000001
00000100
00000001
00000000
00000000
00000000
00001000
00000010
00002000
00000000
00000000
00000000
,
00000000
00000000
00000000
00003000
,
00000001
00000100
00001000
00010000
00100000
10000000
20020000
00000000
,
00000000
30030000
00010000
00010000
,
10000000
01000000
00010000
00001000
00000010
00000001
00002002
00000000
,
00000000
00000000
00000000
00000000
00003003
00000000
00000000
00000000
00000001
00001000
00000001
00000000
00001000
00000000
00000000
00000000
,
00000001
00000010
00001000
00010000
01000000
10000000
10000000
00100000
,
00010000
00001000
00000100
00000001
00000011
00000000
00001100
00000000
,
00000010
00000000
00000000
00010000
00000000
00000000
00001000
00000000
;
