#TITLE:Roar;
#ARTIST:Rookie.F feat. Sean(from PHOENIX ASH);
#BANNER:Roar.png;
#BACKGROUND:Roar-bg.png;
#CDTITLE:./CDTitles/GITADORA HIGH-VOLTAGE.png;
#MUSIC:Roar.ogg;
#SAMPLESTART:55.187;
#SAMPLELENGTH:15;
#BPMS:0=200;
#BGSTAGE:1;

//--------------- dance-single - Fred-104 ----------------
#NOTES:
     dance-single:
     Fred-104:
     Beginner:
     3:
     :
0000
0000
0000
0000
,
0000
0000
0000
0000
,
0000
0000
0000
0000
,
0000
0000
0000
0000
,
0000
0000
0000
0000
,
0000
0000
0000
0000
,
0000
0000
0000
0000
,
0000
0000
0000
0000
,
0000
0000
0000
0000
,
0000
0000
0000
0000
,
1000
0000
0000
0000
,
0001
0000
0000
0000
,
1000
0000
0000
0000
,
0001
0000
0000
0000
,
0020
0000
0000
0000
,
0000
0000
0030
0000
,
0200
0000
0000
0000
,
0000
0000
0300
0000
,
1000
0000
0000
0000
,
0001
0000
0001
0000
,
0100
0000
0000
0000
,
0010
0000
0000
0000
,
0100
0000
0000
0000
,
0001
0000
0001
0000
,
1000
0000
0000
0000
,
1000
0000
0001
0000
,
1000
0000
0000
0000
,
0100
0000
0010
0000
,
0100
0000
0000
0000
,
0100
0000
0000
0000
,
0010
0000
0000
0000
,
0001
0000
0001
0000
,
1000
0000
0000
0000
,
0001
0000
1000
0000
,
0001
0000
0000
0000
,
0010
0000
0000
0000
,
0010
0000
0000
0000
,
1000
0000
0000
0000
,
1000
0000
0000
0000
,
0100
0000
0000
0000
,
0100
0000
0000
0000
,
0001
0000
0000
0000
,
1000
0000
0000
0000
,
0001
0000
0000
0000
,
1000
0000
0001
0000
,
1000
0000
0001
0000
,
2000
0000
3000
0000
,
0001
0000
0000
0000
,
0002
0000
0003
0000
,
1000
0000
0000
0000
,
0001
0000
0001
0000
,
0100
0000
0000
0000
,
1000
0000
1000
0000
,
0100
0000
0000
0000
,
0002
0000
0003
0000
,
1000
0000
0000
0000
,
0002
0000
0003
0000
,
1000
0000
0000
0000
,
0001
0000
0001
0000
,
0010
0000
0000
0000
,
1000
0000
0010
0000
,
0001
0000
0001
0000
,
2000
0000
0000
0000
,
0000
0000
3000
0000
,
0002
0000
0000
0000
,
0000
0000
0003
0000
,
2000
0000
0000
0000
,
0000
0000
3000
0000
,
0001
0000
1000
0000
,
0002
0000
0000
0003
,
2000
0000
3000
0002
,
0000
0003
1000
0000
,
0001
0000
0100
0000
,
0001
0000
1000
0000
,
0001
0000
0001
0000
,
0010
0000
0010
0000
,
0100
0000
0100
0000
,
2000
0000
3000
0000
,
0002
0000
0003
0000
,
1000
0000
0001
0000
,
0200
0000
0300
0000
,
0010
0000
0100
0000
,
0001
0000
0001
0000
,
1000
0000
0000
0000
,
1000
0000
0001
0000
,
0002
0000
0000
0003
,
2000
0000
3000
0000
,
0100
0000
0010
0000
,
0002
0000
0003
0000
,
1000
0000
0001
0000
,
0100
0000
0010
0000
,
0200
0000
0300
0000
,
0001
0000
0000
0000
,
1001
0000
0000
0000
,
1000
0000
0000
0000
,
0001
0000
2002
0000
,
3003
0000
0000
0000
;

//--------------- dance-single - Fred-104 ----------------
#NOTES:
     dance-single:
     Fred-104:
     Easy:
     6:
     :
0000
0000
0000
0000
,
0000
0000
0000
0000
,
0000
0000
0000
0000
,
0000
0000
0000
0000
,
0000
0000
0000
0000
,
0000
0000
0000
0000
,
0000
0000
0000
0000
,
0000
0000
0000
0000
,
0000
0000
0000
0000
,
0000
0000
0000
0000
,
2000
0000
0000
0000
,
3002
0000
0000
0000
,
0203
0000
0000
0000
,
0320
0000
0000
2030
,
0000
3001
0002
0000
,
0000
0000
0000
0023
,
0000
0130
0100
1000
,
0001
0100
0010
1000
,
1001
0000
0000
0001
0000
0000
1000
0000
,
0100
0000
0010
0000
,
0100
0000
0000
1000
0000
0000
0001
0000
,
0100
0000
0010
0010
,
0100
0000
0000
0001
0000
0000
1000
0000
,
0001
0010
0001
1000
,
0020
0100
0000
0100
,
0030
2002
0000
3003
,
0110
0000
0000
1000
0000
0000
0001
0000
,
0010
0000
0100
1000
,
0100
1000
0001
0100
,
0010
1000
0001
0000
,
1001
0000
0000
1000
0000
0000
0001
0000
,
0000
0100
0000
0000
0010
0000
0200
0000
,
0000
0301
1000
0001
,
0010
0100
2000
3000
,
0001
0010
0000
0010
,
0000
0100
0000
0100
,
0000
1000
0000
0001
,
1000
0001
0100
0000
,
0010
0100
0000
0100
,
0000
0001
0000
0001
,
0000
1000
0000
0001
,
0000
1000
0100
0010
,
0100
1000
0000
1000
,
0000
0001
0000
0001
,
0000
0100
0000
0010
,
0100
0100
0001
0001
,
2000
3000
0002
0003
,
1000
0000
0000
0001
0000
0000
0100
0000
,
0020
0030
0200
0300
,
0001
0000
0000
1000
0000
0000
0001
0000
,
0010
0010
0100
0100
,
1000
0000
0000
0001
0000
0000
1000
0000
,
0001
0001
0100
0100
,
0010
0000
0000
1000
0000
0001
0000
0000
,
2000
3000
0002
0003
,
1000
0000
0000
0001
0000
0000
0100
0000
,
0020
0030
2000
3000
,
0001
0000
0000
0010
0000
0000
0100
0000
,
1000
1000
0001
0001
,
0100
0000
0000
0010
0000
0000
0100
0000
,
0001
0000
0000
1000
0000
0000
0100
0000
,
0010
0100
2002
3003
,
0001
0000
0000
0001
0000
0000
1000
0000
,
0000
1000
0000
0000
0002
0000
0003
0000
,
1000
0000
0000
1000
0000
0000
0001
0000
,
0000
0001
0000
0000
2000
0000
3000
0000
,
0001
0000
0000
0001
0000
0000
1000
0000
,
0000
1000
0000
0000
0001
0000
1000
0000
,
0100
0000
0100
0000
,
0010
0000
0000
0100
0000
0000
1000
0000
,
0001
0000
0000
0001
0000
0000
1000
0000
,
0000
1000
0000
0000
0001
0000
0000
0100
,
0000
0010
0010
0100
,
0001
0000
0000
1000
0000
0000
0001
0000
,
1000
1000
0001
0001
,
1000
0000
0000
0010
0000
0000
0100
0000
,
0001
0001
1000
1000
,
0100
0010
2002
3003
,
0002
0003
2000
3000
,
0001
0000
0000
1000
0000
0000
0100
0000
,
0020
0030
0200
0300
,
1000
0000
0000
0001
0000
0000
1000
0000
,
0010
0010
0100
0100
,
0001
0000
0000
1000
0000
0000
0001
0000
,
1000
1000
0100
0100
,
0010
0000
0000
0100
0000
1000
0000
0000
,
0002
0003
2000
3000
,
0001
0000
0000
1000
0000
0000
0100
0000
,
0020
0030
0002
0003
,
1000
0000
0000
0010
0000
0000
0100
0000
,
0001
0001
1000
1000
,
0100
0000
0000
0010
0000
0000
0100
0000
,
1000
0000
0000
0001
0000
0000
0100
0000
,
0010
0100
2002
3003
,
1000
0000
0000
0001
0000
0000
1000
0000
,
0001
0001
2002
0000
,
3003
0000
0000
0000
;

//--------------- dance-single - Fred-104 ----------------
#NOTES:
     dance-single:
     Fred-104:
     Medium:
     11:
     :
0000
0000
0000
0000
,
0000
0000
0000
0000
,
0000
0000
0000
0000
,
0000
0000
0000
0000
,
0000
0000
0000
0000
,
0000
0000
0000
0000
,
0000
0000
0000
0000
,
0000
0000
0000
0000
,
0000
0000
0000
0000
,
0000
0000
0000
0000
,
0002
0000
0013
0000
,
0200
0000
0310
0000
,
0002
0000
1003
0000
,
0002
0000
0103
0020
,
0000
0130
0200
0000
,
0000
0000
0000
0302
,
0000
1003
0001
1000
,
0100
0010
0002
0003
,
1001
0000
0000
0001
0000
0000
0100
0000
,
0010
0000
1000
0010
1000
0010
1000
0000
,
0001
0000
0000
1000
0000
0000
0100
0000
,
0010
0000
0000
0010
0001
0000
1000
0000
,
0001
0000
0000
0100
0000
0000
0010
0000
,
0100
0000
0001
0000
1000
0100
1000
0000
,
0002
0010
0000
0010
,
0003
2002
0000
3003
,
0110
0000
0000
1000
0000
0000
0001
0000
,
0100
0000
0010
1000
0010
0000
1000
0000
,
0001
1000
0100
0001
,
0100
0000
1000
0000
0001
0100
0010
0000
,
0110
0000
0000
0001
0000
0000
1000
0000
,
0000
0100
1000
0000
0001
0000
0200
0000
,
0000
0320
2030
3002
,
0013
0100
0010
0000
0001
1000
0001
1000
,
0001
0100
0010
0200
,
0000
0302
0000
2003
,
0000
0000
3200
0000
0000
0000
0310
0001
,
0010
0001
0010
0000
0002
0000
0203
0000
,
0310
1000
0100
2000
,
0000
3002
0000
0203
,
0000
0320
0000
2030
,
0000
0000
3001
0000
0010
0100
1000
0000
,
0001
0100
0010
1010
,
0000
0101
0000
1100
,
0000
0011
0001
1000
,
0100
0010
0100
0010
0001
0010
0001
1000
,
0020
0030
2002
3003
,
0001
0010
0001
0010
0000
0100
1000
0000
,
2200
3300
0202
0303
,
1000
0010
1000
0010
0000
0100
0001
0000
,
1000
0000
0001
0010
0001
0000
1000
0100
,
1000
0000
0001
0100
0000
0010
1000
0000
,
0001
0000
0100
0010
0100
0000
0010
1000
,
0010
0000
1000
0100
0000
0010
0001
0000
,
0220
0330
2002
3003
,
0001
0100
0010
0100
0000
0001
1000
0000
,
2200
3300
0022
0033
,
0001
1000
0001
0010
0000
0100
0010
0000
,
0001
0000
1000
0100
1000
0000
0001
0100
,
0001
0000
0010
0100
0000
1000
0001
0000
,
0100
0010
1000
0000
0010
0100
0001
0000
,
1100
0011
2002
3003
,
1000
0100
1000
0100
0000
0000
0010
0001
,
0010
0001
0000
0000
2000
0001
3000
0000
,
0001
0100
0001
0100
0000
0000
0010
1000
,
0010
1000
0000
0000
0002
1000
0003
0000
,
1000
0010
1000
0010
0000
0000
0100
0001
,
0100
0001
0000
1000
0100
1000
0100
0000
,
0010
0000
0001
0100
0010
0000
1000
0100
,
0010
0000
0001
1000
0000
0010
1000
0000
,
0001
0010
0001
0010
0000
0000
0100
1000
,
0100
1000
0000
0001
1000
0010
1000
0020
,
0000
0000
0130
0001
1000
0000
0001
0010
,
0100
0000
1000
0001
0000
1000
0010
0000
,
0110
0000
0100
0001
1000
0000
0100
0010
,
0001
0000
0100
0010
0000
1000
0001
0000
,
0110
0000
1000
0001
0100
0000
0010
1000
,
0100
0110
2002
3003
,
0002
0013
0002
0103
,
0010
1000
0010
0100
0000
0001
1000
0000
,
0200
0310
0200
1300
,
0010
0100
0010
1000
0000
0001
1000
0000
,
0110
0000
0001
0100
0010
0000
1000
0001
,
0010
0000
0100
1000
0000
0001
0100
0000
,
0110
0000
0010
1000
0001
0000
0010
0100
,
0010
0100
0010
0001
0000
2002
0000
3003
,
2000
3100
0002
0103
,
1000
0001
1000
0100
0000
0010
0001
0000
,
2000
3010
0002
0013
,
1000
0010
0100
0001
0000
1000
0001
0000
,
0110
0000
1000
0001
0010
0000
0100
1000
,
0010
0000
0100
0001
0000
1000
0100
0000
,
0010
0001
0000
1000
0001
0000
0100
0010
,
0100
0110
2002
3003
,
1000
1000
0000
0001
0000
0010
0000
0100
,
0100
0010
2002
0000
,
3003
0000
0000
0000
;

//--------------- dance-single - Fred-104 ----------------
#NOTES:
     dance-single:
     Fred-104:
     Hard:
     14:
     :
0000
0000
0000
0000
,
0000
0000
0000
0000
,
0000
0000
0000
0000
,
0000
0000
0000
0000
,
0000
0000
0000
0000
,
0000
0000
0000
0000
,
0000
0000
0000
0000
,
0000
0000
0000
0000
,
0000
0000
0000
0000
,
0000
0000
0000
0000
,
2000
0000
0000
0000
,
3002
0000
0003
0000
,
0020
0000
0000
0000
,
0230
0000
0000
2300
,
0001
3001
0200
0000
,
0000
0000
0000
0320
,
0000
2030
3002
0023
,
0230
0000
1300
0010
0100
0010
1000
0001
,
0010
0100
0000
1100
0000
1000
0001
0000
,
1000
0000
0001
0010
0100
1000
0010
0100
,
0001
0000
1000
0100
0000
0100
0010
0000
,
0001
0000
0100
0010
0100
1000
0100
0010
,
1000
0000
0001
0010
0000
0010
0100
1000
,
0001
0000
0100
0000
0010
1000
0001
1000
,
0100
0010
0000
0011
0000
0001
0100
0010
,
0100
0010
1000
0100
0001
0100
1000
0001
,
0100
0000
0010
1000
0000
1000
0100
0010
,
0002
0000
2003
0000
3010
0001
1000
0100
,
0001
0010
0100
1000
0010
0100
0001
1000
,
0100
1000
0100
0001
0100
0001
0100
1000
,
0001
0000
0100
0010
0000
0010
1000
0000
,
0100
0010
0001
0100
0010
1000
0002
0000
,
1000
2003
3020
0230
,
0301
0000
0100
0001
0100
0000
0000
0000
0010
0000
0010
0000
0100
0000
0100
0000
,
0001
0000
1000
0100
0001
0000
0001
0100
,
1000
0100
1000
0100
1000
0000
0001
0000
,
1000
0000
0001
0100
1000
0000
1000
0100
,
0001
0100
0001
0100
0001
0000
1000
0000
,
0001
0000
1000
0010
0001
0000
0001
0010
,
1000
0010
1000
0010
0100
0001
0010
0100
,
1000
0000
0001
0010
1000
0000
1000
0010
,
0001
0010
0001
0010
0100
1000
0001
0100
,
0010
0001
0010
0000
0011
0000
1010
0000
,
1000
0100
0010
0000
0001
0100
0010
0000
,
1001
0000
0001
0001
1000
1000
0100
0100
,
0010
0100
0010
1000
0010
0100
0010
0001
,
0012
0000
1003
0000
0102
0000
1003
0001
,
0010
1000
0001
0100
1000
0010
0100
0001
,
2100
0000
3001
0000
2010
0000
3001
1000
,
0100
0010
1000
0001
0100
0010
0100
1000
,
0002
0000
1003
0100
0002
0000
1003
0010
,
0001
0100
0010
0001
1000
0100
0001
0010
,
0100
0000
0100
0001
0100
0000
1100
0000
,
1000
0000
0001
1000
0001
0000
0100
0000
0010
0000
1000
0000
0100
0000
0010
0000
,
0210
0000
1300
0000
0012
0000
1003
0001
,
0010
0000
0100
0000
1000
0000
0010
0000
0100
0000
0001
0000
0010
0100
0010
0000
,
0012
0000
1003
0000
1002
0000
0103
0001
,
1000
0010
0100
1000
0001
0010
0100
0001
,
2000
0000
3010
0100
0002
0000
0013
0100
,
1000
0000
0001
0100
0001
0000
1000
0000
0001
0000
0010
0100
0010
0000
0100
0000
,
1000
0001
1000
0000
0001
0000
0100
0000
0010
0000
1000
0000
0001
1000
0001
0000
,
1000
0000
0100
0010
0100
0000
0010
0000
0001
1000
0001
1000
0001
1000
0001
0000
,
1000
0010
0100
0002
0000
0000
1003
0100
,
0010
0002
0000
0000
1003
0001
1001
0000
,
0001
0100
0010
2000
0000
0000
3001
0010
,
0100
2000
0000
0000
3001
1000
1001
0000
,
1000
0100
0010
0002
0000
0000
0103
0010
,
1000
0002
0000
1003
0100
0010
0001
1000
,
0001
0000
1000
0001
1000
0000
0100
0000
0010
0000
0001
1000
0001
0000
0100
0000
,
0010
0000
1000
0001
1000
0000
0100
0000
0000
0000
0100
0000
0110
0000
0000
0000
,
1000
0100
0001
0100
2000
0000
3001
0100
,
1000
0100
0001
1000
0100
0010
0001
2000
,
0000
0000
3001
0100
0010
0000
0010
1000
,
0001
0000
0010
0000
0100
0000
1000
0100
1000
0000
0001
0000
1000
0000
0010
0000
,
0200
0000
0301
0010
0200
0000
1300
0010
,
0100
0010
1000
0001
0010
0001
0100
0010
,
1000
0000
0000
0000
0001
0010
0001
0010
0001
0000
0000
0000
1000
0100
1000
0100
,
1000
0110
2002
3003
,
0001
0100
0010
1000
0010
0100
0001
1000
,
0100
0001
0100
0010
1000
0001
0100
1000
,
0001
0010
0100
1000
0100
0010
0001
1000
,
0001
0100
0010
0001
1000
0100
0010
0100
,
0001
1000
0010
0100
0001
1000
0001
0100
,
0010
0001
1000
0100
0010
1000
0001
0010
,
0100
0000
1000
0001
1000
0000
0100
0000
0110
0000
0000
0000
0010
0000
0001
0000
,
1000
0010
0100
0001
0000
2002
0000
3003
,
1000
0100
1000
0000
0001
0000
1000
0000
0010
0100
0010
0000
1000
0000
0001
0000
,
0010
0100
0010
1000
0001
0100
0010
0001
,
1000
0001
1000
0000
0001
0000
0100
0000
0010
1000
0010
0000
0100
0000
0001
0000
,
1000
0100
0001
1000
0010
0100
1000
0000
,
0001
0100
0010
1000
0001
1000
0010
0100
,
0001
1000
0100
0001
0100
0100
0010
0010
,
0001
0100
1000
0001
0010
1000
0100
0010
,
0110
1100
2002
3003
,
1000
1100
0000
0011
0000
1010
0000
0001
,
0100
0010
0110
0000
2002
0000
0000
0000
,
3003
0000
0000
0000
;

//--------------- dance-double - Fred-104 ----------------
#NOTES:
     dance-double:
     Fred-104:
     Easy:
     7:
     :
00000000
00000000
00000000
00000000
,
00000000
00000000
00000000
00000000
,
00000000
00000000
00000000
00000000
,
00000000
00000000
00000000
00000000
,
00000000
00000000
00000000
00000000
,
00000000
00000000
00000000
00000000
,
00000000
00000000
00000000
00000000
,
00000000
00000000
00000000
00000000
,
00000000
00000000
00000000
00000000
,
00000000
00000000
00000000
00000000
,
00020000
00000000
00000000
00000000
,
00032000
00000000
00000000
00000000
,
02003000
00000000
00000000
00000000
,
03020000
00000000
10030000
02000000
,
00000000
03100000
00200000
00000000
,
00000000
00000000
00301000
00002000
,
00000000
00013000
00000010
00010000
,
00001000
00100000
01000000
10000000
,
10010000
00000000
00000000
00010000
00000000
00000000
10000000
00000000
,
01000000
00100000
00001000
00000000
,
00010000
00000000
00000000
00000010
00000000
00000000
00010000
00000000
,
00001000
00000000
00010000
00010000
,
00000100
00000000
00000000
00000010
00000000
00000000
00000001
00000000
,
00001000
00000010
00001000
00000010
,
00020000
00001000
00000000
00001000
,
00030000
00022000
00000000
00033000
,
00011000
00000000
00000000
00001000
00000000
00000000
00100000
00000000
,
00010000
10000000
00100000
00010000
,
00001000
00010000
00000100
00001000
,
00000001
00000100
00000010
00000000
,
00001001
00000000
00000000
00000001
00000000
00000000
00000010
00000000
,
00000000
00001000
00000000
00000000
00010000
00000000
00002000
00000000
,
00000000
00103000
01000000
10000000
,
00010000
01000000
00002000
00003000
,
00010000
00001000
00000000
00001000
,
00000000
00000010
00000000
00000001
,
00000000
00001000
00000000
00000100
,
00010000
00001000
00010000
00000000
00001000
00000000
01000000
00000000
,
00100000
10000000
00000000
01000000
,
00000000
00010000
00000000
00001000
,
00000000
00000010
00000001
00001000
,
00000100
00000000
00010000
00000000
00001000
00010000
00001000
00000000
,
00010000
00100000
01000000
00010000
,
10000000
01000000
00100000
00001000
,
00010000
00000010
00001000
00000001
,
00000100
00000010
00000100
00000000
00000001
00000100
00000001
00000000
,
00002000
00003000
00000002
00000003
,
00000010
00000000
00000000
00000100
00000000
00000000
00010000
00000000
,
00002000
00003000
02000000
03000000
,
00100000
00000000
00000000
10000000
00000000
00000000
00010000
00000000
,
10000000
10000000
01000000
01000000
,
00010000
00000000
00000000
00001000
00000000
00000000
00010000
00000000
,
00001000
00001000
00010000
00010000
,
00000100
00000000
00000010
00000100
00000000
00001001
00000000
00000000
,
00000002
00000003
00000020
00000030
,
00000001
00000000
00000000
00000100
00000000
00000000
00001000
00000000
,
00020000
00030000
00002000
00003000
,
00100000
00000000
00000000
00010000
00000000
00000000
01000000
00000000
,
00010000
00010000
10000000
10000000
,
01000000
00000000
00100000
00001000
00000000
00010000
00000100
00000000
,
00001000
00000000
00000000
00000100
00000000
00000000
00010000
00000000
,
00001000
00010000
00022000
00033000
,
00001000
00000000
00000000
00001000
00000000
00000000
00010000
00000000
,
00000000
00010000
00000000
00000000
00011000
00000000
00000000
00000000
,
00010000
00000000
00000000
00010000
00000000
00000000
00001000
00000000
,
00000000
00001000
00000000
00000000
00011000
00000000
00000000
00000000
,
00010000
00000000
00000000
00010000
00000000
00000000
00001000
00000000
,
00000000
00001000
00000000
00000000
00010000
00000000
00000100
00000000
,
00000010
00000010
00000001
00000001
,
00001000
00000000
00000000
00000010
00000000
00000000
00010000
00000000
,
00001000
00000000
00000000
00001000
00000000
00000000
00010000
00000000
,
00000000
00010000
00000000
00000000
00001000
00000000
00000000
00001000
,
00000000
00010000
00001000
01000000
,
00100000
00000000
00000000
01000000
00000000
00000000
00010000
00000000
,
10000000
00000000
10000000
00000000
,
01000000
00000000
00000000
00100000
00000000
00000000
00001000
00000000
,
00010000
00010000
00001000
01000000
,
00010000
10000000
20020000
30030000
,
00020000
00030000
20000000
30000000
,
00100000
00000000
00000000
01000000
00000000
00000000
00001000
00000000
,
00020000
00030000
00000200
00000300
,
00000010
00000000
00000000
00000001
00000000
00000000
00001000
00000000
,
00000001
00000001
00000100
00000100
,
00001000
00000000
00000000
00010000
00000000
00000000
00001000
00000000
,
00010000
00010000
00001000
00001000
,
01000000
00000000
00100000
01000000
00000000
10010000
00000000
00000000
,
20000000
30000000
00200000
00300000
,
10000000
00000000
00000000
01000000
00000000
00000000
00010000
00000000
,
00002000
00003000
00020000
00030000
,
00000010
00000000
00000000
00001000
00000000
00000000
00000100
00000000
,
00001000
00001000
00000001
00000001
,
00000100
00000000
00000010
00010000
00000000
00001000
01000000
00000000
,
00010000
00000000
00000000
01000000
00000000
00000000
00001000
00000000
,
00010000
00001000
00022000
00033000
,
00010000
00000000
00000000
00001000
00000000
00000000
00010000
00000000
,
00001000
00010000
00022000
00000000
,
00033000
00000000
00000000
00000000
;

//--------------- dance-double - Fred-104 ----------------
#NOTES:
     dance-double:
     Fred-104:
     Medium:
     12:
     :
00000000
00000000
00000000
00000000
,
00000000
00000000
00000000
00000000
,
00000000
00000000
00000000
00000000
,
00000000
00000000
00000000
00000000
,
00000000
00000000
00000000
00000000
,
00000000
00000000
00000000
00000000
,
00000000
00000000
00000000
00000000
,
00000000
00000000
00000000
00000000
,
00000000
00000000
00000000
00000000
,
00000000
00000000
00000000
00000000
,
00002000
00000000
00013000
00000000
,
00200000
00000000
10300000
00000000
,
00020000
00000000
00130000
00000000
,
02000000
00000000
03010000
00002000
,
00000000
00023000
00030200
00000000
,
00000010
00000000
00000310
00000002
,
00000000
00000103
00001000
00010000
,
00000100
00010000
00000010
00000100
00000002
00000000
00000003
00000000
,
00001001
00000000
00000000
00000001
00000000
00000010
00000010
00000000
,
00000100
00000000
00010000
00001000
00010000
00001000
00010000
00000000
,
00100000
00000000
00000000
10000000
00000000
01000000
01000000
00000000
,
00100000
00000000
00000000
00001000
00001000
00000000
00010000
00000000
,
00000010
00000000
00000000
00000100
00000000
00001000
00001000
00000000
,
00010000
00000000
00001000
00000000
01000000
00010000
00100000
00000000
,
00002000
00010000
00000000
00010000
,
00003000
00020020
00000000
00030030
,
00001001
00000000
00000000
00000001
00000000
00000100
00000100
00000000
,
00001000
00000000
00010000
00000000
00001000
00100000
01000000
00000000
,
00100000
00001000
00010000
00000000
00100000
01000000
00010000
00000000
,
10000000
01000000
00010000
00000000
00001000
00010000
01000000
00000000
,
11000000
00000000
00000000
00010000
00000000
00100000
00100000
00000000
,
00001000
00010000
00000010
00000000
00001000
00000000
00000200
00000000
,
00000000
00000320
00000032
00000203
,
00001300
00010000
00001000
00000000
00010000
00010000
00001000
00001000
,
01000000
00100000
10000000
01000000
,
00100000
00001000
00010000
00000100
,
00010000
00000000
00001000
00000000
00010000
00000000
00000100
00000010
,
00000001
00001000
00000010
00000000
00000100
00000000
00001000
00000000
,
00010000
00001000
01000000
00001000
,
00010000
00001000
00000100
00000001
,
00001000
00000001
00000010
00001000
,
00010000
00000000
00100000
00000000
10000000
01000000
00100000
00000000
,
00001000
00010000
00000100
00000001
,
00000100
00000010
00000001
00000100
,
00001000
00010000
01000000
10000000
,
00010000
01000000
00010000
01000000
00001000
00010000
00001000
00010000
,
00022000
00033000
00020020
00030030
,
00001000
00000100
00000010
00000001
00000000
00000100
00000010
00000000
,
00002020
00003030
00020020
00030030
,
00001000
00010000
00001000
01000000
00000000
00100000
10000000
00000000
,
00010000
00000000
10000000
01000000
00010000
00000000
00001000
00010000
,
00001000
00000000
00000100
00000001
00000000
00001000
00000001
00000000
,
00001000
00000000
00000001
00000100
00001000
00000000
00010000
00001000
,
00010000
00000000
01000000
10000000
00000000
00010000
10000000
00000000
,
02200000
03300000
20020000
30030000
,
10000000
00100000
01000000
00010000
00000000
00100000
00001000
00000000
,
00022000
00033000
00002200
00003300
,
00000100
00000001
00001000
00000100
00000000
00000010
00000100
00000000
,
00001000
00000000
00000001
00000010
00001000
00000000
00010000
00001000
,
00010000
00000000
00100000
10000000
00000000
00010000
10000000
00000000
,
00010000
00000000
10000000
00100000
00010000
00000000
00001000
00000010
,
00000001
00000110
00002002
00003003
,
00000001
00000100
00000001
00000100
00000000
00000000
00001000
00010000
,
00001000
00010000
00000000
00000000
02000000
10000000
03000000
00000000
,
10000000
00100000
10000000
00100000
00000000
00000000
00010000
00001000
,
00010000
00001000
00000000
00000000
00000020
00000001
00000030
00000000
,
00000001
00000010
00000001
00000010
00000000
00000000
00001000
00010000
,
00001000
00010000
00000000
00001000
00100000
00010000
10000000
00000000
,
10010000
00000000
00010000
01000000
00100000
00000000
10000000
01000000
,
00100000
00000000
00001000
00010000
00000000
00001000
01000000
00000000
,
00001000
00010000
00001000
00010000
00000000
00000000
00100000
01000000
,
00010000
01000000
00000000
00100000
10000000
00010000
00100000
02000000
,
00000000
00000000
03100000
00001000
00010000
00000000
00001000
00000100
,
00000001
00001000
00000100
00000010
00000000
00000010
00000001
00001000
,
00001001
00000000
00000001
00000100
00001000
00000000
00010000
00001000
,
00010000
00000000
00100000
10000000
00000000
00010000
10000000
00000000
,
10010000
00000000
00010000
10000000
01000000
00000000
00010000
00001000
,
00010000
00000100
00002002
00003003
,
00000002
00000013
00002000
00003010
,
00000001
00001000
00000010
00010000
00000000
00001000
00100000
00000000
,
02000000
03100000
00020000
10030000
,
00100000
01000000
00100000
00010000
00000000
00001000
00010000
00000000
,
00011000
00000000
00010000
00000100
00001000
00000000
00000010
00010000
,
00001000
00000000
01000000
00010000
00000000
00100000
00001000
00000000
,
00011000
00000000
00010000
00000010
00001000
00000000
00000100
00010000
,
00001000
00100000
01000000
00100000
00000000
20020000
00000000
30030000
,
20000000
30100000
00020000
00130000
,
10000000
01000000
00100000
00010000
00000000
00100000
00001000
00000000
,
00020000
00030100
00000002
00000103
,
00001000
00000001
00000100
00000010
00000000
00001000
00000001
00000000
,
00000110
00000000
00001000
00000001
00000100
00000000
00001000
00010000
,
00001000
00000000
00100000
01000000
00000000
10000000
00010000
10000000
,
10010000
00000000
10000000
00100000
00000000
10000000
00010000
00100000
,
00001000
00010000
00022000
00033000
,
00001000
00001000
00000000
01000000
00000000
00010000
00000000
00100000
,
00100000
01000000
20020000
00000000
,
30030000
00000000
00000000
00000000
;

//--------------- dance-double - Fred-104 ----------------
#NOTES:
     dance-double:
     Fred-104:
     Hard:
     14:
     :
00000000
00000000
00000000
00000000
,
00000000
00000000
00000000
00000000
,
00000000
00000000
00000000
00000000
,
00000000
00000000
00000000
00000000
,
00000000
00000000
00000000
00000000
,
00000000
00000000
00000000
00000000
,
00000000
00000000
00000000
00000000
,
00000000
00000000
00000000
00000000
,
00000000
00000000
00000000
00000000
,
00000000
00000000
00000000
00000000
,
00020000
00000000
00000000
00000000
,
00032000
00000000
00003000
00000000
,
02000000
00000000
00000000
00000000
,
03020000
00000000
00000000
10030000
,
01000000
00010000
00002000
00000000
,
00000000
00000000
00000000
00023000
,
00000000
00030020
00002030
00003002
,
00000023
00000000
00000130
00001000
00000010
00000100
00001000
00010000
,
00001000
01000000
00000000
01010000
00000000
01000000
00001000
00000000
,
00010000
00000000
00001000
00000100
00000010
00010000
00000100
00000010
,
00000001
00000000
00001000
00000010
00000000
00000010
00010000
00000000
,
00001000
00000000
00010000
00000100
00001000
00000100
00000010
00001000
,
00010000
00000000
00001000
01000000
00000000
01000000
00010000
01000000
,
10000000
11000000
01010000
10010000
,
00010000
10000000
00100000
00000000
00010000
00001000
00010000
00000000
,
00000100
00001000
00010000
00100000
00001000
00010000
00100000
10000000
,
01000000
00000000
10000000
00100000
00000000
00100000
00010000
00001000
,
00020000
00000000
00030020
00000000
00000031
00000010
00000100
00000010
,
00001000
00000001
00000010
00000100
00010000
00001000
01000000
00001000
,
00010000
00001000
00010000
00001000
00000100
00001000
00000100
00001000
,
00010000
00000000
00001000
01000000
00000000
01000000
00100000
00000000
,
00010000
00100000
10000000
00010000
00100000
01000000
00020000
00000000
,
00001000
00032000
00003200
00000320
,
00001030
00000000
00000001
00001000
00000001
00000000
00000000
00000000
00001000
00000000
00001000
00000000
00000100
00000000
00000100
00000000
,
00010000
00000000
00001000
00010000
01000000
00000000
01000000
00010000
,
00001000
00010000
01000000
00010000
00001000
00000000
01000000
00000000
,
00001000
00000000
00010000
00001000
00000100
00000000
00000100
00001000
,
00010000
00001000
00000100
00001000
00010000
00000000
00000100
00000000
,
00010000
00000000
00001000
00010000
00100000
00000000
00100000
00010000
,
00001000
00010000
00001000
00100000
00001000
00010000
00001000
00000000
,
00010000
00000000
00001000
00010000
01000000
00000000
01000000
00010000
,
00001000
00100000
00010000
00001000
00000100
00010000
00001000
00100000
,
02000000
00000000
23000000
00000000
30100000
00010000
00002000
00000000
,
00013000
00000100
00000010
00000000
00000001
00000100
00000010
00000000
,
00001010
00000000
00001000
00001000
00000001
00000001
00000010
00000010
,
00000001
00000010
00000100
00001000
00010000
00100000
01000000
10000000
,
00010000
01000000
01200000
00000000
10300000
01000000
01200000
00000000
,
00301000
00010000
00000100
00010000
00001000
00100000
01000000
00000000
,
10000000
00010000
02010000
00000000
03001000
00010000
00012000
00000000
,
00013000
00000100
00000010
00000001
00000100
00000010
00001000
00000001
,
00002001
00000000
00003001
00000100
00002000
00000000
00013000
00001000
,
00010000
00100000
01000000
00100000
00000000
00100000
10000000
00000000
,
10020000
00000000
10030000
01000000
00020000
00000000
00031000
00010000
,
00000010
00000000
00001000
00000010
00001000
00000000
00000001
00000000
00000010
00000000
00000100
00000000
00000010
00000000
00001000
00000000
,
00021000
00000000
00030010
00000000
00012000
00000000
01003000
00001000
,
00010000
00001000
00000100
00000001
00000100
00000010
00001000
00000100
,
00002100
00000000
00003001
00000000
00002010
00000000
00003001
00001000
,
00000100
00000010
00001000
00010000
01000000
00100000
00010000
10000000
,
10020000
00000000
10030000
00100000
00020000
00000000
00031000
00010000
,
00001000
00000000
00010000
00001000
00010000
00000000
00000100
00000000
00001000
00000000
00000001
00000000
00000100
00000000
00000010
00000000
,
00001000
00000010
00001000
00000000
00000001
00000000
00000010
00000000
00001000
00000000
00010000
00000000
00001000
00010000
00001000
00000000
,
01000000
00000000
00010000
01000000
00010000
00000000
10000000
00000000
00010000
10000000
00010000
10000000
00010000
10000000
00010000
00000000
,
10000000
01000000
00100000
00020000
00000000
00000000
00031000
00000100
,
00000010
00000002
00000000
00000000
00000103
00000010
00000110
00000000
,
00000001
00000010
00000100
00002000
00000000
00000000
00013000
00100000
,
01000000
20000000
00000000
00000000
30100000
01000000
01100000
00000000
,
10000000
00100000
01000000
00020000
00000000
00000000
00130000
00001000
,
00010000
00000200
00000000
00001300
00000010
00000100
00000001
00001000
,
00000100
00000000
00000010
00000001
00000010
00000000
00000100
00000000
00001000
00000000
00000100
00001000
00000100
00000000
00010000
00000000
,
00001000
00000000
01000000
00010000
01000000
00000000
00010000
00000000
10000000
00000000
01000000
00000000
01100000
00000000
00000000
00000000
,
10000000
01000000
00010000
01000000
10000000
00000000
00010000
01000000
,
10000000
01000000
00010000
10000000
01000000
00100000
00001000
00020000
,
00000000
00000000
00030100
00001000
00000001
00000000
00000001
00000100
,
00000010
00000001
00000010
00000100
00001000
00010000
00001000
01000000
,
00200000
00000000
10300000
01000000
00200000
00000000
00310000
01000000
,
00100000
10000000
01000000
00100000
01000000
00010000
00001000
00010000
,
00001000
00000000
00000010
00000010
00000001
00000000
00000100
00000100
,
00001100
00011000
00022000
00033000
,
00010000
00000010
00000100
00000001
00001000
00000100
00000010
00001000
,
00010000
00001000
00010000
00100000
00010000
00001000
00100000
00010000
,
10000000
00100000
01000000
00010000
01000000
00100000
10000000
00010000
,
00100000
01000000
00010000
00001000
00000010
00000100
00001000
00000010
,
00010000
00001000
01000000
00100000
10000000
00010000
00100000
00001000
,
00100000
01000000
00010000
00001000
00000010
00000100
00001000
00000001
,
00000100
00000000
00000010
00001000
00000010
00000000
00000100
00000000
00000110
00000000
00000000
00000000
00000001
00000000
00001000
00000000
,
00000100
00000010
00001000
00010000
00000000
00022000
00000000
00033000
,
00001000
00010000
00001000
00000000
01000000
00000000
00100000
00000000
10000000
00010000
10000000
00000000
01000000
00000000
00100000
00000000
,
00001000
00010000
00000100
00000001
00001000
00000010
00000001
00000000
,
00001000
00000001
00001000
00000000
00000010
00000000
00000100
00000000
00001000
00010000
00001000
00000000
01000000
00000000
00010000
00000000
,
00100000
01000000
00010000
10000000
00100000
00010000
01000000
00000000
,
00001000
00010000
00001000
01000000
00001000
00010000
00100000
01000000
,
00100000
10000000
00010000
00100000
01000000
01000000
00010000
00010000
,
00001000
00010000
00000100
00000010
00000001
00001000
00000010
00010000
,
00011000
01001000
00022000
00033000
,
00010000
00011000
00000000
00001010
00000000
00000011
00000000
00000001
,
00000010
00000100
00000110
00000000
00002002
00000000
00000000
00000000
,
00003003
00000000
00000000
00000000
;
