#VERSION:0.83;
#TITLE:Remain;
#ARTIST:ZERO+ZIBA;
#GENRE:RUINOUS SPIRITUALS;
#BANNER:Remain.png;
#BACKGROUND:Remain-bg.png;
#CDTITLE:./CDTitles/pnm 19 TUNE STREET.png;
#MUSIC:Remain.ogg;
#SAMPLESTART:84.396;
#SAMPLELENGTH:15;
#BPMS:0=150,64=300,72=150,87=300,88=75,97.5=150,98=75,103.5=150,104=75,136=150,164=75,166=300,296=150;
#STOPS:87=0.1,87.5=0.1,97.5=0.1,97.75=0.1,103.5=0.1,103.75=0.1,194=0.15,194.75=0.15,195.5=0.1;
#TIMESIGNATURES:0=4=4,164=2=4,166=4=4,190=6=4,196=4=4;
#BGSTAGE:28;

//--------------- dance-single - Fred-104 ----------------
#NOTEDATA:;
#STEPSTYPE:dance-single;
#DESCRIPTION:Fred-104;
#DIFFICULTY:Beginner;
#METER:6;
#CREDIT:Fred-104;
#NOTES:
0000
0000
0000
0000
,
0000
0000
0000
0000
,
0000
0000
0000
0000
,
0000
0000
0000
0000
,
0000
0000
0000
0000
,
2000
0000
0000
0000
,
3002
0000
0000
0000
,
2003
0000
0000
0000
,
0002
0000
0000
3003
,
0001
0010
0100
0100
,
1000
0001
0100
0100
,
0010
1000
0001
0001
,
0010
0100
1000
1000
,
0001
0001
0100
0100
,
1000
1000
0010
0010
,
0001
1000
0001
1000
,
2002
0000
0000
0000
,
0000
0000
0000
3003
,
0002
0000
0000
0000
,
2003
0000
0000
0000
,
3002
0000
0000
0000
,
2003
0000
0000
3000
,
1001
0001
0010
0010
,
0100
0100
0010
0001
,
2000
0000
0000
3000
0001
0000
0100
0000
,
0010
0010
0100
0110
,
0001
1001
1000
1001
,
0110
0000
0001
1001
,
0100
0110
0010
0110
,
2002
0000
0000
3003
,
0002
0000
0000
0003
,
2000
0000
0000
3000
,
0001
0100
1000
0010
,
0001
0001
1000
1000
0001
0001
1001
0000
,
1000
0000
0100
0000
,
0010
0010
0001
1000
,
0001
0001
0100
0010
,
0100
0100
0001
1000
,
0001
0001
0010
0010
,
0100
0100
1000
1000
,
0010
0100
0010
1000
,
2002
0000
0000
3003
0001
0000
0000
0000
,
0001
0000
1000
0000
,
0010
0000
0100
0000
,
0100
0000
0001
0000
,
1000
0000
0100
0000
,
0100
0000
0010
0000
,
0001
0000
1000
0000
,
0001
0000
1001
0000
,
0001
0000
0010
0000
,
0100
0000
0100
0000
,
1000
0000
0001
0000
,
0010
0000
0010
0000
,
0100
0000
0010
0000
,
0001
0000
0100
0000
,
0010
0000
1000
0000
,
1001
0000
0000
0000
,
2000
0000
0000
0000
,
3001
0000
0000
0000
,
0002
0000
0000
0000
,
1003
0000
0000
0000
,
0002
0000
0000
0000
,
2003
3000
0002
0003
,
2000
0000
0000
0000
,
3001
0000
1000
0000
,
0001
0000
0001
0000
,
0100
0000
0100
0000
,
1000
0000
1000
0000
,
0010
0000
0010
0000
,
0001
0000
1000
0000
,
0001
0000
0100
0000
,
0001
1000
0001
0000
,
0110
0000
0000
0000
,
0000
0000
0000
0000
,
2002
0000
0000
0000
0000
0000
0000
3003
;

//--------------- dance-single - Fred-104 ----------------
#NOTEDATA:;
#STEPSTYPE:dance-single;
#DESCRIPTION:Fred-104;
#DIFFICULTY:Easy;
#METER:11;
#CREDIT:Fred-104;
#NOTES:
0000
0000
0000
0000
,
0000
0000
0000
0000
,
0000
0000
0000
0000
,
0000
0000
0000
0000
,
0000
0000
0000
0000
,
1000
0000
0000
0200
0000
0000
0000
0000
,
0301
0000
0000
0200
0000
0000
0000
0000
,
1300
0000
0000
0020
0000
0000
0000
0000
,
0031
0000
0000
0020
0000
0000
1030
0000
,
1001
0000
0010
0000
0100
0100
1000
0000
,
0001
0000
0100
0000
0010
0010
0100
0000
,
0010
0000
1000
0000
0100
0100
0010
0000
,
0001
0000
1000
0000
0001
0001
0100
0000
,
0001
0010
1000
0100
,
0001
0010
1000
0100
,
0001
0010
0001
0000
1000
0010
1000
0000
,
2002
0000
0000
0000
,
0000
0000
0000
3003
,
0001
0100
0001
0100
,
1000
0010
1000
0010
,
0001
0100
1000
0000
1000
0100
0001
0000
,
1000
0001
1000
0000
0001
1000
1001
0000
,
0110
0000
0000
0001
0000
0000
1000
0000
0000
1000
0000
0000
0001
0000
0000
0010
0000
0000
0100
0000
0100
0000
0100
0000
,
0100
0000
0010
0000
0001
0001
1000
0000
0010
0000
0010
0000
0100
0100
0100
0000
,
2002
0000
0000
0000
0000
0000
0000
0000
0000
3003
0000
0000
0001
0000
0000
1000
0000
0000
0010
0000
0010
0000
0010
0000
,
0010
0000
0110
0000
1001
0000
0110
0000
1000
0100
0010
0000
0001
0100
0020
0000
,
1030
0100
0110
0000
0001
0100
0110
0000
,
1000
0010
0001
0000
0001
0010
1000
0000
1000
0001
1000
0001
1000
0000
0001
0000
,
1000
0010
0110
0000
0001
0010
0110
0000
,
2002
0000
0000
3003
,
1000
0100
0001
0010
,
1000
0100
0001
0010
,
1000
0100
0110
0000
0001
0100
0110
0000
,
1000
0100
0001
0100
1000
0001
1001
0000
,
1001
0000
0001
0000
0001
0000
0001
0100
,
0001
0000
0010
0100
1000
0000
0010
0100
,
0001
0000
1000
0100
0010
0000
0001
1000
,
0010
0000
0100
0001
1000
0001
0010
0000
,
0100
0100
1000
1000
,
0010
0010
0100
0100
,
0010
1000
0010
0100
0010
1000
0001
0010
,
0200
0000
0000
0300
1000
0000
0000
1000
,
0000
0010
0100
0010
,
1000
0000
0001
0000
0010
0000
0000
0010
,
0000
0100
0010
0001
,
1000
0000
0010
0000
0100
0000
0000
0100
,
0000
0001
1000
0001
,
0010
0100
1000
0001
,
0100
0000
0000
0000
0010
0000
0000
0000
0100
0000
0000
0100
0000
0000
0100
0000
,
0001
0000
0000
1000
0000
0000
0001
0000
,
0010
0010
0100
0100
,
1000
0000
0000
0001
0000
0000
0100
0000
,
0010
1000
0010
0100
,
0001
1000
0100
0010
,
0001
1000
0010
0100
,
0001
1000
0001
1000
,
1001
0000
0000
0000
,
1000
0100
0001
0100
,
1000
0000
1001
0000
,
0001
0100
1000
0100
,
0001
0000
1001
0000
,
1000
0100
0010
0001
,
0100
0100
0010
0010
,
0100
0001
1000
0001
,
0010
0000
0110
0000
,
1000
0100
1000
0100
,
0010
0001
1000
0010
,
0100
0001
0100
0001
,
1000
0001
0010
0100
,
1000
0100
0010
0001
,
0100
0010
1000
0100
,
0010
0001
0010
0100
,
1000
0000
0000
0000
0001
0000
0000
0000
1001
0000
0000
0000
,
0000
0000
0000
0000
,
2002
0000
0000
0000
0000
0000
0000
3003
;

//--------------- dance-single - Fred-104 ----------------
#NOTEDATA:;
#STEPSTYPE:dance-single;
#DESCRIPTION:Fred-104;
#DIFFICULTY:Medium;
#METER:13;
#CREDIT:Fred-104;
#NOTES:
0000
0000
0000
0000
,
0000
0000
0000
0000
,
0000
0000
0000
0000
,
0000
0000
0000
0000
,
0000
0000
0000
0000
,
0001
0010
0100
2000
0000
0000
0000
0000
,
3001
0100
0010
2000
0000
0000
0000
0000
,
3100
0010
0001
2000
0000
0000
0000
0000
,
3010
0100
0010
2000
0000
0000
3100
0010
,
0001
0100
0110
0000
0010
1000
0001
0010
,
0100
0010
0011
0000
0001
0100
1000
0100
,
0001
0010
0110
0000
0100
1000
0010
0100
,
0010
1000
1100
0000
0001
1000
0100
1000
,
0001
0100
0001
0100
1000
0100
1000
0100
,
0010
0001
0010
0001
0010
1000
0010
1000
,
0001
0000
0010
0000
0100
0000
1000
0000
0001
1000
0001
1000
0001
1000
0001
1000
,
0200
0000
0000
0000
,
0000
0000
0000
0300
,
1000
0100
1000
0000
0100
0001
0100
0000
,
1000
0010
1000
0000
0010
0001
0010
0000
,
1000
0100
0010
0000
0001
0100
0010
0000
,
1000
0100
0010
0001
0100
0010
0220
0330
,
1001
0000
0000
0000
0000
0000
0001
0000
0000
0000
0000
0000
0010
0000
0000
0100
0000
0000
0010
0000
0000
0100
0000
0000
0010
0000
0000
0000
0010
0000
0100
0000
0000
0000
0100
0000
2000
0000
0000
0000
3020
0000
0000
0000
0032
0000
0000
0000
,
0013
0100
0002
0000
1003
0000
0100
0000
0011
0000
1100
0000
0001
0100
0010
1000
,
0001
0000
0000
0000
0000
0000
0000
0000
0000
0000
0000
0000
0001
0000
0000
0000
0000
0000
0000
0000
0000
0000
0000
0000
0001
0000
0000
0000
0000
0000
0000
0000
0000
0000
0000
0000
0001
0000
0000
0000
0000
0000
0000
0000
0000
0000
0000
0000
0010
0000
0000
0000
0000
0000
0000
0000
0000
0000
0000
0000
0100
0000
0000
0000
0000
0000
0000
0000
0000
0000
0000
0000
2000
0000
0000
3000
0000
0000
0000
0000
0000
0000
0000
0000
2000
0000
0000
3000
0000
0000
0000
0000
0000
0000
0000
0000
0001
0000
0000
0000
0000
0000
0000
0000
0000
0000
0000
0000
0100
0000
0000
0000
0000
0000
0000
0000
0000
0000
0000
0000
0001
0000
0000
0000
0000
0000
0000
0000
0000
0000
0000
0000
0100
0000
0000
0000
0000
0000
0000
0000
0000
0000
0000
0000
0010
0000
0000
0000
0000
0000
0000
0000
0000
0000
0000
0000
0000
0000
0000
0000
0010
0000
0000
0000
0000
0000
0000
0000
0000
0000
0000
0000
0000
0000
0000
0000
0010
0000
0000
0000
0000
0000
0000
0000
0000
0000
0000
0000
0000
0000
0000
0000
,
0010
0000
0000
0000
0000
0000
0000
0000
0110
0000
0000
0000
0000
0000
0000
0000
0100
0000
0000
0000
0001
0000
0000
0000
0100
0000
0000
0000
0000
0000
0000
0000
0010
0000
0000
0000
1000
0000
0000
0000
0001
0000
0000
0000
1000
0000
0000
0000
0100
0000
0000
0000
0010
0000
0000
0000
0002
0003
0000
0000
0002
0003
0000
0000
,
1000
0100
0001
0100
1000
0000
0000
0000
0001
0100
1000
0100
0001
0000
0000
0000
,
1000
0000
0100
0000
0001
0000
0010
0000
1000
1000
0001
0001
1001
0000
0000
0000
,
1100
0011
1010
0101
,
2002
0000
0000
3003
,
0001
0010
1000
0100
,
0001
0010
1000
0100
,
0001
0000
0001
0010
0000
0010
0100
0000
0000
0000
0000
0000
1000
0000
1000
0010
0000
0010
0100
0000
0000
0000
0000
0000
,
0001
0000
0001
0010
0000
0010
0100
0000
0100
1000
0000
1000
0010
0100
0010
0100
0010
0100
0001
0000
0000
0000
0000
0000
,
1000
0000
0100
0000
0010
0000
0001
0010
,
0100
0000
1000
0000
0001
0000
0100
0010
0100
0000
0001
0000
1000
0000
0100
0010
,
0100
0000
1000
0000
0001
0000
0100
0010
0100
0000
0001
0000
1000
0000
0001
0010
,
0001
0000
1000
0000
0001
0000
0010
0100
0010
0000
0001
0000
1000
0000
0000
0000
,
0001
0010
0001
0010
1000
0010
1000
0010
,
0100
0001
0100
0001
0100
1000
0100
1000
,
0001
0010
0100
1000
0001
0100
0010
1000
,
0001
0000
0000
0000
0001
0000
0010
0000
0000
0000
0010
0000
0100
0000
1000
0000
0001
0000
1000
0000
0000
0001
0000
0000
0100
0000
0000
0000
0000
0000
0000
0000
0000
0000
0000
0000
0000
0000
0000
0000
0000
0000
0010
0000
0000
0000
0000
0000
,
0000
0000
1000
0001
1000
0000
0100
0000
,
0010
0000
0001
0000
1000
0000
0000
0001
,
0000
0000
0100
0010
0100
0000
0001
0000
,
1000
0001
1000
0000
0001
0000
0000
0010
,
0000
0000
0100
1000
0100
0000
0010
0000
,
0001
0000
1000
0000
0010
0000
0100
0001
,
0100
0000
0000
0000
0001
0000
0000
0000
2000
3000
0000
2000
3000
0000
2000
3000
,
0001
0000
1000
0100
0000
1000
0010
0000
,
0100
0010
0100
0000
0001
0000
1000
0000
,
0100
0000
1000
0010
0000
1000
0001
0000
,
1000
0100
1000
0000
0001
0000
0010
0000
,
0100
0000
1000
0001
0000
0001
0000
0001
,
0100
0010
1000
0001
,
0010
0000
0100
0000
1000
0001
1000
0001
,
1000
0000
0000
0000
,
0001
0010
1000
0010
,
0001
0000
1000
0000
,
0001
0100
1000
0100
,
0001
0000
1000
0000
,
0100
0010
0001
1000
,
0020
0230
0320
0230
,
0301
1000
0100
0010
,
0011
0000
1001
0000
,
1000
0100
1000
0100
,
0001
0100
0001
0100
,
0010
1000
0010
1000
,
0010
0001
0010
0001
,
1000
0100
0010
0001
,
1000
0001
0100
0010
,
0100
0010
0100
0010
0100
0010
0100
0010
,
0100
0000
0000
0000
0100
0000
0000
0000
0110
0000
0000
0000
,
0000
0000
0000
0000
,
2002
0000
0000
0000
0000
0000
0000
3003
;

//--------------- dance-single - Fred-104 ----------------
#NOTEDATA:;
#STEPSTYPE:dance-single;
#DESCRIPTION:Fred-104;
#DIFFICULTY:Hard;
#METER:16;
#CREDIT:Fred-104;
#NOTES:
0000
0000
0000
0000
,
0000
0000
0000
0000
,
0000
0000
0000
0000
,
0000
0000
0000
0000
,
0000
0000
0000
0000
,
0001
0010
1000
0020
0000
0000
0000
0000
,
0031
0100
1000
0200
0000
0000
0000
0000
,
0310
0001
0010
2000
0000
0000
0000
0000
,
3100
0010
0001
2000
0000
0000
3001
1000
,
0001
0000
0010
0000
0110
0000
0000
1000
0100
0010
0001
0000
1000
0010
0100
0000
,
0001
0000
1000
0000
1010
0000
0000
0001
1000
0100
0010
0000
0001
1000
0010
0000
,
0100
0000
0001
0000
0011
0000
0000
1000
0010
0100
0010
0000
1000
0001
0010
0000
,
0100
0000
1000
0000
1010
0000
0000
0001
1000
0010
0100
0000
0010
1000
0001
0000
,
1000
0100
0001
0100
1000
0100
0001
0100
,
0010
0001
0010
1000
0010
0001
0010
1000
,
0001
0010
0001
0010
0100
1000
0100
1000
0001
0100
0001
0100
0010
1000
0100
0000
,
0220
0000
0000
0330
,
2002
0000
0000
3003
,
1000
0010
0100
1000
0001
0010
0100
0001
,
0010
0100
0001
1000
0010
0100
1000
0001
,
0100
1000
0001
0010
1000
0001
0010
1000
,
0001
0100
0010
0001
1000
0001
2002
3003
,
0110
0000
0000
0000
0000
0000
0000
0000
0000
0000
0000
0000
0001
0000
0000
0010
0000
0000
0001
0000
0000
0010
0000
0000
0100
0000
0000
0000
1000
0000
0000
0000
0010
0000
0000
0000
0100
0000
0001
0000
0100
0000
0001
0000
1000
0000
0000
0000
0001
0000
0000
0000
0010
0000
0000
0000
0100
0000
0000
0000
1000
0000
0000
0000
0010
0000
0000
0000
0100
0000
0000
0000
0001
0000
0000
0000
0000
0000
0000
0000
0001
0000
0000
0000
0000
0000
0000
0000
0001
0000
0000
0000
0000
0000
0000
0000
,
1001
1000
0100
0000
0010
0001
1000
0010
0110
0000
1001
0000
0001
0010
0100
1000
,
0001
0000
0000
0000
0000
0000
0100
0000
0000
0000
0000
0000
0010
0000
0000
0000
0000
0000
0100
0000
0000
0000
0000
0000
0001
0000
0000
0000
0000
0000
0100
0000
0000
0000
0000
0000
0010
0000
0000
0000
0000
0000
0100
0000
0000
0000
0000
0000
0001
0000
0000
0000
0000
0000
0000
0000
0000
0000
0000
0000
1000
0000
0000
0000
0000
0000
0000
0000
0000
0000
0000
0000
0200
0000
0000
0300
0000
0000
0000
0000
0000
0000
0000
0000
0200
0000
0000
0300
0000
0000
0000
0000
0000
0000
0000
0000
0001
0000
0000
0000
0000
0000
0000
0000
0000
0000
0000
0000
1000
0000
0000
0000
0000
0000
0000
0000
0000
0000
0000
0000
0100
0000
0000
0000
0000
0000
0000
0000
0000
0000
0000
0000
0010
0000
0000
0000
0000
0000
0000
0000
0000
0000
0000
0000
0001
0000
0000
0000
0000
0000
0000
0000
0000
0000
0000
0000
0000
0000
0000
0000
1000
0000
0000
0000
0000
0000
0000
0000
0000
0000
0000
0000
0000
0000
0000
0000
0010
0000
0000
0000
0000
0000
0000
0000
0000
0000
0000
0000
0000
0000
0000
0000
,
0110
0000
0000
0000
0000
0000
0000
0000
1001
0000
0000
0000
0000
0000
0000
0000
0001
0000
0000
0000
0010
0000
0000
0000
0100
0000
0000
0000
0000
0000
0000
0000
1000
0000
0000
0000
0100
0000
0000
0000
0010
0000
0000
0000
0001
0000
0000
0000
1000
0000
0000
0000
0001
0000
0000
0000
0200
0300
0000
0000
0200
0300
0000
0000
,
1000
0100
0001
0100
1100
0000
0000
0000
0001
0100
1000
0100
0101
0000
0000
0000
,
1000
0001
0010
0000
0100
1000
0000
0001
0100
0000
1000
0001
0000
0010
1000
0000
0001
0000
0001
0000
1000
0000
1000
0000
1001
0000
0000
0000
0000
0000
0000
0000
,
1100
0010
0011
0000
0101
0010
1010
0000
,
2002
0000
0000
3003
,
0001
0010
1000
0100
,
0001
0010
1000
0100
,
0001
0010
0100
1000
0010
0100
0001
0000
0000
0000
0000
0000
1000
0010
0100
0001
0010
0100
1000
0000
0000
0000
0000
0000
,
0001
0010
0001
0010
0100
1000
0010
0100
0010
1000
0001
0010
0100
1000
0010
0100
0001
1000
0100
0000
0000
0000
0000
0000
,
0110
0000
0000
0000
0001
0000
0000
0000
1000
0000
0000
0000
0001
0000
0100
1000
,
0100
0000
0001
0000
1000
0000
0100
0001
0100
0000
1000
0000
0001
0000
0010
1000
,
0010
0000
0001
0000
1000
0000
0010
0001
0010
0000
1000
0000
0001
0010
0100
1000
,
0001
0000
0100
0000
0010
1000
0001
0010
0100
0000
1000
0000
0001
0000
1000
0000
,
1100
1000
0010
0010
0110
0100
0001
0001
,
0011
0001
1000
1000
1001
0001
0100
0100
,
0010
1000
0100
1000
0010
1000
0100
1000
0001
0010
0100
0010
0001
1000
0010
0100
,
0001
0000
0000
0000
0010
0000
0000
0000
0100
0000
0000
0000
1000
0000
0000
0000
0010
0000
0000
0000
0100
0000
0000
0000
0001
0000
0000
0000
0010
0000
0000
0000
0100
0000
0000
0000
1000
0000
0000
0001
0000
0000
1000
0000
0000
0001
0000
0000
1000
0000
0000
0000
0000
0000
0000
0000
0000
0000
0000
0000
0000
0000
0000
0000
0000
0000
0000
0000
0000
0000
0000
0000
0001
0000
0000
0000
0000
0000
0000
0000
0000
0000
0000
0000
0010
0000
0000
0000
0000
0000
0000
0000
0000
0000
0000
0000
,
0000
0010
0100
1000
0001
0000
0100
0001
,
0000
0001
1000
0001
0010
0000
0100
1000
,
0000
1000
0010
0100
0010
0000
1000
0001
,
0000
0001
0010
0100
1000
0000
0010
0100
,
0000
0100
0001
1000
0100
0010
0001
1000
,
0010
0100
0001
0000
1000
0100
0010
0001
,
1000
0000
0000
0000
0000
0000
0000
0000
0010
0000
0000
0000
0000
0000
0000
0000
0100
0000
0000
0000
0000
0000
0000
0000
0001
0000
0000
0000
0000
0000
0000
0000
2000
3000
0000
0000
0000
0000
0000
0000
0000
0000
0000
0000
2000
3000
0000
0000
0000
0000
0000
0000
0000
0000
0000
0000
2002
3003
0000
0000
0000
0000
0000
0000
,
0001
0100
0010
0100
0000
0001
1000
0001
,
0010
0000
0000
0000
0100
0000
0000
0000
1000
0000
0000
0000
0010
0000
0000
0100
0000
0000
0001
0000
0000
0100
0000
0000
,
0001
0000
1000
0100
0000
0010
0100
1000
,
0001
0100
0010
1000
0010
0100
0001
0000
,
1000
0000
0100
0010
0001
0010
0000
0010
,
0100
0000
1000
0000
0010
0100
0010
1000
,
0001
0010
0100
1000
0100
0010
0100
1000
,
0001
0000
0000
0000
,
1000
0100
0010
0001
0100
0010
0001
0010
,
0100
0000
0000
0000
0001
1000
0001
0000
,
0010
0100
0001
0100
0010
0001
1000
0010
,
0100
0000
0000
0000
0001
1000
0001
0000
,
1000
0001
0100
1000
0100
0010
0100
0001
,
1000
1100
0001
0101
,
1000
0100
0010
0001
1000
0010
1000
0010
,
0100
0000
0001
1000
,
0100
0000
0010
0001
0010
0000
0100
1000
,
0100
0000
0010
0001
1000
0001
0100
0000
,
0010
1000
0100
1000
0001
0000
0100
0001
,
1000
0001
0010
0100
1000
0001
0100
0000
,
0010
1000
0010
0100
0010
1000
0001
0010
,
0100
0010
0001
0100
0010
1000
0001
0010
,
0100
1000
0001
0100
0010
1000
0001
0010
,
0100
0000
0000
0000
1100
0000
0000
0000
0101
0000
0000
0000
,
0000
0000
0000
0000
,
2002
0000
0000
0000
0000
0000
0000
3003
;

//--------------- dance-single - Fred-104 ----------------
#NOTEDATA:;
#STEPSTYPE:dance-single;
#DESCRIPTION:Fred-104;
#DIFFICULTY:Challenge;
#METER:18;
#CREDIT:Fred-104;
#NOTES:
0000
0000
0000
0000
,
0000
0000
0000
0000
,
0000
0000
0000
0000
,
0000
0000
0000
0000
,
0000
0000
0000
0000
,
1000
0100
0010
2000
0000
0000
0000
0000
,
3010
0001
1000
0002
0000
0000
0000
0000
,
1003
0010
0100
2000
0000
0000
0000
0000
,
3100
0001
1000
0002
0000
0000
0013
0001
,
1001
0000
1000
0000
0001
0000
1000
0100
1000
0010
0100
0000
0001
1000
0100
0000
,
0010
0000
0100
0000
1000
0000
0100
0001
0100
1000
0010
0000
0100
0001
1000
0000
,
0001
0000
1000
0000
0100
0000
0001
0100
1000
0001
0100
0000
0010
0100
0001
0000
,
1000
0000
0001
0000
0010
0000
0100
1000
0001
0100
1000
0000
0100
0010
0100
0000
,
0001
1000
0100
0010
0011
1000
0101
1000
,
0001
0010
0100
1000
1100
0001
1010
0001
,
1000
0100
0010
0001
0100
0010
1000
0010
0100
0001
0010
0100
1000
0010
0100
0001
,
2000
0000
0000
0000
,
0002
0000
0000
3003
,
0001
0100
0010
0001
1000
0100
0010
1000
,
0100
0010
1000
0001
0100
0010
0001
1000
,
0010
0001
1000
0100
0010
1000
0001
0010
,
1000
0000
0000
0000
0000
0000
0000
0000
0001
0000
0000
0000
0000
0000
0000
0000
0100
0000
0000
0000
0000
0000
0000
0000
1000
0000
0000
0000
0000
0000
0000
0000
0001
0000
0000
0000
0000
0000
0000
0000
1000
0000
0000
0000
0000
0000
0000
0000
0002
0003
0000
0000
0000
0000
0000
0000
0002
0003
0000
0000
0000
0000
0000
0000
,
1001
0000
0000
0000
0000
0000
0000
0000
0000
0000
0000
0000
0001
0000
0000
1000
0000
0000
0010
0000
0000
1000
0000
0000
0001
0000
0010
0000
0001
0000
0010
0000
0001
0000
0010
0000
0001
0000
0010
0000
0001
0000
0010
0000
0001
0000
0010
0000
0001
0000
0000
0000
1000
0000
0000
0000
0010
0000
0000
0000
0100
0000
0000
0000
0001
0000
0000
0000
1000
0000
0000
0000
1100
0000
0000
0000
0000
0000
0000
0000
0101
0000
0000
0000
0000
0000
0000
0000
1001
0000
0000
0000
0000
0000
0000
0000
,
0001
0000
1000
0000
0010
0000
0100
0000
0001
0010
0001
0000
1000
0000
0010
0000
0110
0000
0000
0000
0101
0000
0000
0000
1000
0100
0010
0001
1000
0010
0100
0001
,
1000
0000
0000
0000
0100
0000
0000
0000
1000
0000
0000
0000
0100
0000
0000
0000
1000
0000
0000
0000
0100
0000
0000
0000
1000
0000
0000
0000
0100
0000
0000
0000
1000
0000
0000
0000
0100
0000
0000
0000
1000
0000
0000
0000
0100
0000
0000
0000
2000
0000
0000
0000
0000
0000
0000
0000
0000
0000
0000
0000
3001
0000
0000
0000
0100
0000
0000
0000
0001
0000
0000
0000
0200
0000
0000
0300
0000
0000
0000
0000
0000
0000
0000
0000
0002
0000
0000
0003
0000
0000
0000
0000
0000
0000
0000
0000
1000
0000
0000
0000
0000
0000
0000
0000
0000
0000
0000
0000
0100
0000
0000
0000
0000
0000
0000
0000
0000
0000
0000
0000
0001
0000
0000
0000
0000
0000
0000
0000
0000
0000
0000
0000
0100
0000
0000
0000
0000
0000
0000
0000
0000
0000
0000
0000
1100
0000
0000
0000
0000
0000
0000
0000
0000
0000
0000
0000
0000
0000
0000
0000
0101
0000
0000
0000
0000
0000
0000
0000
0000
0000
0000
0000
0000
0000
0000
0000
0011
0000
0000
0000
0000
0000
0000
0000
0000
0000
0000
0000
0000
0000
0000
0000
,
1010
0000
0000
0000
0000
0000
0000
0000
0000
0000
0000
0000
0000
0000
0000
0000
0000
0000
0000
0000
0000
0000
0000
0000
1001
0000
0000
0000
0000
0000
0000
0000
0000
0000
0000
0000
1000
0000
0000
0000
0000
0000
0000
0000
0000
0000
0000
0000
0001
0000
0000
0000
0000
0000
0010
0000
0000
0000
0000
0000
0100
0000
0000
0000
0000
0000
1000
0000
0000
0000
0000
0000
0010
0000
0000
0000
0000
0000
0100
0000
0000
0000
0000
0000
0001
0000
0000
0000
0000
0000
0000
0000
0000
0000
0000
0000
1000
0000
0000
0000
0000
0000
0010
0000
0000
0000
0000
0000
0100
0000
0000
0000
0000
0000
0001
0000
0000
0000
0000
0000
0100
0000
0000
0000
0000
0000
0010
0000
0000
0000
0000
0000
1000
0000
0000
0000
0000
0000
0000
0000
0000
0000
0000
0000
0001
0000
0000
0000
0000
0000
0000
0000
0000
0000
0000
0000
1000
0000
0000
0000
0001
0000
0000
0000
1000
0000
0000
0000
0020
0000
0000
0030
0000
0000
0000
0000
0000
0000
0000
0000
0020
0000
0000
0030
0000
0000
0000
0000
0000
0000
0000
0000
,
0001
0100
0010
1000
1001
0010
0100
0100
1000
0100
0010
0001
2002
0000
0000
3003
,
1000
0010
0100
0000
0001
0010
0000
1000
0010
0000
0100
0001
0000
0100
1000
0000
0001
0000
0001
0000
1000
0000
1000
0000
0100
1000
0100
0010
0001
1000
0010
0100
,
0001
0000
0000
0000
0000
0100
0010
0001
0010
0000
0000
0000
0000
1000
0001
0010
0100
0000
0000
0000
0101
0000
0010
0000
2200
0000
0000
0000
0000
0000
3300
0000
,
2002
0000
0000
3003
,
0001
0100
1000
0010
,
1000
0100
0001
0010
,
0001
0001
0001
0001
0001
0001
0001
0000
0000
0110
0000
0000
1000
1000
1000
1000
1000
1000
1000
0000
0000
0110
0000
0000
,
0001
0010
0010
0001
0100
0100
0010
1000
1000
0100
0001
0001
0100
1000
1000
0010
0100
0001
1000
0000
0000
0000
0000
0000
,
1001
0000
0000
0000
1000
0000
0000
0000
1000
0000
0000
0000
0010
0100
0001
0100
,
0010
0000
1000
0000
0100
0010
0001
1000
0010
0000
0100
0000
0001
0010
0001
1000
,
0010
0000
0100
0000
0001
0100
1000
0100
0010
0000
1000
0000
0001
0100
1000
0100
,
0010
0000
1000
0000
0100
0010
1000
0010
0001
0000
1000
0010
0100
0001
1000
0000
,
0001
0010
0100
1000
0001
0010
0100
1000
0001
0100
0010
1000
0001
0100
0010
1000
,
0001
1000
0100
0010
0001
1000
0100
0010
0001
1000
0010
0100
0001
1000
0010
0100
,
0010
1000
0100
0010
0001
0100
0010
1000
0100
0010
0001
1000
0010
0100
0001
1000
,
0001
0000
0000
0000
0001
0000
0000
0000
0100
0000
0000
0000
1000
0000
0000
0000
1000
0000
0000
0000
0100
0000
0000
0000
0001
0000
0000
0000
1000
0000
0000
0000
0100
0000
0000
0000
0010
0000
0000
0100
0000
0000
0010
0000
0000
0100
0000
0000
1000
0000
0000
0000
0000
0000
0000
0000
0000
0000
0000
0000
0000
0000
0000
0000
0000
0000
0000
0000
0000
0000
0000
0000
0001
0000
0000
0000
0000
0000
0000
0000
0000
0000
0000
0000
0100
0000
0000
0000
0000
0000
0000
0000
0000
0000
0000
0000
,
0000
0010
1000
0100
0010
0100
1000
0100
,
0010
0100
0001
0100
0010
0000
0001
0010
,
0000
1000
0010
0001
0010
1000
0010
0100
,
1000
0001
0100
1000
0100
0000
0001
0100
,
0000
0010
1000
0100
0001
0100
0010
0001
,
0100
1000
0100
0010
1000
0100
0010
0001
,
1000
0000
0000
0000
0000
0000
0000
0000
0000
0000
0000
0000
0000
0000
0000
0000
0010
0000
0000
0000
0000
0000
0000
0000
0000
0000
0000
0000
0000
0000
0000
0000
0100
0000
0000
0000
0000
0000
0000
0000
0000
0000
0000
0000
0000
0000
0000
0000
0001
0000
0000
0000
0000
0000
0000
0000
0000
0000
0000
0000
0000
0000
0000
0000
0100
0000
0000
0000
0000
0000
0000
0000
0000
0000
0000
0000
0000
0000
0000
0000
0010
0000
0000
0000
0000
0000
0000
0000
0000
0000
0000
0000
0000
0000
0000
0000
2000
0000
0000
3000
0000
0000
0000
0000
0000
0000
0000
0000
0000
0000
0000
0000
0000
0000
0000
0000
0000
0000
0000
0000
0000
0000
0000
0000
0000
0000
0000
0000
0000
0000
0000
0000
2200
0000
0000
3300
0000
0000
0000
0000
0000
0000
0000
0000
0000
0000
0000
0000
0000
0000
0000
0000
0000
0000
0000
0000
0000
0000
0000
0000
0000
0000
0000
0000
0000
0000
0000
0000
0202
0000
0000
0303
0000
0000
0000
0000
0000
0000
0000
0000
0000
0000
0000
0000
0000
0000
0000
0000
0000
0000
0000
0000
,
0001
0010
0100
1000
0000
1000
0010
1000
,
0001
0010
0100
0001
1000
0010
0100
1000
,
0001
0100
0100
0010
0000
1000
0100
0100
,
0010
0001
0100
0010
0001
1000
0100
0010
,
1000
0000
0100
0010
0001
0010
0000
0010
,
0001
0000
0100
0000
0010
1000
0001
0100
,
0001
0010
0100
1000
0010
0100
0001
1000
,
1100
0000
0000
0000
,
0001
0100
0010
0001
0010
1000
0001
0010
,
0100
0000
0000
0000
1000
0001
1000
0000
,
0001
0010
0100
0001
0100
1000
0001
0100
,
0010
0000
0000
0000
1000
0010
0100
0000
,
0001
0100
0010
1000
0010
0001
0010
1000
,
0001
2100
3001
2010
,
3001
0100
1000
0100
0002
0023
1030
0020
,
0031
0000
0100
0000
0010
1000
0001
0000
,
1000
0100
0010
0001
0100
0010
1000
0010
,
0100
0001
0010
1000
0010
0100
1000
0010
,
0001
0010
0100
0001
1000
0100
0010
0001
,
1000
0100
0001
0100
1000
0010
0001
0010
,
1000
0001
0010
0100
0001
0100
0010
0001
,
1000
0010
0100
1000
0100
0001
0010
0100
,
1000
0100
0010
0001
1000
0010
0100
0001
0100
0010
1000
0001
,
0010
0000
0000
0000
0110
0000
0000
0000
1001
0000
0000
0000
,
0000
0000
0000
0000
,
2002
0000
0000
0000
0000
0000
0000
3003
;

//--------------- dance-double - Fred-104 ----------------
#NOTEDATA:;
#STEPSTYPE:dance-double;
#DESCRIPTION:Fred-104;
#DIFFICULTY:Easy;
#METER:11;
#CREDIT:Fred-104;
#NOTES:
00000000
00000000
00000000
00000000
,
00000000
00000000
00000000
00000000
,
00000000
00000000
00000000
00000000
,
00000000
00000000
00000000
00000000
,
00000000
00000000
00000000
00000000
,
00000001
00000000
00000000
00000200
00000000
00000000
00000000
00000000
,
00001300
00000000
00000000
00020000
00000000
00000000
00000000
00000000
,
01030000
00000000
00000000
00200000
00000000
00000000
00000000
00000000
,
00310000
00000000
00000000
20000000
00000000
00000000
30010000
00000000
,
10010000
00000000
01000000
00000000
00100000
00100000
00001000
00000000
,
00010000
00000000
00001000
00000000
00000100
00000100
00000010
00000000
,
00001000
00000000
00000001
00000000
00000010
00000010
00000100
00000000
,
00010000
00000000
00001000
00000000
00010000
00010000
00001000
00000000
,
00010000
00001000
00000010
00000001
,
00000100
00001000
00010000
00001000
,
00100000
00010000
00100000
00000000
00001000
00010000
00001000
00000000
,
00022000
00000000
00000000
00000000
,
00000000
00000000
00000000
00033000
,
00001000
00010000
00100000
10000000
,
01000000
00010000
00001000
00000010
,
00000001
00000100
00001000
00010000
,
00001000
00000000
00010000
00000000
00001000
00010000
00011000
00000000
,
01100000
00000000
00000000
10000000
00000000
00000000
00010000
00000000
00000000
10000000
00000000
00000000
01000000
00000000
00000000
10000000
00000000
00000000
00100000
00000000
00100000
00000000
00100000
00000000
,
00100000
00000000
01000000
00000000
00001000
00010000
00001000
00000000
00010000
00000000
00010000
00000000
00001000
00001000
00001000
00000000
,
00022000
00000000
00000000
00000000
00000000
00000000
00000000
00000000
00000000
00033000
00000000
00000000
00010000
00000000
00000000
00001000
00000000
00000000
00000100
00000000
00000100
00000000
00000100
00000000
,
00000010
00000000
00000110
00000000
00001001
00000000
00000110
00000000
00000001
00000100
00001000
00000000
00010000
01000000
20000000
00000000
,
30010000
01000000
01100000
00000000
10000000
01000000
01100000
00000000
,
10000000
00100000
00010000
00000000
00001000
00000010
00000001
00000000
00000100
00000010
00000100
00000010
00000100
00000000
00000010
00000000
,
00001010
00000001
00000100
00000000
00000011
00001000
00000100
00000000
,
00022000
00000000
00000000
00033000
,
00001000
00010000
00100000
10000000
,
01000000
00010000
00001000
00010000
,
00001000
00001000
00011000
00000000
00010000
00010000
00011000
00000000
,
00001000
00010000
01000000
10000000
01000000
00010000
00011000
00000000
,
01100000
00000000
00010000
00000000
10000000
00000000
00100000
01000000
,
00100000
00000000
10000000
00100000
00010000
00000000
00001000
00000010
,
00000001
00000000
00000001
00000100
00001000
00000000
00010000
01000000
,
10000000
00000000
00010000
00000000
01000000
00100000
01000000
00000000
,
00010000
00010000
10000000
10000000
,
01000000
01000000
00100000
00100000
,
00001000
00010000
00000100
00001000
00000100
00010000
00001000
01000000
,
00200000
00000000
00000000
00300000
10000000
00000000
00000000
10000000
,
00000000
01000000
00100000
00001000
,
00010000
00000000
00000010
00000000
00001000
00000000
00000000
00001000
,
00000000
00000100
00000010
00000100
,
00010000
00000000
00001000
00000000
00000100
00000000
00000000
00000100
,
00000000
00000001
00001000
00000100
,
00000010
00000001
00000100
00001000
,
00010000
00000000
00000000
00000000
00000000
00000000
00000000
00000000
00001000
00000000
00000000
00001000
00000000
00000000
00001000
00000000
,
00010000
00000000
00000000
01000000
00000000
00000000
00100000
00000000
,
00010000
01000000
00100000
10000000
,
01000000
00000000
00000000
00100000
00000000
00000000
00001000
00000000
,
00010000
00100000
10000000
00100000
,
01000000
00010000
10000000
01000000
,
00010000
00001000
00000100
00000001
,
00001000
00000100
00010000
00001000
,
00011000
00000000
00000000
00000000
,
00001000
00010000
01000000
00010000
,
00001000
00000000
00011000
00000000
,
00010000
00001000
00000100
00001000
,
00010000
00000000
00011000
00000000
,
00001000
00010000
00100000
10000000
,
00010000
00010000
10000000
10000000
,
01000000
00100000
00001000
00010000
,
00001000
00000000
00011000
00000000
,
00010000
00001000
00010000
00001000
,
00000010
00000100
00000010
00000100
,
00000010
00000001
00000010
00000001
,
00000100
00001000
00000100
00001000
,
00010000
01000000
10000000
00010000
,
00100000
01000000
00010000
01000000
,
00100000
00010000
10000000
01000000
,
00100000
00000000
00000000
00000000
00001000
00000000
00000000
00000000
00011000
00000000
00000000
00000000
,
00000000
00000000
00000000
00000000
,
00022000
00000000
00000000
00000000
00000000
00000000
00000000
00033000
;

//--------------- dance-double - Fred-104 ----------------
#NOTEDATA:;
#STEPSTYPE:dance-double;
#DESCRIPTION:Fred-104;
#DIFFICULTY:Medium;
#METER:13;
#CREDIT:Fred-104;
#NOTES:
00000000
00000000
00000000
00000000
,
00000000
00000000
00000000
00000000
,
00000000
00000000
00000000
00000000
,
00000000
00000000
00000000
00000000
,
00000000
00000000
00000000
00000000
,
00011000
00000000
00000000
00020020
00000000
00000000
00030030
00000000
,
00001010
00000000
00000000
00000202
00000000
00000000
00000303
00000000
,
00001100
00000000
00000000
00022000
00000000
00000000
00033000
00000000
,
00110000
00000000
00000000
20200000
00000000
00000000
30300000
00000000
,
00010000
00100000
01000000
00010000
00001000
00000010
00000001
00001000
,
00000010
00000100
00001000
00000100
00000010
00001000
00000001
00000010
,
00000100
00000010
00001000
00010000
01000000
10000000
01000000
00100000
,
00001000
00010000
00100000
10000000
00010000
00100000
01000000
00000000
,
10000000
10000000
01000000
01000000
00100000
00100000
00001000
00001000
,
00010000
00010000
00000100
00000100
00000010
00000010
00000001
00000001
,
00000100
00000000
00000100
00000000
00001000
00000000
00001000
00000000
00010000
00001000
00010000
00001000
00010000
00001000
00010000
00001000
,
00020000
00000000
00000000
00000000
,
00000000
00000000
00000000
00030000
,
00001000
00010000
00100000
00000000
01000000
00010000
10000000
00000000
,
01000000
00010000
00001000
00000000
00000010
00000100
00001000
00000000
,
00000001
00000100
00001000
00000000
00010000
00100000
01000000
00000000
,
00100000
10000000
01000000
00100000
00001000
00010000
00010010
00000000
,
00011000
00000000
00000000
00000000
00000000
00000000
00010000
00000000
00000000
00000000
00000000
00000000
00000100
00000000
00000000
00000100
00000000
00000000
00000100
00000000
00000000
00000100
00000000
00000000
00001000
00000000
00000000
00000000
00001000
00000000
00000100
00000000
00000000
00000000
00000100
00000000
00000020
00000000
00000000
00000000
00000032
00000000
00000000
00000000
00000203
00000000
00000000
00000000
,
00001300
00010000
00001000
00000000
01000000
00010000
01000000
00000000
01100000
00000000
10010000
00000000
10000000
01000000
00100000
00001000
,
00010000
00000000
00000000
00000000
00000000
00000000
00000000
00000000
00000000
00000000
00000000
00000000
00010000
00000000
00000000
00000000
00000000
00000000
00000000
00000000
00000000
00000000
00000000
00000000
00010000
00000000
00000000
00000000
00000000
00000000
00000000
00000000
00000000
00000000
00000000
00000000
00010000
00000000
00000000
00000000
00000000
00000000
00000000
00000000
00000000
00000000
00000000
00000000
00001000
00000000
00000000
00000000
00000000
00000000
00000000
00000000
00000000
00000000
00000000
00000000
00010000
00000000
00000000
00000000
00000000
00000000
00000000
00000000
00000000
00000000
00000000
00000000
00002000
00000000
00000000
00003000
00000000
00000000
00000000
00000000
00000000
00000000
00000000
00000000
00002000
00000000
00000000
00003000
00000000
00000000
00000000
00000000
00000000
00000000
00000000
00000000
00010000
00000000
00000000
00000000
00000000
00000000
00000000
00000000
00000000
00000000
00000000
00000000
00001000
00000000
00000000
00000000
00000000
00000000
00000000
00000000
00000000
00000000
00000000
00000000
00000100
00000000
00000000
00000000
00000000
00000000
00000000
00000000
00000000
00000000
00000000
00000000
00000001
00000000
00000000
00000000
00000000
00000000
00000000
00000000
00000000
00000000
00000000
00000000
00001000
00000000
00000000
00000000
00000000
00000000
00000000
00000000
00000000
00000000
00000000
00000000
00000000
00000000
00000000
00000000
00000100
00000000
00000000
00000000
00000000
00000000
00000000
00000000
00000000
00000000
00000000
00000000
00000000
00000000
00000000
00000000
00000010
00000000
00000000
00000000
00000000
00000000
00000000
00000000
00000000
00000000
00000000
00000000
00000000
00000000
00000000
00000000
,
00000001
00000000
00000000
00000000
00000000
00000000
00000000
00000000
00000110
00000000
00000000
00000000
00000000
00000000
00000000
00000000
00001000
00000000
00000000
00000000
00000001
00000000
00000000
00000000
00000100
00000000
00000000
00000000
00000000
00000000
00000000
00000000
00001000
00000000
00000000
00000000
00010000
00000000
00000000
00000000
01000000
00000000
00000000
00000000
00000000
00000000
00000000
00000000
10000000
00000000
00000000
00000000
00010000
00000000
00000000
00000000
20000000
30000000
00000000
00000000
20000000
30000000
00000000
00000000
,
01000000
01000000
00100000
00001000
00011000
00000000
00000000
00000000
00010000
00001000
00000100
00000001
00000011
00000000
00000000
00000000
,
00000001
00000000
00000100
00000000
00010000
00000000
01000000
00000000
00100000
00100000
10000000
10000000
10010000
00000000
00000000
00000000
,
11000000
00000000
00220000
00330000
00001010
00000000
00000202
00000303
,
00002002
00000000
00000000
00003003
,
00000001
00000010
00000100
00010000
,
00001000
00100000
01000000
10000000
,
00010000
00000000
00010000
10000000
00000000
10000000
00010000
00000000
00000000
00000000
00000000
00000000
10000000
00000000
10000000
00010000
00000000
00010000
10000000
00000000
00000000
00000000
00000000
00000000
,
10000000
00000000
10000000
01000000
00000000
01000000
00010000
00000000
00010000
00001000
00000000
00001000
00000100
00000000
00000100
00000001
00000000
00000001
00000010
00000000
00000000
00000000
00000000
00000000
,
00001001
00000000
00000001
00000000
00000001
00000000
00000100
00001000
,
00010000
00000000
00100000
00000000
01000000
00000000
00010000
10000000
00010000
00000000
00100000
00000000
01000000
00000000
10000000
00100000
,
10000000
00000000
01000000
00000000
00100000
00000000
00001000
00010000
00001000
00000000
00000100
00000000
00000010
00000000
00001000
00000100
,
00001000
00000000
00000010
00000000
00000100
00000000
00000001
00000010
00000001
00000000
00001000
00000000
00000010
00000000
00000000
00000000
,
00000100
00000100
00000001
00000001
00000010
00000010
00001000
00001000
,
00010000
00010000
01000000
01000000
10000000
10000000
00100000
00100000
,
01000000
00010000
10000000
01000000
00100000
00001000
00010000
00000010
,
00001000
00000000
00000000
00000000
00001000
00000000
00000010
00000000
00000000
00000000
00000010
00000000
00000100
00000000
00000001
00000000
00000100
00000000
00000010
00000000
00000000
00001000
00000000
00000000
00000001
00000000
00000000
00000000
00000000
00000000
00000000
00000000
00000000
00000000
00000000
00000000
00000000
00000000
00000000
00000000
00000000
00000000
00000010
00000000
00000000
00000000
00000000
00000000
,
00000000
00000000
00000100
00001000
00000100
00000000
00010000
00000000
,
00001000
00000000
01000000
00000000
00001000
00000000
00000000
00010000
,
00000000
00000000
01000000
00100000
01000000
00000000
10000000
00000000
,
00010000
00000000
01000000
00000000
00100000
00000000
00000000
10000000
,
00000000
00000000
01000000
00100000
01000000
00000000
00010000
00000000
,
00001000
00000000
00000010
00000000
00000100
00000000
00000010
00000001
,
00000010
00000000
00000000
00000000
00000001
00000000
00000000
00000000
00000200
00000300
00000000
00000200
00000300
00000000
00000200
00000300
,
00000010
00000000
00000100
00000001
00000000
00001000
00000001
00000000
,
00000010
00000100
00010000
00001000
,
01000000
00000000
00010000
00100000
00000000
00010000
00100000
00000000
,
01000000
10000000
00010000
01000000
,
00100000
00000000
10000000
01000000
00000000
01000000
00000000
01000000
,
00100000
00001000
00010000
00000100
,
00001000
00000000
00000100
00000000
00000010
00000001
00000010
00000001
,
00001000
00000000
00000000
00000000
,
00000001
00000100
00001000
00010000
,
00001000
00000000
01000000
00001000
,
00010000
00001000
00010000
01000000
,
10000000
00000000
00100000
10000000
,
01000000
00100000
00001000
00010000
,
00002000
00023000
00032000
00023000
,
00031000
00000000
00000100
00000000
00000010
00000100
00000010
00000100
,
00000001
00000000
00001000
00000001
,
00000100
00001000
00000100
00000001
,
00000010
00000100
00010000
01000000
,
00100000
00010000
10000000
01000000
,
00010000
00001000
00000100
00000010
,
00001000
00000001
00000010
00000100
,
00000010
00000001
00000100
00001000
,
00010000
00001000
00010000
00001000
00010000
00001000
00010000
00001000
,
00010000
00000000
00000000
00000000
00001000
00000000
00000000
00000000
00000100
00000000
00000000
00000000
,
00000000
00000000
00000000
00000000
,
00002002
00000000
00000000
00000000
00000000
00000000
00000000
00003003
;

//--------------- dance-double - Fred-104 ----------------
#NOTEDATA:;
#STEPSTYPE:dance-double;
#DESCRIPTION:Fred-104;
#DIFFICULTY:Hard;
#METER:17;
#CREDIT:Fred-104;
#NOTES:
00000000
00000000
00000000
00000000
,
00000000
00000000
00000000
00000000
,
00000000
00000000
00000000
00000000
,
00000000
00000000
00000000
00000000
,
00000000
00000000
00000000
00000000
,
00001000
00010000
01000000
20000000
00000000
00000000
00000000
00000000
,
30010000
01000000
00100000
00020000
00000000
00000000
00000000
00000000
,
00031000
00000100
00000001
00002000
00000000
00000000
00000000
00000000
,
00003001
00000010
00001000
00020000
00000000
00000000
00031000
00100000
,
01000000
00000000
10000000
00000000
10010000
00000000
00000000
10000000
00100000
00000000
00001000
00000000
00000010
00000000
00010000
00000000
,
00001000
00000000
00000100
00000000
00000101
00000000
00000000
00001000
00000001
00000000
00000100
00000000
00010000
00000000
01000000
00000000
,
00001000
00000000
00010000
00000000
00011000
00000000
00000000
00001000
00100000
00000000
10000000
00000000
00100000
00000000
00001000
00000000
,
00010000
00000000
00100000
00000000
01100000
00000000
00000000
10000000
01000000
00000000
00001000
00000000
00000100
00000000
00000010
00000000
,
00000001
00000100
00010000
01000000
00001000
00010000
00100000
10000000
,
00010000
00100000
01000000
00010000
00001000
00000010
00000100
00001000
,
00000100
00000010
00000100
00000010
00000001
00000100
00000001
00000100
00001000
00010000
00001000
00010000
00100000
10000000
00100000
10000000
,
02000000
00000000
00000000
00000000
,
00000000
00000000
00000000
03000000
,
10000000
01000000
00100000
00010000
01000000
00100000
00010000
00001000
,
00100000
00010000
00001000
00000100
00010000
00001000
00000100
00000010
,
00001000
00000100
00000010
00000001
00000100
00000010
00000100
00001000
,
00010000
00100000
00010000
00001000
00000100
00000001
00002002
00003003
,
00000110
00000000
00000000
00000000
00000000
00000000
00000000
00000000
00000000
00000000
00000000
00000000
00000001
00000000
00000000
00001000
00000000
00000000
00000001
00000000
00000000
00001000
00000000
00000000
00000100
00000000
00000000
00000000
00000010
00000000
00000001
00000000
00000010
00000000
00000000
00000000
00000100
00000000
00000000
00000000
00010000
00000000
00001000
00000000
00010000
00000000
00000000
00000000
00001000
00000000
00000000
00000000
00010000
00000000
00000000
00000000
00100000
00000000
00000000
00000000
10000000
00000000
00000000
00000000
00010000
00000000
00000000
00000000
00100000
00000000
00000000
00000000
01000000
00000000
00000000
00000000
00000000
00000000
00000000
00000000
10000000
00000000
00000000
00000000
00000000
00000000
00000000
00000000
10000000
00000000
00000000
00000000
00000000
00000000
00000000
00000000
,
00010000
10000000
00100000
00010000
00001000
00000100
00000010
00001000
00001010
00000000
00001001
00000000
00000001
00000010
00001000
00010000
,
00000100
00000000
00000000
00000000
00000000
00000000
00010000
00000000
00000000
00000000
00000000
00000000
00000100
00000000
00000000
00000000
00000000
00000000
00010000
00000000
00000000
00000000
00000000
00000000
00001000
00000000
00000000
00000000
00000000
00000000
01000000
00000000
00000000
00000000
00000000
00000000
00001000
00000000
00000000
00000000
00000000
00000000
01000000
00000000
00000000
00000000
00000000
00000000
00001000
00000000
00000000
00000000
00000000
00000000
00000000
00000000
00000000
00000000
00000000
00000000
10000000
00000000
00000000
00000000
00000000
00000000
00000000
00000000
00000000
00000000
00000000
00000000
00200000
00000000
00000000
00300000
00000000
00000000
00000000
00000000
00000000
00000000
00000000
00000000
00200000
00000000
00000000
00300000
00000000
00000000
00000000
00000000
00000000
00000000
00000000
00000000
00010000
00000000
00000000
00000000
00000000
00000000
00000000
00000000
00000000
00000000
00000000
00000000
10000000
00000000
00000000
00000000
00000000
00000000
00000000
00000000
00000000
00000000
00000000
00000000
00100000
00000000
00000000
00000000
00000000
00000000
00000000
00000000
00000000
00000000
00000000
00000000
00010000
00000000
00000000
00000000
00000000
00000000
00000000
00000000
00000000
00000000
00000000
00000000
00001000
00000000
00000000
00000000
00000000
00000000
00000000
00000000
00000000
00000000
00000000
00000000
00000000
00000000
00000000
00000000
00000001
00000000
00000000
00000000
00000000
00000000
00000000
00000000
00000000
00000000
00000000
00000000
00000000
00000000
00000000
00000000
00001000
00000000
00000000
00000000
00000000
00000000
00000000
00000000
00000000
00000000
00000000
00000000
00000000
00000000
00000000
00000000
,
00011000
00000000
00000000
00000000
00000000
00000000
00000000
00000000
00001001
00000000
00000000
00000000
00001000
00000000
00000000
00000000
00000100
00000000
00000000
00000000
00000010
00000000
00000000
00000000
00010000
00000000
00000000
00000000
00100000
00000000
00000000
00000000
10000000
00000000
00000000
00000000
00100000
00000000
00000000
00000000
00001000
00000000
00000000
00000000
00010000
00000000
00000000
00000000
00100000
00000000
00000000
00000000
10000000
00000000
00000000
00000000
02000000
03000000
00000000
00000000
02000000
03000000
00000000
00000000
,
00010000
10000000
01000000
00100000
00101000
00001000
00010000
00000010
00000100
00000001
00000010
00000100
00001100
00000100
00010000
00000000
,
00001000
00010000
00100000
00000000
01000000
00010000
00000000
10000000
01000000
00000000
00010000
00001000
00000000
00000010
00000001
00000000
00000100
00000000
00000100
00000000
00001000
00000000
00001000
00000000
00010000
00001000
00010000
00001000
00010000
00000000
00000000
00000000
,
00011000
01000000
10010000
00000000
00011000
00000010
00001001
00000000
,
20020000
00000000
00000000
30030000
,
10000000
00001000
00010000
00000001
,
00010000
00001000
10000000
00010000
,
10000000
01000000
00010000
00001000
00000010
00000001
00001000
00000000
00000000
00000000
00000000
00000000
00000001
00000100
00001000
00010000
00100000
10000000
00010000
00000000
00000000
00000000
00000000
00000000
,
10000000
01000000
00100000
00001000
00010000
00100000
10000000
01000000
00100000
00001000
00010000
00100000
10000000
01000000
00010000
00001000
00000010
00000001
00000100
00000000
00000000
00000000
00000000
00000000
,
00001001
00000000
00000000
00000000
00100000
00000000
00000000
00000000
00001000
00000000
00000000
00000000
01000000
00010000
10000000
00010000
,
00100000
00000000
01000000
00000000
10000000
00000000
00100000
00010000
00001000
00000000
00000100
00000000
00000010
00001000
00000100
00000010
,
00000001
00000000
00001000
00000000
00000001
00000000
00000100
00001000
00010000
00000000
00100000
00000000
01000000
00010000
01000000
00010000
,
00100000
00000000
01000000
00000000
10000000
00000000
00100000
00010000
00100000
00000000
10000000
01000000
00100000
00001000
00010000
00000000
,
00011000
00010000
00000100
00000100
00000010
00000010
00000001
00000001
,
00001001
00001000
00000100
00000100
00010000
00010000
00001000
00001000
,
01000000
00001000
00010000
00001000
00000010
00000001
00000010
00000100
00001000
00000001
00000100
00001000
00010000
00100000
01000000
00010000
,
10000000
00000000
00000000
00000000
01000000
00000000
00000000
00000000
00010000
00000000
00000000
00000000
00001000
00000000
00000000
00000000
00000010
00000000
00000000
00000000
00000001
00000000
00000000
00000000
00000100
00000000
00000000
00000000
00001000
00000000
00000000
00000000
00010000
00000000
00000000
00000000
01000000
00000000
00000000
10000000
00000000
00000000
01000000
00000000
00000000
10000000
00000000
00000000
00010000
00000000
00000000
00000000
00000000
00000000
00000000
00000000
00000000
00000000
00000000
00000000
00000000
00000000
00000000
00000000
00000000
00000000
00000000
00000000
00000000
00000000
00000000
00000000
10000000
00000000
00000000
00000000
00000000
00000000
00000000
00000000
00000000
00000000
00000000
00000000
01000000
00000000
00000000
00000000
00000000
00000000
00000000
00000000
00000000
00000000
00000000
00000000
,
00000000
01000000
00100000
00001000
00010000
00001000
00000010
00000001
,
00000000
00000001
00001000
00000001
00000100
00000000
00000001
00000010
,
00000000
00000010
00000100
00000010
00000001
00000100
00001000
00010000
,
00000000
00001000
00010000
01000000
10000000
00000000
00010000
00100000
,
00000000
00100000
01000000
00100000
00010000
10000000
00100000
00010000
,
00001000
00000100
00000010
00000000
00001000
00000100
00000010
00000001
,
00001000
00000000
00000000
00000000
00000000
00000000
00000000
00000000
00000000
00000000
00000000
00000000
00000000
00000000
00000000
00000000
00000001
00000000
00000000
00000000
00000000
00000000
00000000
00000000
00000100
00000000
00000000
00000000
00000000
00000000
00000000
00000000
00002000
00003000
00000000
00000000
00000000
00000000
00000000
00000000
00000000
00000000
00000000
00000000
00020000
00030000
00000000
00000000
00000000
00000000
00000000
00000000
00000000
00000000
00000000
00000000
02000000
03000000
00000000
00000000
00000000
00000000
00000000
00000000
,
10000000
01000000
00010000
01000000
00000000
10000000
01000000
00100000
,
00001000
00010000
00001000
00000010
00000100
00001000
00000010
00000000
,
00000100
00000001
00000100
00001000
00000000
00000100
00000001
00001000
,
00000100
00000010
00001000
00010000
01000000
00100000
00010000
00000000
,
10000000
00000000
01000000
00100000
00001000
00010000
00000000
00010000
,
00000100
00000000
00001000
00000000
00000001
00000100
00000010
00000100
,
00001000
00010000
00100000
01000000
00010000
10000000
01000000
00010000
,
00001000
00000000
00000000
00000000
,
00010000
00001000
00010000
00001000
00000010
00000100
00000010
00000001
,
00001000
00000000
00000001
00000010
,
00000001
00000100
00000010
00000100
00001000
00010000
00001000
01000000
,
00001000
00000000
00010000
01000000
,
10000000
00100000
00010000
00100000
10000000
01000000
00010000
01000000
,
10000000
02100000
03010000
01200000
,
10300000
00000000
01000000
00000000
00100000
00001000
00010000
00001000
,
00000010
00000001
00002000
00003002
,
00000103
00000001
00001000
00000001
00000010
00000000
00000100
00001000
,
00000100
00000000
00010000
00001000
01000000
00000000
00001000
00000000
,
00010000
00100000
10000000
01000000
,
00010000
00001000
00000010
00000001
,
00001000
00000001
00000100
00000001
00001000
00000001
00000010
00000100
,
00001000
00000100
00010000
00001000
01000000
00010000
10000000
01000000
,
00100000
00001000
00010000
00000100
00000010
00000001
00001000
00000010
,
00000100
00000000
00000000
00000000
00001000
00000000
00000000
00000000
00010000
00000000
00000000
00000000
,
00000000
00000000
00000000
00000000
,
20020000
00000000
00000000
00000000
00000000
00000000
00000000
30030000
;

//--------------- dance-double - Fred-104 ----------------
#NOTEDATA:;
#STEPSTYPE:dance-double;
#DESCRIPTION:Fred-104;
#DIFFICULTY:Challenge;
#METER:18;
#CREDIT:Fred-104;
#NOTES:
00000000
00000000
00000000
00000000
,
00000000
00000000
00000000
00000000
,
00000000
00000000
00000000
00000000
,
00000000
00000000
00000000
00000000
,
00000000
00000000
00000000
00000000
,
00010000
00001000
00000010
00000200
00000000
00000000
00000000
00000000
,
00001300
00000001
00000100
00002000
00000000
00000000
00000000
00000000
,
00013000
00100000
01000000
00200000
00000000
00000000
00000000
00000000
,
10300000
01000000
00010000
00002000
00000000
00000000
00013000
00010000
,
00011000
00000000
00010000
00000000
00000100
00000000
00001000
00000001
00000100
00000010
00001000
00000000
00000001
00000010
00000100
00000000
,
00000010
00000000
00001000
00000000
00010000
00000000
01000000
00100000
01000000
10000000
00100000
00000000
00010000
00100000
01000000
00000000
,
00100000
00000000
10000000
00000000
01000000
00000000
00100000
00001000
00010000
00001000
00000100
00000000
00000010
00001000
00000001
00000000
,
00001000
00000000
00000010
00000000
00000100
00000000
00001000
00010000
00100000
00010000
00001000
00000000
00010000
00000100
00001000
00000000
,
00000001
00000100
00010000
01000000
00001000
00010000
00100000
10000000
,
00010000
10000000
01000000
00001000
00000100
00010000
00001000
00000010
,
00000001
00000100
00000010
00000100
00001000
00010000
00100000
01000000
00100000
10000000
01000000
00010000
00001000
00000010
00000001
00001000
,
00002002
00000000
00000000
00000000
,
00000000
00000000
00000000
00003003
,
00000001
00001000
00000010
00000100
00001000
00000001
00000010
00000100
,
00000001
00001000
00000010
00000100
00001000
00010000
00100000
01000000
,
00010000
00100000
01000000
00001000
00000100
00010000
00001000
00000100
,
00000001
00000000
00000000
00000000
00000000
00000000
00000000
00000000
00001000
00000000
00000000
00000000
00000000
00000000
00000000
00000000
00000010
00000000
00000000
00000000
00000000
00000000
00000000
00000000
00010000
00000000
00000000
00000000
00000000
00000000
00000000
00000000
00100000
00000000
00000000
00000000
00000000
00000000
00000000
00000000
01000000
00000000
00000000
00000000
00000000
00000000
00000000
00000000
00020000
00030000
00000000
00000000
00000000
00000000
00000000
00000000
00020000
00030000
00000000
00000000
00000000
00000000
00000000
00000000
,
10010000
00000000
00000000
00000000
00000000
00000000
00000000
00000000
00000000
00000000
00000000
00000000
10000000
00000000
00000000
01000000
00000000
00000000
10000000
00000000
00000000
01000000
00000000
00000000
00100000
00000000
00010000
00000000
00100000
00000000
00010000
00000000
00100000
00000000
00010000
00000000
00100000
00000000
00010000
00000000
00100000
00000000
00010000
00000000
00100000
00000000
00010000
00000000
10000000
00000000
00000000
00000000
00100000
00000000
00000000
00000000
00010000
00000000
00000000
00000000
00001000
00000000
00000000
00000000
00000010
00000000
00000000
00000000
00000001
00000000
00000000
00000000
00002000
00000000
00000000
00000000
00000000
00000000
00000000
00000000
00003200
00000000
00000000
00000000
00000000
00000000
00000000
00000000
00000320
00000000
00000000
00000000
00000000
00000000
00000000
00000000
,
00000031
00000000
00000100
00000000
00000010
00000000
00000100
00000000
00001000
00000000
00010000
00000000
00100000
00000000
10000000
00000000
10010000
00000000
00000000
00000000
01100000
00000000
00000000
00000000
10000000
00100000
10000000
00100000
00010000
00001000
00010000
00001000
,
00010000
00000000
00000000
00000000
00000010
00000000
00000000
00000000
00010000
00000000
00000000
00000000
00000010
00000000
00000000
00000000
00010000
00000000
00000000
00000000
00000010
00000000
00000000
00000000
00010000
00000000
00000000
00000000
00000010
00000000
00000000
00000000
00010000
00000000
00000000
00000000
00000010
00000000
00000000
00000000
00010000
00000000
00000000
00000000
00000010
00000000
00000000
00000000
00020000
00000000
00000000
00000000
00000000
00000000
00000000
00000000
00000000
00000000
00000000
00000000
00030200
00000000
00000000
00000000
00000000
00000000
00000000
00000000
00000000
00000000
00000000
00000000
00002300
00000000
00000000
00003000
00000000
00000000
00000000
00000000
00000000
00000000
00000000
00000000
00002000
00000000
00000000
00003000
00000000
00000000
00000000
00000000
00000000
00000000
00000000
00000000
00010000
00000000
00000000
00000000
00000000
00000000
00000000
00000000
00000000
00000000
00000000
00000000
00001000
00000000
00000000
00000000
00000000
00000000
00000000
00000000
00000000
00000000
00000000
00000000
00000010
00000000
00000000
00000000
00000000
00000000
00000000
00000000
00000000
00000000
00000000
00000000
00000100
00000000
00000000
00000000
00000000
00000000
00000000
00000000
00000000
00000000
00000000
00000000
00001000
00000000
00000000
00000000
00000000
00000000
00000000
00000000
00000000
00000000
00000000
00000000
00000000
00000000
00000000
00000000
00000010
00000000
00000000
00000000
00000000
00000000
00000000
00000000
00000000
00000000
00000000
00000000
00000000
00000000
00000000
00000000
00010000
00000000
00000000
00000000
00000000
00000000
00000000
00000000
00000000
00000000
00000000
00000000
00000000
00000000
00000000
00000000
,
00011000
00000000
00000000
00000000
00000000
00000000
00000000
00000000
00001000
00000000
00000000
00000000
00010000
00000000
00000000
00000000
01000000
00000000
00100000
00000000
01000000
00000000
10000000
00000000
00010000
00000000
01000000
00000000
00100000
00000000
00000000
00000000
10000000
00000000
00010000
00000000
00100000
00000000
01000000
00000000
00100000
00000000
00001000
00000000
00010000
00000000
00000000
00000000
00001000
00000000
00000000
00000000
00010000
00000000
00000000
00000000
00000200
00000300
00000000
00000000
00000200
00000300
00000000
00000000
,
00000001
00000010
00000100
00010000
00011000
00001000
00100000
00010000
10000000
00100000
00010000
00001000
00022000
00000000
00000000
00033000
,
00010000
00001000
00000100
00000000
00000001
00001000
00000000
00000100
00000010
00000000
00001000
00010000
00000000
01000000
10000000
00000000
01000000
00000000
01000000
00000000
00100000
00000000
00100000
00000000
00001000
00010000
00000010
00001000
00000001
00000010
00000100
00000010
,
00000001
00000000
00000000
00000000
00000000
00000100
00001000
00010000
00100000
00000000
00000000
00000000
00000000
10000000
01000000
00010000
00001000
00000000
00000000
00000000
00000010
00000000
00000001
00000000
00000022
00000000
00000000
00000000
00000033
00000000
00000000
00000000
,
00022000
00000000
00000000
00033000
,
10000000
00001000
00010000
00000001
,
00010000
00001000
10000000
00001000
,
00010000
00010000
00010000
00010000
00010000
00010000
00010000
00000000
00000000
00011000
00000000
00000000
00001000
00001000
00001000
00001000
00001000
00001000
00001000
00000000
00000000
00011000
00000000
00000000
,
00010000
00010000
00010000
00001000
00001000
00001000
00000100
00000100
00000100
00000001
00000001
00000001
00000010
00000010
00000010
00001000
00001000
00001000
00010000
00000000
00000000
00000000
00000000
00000000
,
00011000
00000000
00000000
00000000
00001000
00000000
00000000
00000000
00001000
00000000
00000000
00000000
00010000
00001000
00000100
00000001
,
00000010
00000000
00000100
00000000
00001000
00000010
00000100
00001000
00010000
00000000
00001000
00000000
01000000
00001000
00010000
00001000
,
00100000
00000000
00010000
00000000
00100000
01000000
10000000
00100000
01000000
00000000
00100000
00000000
00010000
00001000
00000100
00000001
,
00001000
00000000
00000100
00000000
00000010
00000001
00001000
00000010
00000100
00000000
00000001
00000010
00000100
00001000
00000001
00000000
,
00000100
00000001
00001000
00000001
00000010
00000100
00001000
00000100
00010000
00001000
00100000
00001000
00010000
00001000
01000000
00010000
,
10000000
00010000
00100000
01000000
00100000
00010000
00001000
00000100
00000010
00000001
00000010
00000100
00001000
00000001
00000100
00000010
,
00001000
00000001
00000010
00000100
00001000
00000010
00000100
00001000
00010000
00100000
01000000
00010000
00100000
01000000
10000000
00010000
,
10000000
00000000
00000000
00000000
00100000
00000000
00000000
00000000
00100000
00000000
00000000
00000000
00001000
00000000
00000000
00000000
00010000
00000000
00000000
00000000
00010000
00000000
00000000
00000000
00100000
00000000
00000000
00000000
01000000
00000000
00000000
00000000
10000000
00000000
00000000
00000000
00010000
00000000
00000000
01000000
00000000
00000000
00001000
00000000
00000000
00010000
00000000
00000000
00001000
00000000
00000000
00000000
00000000
00000000
00000000
00000000
00000000
00000000
00000000
00000000
00000000
00000000
00000000
00000000
00000000
00000000
00000000
00000000
00000000
00000000
00000000
00000000
00010000
00000000
00000000
00000000
00000000
00000000
00000000
00000000
00000000
00000000
00000000
00000000
00001000
00000000
00000000
00000000
00000000
00000000
00000000
00000000
00000000
00000000
00000000
00000000
,
00000000
00001000
01000000
00001000
00010000
00000100
00001000
00000010
,
00010000
00001000
00100000
00001000
00010000
00000000
00001000
00010000
,
00000000
00100000
01000000
00100000
10000000
00010000
00100000
00001000
,
00010000
01000000
00100000
00010000
10000000
00000000
00100000
01000000
,
00000000
00001000
00010000
00000010
00001000
00000001
00000010
00000100
,
00000010
00001000
00010000
01000000
00100000
01000000
10000000
00010000
,
01000000
00000000
00000000
00000000
00000000
00000000
00000000
00000000
00100000
00000000
00000000
00000000
00000000
00000000
00000000
00000000
10000000
00000000
00000000
00000000
00000000
00000000
00000000
00000000
01000000
00000000
00000000
00000000
00000000
00000000
00000000
00000000
02200000
03300000
00000000
00000000
00000000
00000000
00000000
00000000
00000000
00000000
00000000
00000000
00022000
00033000
00000000
00000000
00000000
00000000
00000000
00000000
00000000
00000000
00000000
00000000
00000220
00000330
00000000
00000000
00000000
00000000
00000000
00000000
,
00001001
00000000
00000001
00001000
00000000
00000001
00000010
00000100
,
00000001
00001000
00000010
00000100
00001000
00000001
00000100
00001000
,
00010000
00000000
00001000
00010000
00000000
00100000
01000000
00010000
,
10000000
01000000
00100000
10000000
00010000
01000000
00100000
00010000
,
10000000
00000000
00010000
00100000
01000000
00100000
00000000
00100000
,
00001000
00000000
00010000
00000100
00001000
00000100
00000010
00000000
,
00000001
00000010
00000100
00010000
00001000
01000000
00010000
10000000
,
10010000
00000000
00000000
00000000
,
10000000
01000000
00100000
00010000
00001000
00010000
00100000
01000000
,
00100000
00000000
00000000
00000000
00001000
00010000
00001000
00000000
,
00010000
00001000
00000100
00000010
00000001
00000010
00001000
00000001
,
00000010
00000000
00000000
00000000
00000100
00001000
00000100
00000000
,
00010000
00001000
00010000
00100000
01000000
00100000
10000000
00010000
,
10000000
00120000
10030000
01020000
,
10030000
01000000
00100000
00001000
00020000
00032000
01003000
00002000
,
00013000
00000000
00001000
00000000
00000010
00000100
00001000
00000000
,
00000001
00000100
00000010
00000100
00001000
00010000
00001000
01000000
,
00001000
00010000
01000000
00100000
01000000
10000000
00010000
01000000
,
10000000
01000000
00010000
01000000
00100000
00010000
00001000
00000100
,
00000010
00001000
00000100
00000010
00000001
00000100
00000010
00001000
,
00000001
00000010
00000100
00000001
00001000
00000010
00000100
00001000
,
00000010
00000100
00001000
00010000
00100000
01000000
00010000
10000000
,
00010000
00100000
00010000
00100000
01000000
10000000
00010000
01000000
00010000
01000000
00001000
01000000
,
00001000
00000000
00000000
00000000
00101000
00000000
00000000
00000000
00010010
00000000
00000000
00000000
,
00000000
00000000
00000000
00000000
,
00022000
00000000
00000000
00000000
00000000
00000000
00000000
00033000
;
