#TITLE:Red Goose;
#ARTIST:Mutsuhiko Izumi;
#BANNER:Red Goose.png;
#BACKGROUND:Red Goose-bg.png;
#CDTITLE:./CDTitles/jb copious.png;
#MUSIC:Red Goose.ogg;
#SAMPLESTART:13.2;
#SAMPLELENGTH:15;
#BPMS:0=200;
#BGSTAGE:29;

//--------------- dance-single - Fred-104 ----------------
#NOTES:
     dance-single:
     Fred-104:
     Beginner:
     4:
     :
0000
0000
0000
0000
,
0000
0000
0000
0000
,
0000
0000
0000
0000
,
0000
0000
0000
0000
,
0000
0000
0000
0000
,
0000
0000
0000
0000
,
0000
0000
0000
0000
,
0000
0000
0000
0000
,
0000
0000
0000
0000
,
0002
0000
0000
0000
,
2000
0000
0000
3003
,
2000
0000
0000
3000
,
0002
0000
0000
0003
,
2000
0000
0000
3000
,
0002
0000
0000
0003
,
0200
0000
0000
0300
,
0020
0000
0000
0030
,
0200
0000
0000
0300
,
0020
0000
0000
0030
,
2000
0000
0000
3000
,
0002
0000
0000
0003
,
1000
0000
0010
0000
,
1000
0000
0100
0000
,
1000
0000
0001
0000
,
1000
0000
0100
0000
,
1000
0000
0001
0000
,
1000
0000
0001
0000
,
1000
0000
0100
0000
,
0010
0000
0001
0000
,
0100
0000
0001
0000
,
0010
0000
0001
0000
,
1000
0000
0001
0000
,
0100
0000
0010
0000
,
0100
0000
0001
0000
,
0010
0000
0100
0000
,
1000
0000
0001
0000
,
1000
0000
0001
0000
,
2000
0000
0000
3000
,
0020
0000
0230
0000
,
0302
0000
0000
0003
,
1000
1000
1000
1000
,
0002
0000
0000
0003
,
0200
0000
0320
0000
,
2030
0000
0000
3000
,
0002
0000
0000
0003
,
2000
0000
0000
0000
,
0002
0000
0000
3003
,
2000
0000
3100
1000
,
0200
0000
1300
0001
,
0020
0000
0031
1000
,
0001
0000
0100
0000
,
0002
0000
0013
0100
,
0020
0000
0031
1000
,
0200
0000
1300
0010
,
0200
0000
0301
1000
,
0001
0000
0100
0000
,
0010
0000
1000
0000
,
0001
0000
1000
0000
,
0100
0000
0010
0000
,
0001
0000
1000
0000
,
0001
0000
1000
0000
,
0010
0000
0100
0000
,
0001
0001
0001
0001
,
0002
0000
0000
0000
,
2003
0000
3020
0000
,
0230
0000
0000
0000
,
0302
0000
2003
0000
,
3002
0000
0000
0000
,
0023
0000
0032
0000
,
2003
0000
0000
0000
,
3002
0000
0000
0000
,
2003
0000
0000
0000
,
0002
0000
0000
3003
,
0002
0000
0000
0000
,
0203
0000
0000
0000
,
0320
0000
0000
0000
,
2030
0000
3002
0000
,
2003
0000
0000
0000
,
3200
0000
0000
0000
,
0320
0000
0000
0000
,
0032
0000
2003
0000
,
3001
0000
1000
0000
,
0001
0000
0100
0100
,
0100
0000
0010
0000
,
0100
0000
0001
0001
,
0001
0000
0010
0000
,
0100
0000
1000
1000
,
1000
0000
0001
0000
,
1000
1000
1000
1000
,
2000
0000
0000
0000
,
3002
0000
0000
0000
,
1003
0000
0001
0000
,
0100
0000
0010
0010
,
0010
0000
0100
0000
,
0001
0000
0010
0000
,
0001
0000
1000
0000
,
0001
0000
0000
2002
,
0000
0000
0000
0000
,
0000
0000
0000
0000
,
3003
0000
1001
0000
;

//--------------- dance-single - Fred-104 ----------------
#NOTES:
     dance-single:
     Fred-104:
     Easy:
     8:
     :
0000
0000
0000
0000
,
0000
0000
0000
0000
,
0000
0000
0000
0000
,
0000
0000
0000
0000
,
0000
0000
0000
0000
,
0000
0000
0000
0000
,
0000
0000
0000
0000
,
0000
0000
0000
0000
,
0000
0000
0000
0000
,
0200
0000
0000
0000
,
0020
0000
0000
0330
,
1000
0001
1000
0100
,
1000
0010
0100
0010
,
1000
0100
0010
0001
,
1000
0001
2000
0000
,
3001
0010
0001
0100
,
0001
0010
0100
1000
,
0010
0100
0010
1000
,
0001
1000
0200
0000
,
1300
0100
0002
0003
,
1000
0010
0002
0003
,
1000
0000
0000
0010
0000
0000
0100
0000
,
0010
0000
0000
1000
0000
0000
0100
0000
,
0010
0000
0000
0001
0000
0000
0100
0000
,
0001
0000
0000
0010
0000
0000
0001
0000
,
0100
0000
0000
0010
0000
0000
0100
0000
,
0001
0000
0000
1000
0000
0000
0100
0000
,
0010
0000
0000
0001
0000
0000
0100
0000
,
0010
0000
0000
1000
0000
0000
0001
0000
,
2000
0000
0000
3200
0000
0000
0310
0000
,
0002
0000
0000
0023
0000
0000
0031
0000
,
0200
0000
0000
0320
0000
0000
0130
0000
,
0002
0000
0000
2003
0000
0000
3100
0000
,
0020
0000
0000
0230
0000
0000
1300
0000
,
0002
0000
0000
0203
0000
0000
0310
0000
,
0200
0000
0000
0302
0000
0000
0013
0000
,
0002
0000
0000
2003
0000
0000
3001
0000
,
2000
0000
3020
0000
,
0230
0000
0301
0010
,
0002
0000
0203
0000
,
0310
1000
0001
1000
,
0200
0000
0320
0000
,
0032
0000
1003
0001
,
0200
0000
0320
0000
,
2030
0000
3002
0000
,
2003
0000
0000
0000
,
0002
0000
0000
3003
,
0001
0100
0010
0100
,
0001
0010
0100
1000
,
0001
0100
0010
1000
,
0001
0010
1000
0100
,
0001
0010
0001
1000
,
0001
1000
0100
0010
,
0001
0100
0010
1000
,
0001
0100
1000
0010
,
0001
0100
0010
0100
,
0001
1000
0100
0010
,
0001
1000
0010
0100
,
0001
0010
0001
0000
1000
0100
1000
0000
,
0001
1000
0100
0010
,
0001
0100
0010
0100
,
0001
1000
0010
1000
,
0001
0100
0001
0000
1000
0010
1000
0000
,
0002
0000
0103
0010
,
2000
0000
3100
0010
,
0200
0000
2300
0000
,
3001
0100
1000
0100
,
0002
0000
0103
0010
,
0200
0000
0301
1000
,
0020
0000
1030
0100
,
0020
0000
0032
0000
,
1003
0010
0001
0100
,
1000
0010
1000
0000
0001
0100
0001
0000
,
2002
0000
0003
0000
,
0020
0000
3000
0000
,
0200
0000
0030
0000
,
0302
0000
2000
3003
,
2002
0000
0000
3003
,
0220
0000
0000
0330
,
2000
0000
3002
0000
,
1003
0100
1000
0000
0001
0100
0001
0000
,
2000
0000
0000
3200
0000
0000
0310
0000
,
0002
0000
0000
0023
0000
0000
0130
0000
,
2000
0000
0000
3020
0000
0000
0031
0000
,
2000
0000
0000
3200
0000
0000
0301
0000
,
1000
0000
0001
0100
0000
0010
0100
0000
,
0001
0000
0000
0010
0000
0000
0100
0000
,
1000
0000
0010
0100
0000
0010
1000
0000
,
0001
0100
0010
1000
,
1001
0000
0000
0000
,
0000
0000
0000
0000
,
0001
0010
0001
1000
,
0001
0100
0010
1000
,
0001
0000
0001
0010
0000
0010
0100
0000
,
1000
0000
1000
0010
0000
0010
0100
0000
,
0001
0000
0001
1000
0000
1000
0010
0000
,
0100
0000
0000
0001
0000
2000
0002
0000
,
0000
0000
0000
0000
,
0000
0000
0000
0000
,
3003
0000
1001
0000
;

//--------------- dance-single - Fred-104 ----------------
#NOTES:
     dance-single:
     Fred-104:
     Medium:
     12:
     :
0000
0000
0000
0000
,
0000
0000
0000
0000
,
0000
0000
0000
0000
,
0000
0000
0000
0000
,
0000
0000
0000
0000
,
0000
0000
0000
0000
,
0000
0000
0000
0000
,
0000
0000
0000
0000
,
0000
0000
0000
0000
,
0002
0000
0000
0000
,
2000
0000
0000
3003
,
0001
0010
0001
0000
0001
0100
0001
0000
,
1000
0100
1000
0000
1000
0010
1000
0000
,
0010
0100
0010
0000
0100
0001
0100
0000
,
0001
0010
0001
0000
1000
0010
0100
0000
,
0010
1000
0100
0000
1000
0010
0100
0000
,
0001
0010
0100
0000
0010
0001
1000
0000
,
0001
1000
0100
0000
1000
0001
0100
0000
,
1000
0001
0010
0000
0001
1000
0010
0000
,
1000
0100
0010
0000
0001
0100
0010
0000
,
1000
0100
1000
0001
0100
0010
1000
0000
,
0001
0000
0100
0010
0000
1000
0010
0000
,
1000
0000
0100
0010
0000
0001
0010
0000
,
0001
0000
0100
0010
0000
1000
0010
0000
,
0100
0000
0001
0010
0000
0100
1000
0000
,
0001
0000
1000
0100
0000
0010
0100
0000
,
1000
0000
0001
0100
0000
0010
0100
0000
,
0001
0000
1000
0001
0000
0010
0001
0000
,
0100
0000
0001
0010
0000
0100
1000
0000
,
0001
0010
0001
0020
0000
0031
0010
0000
,
0100
1000
0100
2000
0000
3100
1000
0000
,
0001
0100
0001
0200
0000
0301
0100
0000
,
0010
1000
0010
2000
0000
3010
1000
0000
,
0001
1000
0001
2000
0000
3100
0010
0000
,
0001
0100
0001
0020
0000
0130
1000
0000
,
0010
1000
0100
2000
0000
3001
0100
0000
,
0010
1000
0100
0020
0000
0031
1000
0001
,
0200
0000
0310
1000
,
0002
0000
0000
0000
0013
0000
0001
1000
,
0200
0000
2300
0000
,
3001
0100
0001
1000
0001
0100
0010
0000
,
2000
0000
3100
1000
,
0002
0000
0000
0000
0103
0000
0010
0100
,
0002
0000
0013
0100
,
2000
0000
3002
0000
,
0203
0000
0000
0000
,
0020
0000
0000
0330
,
1000
0100
1000
0000
0010
1000
0100
0000
,
0010
0001
0100
0000
0001
0010
0100
0000
,
1000
0001
0100
0000
0001
1000
0010
0000
,
1000
1010
0001
0101
,
1000
0010
0100
0000
0010
1000
0001
0000
,
0010
0100
0010
0000
0001
1000
0010
0000
,
1000
0001
0100
0000
0001
0010
0100
0000
,
1000
1100
0001
0011
,
0001
0000
0010
0000
0001
1000
0001
0100
,
0010
0000
1000
0000
0100
0010
0001
0010
,
0100
0000
1000
0000
0010
1000
0100
1000
,
0002
0203
2300
3020
,
0031
0000
1000
0000
0001
1000
0100
0010
,
0001
0000
0100
0000
0010
1000
0001
0010
,
0001
0100
0010
1000
,
0001
0100
0001
0100
0010
1000
0001
1000
,
0200
0000
1300
0010
,
0002
0000
0000
0000
0103
0000
1000
0001
,
2000
0000
3020
0000
,
0130
0001
0010
0001
0100
0001
0010
0000
,
0002
0000
0103
0010
,
2000
0000
0000
0000
3100
0000
0001
0100
,
2000
0000
3020
0000
,
0230
0000
0302
0000
,
2003
0000
0000
0000
,
0002
0000
0000
3003
,
1020
0000
0000
0000
,
0230
0000
0000
0000
,
0302
0000
0000
0000
,
0023
0000
0230
0300
,
2001
0000
0000
0000
,
3002
0000
0000
0000
,
0203
0000
0320
0000
,
1030
0100
0010
0001
0100
0010
1000
0001
,
1000
0100
1000
0200
0000
0310
0100
0000
,
1000
0010
1000
0020
0000
0130
0001
0000
,
0010
0100
0010
0200
0000
0310
0001
0000
,
0100
0001
0010
0002
0000
1003
0010
0000
,
1000
0100
0010
0002
0000
0103
0010
0000
,
1000
0001
0010
0002
0000
0103
0010
0000
,
1000
0001
0100
0020
0000
1030
0001
0000
,
0010
0100
1000
0010
0100
0001
0010
0001
,
2001
0000
0000
3200
0000
0000
0302
0000
,
0203
0000
0000
2300
0000
0000
3020
0000
,
0130
0010
0100
0001
0000
0100
0010
1000
,
0001
0010
0100
0010
0000
0001
1000
0000
,
0100
1000
0100
2000
0000
3010
1000
0001
,
1000
0100
0010
0200
0000
1300
0001
1000
,
0100
1000
0010
0200
0000
0301
0010
0100
,
1000
0010
0100
0001
0000
1000
2002
0000
,
0000
0000
0000
0000
,
0000
0000
0000
0000
,
3003
0000
1001
0000
;

//--------------- dance-single - Fred-104 ----------------
#NOTES:
     dance-single:
     Fred-104:
     Hard:
     16:
     :
0000
0000
0000
0000
,
0000
0000
0000
0000
,
0000
0000
0000
0000
,
0000
0000
0000
0000
,
0000
0000
0000
0000
,
0000
0000
0000
0000
,
0000
0000
0000
0000
,
0000
0000
0000
0000
,
0000
0000
0000
0000
,
0002
0000
0000
0000
,
2000
0000
0000
3003
,
0001
0010
0001
0100
0001
1000
0001
0010
,
0100
1000
0001
0100
0010
1000
0010
0100
,
0010
1000
0001
0100
0010
0100
0001
1000
,
0001
0010
0100
0001
0100
0010
0001
1000
,
0010
0100
0001
1000
0010
1000
0100
0010
,
0001
1000
0001
0010
0100
1000
0010
0100
,
0001
1000
0100
1000
0001
0010
0100
1000
,
0100
0010
0001
1000
0010
1000
0010
0100
,
1000
0100
0010
1000
0001
0010
0100
1000
,
0001
0000
1000
0000
0010
0000
0100
0000
0001
0100
0001
0100
0001
0100
0001
0100
,
0001
1000
0010
2000
0000
3100
0010
0001
,
0010
0100
0010
0002
0000
0103
0010
1000
,
0010
0100
0010
2000
0000
3001
0100
0001
,
1000
0001
0100
0002
0000
0013
0100
1000
,
0001
0010
0100
2000
0000
3010
0100
0001
,
1000
0010
0100
0002
0000
1003
0001
0010
,
0001
1000
0100
0020
0000
0130
1000
0010
,
0100
0001
0010
0002
0000
0103
0010
1000
,
0001
0100
1000
0200
0000
0301
0100
0010
,
1000
0100
0010
2000
0000
3010
0001
1000
,
0001
1000
0010
0002
0000
0013
0100
0001
,
1000
0001
0100
2000
0000
3100
0010
1000
,
0001
1000
0100
0020
0000
1030
0010
0100
,
1000
0001
0100
0020
0000
0031
0010
0100
,
0001
1000
0001
0200
0000
0310
1000
0100
,
0010
0000
0001
0000
0100
0000
0010
0000
1000
0100
1000
0100
1000
0100
1000
0100
,
2000
0000
0010
0000
0001
0000
3100
0010
,
0002
0000
0100
0000
0010
0000
0103
0010
,
0200
0010
1000
0301
,
1000
0100
0010
0001
0100
0010
1000
0001
,
0020
0000
0001
0000
0100
0000
0031
1000
,
0200
0000
0010
0000
1300
0010
0100
0001
,
0020
0000
0100
0000
0001
0000
0130
0010
,
0002
0100
1000
0010
,
1003
0100
0010
0001
0100
0010
1000
0010
,
0100
0000
0001
0000
0010
0000
0100
0000
0010
0100
0010
0100
0010
0100
0010
0100
,
0010
0000
0001
0000
1000
0000
0001
0000
0100
0000
0010
0000
1000
0100
1000
0000
,
0010
0000
0100
0000
0010
0000
1000
0000
0100
0000
0010
0000
0001
0100
0001
0000
,
0010
0000
0100
0000
1000
0000
0010
0000
0100
0000
0001
0000
1000
0100
1000
0000
,
0001
0010
1000
0001
0100
1000
0001
0010
,
0001
0000
0100
0000
0010
0000
0100
0000
0001
0000
1000
0000
0100
0010
0100
0000
,
1000
0000
0010
0000
0100
0000
0010
0000
1000
0000
0100
0000
0010
0001
0010
0000
,
0001
0010
1000
0001
0100
1000
0001
1000
,
0100
0001
1000
0010
0001
1000
0001
0100
,
0001
0000
0010
0000
0100
0000
1000
0010
1000
0000
0100
0000
1000
0100
1000
0000
,
0010
0000
0100
0000
0001
0000
0010
0001
0010
0000
0001
0000
0100
0001
0100
0000
,
0010
0000
0100
0000
0010
0000
1000
0100
1000
0000
0001
0000
1000
0010
1000
0000
,
0100
0010
0001
0100
0010
1000
0001
0010
,
0001
0000
0100
0000
0010
0000
0100
0001
0100
0000
0010
0000
1000
0100
1000
0000
,
0001
0000
1000
0000
0100
0000
0010
0001
0010
0000
0100
0000
1000
0010
1000
0000
,
0001
0010
0100
1000
0010
1000
0100
1000
,
0001
0000
0100
0000
0010
0000
0100
0000
0001
1000
0001
1000
0001
1000
0001
1000
,
0002
0000
0100
0000
0010
0000
0103
0010
,
2000
0000
0100
0000
0010
0000
3100
0010
,
0200
0010
1000
0310
,
0100
0001
1000
0100
0001
0100
0010
0001
,
0200
0000
1000
0000
0010
0000
1300
0001
,
0020
0000
0001
0000
0100
0000
1030
0010
,
0002
0100
0010
0103
,
0020
1000
0100
1030
,
0100
1000
0010
1000
0100
0010
0001
1000
,
0010
0000
0100
0000
0001
0000
1000
0000
0001
1000
0001
1000
0001
1000
0001
1000
,
0002
0000
0000
0000
,
0203
0000
0000
0000
,
0320
0000
0000
0000
,
2030
0000
0200
3300
,
2100
0000
0000
0000
,
3020
0000
0000
0000
,
0230
0000
0302
0000
,
1003
0000
0100
0000
0010
0000
0001
0000
1000
0010
1000
0010
1000
0010
1000
0010
,
0100
0001
0010
0002
0000
0103
0010
1000
,
0100
0010
0001
0100
0010
0001
0010
1000
,
0001
0100
0010
0200
0000
0301
1000
0010
,
0100
1000
0100
0010
1000
0001
0100
0001
,
1000
0100
0001
0200
0000
0310
0001
1000
,
0001
0100
1000
0100
0010
1000
0001
1000
,
0001
0010
0100
0002
0000
0103
0010
0001
,
1000
0010
0100
0001
1000
0100
0010
0001
,
2001
0000
0000
3200
0000
0000
0320
0000
,
0032
0000
0000
0203
0000
0000
0320
0000
,
1030
0100
0010
0200
0000
1300
0010
0100
,
0001
0000
0010
0000
0100
0000
1000
0000
0001
0100
0001
0100
0001
0100
0001
0100
,
0010
1000
0100
0010
0001
0100
0010
0001
,
0010
0100
0001
0010
0100
1000
0001
0100
,
0001
0010
0100
0001
1000
0010
0100
1000
,
0001
0100
0010
1000
0000
0100
0220
0000
,
0000
0000
0000
0000
,
0000
0000
0000
0000
,
0330
0000
1001
0000
;

//--------------- dance-single - Fred-104 ----------------
#NOTES:
     dance-single:
     Fred-104:
     Challenge:
     18:
     :
0000
0000
0000
0000
,
0000
0000
0000
0000
,
0000
0000
0000
0000
,
0000
0000
0000
0000
,
0000
0000
0000
0000
,
0000
0000
0000
0000
,
0000
0000
0000
0000
,
0000
0000
0000
0000
,
0000
0000
0000
0000
,
1000
0010
1000
0010
1000
0010
1000
0010
0100
0001
0100
0001
0100
0001
0100
0001
,
0010
0100
0010
0100
0010
0100
0010
0100
1000
0001
1000
0001
1000
0001
1000
0001
,
1000
1000
0010
0010
0100
0100
0001
0001
,
0010
0100
1000
0010
0100
0001
1000
0100
,
0010
0010
0001
0001
1000
1000
0010
0010
,
1000
0100
0010
0100
1000
0010
0100
0001
,
1000
1000
0001
0001
0100
0100
0010
0010
,
1000
0010
0001
0010
0100
0001
1000
0001
,
0010
0010
0001
0001
1000
1000
0100
0100
,
1000
0001
0100
1000
0100
0010
1000
0001
,
1000
1000
0100
0100
0010
0010
0001
0001
,
1000
0100
1000
0100
1000
0100
1000
0100
0010
0001
0010
0001
0010
0001
0010
0001
,
0010
0001
0010
0002
0000
1003
0010
0100
,
0001
0100
0001
0200
0000
0310
1000
0100
,
1000
0001
1000
0002
0000
1003
0100
0010
,
0100
0010
0100
0020
0000
0031
1000
0010
,
1000
0100
0010
0002
0000
0103
0010
1000
,
0001
0010
0100
0020
0000
0031
1000
0010
,
1000
0001
0010
0200
0000
1300
0010
1000
,
0001
0100
0010
2000
0000
3100
0010
0001
,
1000
0100
0010
2000
0000
3010
0001
1000
,
0001
1000
0010
0002
0000
0013
0100
0001
,
1000
0100
0001
0200
0000
1300
0001
0100
,
0001
0010
1000
0020
0000
0031
0100
0010
,
0100
0001
0010
0200
0000
0301
0100
0010
,
0001
1000
0100
0002
0000
0103
1000
0010
,
1000
0010
0100
2000
0000
3100
0010
1000
,
0001
0100
0001
0100
0001
0100
0001
0100
0010
1000
0010
1000
0010
1000
0010
1000
,
0002
0000
0100
0000
1000
0000
0013
0010
,
0200
0000
1000
0000
0010
0000
0301
0100
,
2000
0010
0001
0100
,
3001
1000
0001
1000
0001
1000
0001
1000
0100
0010
0100
0010
0100
0010
0100
0010
,
0002
0000
0000
0000
0010
0000
0000
0000
1000
0000
0000
0000
0103
0000
0010
1000
,
0020
0000
1000
0000
0001
0000
1030
0010
,
0200
0000
0000
0000
0001
0000
0000
0000
1000
0000
0000
0000
0301
0000
1000
0001
,
2000
0100
0001
0010
,
3001
0010
0001
0010
0001
0010
0001
0010
0100
1000
0100
1000
0100
1000
0100
1000
,
0010
1000
0010
1000
0001
0100
0001
0100
0001
0010
0001
0010
0100
1000
0100
1000
,
0001
0100
0000
0001
0000
0010
0000
0010
0100
0000
1000
0000
0010
1000
0010
0000
,
1000
0001
0000
0010
0000
0100
0000
0100
1000
0000
0001
0000
0100
0010
0100
0000
,
0001
0010
0000
0100
0000
1000
0000
1000
0001
0000
0100
0000
0010
1000
0010
0000
,
1000
0100
0000
0010
0000
0001
0000
0100
0010
1000
0000
0010
0000
0100
0000
0001
,
1000
0100
0000
1000
0000
0010
0000
0100
0001
0000
0010
0000
0001
1000
0100
0000
,
0010
0001
0000
1000
0000
0010
0000
0100
0001
0000
1000
0000
0010
1000
0100
0000
,
1000
0100
0000
0010
0000
0001
0000
1000
0001
0010
0000
0100
0000
1000
0000
0001
,
0100
0010
0000
1000
0000
0100
0000
1000
0010
1000
0010
0100
0001
1000
0010
0100
,
0001
0010
0000
0001
0100
0010
0000
1000
0010
0000
1000
0000
0100
0000
0010
0000
,
0001
1000
0000
0010
0100
0010
0000
1000
0100
0000
0010
0000
0100
0000
1000
0000
,
0001
0000
0100
0000
1000
0000
0100
0000
0010
0000
1000
0000
0001
1000
0100
0000
,
1000
0010
0000
1000
0000
0100
0000
0010
0001
0100
0000
0001
0000
0010
0000
0100
,
0020
0000
0000
0000
0000
0000
0000
0000
0000
0000
0000
0000
0000
0000
0000
0000
0000
0000
0000
0000
0000
0000
0000
0000
0001
0000
0000
0000
0000
0000
0000
0000
0000
0000
0000
0000
1000
0000
0000
0000
0000
0000
0000
0000
0000
0000
0000
0030
0020
0000
0000
0000
0000
0000
0000
0000
0000
0000
0000
0000
0000
0000
0000
0000
0000
0000
0000
0000
0000
0000
0000
0000
1000
0000
0000
0000
0000
0000
0000
0000
0000
0000
0000
0000
0001
0000
0000
0000
0000
0000
0000
0000
0000
0000
0000
0030
0010
0000
0000
0000
0000
0000
0000
0000
0000
0000
0000
0000
0000
0000
0000
0000
0000
0000
0000
0000
0000
0000
0000
0000
0100
0000
0000
0000
0000
0000
0000
0000
0000
0000
0000
0000
0000
0000
0000
0000
0000
0000
0000
0000
0000
0000
0000
0000
1000
0000
0000
0000
0000
0000
0000
0000
0000
0000
0000
0000
0000
0000
0000
0000
0000
0000
0000
0000
0000
0000
0000
0000
0010
0000
0000
0000
0000
0000
0000
0000
0000
0000
0000
0000
0000
0000
0000
0000
0000
0000
0000
0000
0000
0000
0000
0000
,
0200
0000
0000
0000
0000
0000
0000
0000
0000
0000
0000
0000
0000
0000
0000
0000
0000
0000
0000
0000
0000
0000
0000
0000
0001
0000
0000
0000
0000
0000
0000
0000
0000
0000
0000
0000
1000
0000
0000
0000
0000
0000
0000
0000
0000
0000
0000
0300
0200
0000
0000
0000
0000
0000
0000
0000
0000
0000
0000
0000
0000
0000
0000
0000
0000
0000
0000
0000
0000
0000
0000
0000
1000
0000
0000
0000
0000
0000
0000
0000
0000
0000
0000
0000
0001
0000
0000
0000
0000
0000
0000
0000
0000
0000
0000
0300
0100
0000
0000
0000
0000
0000
0000
0000
0000
0000
0000
0000
0000
0000
0000
0000
0000
0000
0000
0000
0000
0000
0000
0000
0010
0000
0000
0000
0000
0000
0000
0000
0000
0000
0000
0000
0000
0000
0000
0000
0000
0000
0000
0000
0000
0000
0000
0000
1000
0000
0000
0000
0000
0000
0000
0000
0000
0000
0000
0000
0001
0000
0000
0000
0000
0000
0000
0000
0000
0000
0000
0000
1000
0000
0000
0000
0000
0000
0000
0000
0000
0000
0000
0000
0000
0000
0000
0000
0000
0000
0000
0000
0000
0000
0000
0000
,
0001
0010
0000
0100
0000
1000
0000
0001
0000
1000
0000
0010
0000
0100
0000
0001
,
1000
0100
1000
0100
1000
0100
1000
0100
0010
0001
0010
0001
0010
0001
0010
0001
,
0020
0000
0000
0000
0001
0000
0000
0000
0100
0000
0000
0000
1030
0000
0001
1000
,
0200
0000
1000
0000
0010
0000
1300
0001
,
2000
0000
0010
0000
0001
0000
3100
0001
,
2000
0000
0100
0000
0001
0000
3010
0001
,
2000
0000
0000
0000
0010
0000
0000
0000
0100
0000
0000
0000
3010
0000
1000
0001
,
0200
0000
0010
0000
1000
0000
0310
0100
,
0002
0010
0100
0013
,
0002
0100
1000
0013
,
1000
0010
1000
0010
0100
0001
0100
0001
1000
0100
1000
0100
0010
0001
0010
0001
,
1000
0100
0010
0001
0100
0010
1000
0100
0010
0001
0100
0010
1000
0001
0010
0100
,
2000
0000
0000
3020
0000
0000
0032
0000
,
2003
0000
0000
3200
0000
0000
0302
0000
,
1003
1100
1000
0020
0000
0000
0230
0000
,
0302
0000
0000
0023
0000
0000
0230
0300
,
2200
0000
3300
2002
0000
3003
0202
0303
,
2020
0000
3030
0022
0000
0033
0220
0330
,
2002
0000
3003
0220
0000
0330
2002
3003
,
1000
0010
1000
0010
0100
0001
0100
0001
1000
0100
0010
0001
0010
0100
1000
0010
,
0100
0000
0010
1000
0001
0000
0100
0000
0001
0000
0010
0100
1000
0000
0100
0000
,
1000
0000
0010
1000
0001
0000
0100
0000
0010
0000
1000
0100
0010
0000
0001
0000
,
0010
0000
0100
0010
0001
0000
1000
0000
0001
0000
0100
0010
1000
0000
0001
0000
,
1000
0000
0010
0100
0001
0000
1000
0000
0001
0000
1000
0010
0100
0000
0001
0000
,
1000
0100
0010
0001
1000
0000
0020
0000
0000
0000
0031
0000
0010
0000
0100
0000
,
0001
1000
0001
0100
0010
0000
2000
0000
0000
0000
3100
0000
0001
0000
0100
0000
,
1000
0001
0010
0001
0010
0000
0200
0000
0000
0000
0301
0000
0100
0000
1000
0000
,
0001
1000
0001
1000
0010
0000
0002
0000
0000
0000
0013
0000
0100
0000
0001
0000
,
1001
1000
0100
0020
0000
0130
1000
0001
,
1000
0001
0100
0020
0000
0130
0001
0010
,
0001
0010
0100
0010
0001
1000
0100
1000
0001
0000
0100
0010
0100
0000
0001
0000
,
1000
0010
1000
0010
0100
0001
0100
0001
1000
0001
0010
0100
1000
0010
0100
0001
,
1000
0100
0010
0001
0010
0100
2000
0000
0000
0000
3001
1000
0010
0000
0100
0000
,
0001
1000
0010
0100
0001
0010
0002
0000
0000
0000
0103
0001
1000
0000
0001
0000
,
0010
0001
0100
0001
0010
0001
2000
0000
0000
0000
3010
1000
0001
0000
0100
0000
,
0001
0010
0100
1000
0100
0010
0002
0000
0003
0000
0110
0000
2002
0000
0000
0000
,
0000
0000
0000
0000
0000
0000
0000
3003
,
0001
1000
0010
1000
0100
0010
0001
0100
0010
1000
0001
0010
0100
1000
0010
0100
,
0001
0000
1001
0000
;

//--------------- dance-double - Fred-104 ----------------
#NOTES:
     dance-double:
     Fred-104:
     Easy:
     11:
     :
00000000
00000000
00000000
00000000
,
00000000
00000000
00000000
00000000
,
00000000
00000000
00000000
00000000
,
00000000
00000000
00000000
00000000
,
00000000
00000000
00000000
00000000
,
00000000
00000000
00000000
00000000
,
00000000
00000000
00000000
00000000
,
00000000
00000000
00000000
00000000
,
00000000
00000000
00000000
00000000
,
02000000
00000000
00000000
00000000
,
00200000
00000000
00000000
03300000
,
10000000
01000000
10000000
00100000
,
10000000
01000000
10000000
00000000
01000000
00010000
01000000
00000000
,
10000000
01000000
00100000
00001000
,
00010000
00001000
00010000
00000000
00000010
00001000
00000010
00000000
,
00000100
00000001
00001000
00000100
,
00000010
00000001
00000010
00000000
00000001
00001000
00000001
00000000
,
00000100
00001000
00010000
00100000
,
10000000
00010000
10000000
00000000
01000000
00100000
01000000
00000000
,
00100000
00010000
00001000
00000100
,
00000010
00000001
00000010
00000000
00000001
00001000
00000001
00000000
,
00000100
00000000
00000010
00001000
00000000
00000100
00001000
00000000
,
00000010
00000000
00001000
00000100
00000000
00010000
00001000
00000000
,
00100000
00000000
00010000
00100000
00000000
00010000
10000000
00000000
,
00010000
00000000
01000000
00100000
00000000
10000000
00100000
00000000
,
10000000
00000000
01000000
00100000
00000000
00010000
00100000
00000000
,
00001000
00000000
00010000
00000100
00000000
00001000
00000010
00000000
,
00000100
00000000
00000001
00001000
00000000
00000100
00000010
00000000
,
00000001
00000000
00001000
00000010
00000000
00010000
00001000
00000000
,
00020000
00000000
00000000
00032000
00000000
00000000
00203000
00000000
,
00320000
00000000
00000000
20030000
00000000
00000000
32000000
00000000
,
03200000
00000000
00000000
00302000
00000000
00000000
00023000
00000000
,
00030200
00000000
00000000
00002300
00000000
00000000
00003002
00000000
,
00000203
00000000
00000000
00000320
00000000
00000000
00002030
00000000
,
00003002
00000000
00000000
00000203
00000000
00000000
00002300
00000000
,
00023000
00000000
00000000
00230000
00000000
00000000
20300000
00000000
,
30020000
00000000
00000000
02030000
00000000
00000000
03100000
00000000
,
02000000
00000000
03100000
10000000
,
02000000
00000000
00000000
00000000
03100000
00000000
00001000
00010000
,
00002000
00000000
00003020
00000000
,
00000031
00000000
00000100
00000000
00001000
00000000
00010000
00001000
,
00020000
00000000
00000000
00000000
00030010
00000000
00010000
00001000
,
00020000
00000000
00000000
00000000
00031000
00000000
00100000
00010000
,
02000000
00000000
03100000
10000000
,
02000000
00000000
03200000
00000000
,
00302000
00000000
00000000
00000000
,
00020000
00000000
00000000
00033000
,
00010000
00001000
00010000
00000000
00000100
00000000
00001000
00000000
,
00000001
00000100
00000001
00000000
00000010
00000000
00000100
00000000
,
00000010
00000001
00000010
00000000
00000001
00000000
00001000
00000000
,
00000001
00000100
00001000
00000000
00010000
01000000
10000000
00000000
,
00010000
01000000
00010000
00000000
01000000
00000000
00100000
00000000
,
10000000
00100000
10000000
00000000
00100000
00000000
01000000
00000000
,
00100000
10000000
00100000
00000000
01000000
00000000
00100000
00000000
,
00001000
00010000
00001000
00000000
00010000
00000100
00001000
00000000
,
00000010
00000000
00001000
00000000
00000001
00000100
00000001
00000100
,
00000010
00000000
00001000
00000000
00000100
00010000
00001000
00000000
,
00010000
00000000
00000010
00000000
00001000
00000001
00000100
00000001
,
00000010
00000001
00000100
00000010
,
00010000
00000000
00001000
00000000
00100000
00001000
00010000
00001000
,
00100000
00000000
00010000
00000000
10000000
00010000
01000000
00000000
,
00010000
00100000
10000000
01000000
,
00010000
00000000
00001000
00000000
00000010
00000001
00001000
00000001
,
00000200
00000000
00000000
00000000
00000310
00000000
00010000
00001000
,
00020000
00000000
00000000
00000000
00031000
00000000
00100000
00010000
,
20000000
00000000
32000000
00000000
,
03200000
00302000
00023000
00230000
,
20300000
00000000
00000000
00000000
31000000
00000000
00100000
00001000
,
00020000
00000000
00000000
00000000
00031000
00000000
00000100
00000001
,
00002000
00000000
00003002
00000000
,
00000203
00000000
00000320
00000000
,
00020030
00000000
00000000
00000000
,
00002000
00000000
00000000
00033000
,
02100000
00000000
00000000
00000000
,
03200000
00000000
00000000
00000000
,
20300000
00000000
00000000
00000000
,
32000000
00000000
03200000
00300000
,
00021000
00000000
00000000
00000000
,
00030020
00000000
00000000
00000000
,
00002030
00000000
00003002
00000000
,
00001003
00000100
00000001
00000100
,
00001000
00000000
00000001
00000010
00000000
00000001
00000100
00000000
,
00000010
00000000
00001000
00000100
00000000
00001000
00000001
00000000
,
00000100
00000000
00000010
00001000
00000000
00000100
00010000
00000000
,
00001000
00000000
00100000
01000000
00000000
00100000
00010000
00000000
,
01000000
00000000
00010000
00100000
00000000
01000000
10000000
00000000
,
00010000
00000000
01000000
00100000
00000000
10000000
00100000
00000000
,
10000000
00000000
01000000
00100000
00000000
00001000
00010000
00000000
,
00000100
00000000
00001000
00000001
00000000
00000100
00000010
00001000
,
00001020
00000000
00000000
00000230
00000000
00000000
00000302
00000000
,
00000023
00000000
00000000
00002030
00000000
00000000
00023000
00000000
,
00031000
00010000
00001000
00010000
00000000
00100000
01000000
00000000
,
10000000
00010000
10000000
01000000
00000000
00100000
00010000
00000000
,
10000000
01000000
10000000
01000000
00000000
00100000
01000000
00100000
,
00001000
00010000
00000100
00001000
00000000
00001000
00000001
00000100
,
00000010
00001000
00000100
00000010
00000000
00000010
00000001
00001000
,
00000001
00000100
00001000
00010000
00000000
00010000
00022000
00000000
,
00000000
00000000
00000000
00000000
,
00000000
00000000
00000000
00000000
,
00033000
00000000
00011000
00000000
;

//--------------- dance-double - Fred-104 ----------------
#NOTES:
     dance-double:
     Fred-104:
     Medium:
     15:
     :
00000000
00000000
00000000
00000000
,
00000000
00000000
00000000
00000000
,
00000000
00000000
00000000
00000000
,
00000000
00000000
00000000
00000000
,
00000000
00000000
00000000
00000000
,
00000000
00000000
00000000
00000000
,
00000000
00000000
00000000
00000000
,
00000000
00000000
00000000
00000000
,
00000000
00000000
00000000
00000000
,
00002000
00000000
00000000
00000000
,
00000002
00000000
00000000
00003003
,
00000001
00000010
00000001
00000100
00000010
00001000
00000100
00000010
,
00000001
00000100
00001000
00010000
00001000
00000010
00000001
00000000
,
00001000
00000100
00000010
00000001
00000100
00000010
00001000
00000100
,
00010000
00001000
00010000
00100000
10000000
00010000
10000000
00000000
,
01000000
00010000
00001000
00010000
00100000
00010000
00001000
00010000
,
00001000
00000010
00000001
00001000
00000001
00000100
00000010
00000000
,
00000100
00000001
00000010
00000001
00001000
00000010
00001000
00000100
,
00010000
00001000
00100000
00010000
10000000
00010000
01000000
00000000
,
00010000
00100000
01000000
10000000
00100000
01000000
00010000
10000000
,
01000000
00100000
00001000
00010000
00000100
00000010
00000001
00001000
,
00000001
00000010
00000001
00000020
00000000
00000031
00000100
00000010
,
00001000
00000100
00001000
00000200
00000000
00010300
00001000
00100000
,
00001000
00010000
00001000
02000000
00000000
03010000
00100000
00010000
,
10000000
01000000
00100000
02000000
00000000
13000000
00100000
01000000
,
00010000
00100000
01000000
00200000
00000000
00301000
00010000
00100000
,
00010000
00001000
00010000
00000020
00000000
00001030
00000100
00010000
,
00000010
00001000
00000100
00020000
00000000
00030100
00001000
00000001
,
00001000
00000100
00000010
00000200
00000000
00001300
00000001
00000100
,
00000001
00000010
00001000
00000020
00000000
00000031
00001000
00000001
,
00000100
00001000
00010000
00002000
00000000
00013000
00100000
10000000
,
00010000
00100000
00010000
02000000
00000000
03100000
01000000
00010000
,
10000000
01000000
00100000
00020000
00000000
01030000
00100000
01000000
,
00001000
00010000
00000100
00000020
00000000
00000031
00001000
00000100
,
00000010
00000001
00001000
00000020
00000000
00010030
00001000
00000010
,
00000100
00010000
00001000
00020000
00000000
00031000
01000000
00100000
,
10000000
00010000
00100000
01000000
00100000
00001000
00010000
00000000
,
00021000
00000000
00000010
00000000
00100000
00000000
00031000
00010000
,
00002000
00000000
01000000
00000000
00000100
00000000
00013000
00001000
,
00020000
00001000
00100000
00031000
,
00010000
00001000
00100000
00001000
00010000
00001000
01000000
00000000
,
00002000
00000000
00010000
00000000
00000010
00000000
00013000
00001000
,
00020000
00000000
00000010
00000000
00100000
00000000
00031000
00010000
,
00000200
00001000
00000001
00001300
,
00000020
00001000
00000100
00001030
,
00000001
00001000
00000100
00010000
00001000
00100000
00010000
10000000
,
00010000
10000000
00010000
00000000
10000000
00010000
10000000
00000000
00010000
10000000
00010000
10000000
00010000
00000000
00000000
00000000
,
10000000
01000000
00010000
01000000
10000000
01000000
00010000
00000000
,
00001000
00010000
00001000
00000010
00001000
00010000
00001000
00000000
,
00000100
00000001
00000100
00001000
00000100
00000001
00000100
00000000
,
00001000
00010000
00100000
00010000
00001000
00010000
00100000
00000000
,
10000000
00100000
00010000
00001000
00010000
01000000
10000000
00000000
,
00010000
10000000
00100000
01000000
00010000
00100000
00010000
00000000
,
10000000
01000000
00010000
00001000
00010000
00100000
00010000
00001000
,
00000100
00001000
00010000
00001000
00000010
00000001
00001000
00000000
,
00000001
00000010
00000001
00001000
00000010
00000100
00000001
00001000
,
00000100
00000010
00000001
00000100
00001000
00010000
00001000
00000000
,
00010000
00001000
00010000
00100000
10000000
00010000
10000000
01000000
,
00100000
00010000
00100000
00001000
00010000
00001000
01000000
00000000
,
00010000
00100000
00010000
10000000
00100000
01000000
00010000
10000000
,
01000000
00100000
01000000
10000000
00100000
00010000
00001000
00000000
,
00000100
00000001
00001000
00000001
00000010
00000001
00001000
00000001
,
00000010
00000100
00001000
00000100
00010000
00001000
00010000
00001000
,
00020000
00000000
00000100
00000000
00100000
00000000
00031000
00010000
,
00002000
00000000
00100000
00000000
00000010
00000000
00013000
00001000
,
00020000
00000100
01000000
00031000
,
00010000
00001000
01000000
00001000
00010000
00000100
00001000
00000000
,
00000200
00000000
00010000
00000000
00001000
00000000
00010300
00001000
,
00020000
00000000
00000100
00000000
01000000
00000000
00031000
00010000
,
00002000
00100000
00000010
00103000
,
00002000
00010000
00000100
00013000
,
00001000
00010000
00000010
00001000
00000100
00000010
00000001
00001000
,
00000100
00001000
00000100
00001000
00000100
00001000
00000100
00001000
00000100
00001000
00000100
00001000
00000100
00001000
00000100
00001000
,
00000200
00000000
00000000
00020300
00000000
00000000
00032000
00000000
,
00003020
00000000
00000000
00000032
00000000
00000000
00002003
00000000
,
00003020
00000000
00000000
00020030
00000000
00000000
00032000
00000000
,
00203000
00000000
00320000
10030000
,
20010000
00000000
00000000
32000000
00000000
00000000
03020000
00000000
,
00032000
00000000
00000000
00003020
00000000
00000000
00000032
00000000
,
00000203
00000000
00000000
00002300
00000000
00000000
00023000
00000000
,
00230000
00000000
00000000
20300000
00000000
00000000
30010000
00000000
,
10000000
01000000
10000000
00020000
00000000
10030000
01000000
00000000
,
00100000
00001000
00010000
00002000
00000000
01003000
00001000
00000000
,
00010000
00000100
00001000
00000200
00000000
00000310
00000001
00000000
,
00001000
00000001
00000100
00000020
00000000
00000130
00000001
00000000
,
00000010
00000001
00001000
00000002
00000000
00000103
00000010
00001000
,
00000100
00010000
00001000
00020000
00000000
00130000
10000000
00010000
,
10000000
01000000
00100000
00020000
00000000
01030000
00100000
00010000
,
00001000
00100000
00001000
00010000
00000100
00001000
00000001
00000100
,
00000120
00000000
00000000
00002030
00000000
00000000
00003200
00000000
,
00020300
00000000
00000000
00032000
00000000
00000000
02003000
00000000
,
03010000
00100000
00010000
02000000
00000000
03100000
10000000
00010000
,
10000000
01000000
00100000
02000000
00000000
13000000
00100000
10000000
,
01000000
00010000
00001000
00020000
00000000
00130000
10000000
00010000
,
10000000
00100000
00010000
00002000
00000000
00013000
00001000
00000100
,
00000001
00001000
00000001
00000010
00000100
00001000
00000100
00010000
,
00001000
00010000
00100000
10000000
00010000
10000000
20020000
00000000
,
00000000
00000000
00000000
30030000
,
01000000
00100000
01000000
00100000
01000000
00100000
01000000
00100000
01000000
00100000
01000000
00100000
01000000
00100000
01000000
00100000
,
01000000
00000000
11000000
00000000
;

//--------------- dance-double - Fred-104 ----------------
#NOTES:
     dance-double:
     Fred-104:
     Hard:
     17:
     :
00000000
00000000
00000000
00000000
,
00000000
00000000
00000000
00000000
,
00000000
00000000
00000000
00000000
,
00000000
00000000
00000000
00000000
,
00000000
00000000
00000000
00000000
,
00000000
00000000
00000000
00000000
,
00000000
00000000
00000000
00000000
,
00000000
00000000
00000000
00000000
,
00000000
00000000
00000000
00000000
,
00020000
00000000
00000000
00000000
00000000
00000000
00000000
00000000
00000000
00000000
00000000
00000000
00000000
00000000
00031000
00020000
,
00002000
00000000
00000000
00033000
,
00100000
00001000
00010000
00100000
01000000
10000000
01000000
00100000
,
00010000
00001000
00100000
01000000
10000000
00100000
00010000
00001000
,
00100000
00010000
01000000
00100000
00010000
00001000
00100000
01000000
,
00010000
01000000
10000000
00100000
00010000
00001000
00010000
00000100
,
00001000
00000010
00001000
00000100
00000010
00000001
00000010
00000100
,
00001000
00010000
00000100
00000010
00000001
00000100
00001000
00010000
,
00001000
00000010
00000001
00001000
00000001
00000100
00001000
00010000
,
00100000
10000000
00010000
10000000
01000000
00100000
01000000
10000000
,
00010000
10000000
00100000
00010000
00001000
00000100
00000001
00001000
,
00000001
00000100
00000001
00000100
00000001
00000100
00000001
00000100
00000010
00001000
00000010
00001000
00000010
00001000
00000010
00001000
,
00000001
00000010
00000100
00002000
00000000
00003100
00000010
00000001
,
00000100
00001000
00010000
00200000
00000000
10300000
00010000
10000000
,
01000000
00100000
01000000
20000000
00000000
30010000
00100000
10000000
,
00100000
00010000
01000000
00002000
00000000
00013000
00000100
00001000
,
00000100
00000001
00000100
00002000
00000000
00003001
00000100
00000010
,
00001000
00000010
00000001
00002000
00000000
00003100
00000001
00001000
,
00000001
00000010
00000100
00000002
00000000
00000103
00001000
00010000
,
00001000
00010000
00100000
20000000
00000000
30010000
01000000
00100000
,
10000000
01000000
00010000
00002000
00000000
00013000
00100000
10000000
,
01000000
00100000
00001000
00020000
00000000
00130000
10000000
01000000
,
00010000
00001000
00000010
00000002
00000000
00000103
00001000
00010000
,
00001000
00000010
00001000
00020000
00000000
00130000
00010000
00001000
,
00010000
01000000
00010000
00002000
00000000
00013000
00100000
00010000
,
00001000
00000010
00001000
00020000
00000000
00031000
00000100
00001000
,
00010000
01000000
00010000
00002000
00000000
00013000
00001000
00000010
,
00000001
00000000
00001000
00000000
00000001
00000000
00000100
00000000
00000010
00001000
00000010
00001000
00000100
00010000
00000100
00010000
,
00002000
00000000
00000000
00000000
01000000
00000000
00000000
00000000
00000010
00000000
00000000
00000000
00013000
00000000
00001000
00100000
,
00002000
00000000
00100000
00000000
00000010
00000000
01003000
00001000
,
00020000
00000100
01000000
00031000
,
00010000
00001000
00000010
00000001
00001000
00000001
00000100
00000010
,
00002000
00000000
00000000
00000000
00000010
00000000
00000000
00000000
00010000
00000000
00000000
00000000
00003010
00000000
00010000
00001000
,
00020000
00000000
00001000
00000000
01000000
00000000
00031000
00010000
,
00000200
00010000
00001000
00010300
,
00002000
00100000
00000100
00013000
,
00001000
00010000
00100000
10000000
01000000
00010000
00001000
00010000
,
00001000
00000000
00000100
00000000
00000001
00000000
00001000
00000000
00000001
00000100
00000001
00000100
00000001
00000100
00000001
00000100
,
00000001
00000010
00000000
00000100
00000000
00000010
00000000
00000001
00001000
00000000
00000010
00000000
00000100
00000000
00000010
00000000
,
00001000
00000100
00000000
00000010
00000000
00000001
00000000
00000100
00000010
00000000
00001000
00000000
00000100
00000000
00010000
00000000
,
00001000
00010000
00000000
00000010
00000000
00001000
00000000
00000100
00010000
00000000
00001000
00000000
00100000
00000000
00010000
00000000
,
01000000
00100000
00000000
10000000
00000000
01000000
00000000
00100000
00000000
01000000
00000000
10000000
00000000
00010000
00000000
01000000
,
00100000
10000000
00000000
01000000
00000000
10000000
00000000
00010000
01000000
00000000
00100000
00000000
10000000
00000000
01000000
00000000
,
00100000
00001000
00000000
00010000
00000000
00001000
00000000
00000010
00000001
00000000
00001000
00000000
00000001
00000000
00000100
00000000
,
00000001
00000010
00000000
00000100
00000000
00001000
00000000
00000001
00000100
00000010
00000000
00001000
00000000
00000100
00000000
00010000
,
00001000
00100000
00000000
00010000
00000000
10000000
00000000
00010000
01000000
00100000
01000000
00100000
10000000
00100000
10000000
00100000
,
01000000
00010000
00000000
10000000
00000000
01000000
00000000
00100000
00010000
00000000
00100000
00000000
00001000
00010000
00001000
00000000
,
00010000
00000010
00000000
00001000
00000000
00000100
00000000
00010000
00000010
00000000
00001000
00000000
00000001
00000010
00000001
00000000
,
00000100
00000010
00000000
00001000
00000000
00000010
00000000
00000100
00000001
00000000
00000010
00000000
00000100
00001000
00000100
00000000
,
00010000
00001000
00000000
00010000
00000000
00000010
00000000
00010000
00001000
00100000
00000000
00010000
00000000
01000000
00000000
00100000
,
01000000
00010000
00000000
00100000
00000000
01000000
00000000
00100000
00010000
00000000
01000000
00000000
00010000
10000000
00010000
00000000
,
01000000
00100000
00000000
10000000
00000000
01000000
00000000
00100000
01000000
00000000
00100000
00000000
00001000
00010000
00001000
00000000
,
00010000
00000100
00000000
00001000
00000000
00000001
00000000
00000100
00000010
00001000
00000000
00000100
00000000
00000010
00000000
00000001
,
00000100
00000000
00000010
00001000
00000010
00000000
00010000
00001000
00010000
00001000
00100000
00001000
00100000
00001000
00010000
00001000
,
00020000
00000000
00000000
00000000
00000100
00000000
00000000
00000000
01000000
00000000
00000000
00000000
00031000
00000000
00010000
00001000
,
00020000
00000000
00000010
00000000
00100000
00000000
00031000
00010000
,
00002000
00010000
00000010
00013000
,
00001000
00010000
00100000
10000000
00010000
01000000
10000000
01000000
,
00200000
00000000
00000000
00000000
10000000
00000000
00000000
00000000
00310000
00000000
00000000
00000000
01000000
00000000
00001000
00010000
,
00002000
00000000
00100000
00000000
00000010
00000000
00013000
00001000
,
00020000
00000000
00000100
00000000
01000000
00000000
00031000
00010000
,
00002000
01000000
00000010
00013000
,
00001000
00010000
00001000
00000100
00000001
00001000
00000001
00000010
,
00000100
00001000
00000100
00001000
00000100
00001000
00000100
00001000
00000100
00010000
00001000
00010000
00001000
00010000
00001000
00010000
,
00002000
00000000
00000000
00203000
00000000
00000000
02300000
00000000
,
03002000
00000000
00000000
00023000
00000000
00000000
00030200
00000300
,
00002100
00000000
00000000
00003002
00000000
00000000
00000203
00000000
,
00000320
00000000
00000000
00020030
00000000
00000000
00002000
00033000
,
00012000
00000000
00000000
00203000
00000000
00000000
00320000
00000000
,
20030000
00000000
00000000
32000000
00000000
00000000
03200000
00000000
,
20300000
00000000
00000000
30200000
00000000
00000000
00320000
00000000
,
10030000
00000000
01000000
00000000
00100000
00000000
00010000
00000000
00100000
00010000
00100000
00010000
00100000
00010000
00100000
00001000
,
00010000
00001000
00000010
00000002
00000000
00001003
00000001
00000100
,
00001000
00000100
00000001
00000020
00000000
00000031
00000100
00001000
,
00010000
00100000
10000000
00020000
00000000
01030000
00100000
10000000
,
00010000
10000000
00100000
02000000
00000000
03010000
01000000
00100000
,
10000000
01000000
00010000
00002000
00000000
00003010
00000001
00001000
,
00000001
00000010
00000100
00000002
00000000
00000103
00000010
00000001
,
00001000
00000001
00000010
00000200
00000000
00010300
00001000
00100000
,
01000000
10000000
00010000
02000000
00000000
03100000
10000000
00010000
,
20010000
00000000
00000000
32000000
00000000
00000000
03020000
00000000
,
00032000
00000000
00000000
00003020
00000000
00000000
00000032
00000000
,
00001003
00000001
00000100
00000001
00000000
00000010
00000100
00000010
,
00000001
00000000
00001000
00000000
00000010
00000000
00000100
00000000
00000001
00000010
00000001
00000010
00000100
00000010
00000100
00000010
,
00000001
00000010
00000100
00001000
00010000
00001000
00000100
00000010
,
00000001
00001000
00000010
00010000
00001000
00010000
00000100
00010000
,
01000000
00010000
00001000
00100000
00010000
10000000
00010000
00100000
,
01000000
10000000
00100000
00010000
00000000
00001000
00002020
00000000
,
00000000
00000000
00000000
00000000
,
00000000
00000000
00000000
00000000
,
00003030
00000000
00000101
00000000
;

//--------------- dance-double - Fred-104 ----------------
#NOTES:
     dance-double:
     Fred-104:
     Challenge:
     18:
     :
00000000
00000000
00000000
00000000
,
00000000
00000000
00000000
00000000
,
00000000
00000000
00000000
00000000
,
00000000
00000000
00000000
00000000
,
00000000
00000000
00000000
00000000
,
00000000
00000000
00000000
00000000
,
00000000
00000000
00000000
00000000
,
00000000
00000000
00000000
00000000
,
00000000
00000000
00000000
00000000
,
00010000
10000000
00010000
10000000
00010000
10000000
00010000
10000000
00010000
10000000
00010000
10000000
00010000
10000000
00010000
10000000
,
01000000
00100000
01000000
00100000
01000000
00100000
01000000
00100000
01000000
00100000
01000000
00100000
01000000
00100000
01000000
00100000
,
00010000
00010000
10000000
10000000
00100000
00100000
01000000
01000000
,
00010000
00010000
00100000
00100000
00001000
00001000
00000010
00000010
,
00000001
00000001
00001000
00001000
00000001
00000001
00000100
00000100
,
00000010
00000010
00010000
00010000
00100000
00100000
10000000
10000000
,
00010000
00010000
01000000
01000000
00100000
00100000
10000000
10000000
,
01000000
01000000
00010000
00010000
00000100
00000100
00000001
00000001
,
00001000
00001000
00000010
00000010
00000100
00000100
00000001
00000001
,
00001000
00001000
00010000
00010000
00100000
00100000
10000000
10000000
,
00010000
00010000
01000000
01000000
00100000
00100000
01000000
01000000
,
00010000
01000000
00010000
01000000
00010000
01000000
00010000
01000000
00001000
00010000
00001000
00010000
00001000
00010000
00001000
00010000
,
00001000
00010000
00000100
00002000
00000000
00003010
00001000
00000001
,
00001000
00000100
00000010
00000200
00000000
00001300
00000001
00000100
,
00001000
00010000
00001000
00000020
00000000
00000031
00001000
00000001
,
00000100
00000010
00001000
00020000
00000000
00130000
01000000
10000000
,
00010000
01000000
10000000
02000000
00000000
03010000
00001000
00010000
,
00100000
00010000
00001000
00000020
00000000
00001030
00010000
00001000
,
00000100
00001000
00010000
00200000
00000000
00310000
00001000
00000010
,
00001000
00010000
01000000
00020000
00000000
00031000
00010000
00001000
,
00010000
00001000
00000010
00000002
00000000
00001003
00000001
00000100
,
00000001
00001000
00000001
00000020
00000000
00000130
00010000
00001000
,
00010000
00000010
00001000
00000200
00000000
00010300
00001000
01000000
,
00010000
00100000
00001000
00020000
00000000
00031000
00100000
01000000
,
10000000
00100000
00010000
00002000
00000000
00013000
01000000
10000000
,
01000000
00010000
00001000
00020000
00000000
00130000
10000000
00010000
,
10000000
01000000
00010000
00002000
00000000
00013000
00001000
00000010
,
00000001
00000100
00000001
00000100
00000001
00000100
00000001
00000100
00000010
00001000
00000010
00001000
00000010
00001000
00000010
00001000
,
00000020
00000000
00010000
00000000
00001000
00000000
00010030
00001000
,
00020000
00000000
00000100
00000000
01000000
00000000
00031000
00010000
,
00002000
00100000
00000010
00013000
,
00001000
00010000
00001000
00010000
00001000
00010000
00001000
00010000
00000010
00001000
00000010
00001000
00000010
00001000
00000010
00001000
,
00000200
00000000
00010000
00000000
00001000
00000000
00010300
00001000
,
02000000
00000000
00010000
00000000
00100000
00000000
03010000
10000000
,
02000000
00000000
00100000
00000000
10000000
00000000
03100000
01000000
,
00002000
00100000
00000100
00013000
,
00010000
00001000
00010000
00001000
00010000
00001000
00010000
00001000
00010000
00000100
00010000
00000100
00010000
00000100
00010000
00000100
,
00001000
00000010
00001000
00000010
00001000
00000010
00001000
00000010
00000100
00000001
00000100
00000001
00000100
00000001
00000100
00000001
,
00000100
00000001
00000000
00000010
00000000
00000001
00000000
00001000
00000010
00000000
00000100
00000000
00000001
00000010
00000001
00000000
,
00001000
00000010
00000000
00000100
00000000
00000010
00000000
00001000
00000100
00000000
00010000
00000000
00001000
00010000
00001000
00000000
,
00100000
00010000
00000000
10000000
00000000
00100000
00000000
01000000
00010000
00000000
10000000
00000000
01000000
00100000
00010000
00000000
,
10000000
00100000
00000000
01000000
00000000
00010000
00000000
10000000
00000000
01000000
00000000
00100000
00000000
00001000
00000000
00010000
,
00001000
00100000
00000000
00001000
00000000
00010000
00000000
00000100
00001000
00000000
00000001
00000000
00001000
00000100
00000010
00000000
,
00000001
00001000
00000000
00000010
00000000
00000100
00000000
00000010
00000100
00000000
00000001
00000000
00000010
00000001
00001000
00000000
,
00000001
00000010
00000000
00000100
00000000
00001000
00000000
00000010
00000100
00000010
00000000
00001000
00000000
00000100
00000000
00010000
,
00001000
00100000
00000000
00010000
00000000
10000000
00000000
00100000
01000000
00010000
01000000
00010000
00100000
00010000
00100000
00010000
,
01000000
00010000
00000000
00100000
00000000
00010000
00000000
10000000
00100000
00000000
10000000
00000000
01000000
00100000
01000000
00000000
,
00100000
00001000
00000000
00010000
00000000
00001000
00000000
00000010
00000100
00000000
00000001
00000000
00001000
00000001
00000010
00000000
,
00000001
00000100
00000000
00000010
00000000
00000100
00000000
00010000
00001000
00000000
01000000
00000000
00100000
10000000
00010000
00000000
,
10000000
01000000
00000000
00100000
00000000
00001000
00000000
00010000
00001000
00100000
00000000
00010000
00000000
01000000
00000000
00001000
,
00020000
00000000
00000000
00000000
00000000
00000000
00000000
00000000
00000000
00000000
00000000
00000000
00000000
00000000
00000000
00000000
00000000
00000000
00000000
00000000
00000000
00000000
00000000
00000000
00001000
00000000
00000000
00000000
00000000
00000000
00000000
00000000
00000000
00000000
00000000
00000000
00100000
00000000
00000000
00000000
00000000
00000000
00000000
00000000
00000000
00000000
00000000
00030000
00020000
00000000
00000000
00000000
00000000
00000000
00000000
00000000
00000000
00000000
00000000
00000000
00000000
00000000
00000000
00000000
00000000
00000000
00000000
00000000
00000000
00000000
00000000
00000000
00100000
00000000
00000000
00000000
00000000
00000000
00000000
00000000
00000000
00000000
00000000
00000000
00001000
00000000
00000000
00000000
00000000
00000000
00000000
00000000
00000000
00000000
00000000
00030000
00010000
00000000
00000000
00000000
00000000
00000000
00000000
00000000
00000000
00000000
00000000
00000000
00000000
00000000
00000000
00000000
00000000
00000000
00000000
00000000
00000000
00000000
00000000
00000000
00000100
00000000
00000000
00000000
00000000
00000000
00000000
00000000
00000000
00000000
00000000
00000000
00000000
00000000
00000000
00000000
00000000
00000000
00000000
00000000
00000000
00000000
00000000
00000000
00001000
00000000
00000000
00000000
00000000
00000000
00000000
00000000
00000000
00000000
00000000
00000000
00000000
00000000
00000000
00000000
00000000
00000000
00000000
00000000
00000000
00000000
00000000
00000000
00000001
00000000
00000000
00000000
00000000
00000000
00000000
00000000
00000000
00000000
00000000
00000000
00000000
00000000
00000000
00000000
00000000
00000000
00000000
00000000
00000000
00000000
00000000
00000000
,
00000200
00000000
00000000
00000000
00000000
00000000
00000000
00000000
00000000
00000000
00000000
00000000
00000000
00000000
00000000
00000000
00000000
00000000
00000000
00000000
00000000
00000000
00000000
00000000
00000001
00000000
00000000
00000000
00000000
00000000
00000000
00000000
00000000
00000000
00000000
00000000
00001000
00000000
00000000
00000000
00000000
00000000
00000000
00000000
00000000
00000000
00000000
00000300
00000200
00000000
00000000
00000000
00000000
00000000
00000000
00000000
00000000
00000000
00000000
00000000
00000000
00000000
00000000
00000000
00000000
00000000
00000000
00000000
00000000
00000000
00000000
00000000
00001000
00000000
00000000
00000000
00000000
00000000
00000000
00000000
00000000
00000000
00000000
00000000
00000001
00000000
00000000
00000000
00000000
00000000
00000000
00000000
00000000
00000000
00000000
00000300
00000100
00000000
00000000
00000000
00000000
00000000
00000000
00000000
00000000
00000000
00000000
00000000
00000000
00000000
00000000
00000000
00000000
00000000
00000000
00000000
00000000
00000000
00000000
00000000
00000010
00000000
00000000
00000000
00000000
00000000
00000000
00000000
00000000
00000000
00000000
00000000
00000000
00000000
00000000
00000000
00000000
00000000
00000000
00000000
00000000
00000000
00000000
00000000
00001000
00000000
00000000
00000000
00000000
00000000
00000000
00000000
00000000
00000000
00000000
00000000
00000001
00000000
00000000
00000000
00000000
00000000
00000000
00000000
00000000
00000000
00000000
00000000
00001000
00000000
00000000
00000000
00000000
00000000
00000000
00000000
00000000
00000000
00000000
00000000
00000000
00000000
00000000
00000000
00000000
00000000
00000000
00000000
00000000
00000000
00000000
00000000
,
00000001
00000010
00000000
00001000
00000000
00010000
00000000
00001000
00000100
00001000
00000000
00010000
00000000
00100000
00000000
00010000
,
00001000
00010000
00001000
00010000
00001000
00010000
00001000
00010000
00001000
00100000
00001000
00100000
00001000
00100000
00001000
00100000
,
00020000
00000000
00000000
00000000
01000000
00000000
00000000
00000000
00031000
00000000
00000000
00000000
00010000
00000000
00000100
00001000
,
00000200
00000000
00010000
00000000
00000010
00000000
00001300
00000001
,
00000200
00000000
00000010
00000000
00010300
00000000
00001000
00010000
,
00002000
00000000
01000000
00000000
00003010
00000000
00010000
00001000
,
00020000
00000000
00000000
00000000
00000100
00000000
00000000
00000000
00100000
00000000
00000000
00000000
00031000
00000000
00100000
00010000
,
02000000
00000000
00010000
00000000
10000000
00000000
03010000
01000000
,
00200000
01000000
00001000
00310000
,
00002000
01000000
00000100
00013000
,
00001000
00010000
00001000
00010000
00001000
00010000
00001000
00010000
00001000
00100000
00001000
00100000
00001000
00100000
00001000
00100000
,
00010000
10000000
00010000
10000000
00010000
10000000
00010000
10000000
01000000
00100000
01000000
00100000
01000000
00100000
01000000
00100000
,
00010000
00000000
00000000
00001000
00000000
00000000
00000001
00000000
,
00001000
00000000
00000000
00010000
00000000
00000000
10000000
00000000
,
00010000
00001000
00010000
00001000
00000000
00000000
00000001
00000000
,
00001000
00000000
00000000
00010000
00000000
00000000
10000000
00000000
,
10010000
00000000
00000000
01000000
00000000
00000000
00100000
00000000
,
00001000
00000000
00000000
00010000
00000000
00000000
00000010
00000000
,
00001000
00000000
00000000
00000100
00000000
00000000
00000010
00000000
,
00000001
00000100
00000001
00000100
00000010
00001000
00000010
00001000
00000001
00000010
00000001
00000010
00000100
00001000
00000100
00001000
,
00000100
00000000
00010000
00001000
00010000
00000000
00001000
00000000
00100000
00000000
00010000
10000000
00010000
00000000
01000000
00000000
,
00100000
00000000
10000000
01000000
10000000
00000000
01000000
00000000
00100000
00000000
00001000
00010000
00001000
00000000
00000010
00000000
,
00000001
00000000
00001000
00000001
00001000
00000000
00000010
00000000
00000100
00000000
00000001
00000100
00000001
00000000
00000010
00000000
,
00000100
00000000
00010000
00001000
00010000
00000000
00100000
00000000
10000000
00000000
00010000
01000000
00010000
00000000
00100000
00000000
,
01000000
00000000
10000000
00100000
01000000
00000000
00100000
00000000
10000000
00000000
01000000
00100000
00001000
00000000
00010000
00000000
,
00000100
00000000
00001000
00000010
00000100
00000000
00000010
00000000
00001000
00000000
00000100
00000010
00000001
00000000
00001000
00000000
,
00000001
00000000
00000100
00000001
00000010
00000000
00000001
00000000
00000100
00000000
00000010
00001000
00000100
00000000
00010000
00000000
,
00001000
00000000
00100000
00001000
00010000
00000000
00001000
00000000
01000000
00000000
00010000
00100000
01000000
00000000
10000000
00000000
,
00010000
01000000
10000000
02000000
00000000
03010000
00001000
00010000
,
00100000
00010000
00001000
00000020
00000000
00001030
00010000
00001000
,
00010000
00001000
00010000
00000100
00001000
00000100
00010000
00001000
00010000
00000000
00000010
00001000
00000010
00000000
00000100
00000000
,
00000001
00000100
00000001
00000100
00000010
00001000
00000010
00001000
00000100
00010000
00000100
00010000
00001000
00010000
00001000
00010000
,
00001000
00000000
00100000
00010000
10000000
00000000
00020000
00000000
00000000
00000000
01030000
00100000
10000000
00000000
00100000
01000000
,
00010000
00000000
10000000
01000000
00100000
00000000
00002000
00000000
00000000
00000000
00013000
00000100
00001000
00000000
00000001
00000010
,
00000100
00000000
00000010
00000001
00001000
00000000
00000020
00000000
00000000
00000000
00001030
00000100
00000001
00000000
00000100
00001000
,
00000001
00000000
00000100
00000010
00001000
00000000
00001100
00000000
00000000
00000000
00011000
00000000
02200000
00000000
00000000
00000000
,
00000000
00000000
00000000
03300000
,
10000000
00100000
01000000
00010000
00100000
00001000
00010000
00000100
00001000
00000010
00000100
00000001
00001000
00000100
00000010
00000001
,
00000100
00000000
00001001
00000000
;
