#VERSION:0.83;
#TITLE:リカーシブ・ファンクション;
#ARTIST:OSTER project;
#TITLETRANSLIT:Recursive function;
#BANNER:Recursive function.png;
#BACKGROUND:Recursive function-bg.png;
#CDTITLE:./CDTitles/RB groovin'!!.png;
#MUSIC:Recursive function.ogg;
#SAMPLESTART:55.449;
#SAMPLELENGTH:15;
#BPMS:0=145;
#TIMESIGNATURES:0=7=4,28=4=4,64=6=4,76=7=4,118=4=4,162=7=4,169=4=4,173=7=4,180=4=4,192=6=4,198=4=4,254=6=4,260=4=4;
#STAGE:3;

//--------------- dance-single - Fred-104 ----------------
#NOTEDATA:;
#STEPSTYPE:dance-single;
#DESCRIPTION:Fred-104;
#DIFFICULTY:Beginner;
#METER:2;
#CREDIT:Fred-104;
#NOTES:
0000
0000
0000
0000
,
0000
0000
0000
0000
,
0000
0000
0000
0000
,
0000
0000
0000
0000
0000
1000
0000
0000
,
0000
0000
0000
0000
,
0000
0000
0000
1000
0000
0000
0000
0000
,
0000
0001
0000
0000
,
0000
1000
0000
0000
0000
0000
0000
0000
,
0000
0000
0000
0000
,
0001
0000
0000
0000
,
1000
0000
0010
0000
,
1000
0000
0000
0000
,
0001
0000
1000
0000
,
0001
0000
0000
0000
,
1000
0000
0100
0000
,
1000
0000
0000
0000
,
1001
0000
0000
0000
,
0000
0000
1001
0000
,
0000
0000
0000
0000
,
0001
0000
1000
0000
,
0001
0000
0000
1000
,
0000
0010
0000
1000
,
0000
0000
0001
0000
,
0100
0000
0001
0000
,
0000
1000
0000
0001
,
0000
1000
0000
0000
,
0001
0000
1000
0000
,
0001
0000
0000
0010
,
0000
0100
0000
0010
,
0000
0000
0001
0000
,
0000
1000
0000
0000
,
0001
0000
2000
0000
,
0000
0000
3000
0000
,
0000
0000
0001
0000
,
0000
0000
0100
0000
,
0000
0000
0001
0000
,
0000
0000
1000
0000
,
0000
0000
0010
0000
,
0000
0000
1000
0000
,
0001
0000
1000
0000
,
0000
0000
0001
0000
,
0000
0000
0000
1000
0000
0000
0000
0000
,
0000
1001
0000
0000
,
0000
0001
0000
0000
,
0000
1000
0000
0000
0000
0000
0000
0000
,
0002
0000
0003
0000
,
2000
0000
3000
0000
,
0001
0000
0000
0000
,
1001
0000
0000
0000
,
0000
0000
1000
0000
,
0000
0000
0001
0000
,
0000
0000
1000
0000
,
0010
0000
1000
0000
,
0000
0000
0001
0000
,
0100
0000
0001
0000
,
0000
0000
1000
0000
,
0000
0000
0001
0000
,
0100
0000
1000
0000
,
0000
0000
1000
0000
,
0010
0000
0001
0000
,
0000
0000
1000
0000
,
0010
0000
1000
0000
,
0000
0000
0001
0000
,
1000
0000
2002
0000
,
0000
0000
0000
0000
,
3003
0000
0000
0000
;

//--------------- dance-single - Fred-104 ----------------
#NOTEDATA:;
#STEPSTYPE:dance-single;
#DESCRIPTION:Fred-104;
#DIFFICULTY:Easy;
#METER:5;
#CREDIT:Fred-104;
#NOTES:
0000
0000
0000
0000
,
0000
0000
0000
0000
,
0000
0000
0000
0000
,
0000
0000
0000
0000
0000
1000
0000
0000
,
0000
0000
0000
0000
,
0000
0000
0000
0001
0000
0000
0000
0001
,
0000
1000
0000
1000
,
0000
0001
0000
0000
0000
1000
0000
0000
,
0000
0000
0001
1000
,
0001
0000
1000
0010
,
0100
0000
0010
1000
,
0001
0000
1000
0001
,
2000
0000
3002
0000
,
1003
0000
0010
1000
,
0100
0000
1000
0100
,
0001
0000
0010
1000
,
0001
0000
0000
1000
0000
0000
0001
0000
,
0000
1000
0000
0000
0002
0000
0000
0000
,
2000
0000
3003
0000
,
1000
0000
0010
1000
,
0100
0010
0001
1000
,
0000
0001
0100
0001
,
0010
0100
0010
0000
,
0001
1000
0001
0010
,
0100
2000
0000
3010
,
1000
0010
0100
0001
,
1000
0000
0001
0100
,
0010
0100
0001
1000
,
0000
0001
0010
0100
,
1000
0000
0001
0000
1000
0000
0000
1000
,
0000
0000
0001
0000
0000
0001
0000
0000
,
0100
0010
2002
0000
,
0000
0000
3003
0000
,
0000
0000
1000
1000
,
0010
0100
0010
0000
,
1000
0001
1000
0100
,
0020
0030
0002
0000
,
2003
0000
3001
0100
,
0001
0010
0100
0000
,
1000
0010
1000
0001
,
0000
2002
0000
3003
1001
0000
0000
0000
,
0000
0000
0000
0110
0000
0000
0000
0000
,
0000
0000
1000
0000
0000
0001
0000
0000
,
1000
0001
0100
0001
,
0000
1000
0000
0010
0000
0100
0000
0000
,
0002
0000
0023
0000
,
2030
0000
3200
0300
,
2002
0000
0000
0000
,
3003
0000
0000
0000
,
0000
0000
1001
0000
,
0000
0000
1000
0000
,
0001
0100
0001
0010
,
0002
0000
2003
0000
,
3010
1000
0100
1000
,
0001
1000
0200
0000
,
0320
0000
0031
1000
,
0000
1001
0000
0000
0001
0000
0100
0000
,
0001
0010
0100
1000
,
0010
0000
1000
0100
,
0002
0003
1000
0010
,
0002
0003
1000
0010
,
1000
0100
1000
0001
,
0100
0000
0001
0010
,
0000
1001
0000
0000
1000
0001
1000
0001
,
0000
2002
0000
0000
,
3003
0000
0000
0000
;

//--------------- dance-single - Fred-104 ----------------
#NOTEDATA:;
#STEPSTYPE:dance-single;
#DESCRIPTION:Fred-104;
#DIFFICULTY:Medium;
#METER:10;
#CREDIT:Fred-104;
#NOTES:
0000
0000
0000
0000
,
0000
0000
0000
0000
,
0000
0000
0000
0000
,
0000
0000
0000
0000
0000
1000
0000
0010
,
0000
0000
1000
0000
0001
0000
0100
0000
0000
0001
0000
1000
0000
0001
0100
0000
,
0000
0110
0000
0010
1000
0100
0000
0010
,
0001
1000
0001
1000
0100
0000
0010
0100
,
1000
0000
0001
0000
0000
0100
0000
0010
0000
1000
0000
0001
0000
1000
0001
0000
,
0000
0000
1001
0000
1000
0100
0001
0100
,
1000
0010
0100
0000
0010
0000
1000
0000
,
0100
0010
0001
0000
0100
0000
0001
0000
,
0010
0001
1000
0000
0001
0000
0100
0000
,
0001
0100
0001
0000
1000
0100
1000
0000
,
0001
0010
0001
1000
0001
0100
0010
0000
,
1000
0100
1000
0010
1000
0100
0010
0000
,
0001
1000
0001
0100
0010
1000
0001
0000
,
1000
0000
0000
1100
0000
0000
0001
0000
0000
0011
0000
0000
1000
0000
0000
1010
,
0000
0000
0001
0000
0000
0101
0000
0000
2002
0000
0000
0000
0000
0000
0000
0000
,
0000
0000
3003
0000
,
2010
0000
0000
0000
3010
0000
0000
0000
0100
0000
0000
0001
0000
0000
0010
0000
,
0001
0000
0000
1000
0000
0000
0100
0000
0010
0000
0001
0000
2001
0000
0000
0000
,
3100
0000
0000
0000
1000
0000
0000
0010
0000
0000
0100
0000
0001
0000
0001
0000
,
0100
0100
0010
1000
1002
0000
0103
0000
,
0001
0000
0000
0010
0000
0000
0100
0000
0010
0000
0000
0001
0000
0000
1000
0000
,
0010
0100
0001
1000
0010
0000
1000
0001
,
0100
0000
0001
0000
0010
0000
0000
0100
0000
0000
1000
0000
0001
0000
0100
0000
,
0001
0000
0000
0011
0000
0000
0001
0000
0100
0000
0000
0010
0000
0000
1000
0000
,
0100
0000
0000
0000
0010
0000
0000
0000
0001
0000
1000
0000
0010
0000
0000
0110
,
0000
0000
0010
0000
1000
0000
0000
0100
0000
0000
0010
0000
0001
0000
0000
0000
,
0100
0000
0010
1000
0001
0010
0001
1000
,
0100
1000
0001
0100
0001
1000
0010
1000
,
0001
0110
2002
0000
,
0000
0000
0000
0000
3003
0000
0000
0000
1000
0000
0000
0010
0000
1000
0000
0001
,
0000
2002
0000
3003
1000
0100
1000
0010
,
0100
0000
0010
0000
1000
0001
0100
0001
,
0010
0000
0000
0000
0001
0000
0000
0000
1000
0000
0000
0010
0000
0000
0001
0000
,
1000
0000
0000
0100
0000
0000
0001
0000
1000
0000
0010
0000
0100
0000
0000
0000
,
0001
1000
0100
0000
0010
0001
1000
0001
,
0100
0000
0010
0000
1000
0001
0010
0001
,
1000
0000
0010
0000
1000
0100
0010
0001
,
0000
0000
2002
0000
0000
0000
3003
0000
0001
0000
0000
1000
0000
0001
0000
1000
,
0000
0100
0000
0010
0000
0000
0100
0000
0000
1000
0000
0010
0000
0100
0000
0010
,
0000
1000
0000
0000
0001
0000
0000
0011
0000
0000
1000
0000
0000
1100
0000
0000
,
0001
0000
1000
0000
0001
0000
0000
0010
0000
0001
0000
1000
0000
0001
0000
0100
,
0000
0000
0010
0000
0000
1000
0000
0010
0000
1000
0000
0001
0000
0100
0000
0000
,
0002
0013
2000
3100
,
0002
0013
2000
3100
,
2002
0000
0000
3003
,
0001
0000
0000
0100
0000
0100
0000
0010
0000
0010
0000
0000
1000
0000
0000
1001
,
0000
0000
1001
0000
,
0000
0000
0110
0000
0000
0100
0000
0000
0001
0000
0010
0000
0001
0000
0000
0000
,
1000
0000
0010
0000
0100
0000
0000
0000
0001
0000
0000
0010
0000
0000
0100
0000
,
0010
0000
0000
0100
0000
0000
1000
0000
0001
0000
0000
0000
0100
0000
0000
0000
,
0010
1000
0001
0000
1000
0010
1000
0100
,
0010
0000
0001
0000
0100
0010
0100
0001
,
1000
0000
0001
0000
1000
0100
0001
0100
,
0000
1000
0100
0001
0100
1000
0100
1000
,
0001
0010
0100
0000
1000
0010
0100
0010
,
1000
0000
0001
0000
0010
0000
0000
0000
0001
0000
0000
0010
0000
0000
0100
0000
,
0001
0000
0000
0100
0000
0000
1000
0000
0001
0000
1000
0000
0010
0000
0000
0000
,
0100
0001
0010
0001
1000
0010
0100
0010
,
1000
0100
0010
0000
0001
0100
0001
0010
,
0001
0000
1000
0000
0001
0000
0010
0000
0100
0000
0010
0000
0100
0010
0100
0010
,
0000
0000
0220
0000
0000
0000
0330
0000
0001
0000
1000
0000
0001
1000
0001
1000
,
0000
0000
0000
0000
1001
0000
0000
2002
0000
0000
0000
0000
0000
0000
0000
0000
,
3003
0000
0000
0000
;

//--------------- dance-single - Fred-104 ----------------
#NOTEDATA:;
#STEPSTYPE:dance-single;
#DESCRIPTION:Fred-104;
#DIFFICULTY:Hard;
#METER:15;
#CREDIT:Fred-104;
#NOTES:
0000
0000
0000
0000
,
0000
0000
0000
0000
,
0000
0000
0000
0000
,
0000
0000
0000
0000
0000
0000
0000
0000
0000
0000
1000
0000
0001
0100
0000
0001
,
0000
0010
0000
0001
0000
1000
0010
0100
0001
0010
0000
0001
0000
1000
0200
0000
,
0000
0000
1300
0100
0010
0001
1000
0000
0001
0010
0000
0001
0000
1000
0000
0010
,
0000
1000
0100
1000
0001
0000
1000
0001
0000
0100
0000
0010
0000
1000
0100
0010
,
0100
1000
0001
0000
0100
0001
0000
0010
0000
0100
0000
1000
0000
0001
2000
0000
,
0000
0000
0000
0000
3001
0000
0000
0000
1000
0000
0000
0000
1001
0000
0000
0000
0000
0000
0000
0000
0000
0000
0000
0000
0001
0000
0000
1000
0000
0000
0010
0000
0000
0100
0000
0000
0001
0000
0000
0100
0000
0000
0010
0000
0000
1000
0000
0000
,
0001
0000
0010
0001
0000
1000
0000
0001
0000
0100
0000
0010
1000
0001
1000
0000
,
0100
0000
0010
0001
0000
1000
0000
0001
0000
0100
0000
0001
0010
0001
0100
0000
,
0001
0000
1000
0001
0000
1000
0000
0100
0000
0010
0000
0001
0100
0010
0100
0000
,
0001
0010
0001
1000
0001
0100
0000
0010
1000
0100
0010
0000
0001
0010
0100
0000
,
1000
0000
0010
1000
0000
0100
0000
1000
0000
0001
0000
0100
0010
0100
0001
0000
,
0010
0000
0001
1000
0000
0001
0000
0010
0000
0100
0000
1000
0100
0010
0100
0000
,
1000
0000
0001
0010
0000
0001
0000
1000
0000
0010
0000
0100
0001
1000
0001
0000
,
1100
0000
0000
0101
0000
0000
1010
0000
0000
0011
0000
0000
2001
0000
0000
3100
,
0000
0000
1002
0000
0000
0013
0000
0000
2001
0000
0000
0000
0000
0000
0000
0000
,
3020
0000
0000
0000
0032
0000
0000
0000
0203
0000
0000
2300
0000
0000
3001
0000
,
2001
0000
0000
0000
3001
0000
0000
0000
1000
0000
0000
0100
0000
0000
0010
0000
,
1000
0000
0000
0010
0000
0000
0001
0000
1000
0000
0001
0000
0201
0000
0000
0000
,
0310
0000
0000
0000
1000
0000
0000
0001
0000
0000
0100
0000
0001
0000
0010
0100
,
1000
0100
0010
0000
0001
0100
0010
0100
0002
0000
0000
0000
0013
0000
1000
0000
,
0001
0000
0000
0100
0000
0000
1000
0000
0001
0000
0000
0101
0000
0100
0010
1000
,
0010
1000
0100
0010
0100
0000
1000
0000
0001
1000
0000
1000
0000
1000
0010
0000
,
0100
0000
0001
1000
0001
0000
0100
1000
0000
0100
0001
0000
1000
0001
0010
0001
,
1000
0000
0000
1010
0000
0000
0001
1000
0001
0000
0000
0011
0000
0000
0110
0000
,
1000
0000
0100
1000
0100
0000
0010
0001
1000
0001
0100
0000
0110
0000
0000
1001
,
0000
0000
1000
0100
0010
0001
1000
0100
0010
0001
0010
0000
0001
0000
1000
0000
,
0001
0000
0100
0010
1000
0001
0010
0000
1002
0000
1003
0100
1000
0100
1000
0000
,
0001
0010
0001
0010
0001
0000
1000
0010
1000
0010
1000
0000
0001
0100
0001
0100
,
0001
1010
0110
2002
,
0000
0000
0000
0000
3003
0000
0000
0000
0100
0001
0100
0001
0000
1000
0000
0100
,
0000
0000
0220
0000
0000
0000
0330
0000
1000
0000
0100
0010
0000
0001
0000
1000
,
0000
0010
0100
0001
0100
0010
0100
0001
0100
0000
0001
0010
0000
0100
0000
1000
,
0000
0010
0000
1000
0000
0001
0010
0001
1000
0000
0100
0010
0000
0001
0000
0010
,
0002
0000
0000
2003
0000
0000
3020
0000
0130
0000
0001
0010
0000
0100
0000
1000
,
0000
0001
0000
0100
0010
0000
1000
0000
0001
0000
0010
0100
0000
1000
0000
0010
,
0000
1000
0010
0100
0010
1000
0010
0100
0010
0000
1000
0100
0000
0010
0000
0001
,
0000
0100
0000
0001
0000
1000
0001
1000
0010
0000
1000
0100
1000
0010
0100
0001
,
0000
0000
2002
0000
0000
0000
3003
0000
0001
0000
1000
0100
0000
0001
0000
0100
,
0000
1000
0100
0010
0001
0000
1000
0001
1000
0010
0000
0100
0000
0001
0000
0010
,
0001
1000
0001
0000
0011
0000
0000
1010
0000
0000
0101
0000
0000
1100
0000
0000
,
1001
0000
0001
0000
0100
0000
0001
0010
0000
0100
0000
0010
0000
0001
1000
0001
,
0100
0010
1000
0100
1000
0100
0000
0010
0000
0001
0000
1000
0001
0100
0001
1000
,
0002
0000
0000
1003
0100
0010
0002
0000
0000
1003
0010
0100
,
0002
0000
0000
0013
0100
0010
2000
0000
0000
3010
0100
0010
,
0002
0000
0000
0003
,
1000
0010
1000
0010
0000
0100
0000
0001
0000
0100
0010
1000
0001
0010
0100
1000
,
0000
0000
1001
0000
,
0000
0000
1100
0000
0000
0011
0000
0000
1000
0000
0001
0100
0000
0010
0000
1010
,
0000
0101
0000
0001
1000
0100
1000
0000
0001
0000
1000
0100
0000
1000
0010
0100
,
0002
0000
0000
0023
0000
0000
0032
0000
1003
0000
0001
1000
0000
0100
0000
1000
,
0000
0010
0100
0000
0002
0000
2003
0000
3001
0010
0100
0010
0000
0001
0000
1000
,
0000
0010
1000
0100
0010
0100
1000
0001
0010
0100
0010
0100
0000
1000
0000
0001
,
0000
1000
0000
0001
1000
0010
0100
0001
1000
0001
1000
0010
0100
0001
0010
0001
,
0000
0000
2001
0000
3200
0000
2300
0000
3010
0000
1000
0100
0000
0100
0000
1000
,
0000
1000
0010
0100
0010
1000
0001
1000
0001
0000
0100
0001
0000
0001
0000
1000
,
0000
1000
0100
0010
0001
0010
0100
1000
0010
0000
1000
0001
0000
0010
0100
0010
,
0002
0000
0000
2003
0000
0000
3200
0000
1300
0000
0010
1000
0000
1100
0000
0110
,
0000
0011
0000
0001
2000
0000
3002
0000
1003
0001
0100
0001
0000
1000
0000
0100
,
0000
1000
0010
0100
0001
1000
0100
0010
0001
0100
0001
0010
0000
0001
0000
1000
,
0000
0100
0000
1000
0001
0010
0100
1000
0001
0100
0010
1000
0001
0100
0010
1000
,
0000
0000
2002
0000
0000
0000
3003
0000
1000
0001
0100
0010
1000
0001
0010
0100
,
0000
0000
0000
0000
0110
0000
0000
2002
0000
0000
0000
0000
0000
0000
0000
0000
,
3003
0000
0000
0000
;

//--------------- dance-double - Fred-104 ----------------
#NOTEDATA:;
#STEPSTYPE:dance-double;
#DESCRIPTION:Fred-104;
#DIFFICULTY:Easy;
#METER:5;
#CREDIT:Fred-104;
#NOTES:
00000000
00000000
00000000
00000000
,
00000000
00000000
00000000
00000000
,
00000000
00000000
00000000
00000000
,
00000000
00000000
00000000
00000000
00000000
00000001
00000000
00000000
,
00000000
00000000
00000000
00000000
,
00000000
00000000
00000000
00000010
00000000
00000000
00000000
00001000
,
00000000
00010000
00000000
01000000
,
00000000
10000000
00000000
00000000
00000000
00010000
00000000
00000000
,
00000000
00000000
10000000
01000000
,
10000000
00000000
00100000
01000000
,
00100000
00000000
01000000
00001000
,
00010000
00000000
00001000
00010000
,
00002000
00000000
00023000
00000000
,
00030010
00000000
00001000
00000010
,
00001000
00000000
00000010
00000100
,
00000001
00000000
00000100
00000001
,
00000100
00000000
00000000
00001000
00000000
00000000
00010000
00000000
,
00000000
00100000
00000000
00000000
20000000
00000000
00000000
00000000
,
00020000
00000000
30030000
00000000
,
10000000
00000000
00100000
01000000
,
00100000
01000000
00001000
00010000
,
00000000
00001000
00100000
00001000
,
00010000
00000010
00001000
00000000
,
00000100
00010000
00001000
00010000
,
01000000
20000000
00000000
30010000
,
10000000
01000000
00100000
00010000
,
00100000
00000000
00001000
00010000
,
00000100
00001000
00000100
00000010
,
00000000
00000001
00001000
00000010
,
00000100
00000000
00000001
00000000
00000100
00000000
00000000
00000010
,
00000000
00000000
00010000
00000000
00000000
00001000
00000000
00000000
,
00010000
00001000
00022000
00000000
,
00000000
00000000
00033000
00000000
,
00000000
00000000
00001000
00010000
,
00100000
00010000
00001000
00000000
,
00010000
00001000
00000010
00001000
,
00020000
00030000
00002000
00000000
,
00023000
00000000
00000000
00030000
00001000
00000000
00010000
00000000
,
01000000
00010000
00001000
00000000
,
00010000
00001000
00000100
00001000
,
00000000
00022000
00000000
00033000
00011000
00000000
00000000
00000000
,
00000000
00000000
00000000
10010000
00000000
00000000
00000000
00000000
,
00000000
00000000
10000000
00000000
00000000
01000000
00000000
00000000
,
00100000
00010000
01000000
00001000
,
00000000
00100000
00000000
00001000
00000000
00010000
00000000
00000000
,
00002000
00000000
00003200
00000000
,
00000302
00000000
00002003
00003000
,
00002002
00000000
00000000
00000000
,
00003003
00000000
00000000
00000000
,
00000000
00000000
00011000
00000000
,
00000000
00000000
00001000
00000000
,
00010000
00001000
00000100
00001000
,
00020000
00000000
00032000
00000000
,
00013000
01000000
00100000
01000000
,
00010000
00100000
00002000
00000000
,
00023000
00000000
00031000
00100000
,
00000000
00110000
00000000
00000000
00010000
00000000
01000000
00000000
,
00100000
01000000
00010000
10000000
,
01000000
00000000
10000000
00100000
,
00020000
00030000
00001000
00000100
,
00000002
00000003
00001000
00000001
,
00000100
00000001
00000010
00000001
,
00001000
00000000
00000010
00010000
,
00000000
00011000
00000000
00000000
00001000
00010000
00001000
00010000
,
00000000
00022000
00000000
00000000
,
00033000
00000000
00000000
00000000
;

//--------------- dance-double - Fred-104 ----------------
#NOTEDATA:;
#STEPSTYPE:dance-double;
#DESCRIPTION:Fred-104;
#DIFFICULTY:Medium;
#METER:10;
#CREDIT:Fred-104;
#NOTES:
00000000
00000000
00000000
00000000
,
00000000
00000000
00000000
00000000
,
00000000
00000000
00000000
00000000
,
00000000
00000000
00000000
00000000
00000000
10000000
00000000
01000000
,
00000000
00000000
00100000
00000000
00010000
00000000
00100000
00000000
00000000
00001000
00000000
00010000
00000000
00001000
00010000
00000000
,
00000000
00011000
00000000
00000010
00001000
00000010
00000000
00000100
,
00000010
00000100
00000001
00001000
00000001
00000000
00000100
00000010
,
00001000
00000000
00000100
00000000
00000000
00010000
00000000
00001000
00000000
00010000
00000000
00000010
00000000
00001000
00000100
00000000
,
00000000
00000110
00000002
00002003
,
00003001
00000100
00001000
00000000
00010000
00000000
00001000
00000000
,
00000010
00001000
00010000
00000000
00100000
00000000
00010000
00000000
,
00001000
00000100
00001000
00000000
00010000
00000000
01000000
00000000
,
00010000
00001000
00000010
00000000
00001000
00010000
00100000
00000000
,
10000000
00010000
10000000
01000000
00100000
00010000
01000000
00000000
,
00010000
00100000
00001000
00010000
00001000
00000010
00001000
00000000
,
00010000
00001000
00010000
01000000
00010000
00001000
00000100
00000000
,
00000010
00000000
00000000
00001001
00000000
00000000
00000100
00000000
00000000
00011000
00000000
00000000
00100000
00000000
00000000
10010000
,
00000000
00000000
01000000
00000000
00000000
00011000
00000000
00000000
00022000
00000000
00000000
00000000
00000000
00000000
00000000
00000000
,
00000000
00000000
00033000
00000000
,
00021000
00000000
00000000
00000000
00030010
00000000
00000000
00000000
00001000
00000000
00000000
00000001
00000000
00000000
00000010
00000000
,
00000100
00000000
00000000
00001000
00000000
00000000
00000100
00000000
00010000
00000000
00001000
00000000
00021000
00000000
00000000
00000000
,
00031000
00000000
00000000
00000000
00100000
00000000
00000000
00010000
00000000
00000000
10000000
00000000
01000000
00000000
10000000
00000000
,
00010000
10000000
00100000
00010000
00012000
00000000
00003010
00000000
,
00000001
00000000
00000000
00001000
00000000
00000000
00000001
00000000
00000100
00000000
00000000
00000010
00000000
00000000
00010000
00000000
,
00001000
00100000
00001000
00010000
00001000
00000000
00100000
00010000
,
01000000
00000000
00100000
00000000
10000000
00000000
00000000
00100000
00000000
00000000
00010000
00000000
01000000
00000000
10000000
00000000
,
00010000
00000000
00000000
10010000
00000000
00000000
10000000
00000000
01000000
00000000
00000000
00100000
00000000
00000000
00001000
00000000
,
00010000
00000000
00000000
00000000
00000100
00000000
00000000
00000000
00001000
00000000
00000100
00000000
00000010
00000000
00000000
00000011
,
00000000
00000000
00000001
00000000
00000100
00000000
00000000
00000010
00000000
00000000
00001000
00000000
00000100
00000000
00000000
00000000
,
00010000
00000000
00001000
00010000
00011000
00000000
00000000
01010000
,
00000000
00000000
00011000
00000000
00000000
00001010
00000000
00000000
,
00000110
00011000
02200000
00000000
,
00000000
00000000
00000000
00000000
03300000
00000000
00000000
00000000
10000000
00000000
00000000
01000000
00000000
00100000
00000000
00001000
,
00000000
00022000
00000000
00033000
00001000
00010000
00000010
00010000
,
00001000
00000000
00010000
00000000
00000100
00001000
00000100
00000010
,
00000100
00000000
00000000
00000000
00000001
00000000
00000000
00000000
00001000
00000000
00000000
00000001
00000000
00000000
00000100
00000000
,
00001000
00000000
00000000
00010000
00000000
00000000
01000000
00000000
10000000
00000000
00010000
00000000
00100000
00000000
00000000
00000000
,
00010000
10000000
00100000
00000000
10000000
01000000
00100000
00010000
,
01000000
00000000
00001000
00000000
00010000
00000100
00001000
00000100
,
00010000
00000000
00001000
00000000
00100000
00010000
10000000
00010000
,
00000000
00000000
20020000
00000000
00000000
00000000
30030000
00000000
10000000
00000000
00000000
00100000
00000000
01000000
00000000
00010000
,
00000000
00100000
00000000
00001000
00000000
00000000
00010000
00000000
00000000
00000100
00000000
00001000
00000000
00000010
00000000
00000100
,
00000000
00000001
00000000
00000000
00000010
00000000
00000000
00001001
00000000
00000000
00000100
00000000
00000000
00011000
00000000
00000000
,
00100000
00000000
00010000
00000000
01000000
00000000
00000000
00100000
00000000
10000000
00000000
00100000
00000000
01000000
00000000
00010000
,
00000000
00000000
00100000
00000000
00000000
00001000
00000000
00000010
00000000
00001000
00000000
00010000
00000000
00001000
00000000
00000000
,
00020000
00031000
00000020
00000031
,
00000200
00001300
00020000
00130000
,
20020000
00000000
00000000
30030000
,
10000000
00000000
00000000
01000000
00000000
01000000
00000000
00100000
00000000
00100000
00000000
00000000
00001000
00000000
00000000
00011000
,
00000000
00000000
00001001
00000000
,
00000000
00000000
00000001
00000000
00000000
00000100
00000000
00000000
00000001
00000000
00000010
00000000
00000100
00000000
00000000
00000000
,
00010000
00000000
00001000
00000000
00010000
00000000
00000000
00000000
00001000
00000000
00000000
00010000
00000000
00000000
00100000
00000000
,
00010000
00000000
00000000
00001000
00000000
00000000
00000010
00000000
00001000
00000000
00000000
00000000
00010000
00000000
00000000
00000000
,
01000000
00010000
00001000
00000000
00010000
00001000
00100000
00001000
,
00010000
00000000
00001000
00000000
00000100
00000001
00001000
00000001
,
00000010
00000000
00000001
00000000
00001000
00000001
00000010
00000100
,
00000000
00010000
00001000
00010000
00001000
00100000
00010000
01000000
,
00100000
01000000
00010000
00000000
10000000
00100000
10000000
01000000
,
00100000
00000000
00010000
00000000
01000000
00000000
00000000
00000000
00100000
00000000
00000000
10000000
00000000
00000000
01000000
00000000
,
00010000
00000000
00000000
00001000
00000000
00000000
00010000
00000000
00100000
00000000
10000000
00000000
00010000
00000000
00000000
00000000
,
10000000
01000000
00100000
00000000
00001000
00010000
00001000
00100000
,
00001000
00010000
00000100
00000000
00010000
00001000
01000000
00010000
,
00100000
00000000
00010000
00000000
10000000
00000000
01000000
00000000
00100000
00000000
01000000
00000000
00100000
01000000
00100000
01000000
,
00000000
00000000
00022000
00000000
00000000
00000000
00033000
00000000
00010000
00000000
00001000
00000000
00010000
00001000
00010000
00001000
,
00000000
00000000
00000000
00000000
00000110
00000000
00000000
00002002
00000000
00000000
00000000
00000000
00000000
00000000
00000000
00000000
,
00003003
00000000
00000000
00000000
;

//--------------- dance-double - Fred-104 ----------------
#NOTEDATA:;
#STEPSTYPE:dance-double;
#DESCRIPTION:Fred-104;
#DIFFICULTY:Hard;
#METER:15;
#CREDIT:Fred-104;
#NOTES:
00000000
00000000
00000000
00000000
,
00000000
00000000
00000000
00000000
,
00000000
00000000
00000000
00000000
,
00000000
00000000
00000000
00000000
00000000
00000000
00000000
00000000
00000000
00000000
00001000
00000000
00000010
00001000
00000000
00000100
,
00000000
00000010
00000000
00000100
00000000
00001000
00000010
00000100
00000001
00001000
00000000
00000100
00000000
00010000
00001000
00000000
,
00000000
00000000
00011000
00000000
00000000
00000000
01000000
00000000
00100000
10000000
00000000
01000000
00000000
10000000
00000000
00010000
,
00000000
10000000
00010000
01000000
00010000
00000000
00100000
01000000
00000000
00100000
00000000
00001000
00000000
00010000
00000100
00001000
,
00000100
00000010
00000001
00000000
00000100
00000010
00000000
00000100
00000000
00001000
00000000
00010000
00000000
01000000
00200000
00000000
,
00000000
00000000
00000000
00000000
10300000
00000000
00000000
00000000
00010000
00000000
00000000
00000000
10000000
00000000
00000000
00000000
00000000
00000000
00000000
00000000
00000000
00000000
00000000
00000000
00010000
00000000
00000000
01000000
00000000
00000000
00100000
00000000
00000000
10000000
00000000
00000000
00010000
00000000
00000000
01000000
00000000
00000000
00100000
00000000
00000000
00000000
00000000
00000000
,
10000000
00000000
00100000
01000000
00000000
00100000
00000000
10000000
00000000
01000000
00000000
00100000
00010000
00100000
00001000
00000000
,
00010000
00000000
00000100
00001000
00000000
00000001
00000000
00001000
00000000
00000100
00000000
00000010
00000001
00001000
00000001
00000000
,
00001000
00000000
00000010
00000001
00000000
00000010
00000000
00000100
00000000
00000001
00000000
00001000
00000100
00010000
00001000
00000000
,
00010000
00001000
00100000
00001000
00010000
00001000
00000000
00100000
00010000
10000000
00010000
00000000
01000000
00100000
01000000
00000000
,
00010000
00000000
00100000
01000000
00000000
10000000
00000000
00010000
00000000
01000000
00000000
00100000
10000000
01000000
10000000
00000000
,
00010000
00000000
10000000
01000000
00000000
00100000
00000000
00001000
00000000
00010000
00000000
00001000
00010000
00100000
00010000
00000000
,
00100000
00000000
10000000
00010000
00000000
10000000
00000000
00100000
00000000
01000000
00000000
00010000
01000000
00001000
00010000
00000000
,
00011000
00000000
00000000
00000010
00000000
00000000
00011000
00000000
00000000
00100000
00000000
00000000
00011000
00000000
00000000
00000100
,
00000000
00000000
00011000
00000000
00000000
01000000
00000000
00000000
20010000
00000000
00000000
00000000
00000000
00000000
00000000
00000000
,
32000000
00000000
00000000
00000000
03020000
00000000
00000000
00000000
00032000
00000000
00000000
00003020
00000000
00000000
00000031
00000000
,
00002001
00000000
00000000
00000000
00003001
00000000
00000000
00000000
00000100
00000000
00000000
00000010
00000000
00000000
00001000
00000000
,
00010000
00000000
00000000
01000000
00000000
00000000
00100000
00000000
10000000
00000000
01000000
00000000
01200000
00000000
00000000
00000000
,
01300000
00000000
00000000
00000000
10000000
00000000
00000000
00100000
00000000
00000000
00010000
00000000
00001000
00000000
00000100
00000001
,
00000100
00000000
00000001
00000000
00000010
00000001
00000010
00000000
00001002
00000000
00000000
00000000
00001003
00000000
00000010
00000000
,
00000100
00000000
00000000
00001000
00000000
00000000
00010000
00000000
00100000
00000000
00000000
01000000
00000000
00100000
10000000
00010000
,
10000000
00100000
01000000
00000000
00010000
00000000
01000000
00000000
00001000
00010000
00000000
00001000
00000000
00000100
00000001
00000000
,
00001000
00000000
00000001
00001000
00000001
00000000
00000000
00000011
00000000
00000000
00000110
00000000
00000100
00000010
00000100
00000010
,
00000100
00000000
00000000
00000110
00000000
00000000
00000010
00001000
00000010
00000000
00000000
00001000
00000000
00000000
00010000
00000000
,
00100000
00000000
10000000
00010000
10000000
00000000
00010000
01000000
00100000
10000000
01000000
00000000
11000000
00000000
00000000
01100000
,
00000000
00000000
00100000
00001000
00020000
00000000
00000000
00032000
00000000
00000000
00003020
00000000
00000031
00000000
00000100
00000000
,
00000010
00000000
00001000
00000001
00000100
00000001
00001000
00000000
00001001
00000000
00000001
00000010
00000100
00001000
00000100
00000000
,
00010000
00001000
00100000
00010000
01000000
00000000
00100000
10000000
01000000
00100000
00010000
00000000
00100000
00001000
00010000
00000010
,
00001000
00001100
00000011
00002002
,
00000000
00000000
00000000
00000000
00003003
00000000
00000000
00000000
00000001
00000010
00000001
00001000
00000000
00000100
00000000
00010000
,
00000000
00000000
00022000
00000000
00000000
00000000
00033000
00000000
00001000
00000000
00100000
00010000
00000000
10000000
00000000
00010000
,
00000000
01000000
00100000
10000000
00100000
01000000
00010000
00000000
10000000
00000000
01000000
00100000
00000000
00001000
00000000
00010000
,
00000000
00001000
00000000
00010000
00000010
00001000
00000010
00000000
00000100
00000000
00000001
00000000
00001000
00000100
00001000
00000000
,
00000010
00000000
00010000
00001000
00000000
00010000
00001000
00000000
00100000
00000000
00010000
01000000
00000000
10000000
00000000
01000000
,
00000000
00010000
00000000
00100000
01000000
00000000
10000000
00000000
00010000
00000000
10000000
01000000
00000000
00100000
00000000
01000000
,
00000000
10000000
00100000
10000000
01000000
00100000
00010000
00000000
00100000
00000000
00001000
00010000
00000000
00001000
00000000
00000010
,
00000000
00000001
00000000
00001000
00000001
00000100
00000001
00000000
00001000
00000000
00000001
00000010
00000100
00001000
00000100
00000010
,
00000000
00000000
00002002
00000000
00000000
00000000
00003003
00000000
00001000
00000000
00000001
00000100
00000000
00001000
00000000
00000100
,
00000000
00000010
00001000
00000100
00000010
00000000
00000001
00001000
00000001
00000100
00000000
00000010
00000000
00001000
00000000
00000100
,
00010000
00001000
00010000
00000000
00010100
00000000
00000000
00101000
00000000
00000000
00010010
00000000
00000000
01001000
00000000
00000000
,
00001000
00000000
00010000
00000000
00001000
00000000
00010000
00001000
00000000
00010000
00000000
00100000
00000000
10000000
00010000
10000000
,
01000000
10000000
00100000
01000000
00100000
01000000
00000000
00100000
00000000
10000000
00000000
01000000
00100000
00010000
00100000
00001000
,
00020000
00000000
00000000
10030000
01000000
00010000
00002000
00000000
00000000
00013000
00001000
00000010
,
00000002
00000000
00000000
00000103
00001000
00010000
00200000
00000000
00000000
10300000
00010000
10000000
,
02000000
00000000
00000000
03000000
,
01000000
00100000
01000000
00100000
00000000
00001000
00000000
00010000
00000100
00001000
00000010
00001000
00000100
00010000
00001000
00100000
,
00000000
00000000
10010000
00000000
,
00000000
00000000
01100000
00000000
00000000
00010000
00000000
00000000
01000000
00000000
00001000
00010000
00000000
00001000
00000000
00000010
,
00000000
00000001
00000000
00001000
00000001
00000100
00000001
00000000
00001000
00000000
00000100
00000010
00000000
00000001
00000000
00001000
,
00000001
00000000
00000100
00000010
00000000
00001000
00000010
00000000
00000100
00000000
00000001
00000010
00000000
00000100
00000000
00010000
,
00000000
00001000
00000100
00000000
00000002
00000000
00002003
00000000
00003001
00000010
00000100
00000010
00000000
00000001
00000000
00001000
,
00000000
00000010
00010000
00001000
00010000
00000100
00010000
00000000
00001000
00100000
00010000
10000000
00000000
00010000
00000000
00100000
,
00000000
01000000
00000000
10000000
01000000
00100000
01000000
00000000
10000000
01000000
00100000
00010000
10000000
01000000
00100000
00010000
,
00000000
00000000
00012000
00000000
00023000
00000000
00032000
00000000
00013000
00000000
00000100
00001000
00000000
00000001
00000000
00000001
,
00000000
00000100
00000001
00000010
00000100
00001000
00000010
00000100
00000001
00000000
00000100
00000010
00000000
00001000
00000000
00001000
,
00000000
00000100
00010000
00001000
00010000
00001000
00100000
00010000
01000000
00000000
00010000
00100000
00000000
01000000
10000000
00010000
,
10000000
00000000
00010000
01000000
00000000
00100000
10000000
00000000
00010000
00000000
10000000
01000000
00000000
00010000
00000000
00001000
,
00000000
00010000
00100000
00000000
20000000
00000000
30020000
00000000
10030000
01000000
00100000
00010000
00000000
01000000
00000000
00001000
,
00000000
00010000
00000100
00001000
00000100
00000010
00000001
00000000
00001000
00000001
00000010
00000001
00000000
00000100
00000000
00000010
,
00000000
00001000
00000100
00010000
00001000
00010000
00000100
00001000
00000010
00000100
00000001
00000100
00000010
00001000
00000100
00000010
,
00000000
00000000
00000022
00000000
00000000
00000000
00000033
00000000
00000001
00000100
00000010
00001000
00000100
00010000
00001000
00100000
,
00000000
00000000
00000000
00000000
01010000
00000000
00000000
20020000
00000000
00000000
00000000
00000000
00000000
00000000
00000000
00000000
,
30030000
00000000
00000000
00000000
;
