#VERSION:0.83;
#TITLE:Realize Maze;
#ARTIST:movies (moimoi×Xceon×Dai.);
#GENRE:SOLITUDE;
#BANNER:Realize Maze.png;
#BACKGROUND:Realize Maze-bg.png;
#CDTITLE:./CDTitles/pnm Lapistoria.png;
#MUSIC:Realize Maze.ogg;
#SAMPLESTART:57.13;
#SAMPLELENGTH:15;
#BPMS:0=149;
#BGSTAGE:1;

//--------------- dance-single - Fred-104 ----------------
#NOTEDATA:;
#STEPSTYPE:dance-single;
#DESCRIPTION:Fred-104;
#DIFFICULTY:Beginner;
#METER:2;
#CREDIT:Fred-104;
#NOTES:
0000
0000
0000
0000
,
0000
0000
0000
0000
,
0000
0000
0000
0000
,
0000
0000
0000
0000
,
0000
0000
0000
0000
,
0000
0000
0000
0000
,
1000
0000
0000
0000
,
0001
0000
0000
0000
,
1000
0000
0000
0000
,
0001
0000
0000
0000
,
1001
0000
0000
0000
,
0001
0000
0000
0000
,
0010
0000
0000
0000
,
0100
0000
0000
0000
,
1000
0000
0000
0000
,
0001
0000
0000
0000
,
1000
0000
0000
0000
,
0010
0000
0000
0000
,
1000
0000
0000
0000
,
0001
0000
0000
0000
,
1000
0000
0000
0000
,
0001
0000
0000
0000
,
0100
0000
0100
0000
,
0100
0000
0000
0000
,
0001
0000
0000
0000
,
1000
0000
1000
0000
,
0001
0000
0001
0000
,
1000
0000
0010
0000
,
1000
0000
0001
0000
,
0100
0000
0001
0000
,
2000
0000
3000
0000
,
0001
0000
0010
0000
,
0001
0000
1000
0000
,
0001
0000
1000
0000
,
2002
0000
0000
0000
,
3003
0000
0000
0000
,
1000
0000
0000
0000
,
0001
0000
0000
0000
,
0010
0000
0000
0000
,
0001
0000
1000
0000
,
0001
0000
0000
0000
,
0100
0000
0000
0000
,
0010
0000
0010
0000
,
0110
0000
0000
0000
,
2000
0000
0000
0000
,
0000
0000
3000
0000
,
0002
0000
0000
0000
,
0000
0000
0003
0000
,
2000
0000
3000
0000
,
0002
0000
0003
0000
,
2000
0000
3000
0000
,
0002
0000
0003
0000
,
1000
0000
0001
0000
,
0100
0000
0001
0000
,
1000
0000
0001
0000
,
2002
0000
0000
0000
,
3003
0000
0000
0000
,
0000
0000
0000
0000
,
0001
0000
0000
0000
,
1000
0000
0000
0000
,
0001
0000
0000
0000
,
0010
0000
0001
0000
,
0010
0000
0000
0000
,
0100
0000
0000
0000
,
1000
0000
0001
0000
,
1001
0000
0000
0000
,
0001
0000
1000
0000
,
0001
0000
1000
0000
,
1000
0000
0100
0000
,
0010
0000
0010
0000
,
0001
0000
1000
0000
,
0001
0000
0100
0000
,
0001
0000
1000
0000
,
2002
0000
0000
3003
,
0002
0000
0003
0000
,
2000
0000
3000
0000
,
0002
0000
0003
0000
,
2002
0000
0000
0000
,
0000
0000
0000
0000
,
3003
0000
0000
0000
;

//--------------- dance-single - Fred-104 ----------------
#NOTEDATA:;
#STEPSTYPE:dance-single;
#DESCRIPTION:Fred-104;
#DIFFICULTY:Easy;
#METER:5;
#CREDIT:Fred-104;
#NOTES:
0000
0000
0000
0000
,
0000
0000
0000
0000
,
0000
0000
0000
0000
,
0000
0000
0000
0000
,
0000
0000
0000
0000
,
0000
0000
0000
0000
,
0001
0000
0001
0000
,
1000
0000
1000
0000
,
0010
0000
0100
0000
,
0002
0000
1003
0001
,
2002
0000
0000
3003
,
0002
0000
0013
0100
,
2000
0000
3010
1000
,
0002
0000
0203
0000
,
2300
0000
3200
0000
,
0302
0000
1003
0100
,
0020
0000
0130
1000
,
0001
0100
0010
1000
,
2002
0000
0000
3003
,
1000
0100
0020
0030
,
0001
0100
0020
0030
,
1000
0010
0200
0300
,
0001
0010
0200
0300
,
1000
0001
0200
0300
,
0010
1000
0002
0003
,
0010
0010
0100
0100
,
1000
0100
0220
0330
,
1001
0000
0001
0010
,
2000
3000
0001
0100
,
2000
3000
0002
0003
,
0200
0300
0010
0100
,
0020
0030
1000
0100
,
0002
0003
1000
0010
,
0002
0003
2000
3000
,
2002
0000
0000
3003
,
0110
0000
0002
2003
,
3002
0000
0013
0100
,
2000
0000
3010
0100
,
0002
0003
2000
3000
,
0100
0100
0010
0001
,
0020
0000
0031
1000
,
0020
0000
0130
0001
,
1000
0100
0010
0001
,
2002
0000
0000
3003
,
0002
0000
1003
0000
,
0200
0000
0310
0000
,
0002
0000
2003
0000
,
3002
0000
0000
0003
,
1001
0000
0001
0010
,
0200
0000
1300
0010
,
0100
0100
0001
0001
,
1001
0000
0001
0010
,
0200
0000
1300
0010
,
0200
0000
0301
1000
,
0100
0000
0010
0000
,
2002
0000
0000
3003
,
0002
0000
2000
0000
,
3003
0000
2000
3200
,
2300
0000
3010
1000
,
0002
0000
0013
0001
,
0100
0000
0010
0000
,
0100
0100
0001
1000
,
0002
0000
0013
0100
,
2000
0000
3001
1000
,
0010
0010
0100
0100
,
0220
0000
0000
0330
,
0002
0000
1003
0001
,
0200
0000
0301
0010
,
0200
0000
0320
0000
,
0031
1000
0010
0100
,
0002
0000
1003
0100
,
0020
0000
0130
1000
,
0001
0001
1000
1000
,
2002
0000
0000
3003
,
0002
0000
0000
0000
,
2003
0000
0000
0000
,
3002
0000
0000
0003
,
2002
0000
0000
0000
,
0000
0000
0000
0000
,
3003
0000
0000
0000
;

//--------------- dance-single - Fred-104 ----------------
#NOTEDATA:;
#STEPSTYPE:dance-single;
#DESCRIPTION:Fred-104;
#DIFFICULTY:Medium;
#METER:9;
#CREDIT:Fred-104;
#NOTES:
0000
0000
0000
0000
,
0000
0000
0000
0000
,
0000
0000
0000
0000
,
0000
0000
0000
0000
,
0000
0000
0000
0000
,
0000
0000
0000
0000
,
1000
0001
0010
0100
,
1000
0001
0100
0010
,
1000
1000
0001
0001
,
2002
0000
0000
3003
,
0220
0330
0002
2003
,
3002
0000
0000
0000
0003
0000
0100
0000
0010
0000
0000
1000
0000
0000
0001
0000
,
0020
0000
0000
0000
0030
0000
0100
0000
1000
0000
0000
0001
0000
0000
0100
0000
,
0020
0000
0130
0001
0000
1000
0000
0002
,
0000
0003
0010
0020
0000
0130
0010
0001
,
0200
0000
0000
0000
0300
0000
0010
0000
0100
0000
0000
0001
0000
0000
1000
0000
,
0200
0000
0000
0000
0300
0000
0010
0000
0100
0000
0000
1000
0000
0000
0010
0000
,
0100
0000
0000
0001
0000
0000
1000
0000
0100
0000
0000
0010
0000
0000
0001
0000
,
2002
0000
0000
3003
,
0000
0000
0001
0000
0010
0000
0001
0000
0010
0000
0000
0100
0000
0000
1000
0000
,
0000
0000
0001
0000
0100
0000
0001
0000
0100
0000
0000
0010
0000
0000
1000
0000
,
0000
0000
0001
0000
0010
0000
0100
0000
0010
0000
0000
0100
0000
0000
1000
0000
,
0001
0000
0000
0100
0000
0000
0010
0000
0200
0000
0000
0000
0000
0000
0000
0000
,
0300
0000
0010
0000
1000
0000
0010
0000
0100
0000
0000
0010
0000
0000
1000
0000
,
0000
0000
0100
0000
0010
0000
0001
0000
0010
0000
0000
0001
0000
0000
1000
0000
,
0001
0000
0000
0010
0000
0000
0200
0000
0000
0000
0000
0000
1300
0000
0001
0000
,
0100
0000
0000
0001
0000
0000
2002
0000
0000
0000
0000
0000
3003
0000
0000
0000
,
2000
0000
0000
0000
0000
0000
3100
0000
0100
0000
0000
0010
0000
0000
0001
0000
,
0020
0000
0000
0000
0000
0000
0001
0000
0031
0000
0000
0100
0000
0000
0010
0000
,
0100
0000
0000
0001
0000
0000
1000
0000
0001
0000
0000
0010
0000
0000
0100
0000
,
2000
0000
3000
0001
0001
0100
0010
0000
,
0200
0000
0000
0000
0000
0000
0310
0000
0010
0000
0000
1000
0000
0000
0001
0000
,
0020
0000
0000
0000
0030
0000
0100
0000
0100
0000
0000
1000
0000
0000
0001
0000
,
1000
0000
0000
0100
0000
0000
0010
0000
0001
0000
0000
0100
0000
0000
0010
0000
,
0220
0000
0000
0330
,
2002
3003
0002
2003
,
3200
0000
0000
0000
0300
0000
1000
0000
0001
0000
0000
0001
0000
0000
0100
0000
,
0020
0000
0000
0000
0030
0000
0100
0000
0001
0000
0000
1000
0000
0000
1000
0000
,
0200
0000
0310
0020
0000
0031
1000
0002
,
0000
0003
0100
0200
0000
0310
1000
0001
,
2000
0000
0000
0000
3000
0000
0010
0000
0010
0000
0000
0100
0000
0000
0010
0000
,
2000
0000
0000
0000
3000
0000
0001
0000
0001
0000
0000
0010
0000
0000
0100
0000
,
1000
0000
0000
0001
0000
0000
0100
0000
0010
0000
0000
1000
0000
0000
0100
0000
,
0220
0000
0000
0330
,
0002
0000
0013
0100
,
2000
0000
3010
0100
,
0001
0000
0000
0010
0000
0000
0010
0000
0100
0000
0000
1000
0000
0000
1000
0000
,
0001
0100
0001
0000
1000
0100
1000
0000
,
2002
0000
0000
0000
3003
0000
0001
0000
0010
0000
0000
0010
0000
0000
0100
0000
,
0020
0000
0000
0000
0000
0000
0031
0000
0001
0000
0000
0100
0000
0000
0010
0000
,
0100
0000
0000
0001
0000
0000
1000
0000
0100
0000
0000
0010
0000
0000
0100
0000
,
2000
0000
0000
3001
0001
1000
0010
0000
,
2000
0000
0000
0000
0000
0000
3010
0000
0010
0000
0000
0100
0000
0000
0010
0000
,
0200
0000
0000
0000
0000
0000
0301
0000
0001
0000
0000
0010
0000
0000
0100
0000
,
1000
0000
0000
0001
0000
0000
0010
0000
0001
0000
0000
0100
0000
0000
0010
0000
,
2020
0000
0000
3030
,
0202
0000
0000
0303
,
2002
3003
0002
2003
,
3200
0000
0000
0000
0300
0000
1000
0000
1000
0000
0000
0010
0000
0000
0100
0000
,
0020
0000
0000
0000
0030
0000
0100
0000
0100
0000
0000
0001
0000
0000
0010
0000
,
0200
0000
1300
1000
0000
0001
1000
0020
,
0000
0030
0100
0100
0000
0010
1000
0001
,
0020
0000
0000
0000
0030
0000
0100
0000
0100
0000
0000
1000
0000
0000
0100
0000
,
0020
0000
0000
0000
0030
0000
0001
0000
0001
0000
0000
1000
0000
0000
0010
0000
,
1000
0000
0000
0001
0000
0000
0010
0000
0100
0000
0000
0010
0000
0000
0001
0000
,
0022
0033
0002
2003
,
3200
0000
0000
0000
0300
0000
1000
0000
1000
0000
0000
0001
0000
0000
0100
0000
,
0020
0000
0000
0000
0030
0000
0100
0000
0100
0000
0000
0010
0000
0000
1000
0000
,
0002
0000
0013
0020
0000
0130
1000
0200
,
0000
0300
1000
2000
0000
3010
1000
0001
,
0020
0000
0000
0000
0030
0000
0100
0000
0100
0000
0000
0010
0000
0000
0100
0000
,
2000
0000
0000
0000
3000
0000
0001
0000
0001
0000
0000
0100
0000
0000
0010
0000
,
0100
0000
0000
0100
0000
0000
0001
0000
1000
0000
0000
1000
0000
0000
0100
0000
,
0220
0000
0000
0330
,
0002
0000
1003
0100
,
0002
0000
0013
1000
,
0001
0001
1000
1000
,
2002
0000
0000
0000
,
0000
0000
0000
0000
,
3003
0000
0000
0000
;

//--------------- dance-single - Fred-104 ----------------
#NOTEDATA:;
#STEPSTYPE:dance-single;
#DESCRIPTION:Fred-104;
#DIFFICULTY:Hard;
#METER:11;
#CREDIT:Fred-104;
#NOTES:
0000
0000
0000
0000
,
0000
0000
0000
0000
,
0000
0000
0000
0000
,
0000
0000
0000
0000
,
0000
0000
0000
0000
,
0000
0000
0000
0000
,
0001
0000
0000
0000
0100
0000
0001
0000
1000
0000
0001
0010
0000
0000
0100
0000
,
1000
0000
0000
0000
0010
0000
0100
0000
0010
0000
1000
0100
0000
0000
0010
0000
,
0001
0000
0000
1000
0000
0000
0010
0000
0100
0000
0000
0001
0000
0000
1000
0000
,
1100
0000
0010
0001
0101
0000
1010
0000
,
2002
0000
0000
3003
0002
0000
2003
0000
,
3200
0000
0000
0000
1300
0000
0001
0000
0010
0001
0000
1000
0000
0000
0010
0000
,
0200
0000
0000
0000
0301
0000
0010
0000
0100
0000
1000
0001
0000
0000
1000
0000
,
0002
0000
0013
0020
0000
0230
0000
2300
,
0000
0000
3001
0002
0000
0103
1000
0100
,
0002
0000
0000
0000
1003
0000
0100
0000
0010
0000
0100
1000
0000
0000
0001
0000
,
0200
0000
0000
0000
0310
0000
0100
0000
0001
0000
0010
0100
0000
0000
1000
0000
,
1010
0000
0000
0001
0000
0000
1000
0000
1100
0000
0000
0001
0000
0000
0100
0000
,
2002
0000
0000
3003
,
0001
0000
0100
0000
0010
0000
0100
0000
0001
0000
0000
0010
0000
0000
0200
0000
,
0000
0000
1300
0000
0010
0000
1000
0000
0001
0000
0000
0010
0000
0000
0200
0000
,
0000
0000
1300
0000
0001
0000
0100
0000
0010
0000
0000
0100
0000
0000
0001
0000
,
1000
0000
0000
0100
0000
0000
0010
0000
0002
0000
0000
0000
1003
0000
1000
0000
,
0010
0000
0100
0000
0001
0000
0100
0000
0010
0000
0000
1000
0000
0000
0002
0000
,
0000
0000
0013
0000
0100
0000
0010
0000
0001
0000
0000
0100
0000
0000
0010
0000
,
1000
0000
0000
0001
0000
0000
0020
0000
0000
0000
0000
0000
0130
0000
1000
0000
,
1100
0000
0000
1001
0000
0000
0202
0000
0000
0000
0000
0000
0303
0000
0000
0000
,
2000
0000
0000
0000
3100
0000
0001
0000
0100
0000
0000
1000
0000
0000
0001
0000
,
2000
0000
0000
0000
3010
0000
0001
0000
0010
0000
0000
1000
0000
0000
0001
0000
,
0010
0000
0000
0100
0000
0000
1000
0000
0010
0000
0000
0100
0000
0000
0001
0000
,
2000
0000
0000
0000
3000
0000
0001
0100
0001
0000
0010
0000
0100
0000
1000
0000
,
0002
0000
0000
0000
1003
0000
0100
0000
0001
0000
0000
0100
0000
0000
1000
0000
,
0002
0000
0000
0000
1003
0000
0010
0000
0001
0000
0000
0010
0000
0000
1000
0000
,
1001
0000
0000
0001
0000
0000
0010
0000
0110
0000
0000
0100
0000
0000
1000
0000
,
2020
0000
0000
3030
,
2002
0000
0000
3003
0002
0000
2003
0000
,
3020
0000
0000
0000
1030
0000
0001
0000
0010
0100
0000
0010
0000
0000
0001
0000
,
2000
0000
0000
0000
3010
0000
0100
0000
0001
0000
1000
0100
0000
0000
1000
0000
,
0002
0000
1003
2000
0000
3010
0100
0002
,
0000
0000
1003
2000
0000
3100
0001
0100
,
2000
0000
0000
0000
3010
0000
1000
0000
0001
0000
0010
0100
0000
0000
1000
0000
,
0020
0000
0000
0000
0130
0000
0010
0000
1000
0000
0001
0010
0000
0000
0100
0000
,
1100
0000
0000
0010
0000
0000
0001
0000
0101
0000
0000
0010
0000
0000
1000
0000
,
2002
0000
0000
3003
,
2000
0000
0000
0000
0000
0000
3001
0000
0010
0000
0100
0010
0000
0000
0001
0000
,
0200
0000
0000
0000
0000
0000
0310
0000
0100
0000
0001
0010
0000
0000
0100
0000
,
1000
0000
0000
0100
0000
0000
0010
0000
0001
0000
0000
0100
0000
0000
0010
0000
,
1000
0100
1000
0001
0100
0010
1000
0001
,
0020
0000
0000
0000
0000
0000
0130
0000
0010
0000
0000
0001
0000
0000
1000
0000
,
0020
0000
0000
0000
0000
0000
0130
0000
0010
0000
0000
1000
0000
0000
0001
0000
,
0010
0000
0000
0100
0000
0000
1000
0000
0010
0000
0000
0100
0000
0000
0001
0000
,
2000
0000
0000
0000
0000
0000
3100
0010
0100
0000
1000
0000
0010
0000
0100
0000
,
0002
0000
0000
0000
1003
0000
0010
0000
0001
0000
0000
0010
0000
0000
1000
0000
,
0002
0000
0000
0000
1003
0000
0100
0000
0001
0000
0000
0100
0000
0000
1000
0000
,
1001
0000
0000
0001
0000
0000
0100
0000
0110
0000
0000
0010
0000
0000
1000
0000
,
2200
0000
0000
3300
,
1000
0100
0010
0001
0100
0010
1000
0001
,
0010
0000
0020
0230
,
2300
0000
0000
3000
1001
0000
0001
0000
0100
0010
0000
1000
0000
0000
0001
0000
,
0020
0000
0000
0000
0130
0000
0010
0000
0001
0000
0100
0010
0000
0000
1000
0000
,
0002
0000
0013
0100
1000
0010
0100
0010
,
2000
0000
3001
0100
1000
0100
0001
1000
,
0002
0000
0000
0000
1003
0000
0100
0000
0010
0000
0100
0010
0000
0000
0001
0000
,
2000
0000
0000
0000
3001
0000
0100
0000
0010
0000
0100
0001
0000
0000
0010
0000
,
0110
0000
0000
1000
0000
0000
0001
0000
0101
0000
0000
1000
0000
0000
0001
0000
,
0022
0000
0000
0033
0002
0000
2003
0000
,
3200
0000
0000
0000
0310
0000
0100
0000
1000
0001
0000
1000
0010
0000
0100
0000
,
0020
0000
0000
0000
1030
0000
0001
0000
0010
0000
0100
1000
0000
0001
1000
0000
,
0020
0000
0130
0001
0100
1000
0100
0001
,
2000
0000
3001
0010
1000
0010
0001
1000
,
0002
0000
0000
0000
0103
0000
0010
0000
1000
0001
0000
0010
0100
0000
1000
0000
,
0002
0000
0000
0000
1003
0000
0010
0000
0100
0000
0001
0100
0000
0001
1000
0000
,
1100
0000
0000
0001
0000
0000
1000
0000
1010
0000
0000
0001
0000
0000
0010
0000
,
0220
0000
0000
0330
0002
0000
2003
0000
,
3002
0000
0000
0000
0000
0000
0013
0000
0100
0010
0000
0001
0000
0000
1000
0000
,
0020
0000
0000
0000
0000
0000
0130
0000
0010
0000
1000
0001
0000
0000
0010
0000
,
0001
0000
0000
0100
0000
0000
1000
0000
0001
0000
0000
0010
0000
0000
1000
0000
,
2002
0000
0000
0000
,
0000
0000
0000
0000
,
3003
0000
0000
0000
;

//--------------- dance-single - Fred-104† ----------------
#NOTEDATA:;
#STEPSTYPE:dance-single;
#DESCRIPTION:Fred-104†;
#DIFFICULTY:Challenge;
#METER:14;
#CREDIT:Fred-104†;
#NOTES:
0000
0000
0000
0000
,
0000
0000
0000
0000
,
0000
0000
0000
0000
,
0000
0000
0000
0000
,
0000
0000
0000
0000
,
0000
0000
0000
0000
,
1000
0000
0010
0000
0100
0000
0001
0000
1000
0000
0100
0010
0000
0010
0001
0000
,
1000
0000
0010
0000
0100
0000
0001
0000
1000
0000
0001
0010
0000
0010
0100
0000
,
1000
0000
0001
0100
0000
0010
1000
0000
0001
0000
0010
0100
0000
0010
0001
0000
,
1000
0000
0100
0010
0001
0000
1000
0010
0100
0000
0001
0000
1000
0000
0001
0000
,
1000
0020
0001
0000
0100
0000
1030
0000
,
2001
0000
0000
0000
3001
0000
0010
0000
0100
1000
0100
1000
0000
0001
0100
0000
,
0120
0000
0000
0000
1030
0000
0100
0000
0010
0001
0010
0001
0000
1000
0010
0000
,
1020
0000
1030
0001
0100
1000
0100
0010
,
2010
0000
3001
0010
1000
0010
0100
1000
,
2001
0000
0000
0000
3001
0000
0010
0000
0100
0010
0100
0010
0000
0001
1000
0000
,
2001
0000
0000
0000
3001
0000
1000
0000
0010
0100
0010
0100
0000
0001
1000
0000
,
1100
0000
0000
0010
0000
0000
0001
0000
0101
0000
0000
0010
0000
0000
1000
0000
,
0001
0000
0100
0000
0010
0000
1000
0000
0001
1000
0001
1000
0001
0000
0010
0100
,
1000
0000
0001
0000
0100
0000
0010
0000
1000
0000
0001
0010
0000
1000
0010
0000
,
0001
0000
1000
0000
0100
0000
0010
0000
1000
0000
0010
0001
0000
0010
0100
0000
,
1000
0000
0001
0000
0100
0000
1000
0000
0100
0000
0010
0100
0000
0001
1000
0000
,
0100
0000
0010
0001
0000
1000
0001
0000
0200
0000
0000
0000
0310
0000
0010
0000
,
1000
0000
0001
0000
0100
0000
1000
0000
0001
0000
0010
1000
0000
0100
0010
0000
,
0001
0000
1000
0000
0010
0000
0001
0000
1000
0000
0100
0010
0000
1000
0001
0000
,
0010
0100
0000
0100
1000
0000
0001
0000
0200
0000
0000
0000
0310
0000
1000
0000
,
0001
0010
0000
0100
1000
0000
0001
0000
0100
0000
0010
0000
1000
0001
1000
0001
,
0020
0000
0000
0000
0130
0000
1000
0001
0100
0000
0010
1000
0000
0100
0010
0000
,
0012
0000
0000
0000
1003
0000
0001
1000
0010
0000
0100
0001
0000
1000
0100
0000
,
1000
0000
0001
0010
0000
0100
1000
0000
0001
0000
0100
0010
0000
1000
0001
0000
,
0020
0000
0000
0000
0130
0000
0100
1000
0100
0000
0001
0000
0100
0000
0010
0000
,
0012
0000
0000
0000
1003
0000
0001
1000
0010
0000
0100
0001
0000
0010
0100
0000
,
2100
0000
0000
0000
3001
0000
1000
0001
0100
0000
0010
1000
0000
0001
0010
0000
,
0110
0000
0000
1000
0000
0000
0001
0000
0110
0000
0000
0001
0000
0000
1000
0000
,
2002
0000
0000
3003
,
0220
0000
0030
0300
,
1002
0000
0000
0000
1003
0000
0100
0000
0010
0001
0010
0001
0000
1000
0001
0000
,
0201
0000
0000
0000
0301
0000
1000
0000
0001
0010
0001
0010
0000
0100
1000
0000
,
1002
0000
1003
0100
0001
0100
0010
0001
,
2000
0000
3010
0001
0010
0100
0010
1000
,
2001
0000
0000
0000
3001
0000
0010
0000
0100
1000
0001
1000
0000
0010
0100
0000
,
0102
0000
0000
0000
1003
0000
0100
0000
0010
0001
1000
0001
0000
0100
0010
0000
,
1010
0000
0000
0100
0000
0000
0001
0000
0011
0000
0000
0100
0000
0000
1000
0000
,
0001
0000
1000
0000
0010
0000
0100
0000
0001
1000
0001
1000
0100
0000
0010
0001
,
2000
0000
0000
0000
0000
0000
3010
0000
0100
0000
0100
0001
0000
0001
1000
0000
,
0002
0000
0000
0000
0000
0000
0103
0000
0001
0000
0001
0010
0000
0010
0100
0000
,
1000
0000
0000
0010
0000
0000
0001
0000
1000
0000
0000
0100
0000
0000
0001
0000
,
0010
0000
0100
0000
1000
0000
0001
0000
0100
0010
0100
0010
0100
0000
0001
1000
,
0002
0000
0000
0000
0000
0000
0010
0000
0013
0000
0100
1000
0000
0001
1000
0000
,
0020
0000
0000
0000
0000
0000
0100
0000
0130
0000
0001
1000
0000
0100
0010
0000
,
0011
0000
0000
0100
0000
0000
1000
0000
1010
0000
0000
0100
0000
0000
0001
0000
,
1001
0000
0000
0000
1000
0000
0100
0010
0001
0000
1000
0000
0001
0100
0001
0100
,
0020
0000
0000
0000
1030
0000
0001
0010
0100
0000
0000
1000
0000
0000
0001
0000
,
0200
0000
0000
0000
0310
0000
1000
0100
0010
0000
0000
0001
0000
0000
1000
0000
,
1100
0000
0000
0010
0000
0000
0001
0000
0101
0000
0000
0010
0000
0000
1000
0000
,
2002
0000
0000
3003
,
0001
1000
0001
1000
0001
1000
0001
1000
0010
0100
0010
0100
0010
0100
0010
0200
,
0002
0000
0003
0300
,
0110
0000
0000
0000
1001
0000
1000
0000
0001
0010
0100
1000
0000
0001
0100
0000
,
0102
0000
0000
0000
1003
0000
0100
0000
1000
0001
0100
0010
0000
1000
0001
0000
,
0012
0000
1003
0001
0100
1000
0001
0010
,
2000
0000
0000
0000
3100
0000
0010
0000
0001
0000
1000
0001
1000
0000
0010
0000
,
0210
0000
0000
0000
0301
0000
1000
0000
0001
1000
0100
0010
0000
0001
1000
0000
,
1002
0000
0000
0000
1003
0000
0100
0000
0010
0100
1000
0001
0000
1000
0001
0000
,
0101
0000
0000
0010
0000
0000
1000
0000
1100
0000
0000
0010
0000
0000
0001
0000
,
1001
0000
1000
0000
0100
0000
0010
0000
0001
1000
0001
1000
0010
0000
0100
0001
,
0200
0000
0000
0000
0301
0000
1000
0000
0001
0010
0100
0010
0000
0001
1000
0000
,
2010
0000
0000
0000
3001
0000
1000
0000
0100
1000
0100
0010
0000
0001
1000
0000
,
0002
0000
0103
0010
0001
1000
0100
0010
,
2000
0000
3001
0010
1000
0010
0001
1000
,
1001
0000
0000
0000
1100
0000
1000
0000
0001
0100
0010
1000
0000
0001
0010
0000
,
0210
0000
0000
0000
1300
0000
0001
0000
0100
0010
1000
0001
0000
0010
0100
0000
,
1100
0000
0000
0010
0000
0000
0001
0000
0101
0000
0000
0010
0000
0000
1000
0000
,
0001
0000
0010
0000
0100
0000
1000
0000
0001
1000
0001
1000
0100
0000
0010
0001
,
0020
0000
0000
0000
0031
0000
1000
0000
0010
1000
0010
1000
0000
1000
0001
0000
,
0020
0000
0000
0000
0130
0000
0100
0000
1000
0000
0001
1000
0000
1000
0010
0000
,
1000
0000
0000
0100
0000
0000
0010
0000
0001
0000
0000
0100
0000
0000
0010
0000
,
2002
0000
0000
0000
,
0000
0000
0000
0000
,
3003
0000
0000
0000
;

//--------------- dance-double - Fred-104 ----------------
#NOTEDATA:;
#STEPSTYPE:dance-double;
#DESCRIPTION:Fred-104;
#DIFFICULTY:Easy;
#METER:5;
#CREDIT:Fred-104;
#NOTES:
00000000
00000000
00000000
00000000
,
00000000
00000000
00000000
00000000
,
00000000
00000000
00000000
00000000
,
00000000
00000000
00000000
00000000
,
00000000
00000000
00000000
00000000
,
00000000
00000000
00000000
00000000
,
00001000
00000000
00010000
00000000
,
00001000
00000000
00010000
00000000
,
00100000
00000000
10000000
00000000
,
00200000
00000000
10300000
00010000
,
20020000
00000000
00000000
30030000
,
20000000
00000000
31000000
00100000
,
00002000
00000000
00013000
00001000
,
00020000
00000000
00030020
00000000
,
00002030
00000000
00003020
00000000
,
00002030
00000000
00003001
00000010
,
00000200
00000000
00010300
00001000
,
00010000
00010000
00001000
00001000
,
00022000
00000000
00000000
00033000
,
00001000
00010000
00200000
00300000
,
10000000
01000000
00200000
00300000
,
00001000
00010000
02000000
03000000
,
10000000
00100000
02000000
03000000
,
00001000
00010000
00002000
00003000
,
00010000
00000010
00020000
00030000
,
00001000
00001000
00010000
00010000
,
00000100
00001000
00002002
00003003
,
00000110
00000000
00000001
00000100
,
00002000
00003000
00010000
01000000
,
20000000
30000000
00020000
00030000
,
20000000
30000000
01000000
00100000
,
00002000
00003000
00010000
00000010
,
00020000
00030000
00001000
00100000
,
00002000
00003000
00020000
00030000
,
00022000
00000000
00000000
00033000
,
01100000
00000000
20000000
30020000
,
20030000
00000000
31000000
00100000
,
00020000
00000000
00130000
00010000
,
00200000
00300000
00002000
00003000
,
00100000
00001000
00010000
00001000
,
00020000
00000000
00031000
00010000
,
00000020
00000000
00010030
00000010
,
00001000
00000001
00000010
00000100
,
00002200
00000000
00000000
00003300
,
00000002
00000000
00000013
00000000
,
00002000
00000000
00013000
00000000
,
00200000
00000000
20300000
00000000
,
30020000
00000000
00000000
00030000
,
10010000
00000000
10000000
00100000
,
00020000
00000000
00031000
00010000
,
00001000
00000010
00000001
00001000
,
00001001
00000000
00000001
00001000
,
00000200
00000000
00010300
00000100
,
00002000
00000000
00003100
00010000
,
00001000
00000000
00010000
00000000
,
00022000
00000000
00000000
00033000
,
00002000
00000000
00020000
00000000
,
00033000
00000000
00002000
00023000
,
00032000
00000000
00013000
00100000
,
02000000
00000000
03010000
10000000
,
01000000
00000000
00100000
00000000
,
00001000
00100000
00010000
00100000
,
00002000
00000000
00013000
00000010
,
00002000
00000000
00003010
00000100
,
00000001
00000010
00000100
00010000
,
00022000
00000000
00000000
00033000
,
00002000
00000000
00013000
00001000
,
00200000
00000000
00310000
10000000
,
00200000
00000000
20300000
00000000
,
30010000
10000000
01000000
00100000
,
00002000
00000000
00013000
00000010
,
00020000
00000000
00031000
00010000
,
00001000
00001000
00010000
00010000
,
00022000
00000000
00000000
00033000
,
00020000
00000000
00000000
00000000
,
00032000
00000000
00000000
00000000
,
00003200
00000000
00000302
00000003
,
00002002
00000000
00000000
00000000
,
00000000
00000000
00000000
00000000
,
00003003
00000000
00000000
00000000
;

//--------------- dance-double - Fred-104 ----------------
#NOTEDATA:;
#STEPSTYPE:dance-double;
#DESCRIPTION:Fred-104;
#DIFFICULTY:Medium;
#METER:9;
#CREDIT:Fred-104;
#NOTES:
00000000
00000000
00000000
00000000
,
00000000
00000000
00000000
00000000
,
00000000
00000000
00000000
00000000
,
00000000
00000000
00000000
00000000
,
00000000
00000000
00000000
00000000
,
00000000
00000000
00000000
00000000
,
00001000
00000000
00010000
00100000
,
10000000
00000000
01000000
00010000
,
00001000
00000010
00000001
00000100
,
00002000
00000000
00013000
00001000
,
00022000
00033000
00002000
00023000
,
00032000
00000000
00000000
00000000
00003000
00000000
00100000
00000000
00010000
00000000
00000000
10000000
00000000
00000000
00010000
00000000
,
02000000
00000000
00000000
00000000
03000000
00000000
00100000
00000000
10000000
00000000
00000000
01000000
00000000
00000000
00100000
00000000
,
00001000
00010000
00001000
00010000
,
00000100
00000000
00001000
00000000
00000100
00000010
00000001
00000000
,
00002000
00000000
00000000
00000000
00003000
00000000
00000010
00000000
00000100
00000000
00000000
00000010
00000000
00000000
00001000
00000000
,
00000002
00000000
00000000
00000000
00000003
00000000
00000010
00000000
00000100
00000000
00000000
00000010
00000000
00000000
00001000
00000000
,
00010000
00000000
00000000
00100000
00000000
00000000
10000000
00000000
00010000
00000000
00000000
00100000
00000000
00000000
01000000
00000000
,
20020000
00000000
00000000
30030000
,
10000000
00000000
01000000
00000000
00100000
00010000
00100000
00000000
,
00001000
00000000
00010000
00000000
00000010
00001000
00000010
00000000
,
00000100
00000000
00000001
00000000
00000010
00000100
00000010
00000000
,
00000100
00000000
00000000
00010000
00000000
00000000
00001000
00000000
00010000
00000000
00000000
00000000
00011000
00000000
00000000
00000000
,
00001000
00000000
00010000
00000000
00100000
01000000
00010000
00000000
,
10000000
00000000
00100000
00000000
01000000
00010000
01000000
00000000
,
00001000
00000000
00000000
00010000
00000000
00000000
00002000
00000000
00000000
00000000
00000000
00000000
00013000
00000000
00000000
00000000
,
01000000
00000000
00000000
00100000
00000000
00000000
20020000
00000000
00000000
00000000
00000000
00000000
30030000
00000000
00000000
00000000
,
20000000
00000000
00000000
00000000
30000000
00000000
01000000
00000000
01000000
00000000
00000000
00100000
00000000
00000000
00001000
00000000
,
00020000
00000000
00000000
00000000
00030000
00000000
00001000
00000000
00001000
00000000
00000000
00010000
00000000
00000000
00000010
00000000
,
00001000
00000000
00000000
00000010
00000000
00000000
00000100
00000000
00000010
00000000
00000000
00001000
00000000
00000000
00000001
00000000
,
00000010
00000000
00000100
00000000
00010000
00001000
00010000
00000000
,
00022000
00000000
00000000
00000000
00033000
00000000
00001000
00000000
00001000
00000000
00000000
00010000
00000000
00000000
00100000
00000000
,
02000000
00000000
00000000
00000000
03000000
00000000
00010000
00000000
00010000
00000000
00000000
01000000
00000000
00000000
00100000
00000000
,
10000000
00000000
00000000
01000000
00000000
00000000
00010000
00000000
00001000
00000000
00000000
00000100
00000000
00000000
00000001
00000000
,
00002002
00000000
00000000
00003003
,
00022000
00033000
00002000
00023000
,
00230000
00000000
00000000
00000000
00300000
00000000
10000000
00000000
10000000
00000000
00000000
00010000
00000000
00000000
10000000
00000000
,
02000000
00000000
00000000
00000000
03000000
00000000
00100000
00000000
00100000
00000000
00000000
00001000
00000000
00000000
00010000
00000000
,
00001000
00000000
00000010
00000000
00000001
00000010
00000100
00000000
,
00010000
00001000
00010000
00000000
00001000
00010000
00001000
00000000
,
00020000
00000000
00000000
00000000
00030000
00000000
00001000
00000000
00001000
00000000
00000000
00010000
00000000
00000000
00000100
00000000
,
00002000
00000000
00000000
00000000
00003000
00000000
00000001
00000000
00000001
00000000
00000000
00000010
00000000
00000000
00001000
00000000
,
00010000
00000000
00000000
00100000
00000000
00000000
10000000
00000000
01000000
00000000
00000000
00100000
00000000
00000000
00001000
00000000
,
00022000
00000000
00000000
00033000
,
00020000
00000000
00032000
00003020
,
00000032
00000000
00000203
00002300
,
00013000
00000000
00000000
00010000
00000000
00000000
00010000
00000000
00001000
00000000
00000000
00001000
00000000
00000000
00001000
00000000
,
00010000
00001000
00100000
00000000
00010000
10000000
00100000
00000000
,
02200000
00000000
00000000
00000000
03300000
00000000
00010000
00000000
10000000
00000000
00000000
01000000
00000000
00000000
00100000
00000000
,
00002000
00000000
00000000
00000000
00003000
00000000
00010000
00000000
00001000
00000000
00000000
00000100
00000000
00000000
00001000
00000000
,
00010000
00000000
00000000
00001000
00000000
00000000
00010000
00000000
00000100
00000000
00000000
00001000
00000000
00000000
00000001
00000000
,
00000020
00000000
00000030
00000100
00000100
00000010
00000001
00000000
,
00002002
00000000
00000000
00000000
00003003
00000000
00000001
00000000
00000100
00000000
00000000
00001000
00000000
00000000
00010000
00000000
,
00002000
00000000
00000000
00000000
00003000
00000000
00010000
00000000
00001000
00000000
00000000
00010000
00000000
00000000
00100000
00000000
,
01000000
00000000
00000000
00010000
00000000
00000000
00100000
00000000
01000000
00000000
00000000
00100000
00000000
00000000
00001000
00000000
,
00022000
00000000
00000000
00033000
,
00010000
00000100
00001000
00000000
00000100
00000010
00000001
00000000
,
00002002
00003003
00000002
00002003
,
00003100
00000000
00000000
00000000
00000110
00000000
00000000
00000000
00000001
00000000
00000000
00000100
00000000
00000000
00001000
00000000
,
00010000
00000000
00000000
00000000
00001000
00000000
00010000
00000000
00001000
00000000
00000000
00010000
00000000
00000000
01000000
00000000
,
10000000
00000000
01000000
00000000
00100000
00010000
00100000
00000000
,
00001000
00010000
00001000
00000000
00010000
00000010
00010000
00000000
,
00011000
00000000
00000000
00000000
00001000
00000000
00010000
00000000
00001000
00000000
00000000
00001000
00000000
00000000
00010000
00000000
,
00000010
00000000
00000000
00000000
00000010
00000000
00000100
00000000
00000010
00000000
00000000
00000010
00000000
00000000
00001000
00000000
,
00000001
00000000
00000000
00000010
00000000
00000000
00000100
00000000
00010000
00000000
00000000
00001000
00000000
00000000
00000100
00000000
,
00000220
00000330
00000002
00002003
,
00003200
00000000
00000000
00000000
00010300
00000000
00001000
00000000
00010000
00000000
00000000
00001000
00000000
00000000
01000000
00000000
,
00020000
00000000
00000000
00000000
01030000
00000000
00001000
00000000
00010000
00000000
00000000
00001000
00000000
00000000
00010000
00000000
,
01000000
00000000
10000000
00000000
01000000
00000000
00100000
00001000
,
00010000
00001000
00000010
00001000
,
00020000
00000000
00000000
00000000
00031000
00000000
00010000
00000000
00100000
00000000
00000000
01000000
00000000
00000000
00010000
00000000
,
20000000
00000000
00000000
00000000
30010000
00000000
10000000
00000000
01000000
00000000
00000000
00100000
00000000
00000000
00001000
00000000
,
00010000
00000000
00000000
00001000
00000000
00000000
00000100
00000000
00000001
00000000
00000000
00001000
00000000
00000000
00000100
00000000
,
00000220
00000000
00000000
00000330
,
00000002
00000000
00000203
00000000
,
00002300
00000000
00023000
00000000
,
02030000
00000000
23000000
30000000
,
20020000
00000000
00000000
00000000
,
00000000
00000000
00000000
00000000
,
30030000
00000000
00000000
00000000
;

//--------------- dance-double - Fred-104 ----------------
#NOTEDATA:;
#STEPSTYPE:dance-double;
#DESCRIPTION:Fred-104;
#DIFFICULTY:Hard;
#METER:11;
#CREDIT:Fred-104;
#NOTES:
00000000
00000000
00000000
00000000
,
00000000
00000000
00000000
00000000
,
00000000
00000000
00000000
00000000
,
00000000
00000000
00000000
00000000
,
00000000
00000000
00000000
00000000
,
00000000
00000000
00000000
00000000
,
00001000
00000000
00000000
00000000
00010000
00000000
00001000
00000000
00000010
00000000
00000001
00001000
00000000
00000000
00000001
00000000
,
00000100
00000000
00000000
00000000
00000010
00000000
00001000
00000000
00000100
00000000
00010000
00001000
00000000
00000000
00010000
00000000
,
00100000
00000000
00000000
01000000
00000000
00000000
00010000
00000000
10000000
00000000
00000000
01000000
00000000
00000000
00010000
00000000
,
00011000
00000000
00000000
00010000
00000100
00000000
00000000
00000100
00001000
00000000
00000000
00001000
00000001
00000000
00000100
00000000
,
00000220
00000000
00000000
00000330
00000002
00000000
00002003
00000000
,
00003002
00000000
00000000
00000000
00000003
00000000
00000010
00000000
00000100
00001000
00000000
00000100
00000000
00000000
00010000
00000000
,
00002000
00000000
00000000
00000000
00003000
00000000
00100000
00000000
01000000
00000000
10000000
00010000
00000000
00000000
01000000
00000000
,
00200000
00000000
10300000
02000000
00000000
03020000
00000000
00032000
,
00000000
00000000
00003100
00000002
00000000
00001003
00000100
00000010
,
00000200
00000000
00000000
00000000
00010300
00000000
00001000
00000000
00010000
00000000
00000010
00001000
00000000
00000000
00000010
00000000
,
00020000
00000000
00000000
00000000
00031000
00000000
00100000
00000000
00010000
00000000
00100000
01000000
00000000
00000000
10000000
00000000
,
00010000
00000000
00000000
01000000
00000000
00000000
00100000
00000000
00010000
00000000
00000000
00001000
00000000
00000000
00010000
00000000
,
00022000
00000000
00000000
00033000
,
00010000
00000000
00001000
00000000
00000010
00000000
00000001
00000000
00000010
00000000
00000000
00000100
00000000
00000000
00002000
00000000
,
00000000
00000000
00003001
00000000
00000100
00000000
00001000
00000000
00010000
00000000
00000000
01000000
00000000
00000000
20000000
00000000
,
00000000
00000000
30010000
00000000
00100000
00000000
01000000
00000000
00100000
00000000
00000000
00001000
00000000
00000000
00010000
00000000
,
00001000
00000000
00000000
00000100
00000000
00000000
00000001
00000000
00000200
00000000
00000000
00000000
00000310
00000000
00001000
00000000
,
00000001
00000000
00000010
00000000
00000100
00000000
00000010
00000000
00001000
00000000
00000000
00010000
00000000
00000000
00001000
00000000
,
00000000
00000000
00010000
00000000
00100000
00000000
01000000
00000000
00100000
00000000
00000000
10000000
00000000
00000000
01000000
00000000
,
00100000
00000000
00000000
00001000
00000000
00000000
00020000
00000000
00000000
00000000
00000000
00000000
00031000
00000000
00010000
00000000
,
00011000
00000000
00000000
00010010
00000000
00000000
00002020
00000000
00000000
00000000
00000000
00000000
00003030
00000000
00000000
00000000
,
00002000
00000000
00000000
00000000
00003001
00000000
00000010
00000000
00000100
00000000
00000000
00000010
00000000
00000000
00000001
00000000
,
00000200
00000000
00000000
00000000
00000310
00000000
00010000
00000000
00001000
00000000
00000000
00010000
00000000
00000000
00100000
00000000
,
01000000
00000000
00000000
00001000
00000000
00000000
00010000
00000000
01000000
00000000
00000000
10000000
00000000
00000000
00010000
00000000
,
02000000
00000000
00000000
00000000
00000000
00000000
03010000
10000000
00010000
00000000
00100000
00000000
00001000
00000000
00010000
00000000
,
00002000
00000000
00000000
00000000
00013000
00000000
00001000
00000000
00000100
00000000
00000000
00000010
00000000
00000000
00001000
00000000
,
00000002
00000000
00000000
00000000
00000013
00000000
00000100
00000000
00001000
00000000
00000000
00000100
00000000
00000000
00010000
00000000
,
00001000
00000000
00000000
00010000
00000000
00000000
00100000
00000000
10000000
00000000
00000000
01000000
00000000
00000000
00010000
00000000
,
00022000
00000000
00000000
00033000
,
00000220
00000000
00000000
00000330
00002000
00000000
00003002
00000000
,
00000203
00000000
00000000
00000000
00000300
00000000
00000001
00000000
00000010
00000100
00000000
00001000
00000000
00000000
00000100
00000000
,
00020000
00000000
00000000
00000000
00030000
00000000
00000010
00000000
00010000
00000000
00001000
00010000
00000000
00000000
00100000
00000000
,
02000000
00000000
03100000
20000000
00000000
31000000
00010000
00002000
,
00000000
00003000
00010000
00002000
00000000
00003010
00000001
00000010
,
00000200
00000000
00000000
00000000
00010300
00000000
00001000
00000000
00010000
00000000
00000100
00001000
00000000
00000000
00000100
00000000
,
00000020
00000000
00000000
00000000
00000031
00000000
00000100
00000000
00000010
00000000
00000100
00000001
00000000
00000000
00001000
00000000
,
00000100
00000000
00000000
00000010
00000000
00000000
00001000
00000000
00010000
00000000
00000000
00100000
00000000
00000000
10000000
00000000
,
20020000
00000000
00000000
30030000
,
20000000
00000000
00000000
00000000
00000000
00000000
31000000
00000000
00100000
00000000
00100000
00001000
00000000
00000000
00010000
00000000
,
00000020
00000000
00000000
00000000
00000000
00000000
00001030
00000000
00000100
00000000
00000100
00000010
00000000
00000000
00000001
00000000
,
00001000
00000000
00000000
00000100
00000000
00000000
00000010
00000000
00001000
00000000
00000000
00010000
00000000
00000000
01000000
00000000
,
00100000
00010000
10000000
00100000
00010000
00001000
00010000
00100000
,
02000000
00000000
00000000
00000000
03001000
00000000
00010000
00000000
00100000
00000000
00000000
01000000
00000000
00000000
00010000
00000000
,
20000000
00000000
00000000
00000000
31000000
00000000
00100000
00000000
00010000
00000000
00000000
01000000
00000000
00000000
00100000
00000000
,
00010000
00000000
00000000
00001000
00000000
00000000
00010000
00000000
01000000
00000000
00000000
10000000
00000000
00000000
00010000
00000000
,
20000000
00000000
00000000
00000000
00000000
00000000
30010000
01000000
00010000
00000000
01000000
00000000
00001000
00000000
00010000
00000000
,
00002000
00000000
00000000
00000000
00013000
00000000
00001000
00000000
00000010
00000000
00000000
00000100
00000000
00000000
00001000
00000000
,
00000002
00000000
00000000
00000000
00000103
00000000
00001000
00000000
00010000
00000000
00000000
00001000
00000000
00000000
00000100
00000000
,
00000010
00000000
00000000
00001000
00000000
00000000
00000100
00000000
00000010
00000000
00000000
00001000
00000000
00000000
00010000
00000000
,
00022000
00000000
00000000
00033000
,
00001000
00010000
01000000
00100000
00010000
10000000
00100000
01000000
,
00010000
00000000
00200000
00320000
,
20030000
00000000
00000000
30000000
10010000
00000000
10000000
00000000
00010000
00100000
00000000
01000000
00000000
00000000
00100000
00000000
,
00002000
00000000
00000000
00000000
00013000
00000000
00001000
00000000
00000100
00000000
00000010
00001000
00000000
00000000
00000001
00000000
,
00000020
00000000
00000130
00000010
00000001
00000100
00001000
00010000
,
00002000
00000000
00013000
00200000
00000000
01300000
00010000
10000000
,
02000000
00000000
00000000
00000000
03100000
00000000
00001000
00000000
00010000
00000000
00001000
01000000
00000000
00000000
00001000
00000000
,
00020000
00000000
00000000
00000000
00031000
00000000
00000010
00000000
00000100
00000000
00001000
00000100
00000000
00000000
00000010
00000000
,
00000001
00000000
00000000
00000100
00000000
00000000
00001000
00000000
00010000
00000000
00000000
01000000
00000000
00000000
10000000
00000000
,
20020000
00000000
00000000
30030000
00020000
00000000
02030000
00000000
,
03002000
00000000
00000000
00000000
00013000
00000000
00001000
00000000
00000100
00000010
00000000
00001000
00000001
00000000
00000010
00000000
,
00000002
00000000
00000000
00000000
00000103
00000000
00001000
00000000
00010000
00000000
00001000
00010000
00000000
00001000
00010000
00000000
,
00200000
00000000
10300000
00010000
00100000
01000000
00100000
00001000
,
00020000
00000000
00031000
00010000
00000010
00001000
00000100
00000010
,
00000002
00000000
00000000
00000000
00001003
00000000
00000001
00000000
00000100
00000001
00000000
00000010
00000100
00000000
00001000
00000000
,
00000200
00000000
00000000
00000000
00010300
00000000
00001000
00000000
01000000
00000000
00001000
00010000
00000000
00001000
00100000
00000000
,
00001000
00000000
00000000
00010000
00000000
00000000
00100000
00000000
10000000
00000000
00000000
00010000
00000000
00000000
00100000
00000000
,
02200000
00000000
00000000
03300000
02000000
00000000
23000000
00000000
,
30020000
00000000
00000000
00000000
00000000
00000000
10030000
00000000
01000000
00100000
00000000
00001000
00000000
00000000
00010000
00000000
,
00002000
00000000
00000000
00000000
00000000
00000000
00003100
00000000
00000010
00000000
00001000
00000001
00000000
00000000
00000010
00000000
,
00000100
00000000
00000000
00010000
00000000
00000000
00001000
00000000
01000000
00000000
00000000
00001000
00000000
00000000
00010000
00000000
,
00022000
00000000
00000000
00000000
,
00000000
00000000
00000000
00000000
,
00033000
00000000
00000000
00000000
;

//--------------- dance-double - Fred-104† ----------------
#NOTEDATA:;
#STEPSTYPE:dance-double;
#DESCRIPTION:Fred-104†;
#DIFFICULTY:Challenge;
#METER:14;
#CREDIT:Fred-104†;
#NOTES:
00000000
00000000
00000000
00000000
,
00000000
00000000
00000000
00000000
,
00000000
00000000
00000000
00000000
,
00000000
00000000
00000000
00000000
,
00000000
00000000
00000000
00000000
,
00000000
00000000
00000000
00000000
,
00010000
00000000
00000000
00000000
00001000
00000000
00000010
00000000
00000001
00000000
00000010
00000100
00000000
00001000
00000001
00000000
,
00000100
00000000
00000000
00000000
00001000
00000000
00010000
00000000
00100000
00000000
01000000
00010000
00000000
10000000
00010000
00000000
,
00100000
00000000
00000000
01000000
00000000
00000000
00010000
00000000
00001000
00000000
00000000
00000010
00000000
00000000
00000100
00000000
,
00001000
00000001
00000100
00001000
00010000
01000000
00100000
00010000
,
01000000
00002000
00010000
00000000
00000010
00000000
00013000
00000000
,
00011000
00000000
00000000
00000000
00001000
00000000
00010000
00000000
00100000
01000000
00100000
01000000
00000000
00010000
10000000
00000000
,
11000000
00000000
00000000
00000000
01000000
00000000
00100000
00000000
00001000
00010000
00001000
00010000
00000000
00000010
00001000
00000000
,
00001002
00000000
00001003
00000100
00000001
00001000
00000010
00000001
,
00000020
00000000
00000130
00001000
00000001
00000100
00001000
00010000
,
00012000
00000000
00000000
00000000
01003000
00000000
00010000
00000000
00100000
01000000
00100000
01000000
00000000
10000000
00010000
00000000
,
02010000
00000000
00000000
00000000
03010000
00000000
10000000
00000000
01000000
00100000
01000000
00100000
00000000
00001000
00010000
00000000
,
00001000
00000000
00000000
00000100
00000000
00000000
00000001
00000000
00001000
00000000
00000000
00000100
00000000
00000000
00000010
00000000
,
00000001
00000000
00000100
00000000
00001000
00000000
00010000
00000000
00001000
00010000
00001000
00010000
00001000
00000000
01000000
00000000
,
00010000
00000000
10000000
00000000
00100000
00000000
00010000
00000000
00001000
00000000
00000100
00000001
00000000
00001000
00000100
00000000
,
00000010
00000000
00000001
00000000
00001000
00000000
00000010
00000000
00000100
00000000
00001000
00010000
00000000
00100000
10000000
00000000
,
00010000
00000000
00100000
00000000
01000000
00000000
00010000
00000000
00001000
00000000
00000010
00000001
00000000
00000100
00000010
00000000
,
00001000
00000000
00000001
00000010
00000000
00000100
00010000
00000000
00002000
00000000
00000000
00000000
00013000
00000000
00010000
00000000
,
00001000
00000000
00010000
00000000
00100000
00000000
10000000
00000000
01000000
00000000
00100000
00001000
00000000
00010000
00000010
00000000
,
00001000
00000000
00000100
00000000
00010000
00000000
00001000
00000000
00010000
00000000
01000000
00100000
00000000
00010000
10000000
00000000
,
00010000
01000000
00000000
00001000
00010000
00000000
00001000
00000000
00000100
00000000
00000010
00000000
00001000
00000000
00000001
00000000
,
00000010
00000100
00000000
00001000
00000100
00000000
00010000
00000000
00001000
00000000
00001000
00000000
01000000
00010000
01000000
00010000
,
20000000
00000000
00000000
00000000
31000000
00000000
00100000
00000000
00001000
00000000
00000000
00000010
00000000
00000000
00000001
00000000
,
00002000
00000000
00000000
00000000
00003001
00000000
00000100
00000000
00000010
00000000
00000000
00010000
00000000
00000000
00100000
00000000
,
10000000
00000000
00000000
01000000
00000000
00000000
00010000
00000000
00001000
00000000
00000000
00010000
00000000
00000000
00100000
00000000
,
20000000
00000000
00000000
00000000
31000000
00000000
01000000
00100000
00001000
00000000
00001000
00000000
00010000
00000010
00001000
00000010
,
00000200
00000000
00000000
00000000
00000301
00000000
00001000
00000000
00000100
00000000
00000010
00001000
00000000
00010000
00001000
00000000
,
02000000
00000000
00000000
00000000
03010000
00000000
10000000
00000000
01000000
00000000
00100000
01000000
00000000
00010000
00001000
00000000
,
00011000
00000000
00000000
00000010
00000000
00000000
00000001
00000000
00000101
00000000
00000000
00000010
00000000
00000000
00010000
00000000
,
00022000
00000000
00000000
00033000
,
20020000
00000000
30000000
00030000
,
02100000
00000000
00000000
00000000
03010000
00000000
10000000
00000000
01000000
00010000
01000000
00010000
00000000
00001000
00010000
00000000
,
00012000
00000000
00000000
00000000
00013000
00000000
00000100
00000000
00001000
00000001
00001000
00000001
00000000
00000010
00000100
00000000
,
00002100
00000000
00003001
00000010
00001000
00010000
01000000
00100000
,
00020000
00000000
01030000
00100000
00010000
00001000
00000100
00000010
,
00002010
00000000
00000000
00000000
00003001
00000000
00000010
00000000
00001000
00010000
00001000
00010000
00000000
01000000
00100000
00000000
,
00120000
00000000
00000000
00000000
10030000
00000000
00100000
00000000
01000000
00001000
01000000
00001000
00000000
00010000
00001000
00000000
,
00011000
00000000
00000000
00000010
00000000
00000000
00010000
00000000
00011000
00000000
00000000
00100000
00000000
00000000
00001000
00000000
,
00010000
00000000
00001000
00000000
00000010
00000000
00000001
00000000
00000010
00000100
00000010
00000100
00001000
00000000
00000100
00000000
,
00020000
00000000
00000000
00000000
00000000
00000000
00001000
00000000
00031000
00000000
00010000
00100000
00000000
01000000
00010000
00000000
,
20000000
00000000
00000000
00000000
00000000
00000000
31000000
00000000
01000000
00000000
00100000
00001000
00000000
00010000
00001000
00000000
,
00010000
00000000
00000000
00001000
00000000
00000000
00000010
00000000
00000001
00000000
00000000
00000100
00000000
00000000
00001000
00000000
,
00010000
00000000
00001000
00000000
01000000
00000000
00010000
00000000
10000000
01000000
10000000
01000000
00100000
00000000
00001000
00010000
,
00002000
00000000
00000000
00000000
00000000
00000000
00010000
00000000
00013000
00000000
00001000
00000010
00000000
00000001
00000010
00000000
,
00000200
00000000
00000000
00000000
00000000
00000000
00001000
00000000
00001300
00000000
00000001
00000100
00000000
00001000
00010000
00000000
,
00011000
00000000
00000000
01000000
00000000
00000000
00100000
00000000
10100000
00000000
00000000
10000000
00000000
00000000
01000000
00000000
,
00110000
00000000
00000000
00000000
00100000
00000000
00001000
00010000
00001000
00000000
00000010
00000000
00000100
00001000
00000100
00001000
,
00000002
00000000
00000000
00000000
00000013
00000000
00000100
00010000
00001000
00000000
00000000
00010000
00000000
00000000
00100000
00000000
,
20000000
00000000
00000000
00000000
31000000
00000000
00100000
00001000
00010000
00000000
00000000
00001000
00000000
00000000
00000100
00000000
,
00000101
00000000
00000000
00000010
00000000
00000000
00001000
00000000
00001100
00000000
00000000
00000010
00000000
00000000
00000001
00000000
,
00002002
00000000
00000000
00003003
,
00000001
00000010
00000001
00000010
00000001
00000010
00000001
00000010
00000100
00001000
00000100
00001000
00000100
00001000
00000100
00002000
,
00000200
00000000
00000300
00003000
,
00001001
00000000
00000000
00000000
00000101
00000000
00000100
00000000
00001000
00010000
00001000
00010000
00000000
01000000
00100000
00000000
,
00120000
00000000
00000000
00000000
10030000
00000000
00010000
00000000
01000000
00100000
01000000
00100000
00000000
10000000
00010000
00000000
,
00210000
00000000
01300000
10000000
00100000
00010000
00001000
00000100
,
00000002
00000000
00001003
00000100
00000010
00001000
00010000
00001000
,
00021000
00000000
00000000
00000000
00031000
00000000
00010000
00000000
01000000
00100000
01000000
00100000
00000000
00001000
00010000
00000000
,
00012000
00000000
00000000
00000000
00013000
00000000
00001000
00000000
00000100
00000001
00000100
00000001
00000000
00001000
00000100
00000000
,
00000110
00000000
00000000
00000001
00000000
00000000
00001000
00000000
00001010
00000000
00000000
00000010
00000000
00000000
00010000
00000000
,
00011000
00000000
00001000
00000000
00010000
00000000
00100000
00000000
10000000
01000000
10000000
01000000
00100000
00000000
00001000
00010000
,
00002000
00000000
00000000
00000000
00013000
00000000
00000010
00000000
00001000
00000010
00001000
00000001
00000000
00000010
00000100
00000000
,
00002000
00000000
00000000
00000000
00003010
00000000
00000100
00000000
00001000
00010000
00001000
00010000
00000000
01000000
00100000
00000000
,
00020000
00000000
10030000
01000000
00010000
00001000
00010000
00100000
,
02000000
00000000
00000000
00000000
03010000
00000000
00100000
00000000
01000000
00000000
10000000
01000000
00100000
00000000
00001000
00000000
,
00011000
00000000
00000000
00000000
00010010
00000000
00000010
00000000
00001000
00000001
00000010
00000100
00000000
00000010
00000001
00000000
,
00000201
00000000
00000000
00000000
00000310
00000000
00001000
00000000
00000001
00000010
00000100
00001000
00000000
00000100
00010000
00000000
,
00011000
00000000
00000000
00100000
00000000
00000000
10000000
00000000
11000000
00000000
00000000
00100000
00000000
00000000
00001000
00000000
,
00010000
00000000
00001000
00000000
00010000
00000000
00000100
00000000
00000010
00000100
00000010
00000100
00001000
00000000
00000001
00001000
,
00000020
00000000
00000000
00000000
00000130
00000000
00000001
00000000
00001000
00000010
00001000
00000010
00000000
00010000
00001000
00000000
,
00020000
00000000
00000000
00000000
00130000
00000000
01000000
00000000
00010000
00000000
00100000
01000000
00000000
10000000
00010000
00000000
,
10000000
00000000
00000000
00100000
00000000
00000000
00010000
00000000
00001000
00000000
00000000
00000100
00000000
00000000
00000001
00000000
,
00000022
00000000
00000000
00000000
,
00000000
00000000
00000000
00000000
,
00000033
00000000
00000000
00000000
;
