#TITLE:Raw Crawler;
#ARTIST:Masayoshi Iimori;
#BANNER:Raw Crawler.png;
#BACKGROUND:Raw Crawler-bg.png;
#CDTITLE:./CDTitles/DANCERUSH STARDOM.png;
#MUSIC:Raw Crawler.ogg;
#SAMPLESTART:16;
#SAMPLELENGTH:15;
#BPMS:0=150;
#BGSTAGE:15;

//--------------- dance-single - Fred-104 ----------------
#NOTES:
     dance-single:
     Fred-104:
     Beginner:
     2:
     :
0000
0000
0000
0000
,
0000
0000
0000
0000
,
0000
0000
0000
0000
,
0000
0000
0000
0000
,
0000
0000
0000
0000
,
0000
0000
0000
0000
,
1000
0000
0000
0000
,
0001
0000
0000
0000
,
0002
0000
0000
0000
,
0003
0000
0000
0000
,
1000
0000
0000
0000
,
0001
0000
0000
0000
,
0010
0000
0000
0000
,
0100
0000
0100
0000
,
1000
0000
0000
0000
,
0001
0000
0000
0000
,
0100
0000
0000
0000
,
0010
0000
0010
0000
,
1001
0000
0000
0000
,
0000
0000
0000
0000
,
0001
0000
1000
0000
,
0001
0000
0010
0000
,
0010
0000
0100
0000
,
0100
0000
1000
0000
,
0001
0000
1000
0000
,
1001
0000
0000
0000
,
1001
0000
0000
0000
,
0000
0000
0000
0000
,
0001
0000
0000
0000
,
0000
0000
0000
0000
,
1000
0000
1000
0000
,
0010
0000
0010
0000
,
0001
0000
0001
0000
,
0100
0000
0100
0000
,
1000
0000
0000
0000
,
0001
0000
0000
0000
,
1000
0000
0000
0000
,
0001
0000
0000
0000
,
0100
0000
0010
0000
,
0100
0000
0001
0000
,
1000
0000
0001
0000
,
1001
0000
0000
0000
,
0001
0000
1000
0000
,
0001
0000
0001
0000
,
0010
0000
0100
0000
,
0010
0000
0010
0000
,
0100
0000
1000
0000
,
0100
0000
1000
0000
,
0001
0000
1000
0000
,
1001
0000
0000
0000
,
0001
0000
1000
0000
,
0001
0000
0010
0000
,
0010
0000
0100
0000
,
1000
0000
1000
0000
,
0001
0000
1000
0000
,
0001
0000
1000
0000
,
0002
0000
0000
0003
,
2002
0000
0000
0000
,
3003
0000
0000
0000
;

//--------------- dance-single - Fred-104 ----------------
#NOTES:
     dance-single:
     Fred-104:
     Easy:
     6:
     :
0000
0000
0000
0000
,
0000
0000
0000
0000
,
0000
0000
0000
0000
,
0000
0000
0000
0000
,
0000
0000
0000
0000
,
0000
0000
0000
0000
,
1000
0010
0001
0100
,
1000
0010
0001
0100
,
1000
0001
2002
3003
,
0001
1000
0001
0000
1000
0001
1000
0000
,
0100
0100
0010
0010
,
0001
0001
1000
0002
,
0103
0100
0010
0010
,
0100
0000
0001
0000
1000
0001
1000
0000
,
0100
0100
0010
0010
,
0001
0001
1000
1001
,
0001
0100
0010
1000
,
0001
0010
0100
1000
,
1001
0000
0001
0000
,
0100
0000
0010
1000
,
2002
3003
0001
0100
,
1000
0010
0001
1000
,
0001
0100
0110
0000
,
1001
0000
0000
0000
0001
1000
0001
0000
,
2002
0000
3003
0000
1000
0001
1000
0000
,
0001
0000
0000
1000
0000
0000
0001
0000
,
1001
0000
1000
0000
,
0010
0000
0001
0000
,
0100
0000
1000
0000
,
0001
0000
1000
0000
,
0001
0000
0100
0000
,
1000
0000
0010
0000
,
0001
0000
1000
0000
,
0001
0010
0100
0000
,
1000
1000
0010
0010
,
0001
0001
0100
0100
,
1000
1000
0010
0010
,
0001
0001
0100
0100
,
1000
0001
1000
0001
,
0010
0100
0010
0001
,
0100
0100
0010
0010
,
1001
0000
0000
0000
,
0001
0010
0001
0010
,
1000
0010
0001
1000
,
0001
0100
0001
0100
,
1000
0100
0001
1000
,
1001
0001
0010
0100
,
1000
0001
0100
0010
,
0100
0001
1000
0001
,
2002
0000
0000
3003
,
1001
0000
0001
0100
,
1000
0010
0001
1000
,
0002
1003
0010
0001
,
0100
1000
1001
0000
,
0002
0203
2300
3020
,
0031
1000
0100
0020
,
0031
0100
0010
1000
,
2002
0000
0000
0000
,
3003
0000
0000
0000
;

//--------------- dance-single - Fred-104 ----------------
#NOTES:
     dance-single:
     Fred-104:
     Medium:
     10:
     :
0000
0000
0000
0000
,
0000
0000
0000
0000
,
0000
0000
0000
0000
,
0000
0000
0000
0000
,
0000
0000
0000
0000
,
0000
0000
0000
0000
,
0001
0001
1000
1000
,
0100
0010
0100
0010
0001
0010
0001
0010
,
0001
0000
2000
3000
2002
0000
3003
0000
,
0002
0003
2000
3000
0002
0003
2000
3000
0002
0003
2000
3000
1001
0000
0000
0000
,
1100
1001
1100
1001
,
0101
0000
0000
0000
1001
0000
0000
0000
0101
0000
0000
0000
0002
0003
2000
3000
,
1010
1001
0011
1001
,
0110
0000
0000
0000
1001
0000
0000
0000
1000
0001
1000
0001
2000
3000
0002
0003
,
0011
1001
1010
1001
,
1100
0000
1001
0000
0101
0000
2002
3003
,
1100
0000
0101
0000
1010
0000
0022
0033
,
1000
1000
0001
0001
0100
0100
0010
1000
,
0001
0001
0010
0010
,
0100
0100
1000
0001
,
2002
0000
3003
0000
0001
0010
0100
1000
,
0001
0100
0010
1000
0001
0010
0200
2300
,
3002
1003
1100
0010
,
0101
0000
0000
0000
0010
0000
0000
0000
1000
0001
1000
0001
2000
0000
3000
0000
,
2002
0000
0000
0000
3003
0000
0000
0000
0001
1000
0001
1000
0001
0000
0000
0000
,
0011
0000
0000
0101
0000
0000
1010
0000
0000
1100
0000
0000
0110
0000
0000
0000
,
1001
0000
0001
0000
,
1000
0000
1000
0000
,
0100
0000
0000
0000
0010
0010
0000
0000
,
0001
2000
3002
0203
,
0310
0000
1000
0000
,
0001
0000
0010
0100
,
1000
0000
0000
0000
0001
0001
0000
0000
,
0100
0010
0100
0001
,
0011
0011
0011
0011
,
0101
0101
0101
0101
,
1010
1010
1010
1010
,
1100
1100
1100
1100
,
0001
0100
0001
0000
1000
0100
1000
0000
,
0001
0010
0001
0000
1000
0010
1000
0000
,
0001
0010
0100
1000
0001
0100
0010
1000
,
0001
0100
0010
0100
0001
1000
1001
0000
,
0110
0000
1000
0100
0010
0100
1000
0100
,
0010
0001
1000
0010
0100
0010
2000
3000
,
1001
0000
0001
0010
0100
0010
0001
1000
,
0010
0000
0100
0000
0010
0000
1000
0000
0001
0000
0000
0010
0000
0000
0100
0000
,
1100
0000
0001
0100
1000
0100
0001
1000
,
0001
0100
1000
0100
0001
1000
0002
0003
,
1001
0000
1000
0010
0001
0010
1000
0001
,
1000
0100
0001
1000
0010
0002
0000
0003
,
1001
0000
0000
0001
0000
0100
0001
0000
1000
0001
0000
0000
,
1000
0000
0100
0010
0000
0001
0010
0000
0001
0010
0000
0000
,
0002
0000
0000
1003
0000
0001
0100
0000
0001
1000
0000
0000
,
0100
0000
0100
0010
0000
0010
0100
0000
0000
1001
0000
0000
,
0002
0023
0230
2300
,
3001
0100
0010
2000
,
3001
0000
0001
1000
0000
1000
0010
0000
0010
0100
0000
0100
,
0010
1000
0001
0010
0200
2000
0000
0000
,
3300
0000
0000
0000
;

//--------------- dance-single - Fred-104 ----------------
#NOTES:
     dance-single:
     Fred-104:
     Hard:
     15:
     :
0000
0000
0000
0000
,
0000
0000
0000
0000
,
0000
0000
0000
0000
,
0000
0000
0000
0000
,
0000
0000
0000
0000
,
0000
0000
0000
0000
,
1000
0100
1000
0100
0010
0001
0010
0001
,
1000
0010
1000
0010
0100
0001
0100
0001
1000
0010
0100
0001
1000
0100
0010
0001
,
0010
0000
0200
0300
0200
0000
0000
0000
,
2300
3000
0002
0003
2000
3000
0002
1003
0002
1003
0002
0003
1001
0000
0000
0000
,
0012
1003
0102
1003
0021
1030
0201
1300
,
1002
0000
0103
0000
2001
0000
3010
0000
1002
0000
0103
0000
0020
0000
2030
3000
,
2100
3010
0102
0013
2010
3100
0012
0103
,
2010
0000
3001
0000
2100
0000
3001
0000
1000
0100
1000
0100
0020
0000
0032
0003
,
2001
3100
1002
0013
2001
3100
0120
0031
,
2010
0000
3001
0000
2100
0000
3001
0000
0210
0000
0301
0000
2002
0000
0000
3003
,
2100
0000
3001
0000
0210
0000
0301
0000
2010
0000
3100
0000
0220
0000
0000
0330
,
0011
0000
0011
0000
0110
0000
0110
0000
1100
0000
1100
0000
0001
1000
0001
1000
,
0001
0001
0100
0100
,
0010
0000
0000
0010
0000
0000
1000
0000
0000
1000
0100
0100
,
0002
0000
0000
0000
0003
0000
0000
0000
1000
0100
1000
0100
0010
0001
1000
0010
,
1000
0010
1000
0010
0100
0001
1000
0001
0010
0001
0010
0001
2000
0000
3020
0000
,
0230
0300
0200
0300
0002
0000
0003
0000
1100
0000
0100
0000
0010
0000
0000
0000
,
0101
0000
0100
0000
0010
0000
0000
0000
1000
0001
1000
0001
2000
0000
0000
3000
,
2002
0000
0000
0000
0000
0000
0000
0000
0000
0000
0000
0000
3003
0000
0000
0000
0000
0000
0000
0000
0000
0000
0000
0000
0001
0000
0000
0010
0000
0000
0001
0000
0000
0010
0000
0000
0100
0000
1000
0000
0100
0000
1000
0000
0100
0000
1000
0000
,
0100
0000
0000
1100
0000
0000
0101
0000
0000
1010
0000
0000
0011
0000
0000
0000
,
1001
0000
0100
0000
,
0001
0000
0010
0000
,
1000
0000
0000
0000
0100
0100
0000
0000
,
0001
0020
2030
3002
,
1003
0000
0100
0000
0010
0100
0010
0000
,
0001
0000
0100
0000
0010
0100
0010
0000
,
1000
0100
0010
0000
0001
0100
0010
0000
,
1000
0010
0100
0000
0001
0010
0100
0000
,
1100
0110
1100
0101
,
1010
0110
1010
0011
,
0101
0110
0101
1100
,
0011
0110
0011
1010
,
0001
0010
0100
1000
0001
0100
0010
1000
,
0001
0010
0001
0010
0100
1000
0100
1000
0001
0100
0001
0100
0010
1000
0010
1000
,
0001
0010
0100
1000
0001
0100
0010
1000
0010
0100
0001
1000
0100
0010
0001
1000
,
0010
0000
1000
0000
0001
0000
0010
0100
1000
0010
0100
0000
0101
0000
0000
0000
,
0110
0000
0000
0000
2000
0000
3100
0001
0200
0000
1300
0001
2000
0000
3100
0001
,
0200
0000
1300
0001
2000
0000
3010
0001
0020
0000
1030
0001
0020
0000
0030
0000
,
0210
0300
1000
0001
2000
0000
3001
0010
2000
0000
3010
0001
0200
0000
0301
0010
,
2000
0000
3010
0001
0200
0000
0301
0100
1000
0000
0000
0100
0000
0001
1000
0100
,
0010
0000
0000
0000
0012
0003
1000
0100
0020
0000
0031
0100
0020
0000
1030
0100
,
0020
0000
0031
0010
0200
0000
1300
0010
0200
0000
0301
0010
0200
0000
0300
0000
,
2100
3000
0001
1000
0200
0000
1300
0001
0200
0000
0301
1000
0020
0000
1030
0001
,
0020
0230
2300
3002
0203
0020
0000
0330
,
1001
0000
0000
0001
0010
0100
1000
0100
0001
0100
1000
0001
,
1000
0001
0100
0010
0001
1000
0100
0001
1000
0100
0010
0001
,
2000
0000
0000
3001
0010
1000
0001
0100
0010
0100
1000
0001
,
1000
0000
0100
0000
0001
0000
1000
0000
0010
0000
0001
0000
2000
0000
0000
0000
0000
0000
3001
0010
0001
0000
1000
0000
,
1001
0000
0001
0200
0300
1000
0200
0300
0001
0200
0300
0010
,
1000
0010
0001
1000
0100
0001
1000
0010
0100
0002
0000
0003
,
1000
0100
0010
1000
0010
0001
1000
0010
0001
0010
0100
0001
,
2000
3200
0302
2003
3020
0002
0000
0000
,
0033
0000
0000
0000
;

//--------------- dance-double - Fred-104 ----------------
#NOTES:
     dance-double:
     Fred-104:
     Easy:
     6:
     :
00000000
00000000
00000000
00000000
,
00000000
00000000
00000000
00000000
,
00000000
00000000
00000000
00000000
,
00000000
00000000
00000000
00000000
,
00000000
00000000
00000000
00000000
,
00000000
00000000
00000000
00000000
,
10000000
00100000
00010000
00001000
,
00000100
00000001
00000010
00001000
,
00010000
00001000
00022000
00033000
,
00001000
00010000
00001000
00000000
01000000
00010000
01000000
00000000
,
00001000
00001000
00010000
00010000
,
01000000
01000000
10000000
00020000
,
10030000
00100000
00010000
00001000
,
00000100
00000000
00000001
00000000
00000010
00000100
00000010
00000000
,
00000001
00000001
00000100
00000100
,
00001000
00001000
00010000
00011000
,
00001000
00010000
00100000
10000000
,
01000000
00010000
00001000
00010000
,
00011000
00000000
00001000
00000000
,
00010000
00000000
00000010
00010000
,
00022000
00033000
00001000
00010000
,
01000000
10000000
00100000
00010000
,
00001000
00010000
00011000
00000000
,
00001001
00000000
00000000
00000000
00001000
00000001
00001000
00000000
,
00002002
00000000
00003003
00000000
00000001
00000100
00000001
00000000
,
00001000
00000000
00000000
00000100
00000000
00000000
00010000
00000000
,
00011000
00000000
00001000
00000000
,
00010000
00000000
01000000
00000000
,
10000000
00000000
00100000
00000000
,
00010000
00000000
00001000
00000000
,
00000100
00000000
00000001
00000000
,
00000010
00000000
00001000
00000000
,
00010000
00000000
01000000
00000000
,
10000000
00100000
00010000
00000000
,
00001000
00001000
00010000
00010000
,
00100000
00100000
10000000
10000000
,
01000000
01000000
00010000
00010000
,
00001000
00001000
00010000
00010000
,
00001000
00010000
00000100
00001000
,
00000010
00000100
00000010
00001000
,
00000001
00000010
00000100
00010000
,
00011000
00000000
00000000
00000000
,
00010000
00001000
00010000
00100000
,
10000000
00100000
00010000
00001000
,
00010000
01000000
10000000
01000000
,
00010000
00001000
00010000
00001000
,
00011000
00010000
00001000
00000100
,
00000001
00000100
00001000
00010000
,
00001000
00000010
00000001
00000010
,
00000220
00000000
00000000
00000330
,
00011000
00000000
00001000
00010000
,
01000000
10000000
00100000
00010000
,
00002000
00013000
00001000
00000100
,
00000001
00001000
00001001
00000000
,
00000002
00000023
00002030
00023000
,
01030000
10000000
00100000
00020000
,
00031000
00010000
00000100
00010000
,
00022000
00000000
00000000
00000000
,
00033000
00000000
00000000
00000000
;

//--------------- dance-double - Fred-104 ----------------
#NOTES:
     dance-double:
     Fred-104:
     Medium:
     10:
     :
00000000
00000000
00000000
00000000
,
00000000
00000000
00000000
00000000
,
00000000
00000000
00000000
00000000
,
00000000
00000000
00000000
00000000
,
00000000
00000000
00000000
00000000
,
00000000
00000000
00000000
00000000
,
00001000
00001000
00010000
00010000
,
00001000
00010000
00001000
00010000
01000000
00100000
01000000
00100000
,
01000000
00000000
20000000
30000000
20020000
00000000
30030000
00000000
,
20000000
30000000
02000000
03000000
00020000
00030000
00002000
00003000
00000200
00000300
00000002
00000003
00001001
00000000
00000000
00000000
,
00000011
00001010
00000011
00001001
,
00001100
00000000
00000000
00000000
00010100
00000000
00000000
00000000
00011000
00000000
00000000
00000000
00020000
00030000
00002000
00003000
,
01001000
01010000
11000000
00110000
,
00101000
00000000
00000000
00000000
00011000
00000000
00000000
00000000
00010000
00001000
00010000
00001000
00020000
00030000
00002000
00003000
,
00011000
00001010
00000011
00001001
,
00000101
00000000
00001100
00000000
00011000
00000000
02200000
03300000
,
11000000
00000000
01010000
00000000
10100000
00000000
00220000
00330000
,
10000000
10000000
01000000
01000000
00100000
00100000
00001000
00010000
,
00001000
00001000
00000010
00000010
,
00000001
00000001
00001000
00000001
,
00002002
00000000
00003003
00000000
00000001
00000010
00000001
00000010
,
00001000
00010000
00001000
00010000
00100000
10000000
00200000
20300000
,
32000000
03100000
00011000
00000010
,
00001001
00000000
00000000
00000000
00000100
00000000
00000000
00000000
00010000
00001000
00010000
00001000
00020000
00000000
00030000
00000000
,
00022000
00000000
00000000
00000000
00033000
00000000
00000000
00000000
01000000
00100000
01000000
00100000
01000000
00000000
00000000
00000000
,
00010000
00000000
00000000
01010000
00000000
00000000
10000000
00000000
00000000
11000000
00000000
00000000
01100000
00000000
00000000
00000000
,
00011000
00000000
00010000
00000000
,
00000100
00000000
00001000
00000000
,
00000001
00000000
00000000
00000000
00000010
00000010
00000000
00000000
,
00000100
00020000
00032000
00023000
,
01030000
00000000
10000000
00000000
,
00100000
00000000
00010000
00000000
,
00001000
00000000
00000000
00000000
00010000
00010000
00000000
00000000
,
00000100
00010000
00001000
00100000
,
00110000
10010000
01010000
10100000
,
00110000
00011000
00001100
00000101
,
00001001
00000011
00001010
00011000
,
01010000
11000000
01100000
10010000
,
10000000
01000000
00010000
00000000
00001000
00000010
00000001
00000000
,
00001000
00000100
00000010
00000000
00000001
00001000
00000010
00000000
,
00001000
00000001
00000010
00000100
00001000
00000100
00010000
00001000
,
00010000
00000100
00001000
00000010
00010000
00001000
01000000
00000000
,
00011000
00000000
00010000
00001000
00010000
00001000
00000010
00001000
,
00000010
00001000
00010000
00001000
00000010
00000001
00002000
00003000
,
00000110
00000000
00000001
00000100
00000001
00000100
00001000
00010000
,
00001000
00000000
00010000
00000000
01000000
00000000
10000000
00000000
01000000
00000000
00000000
00100000
00000000
00000000
00001000
00000000
,
00011000
00000000
00001000
00010000
00100000
00010000
00001000
00010000
,
00001000
00010000
01000000
00010000
00001000
00010000
00002000
00003000
,
00011000
00000000
00010000
00001000
00000100
00000001
00001000
00000100
,
00000010
00000001
00000100
00001000
00020000
00002000
00000000
00033000
,
00011000
00000000
00000000
00001000
00000000
00010000
00001000
00000000
00010000
01000000
00000000
00000000
,
10000000
00000000
01000000
00100000
00000000
00001000
00010000
00000000
00001000
00010000
00000000
00000000
,
00000020
00000000
00000000
00001030
00000000
00000100
00000010
00000000
00000001
00001000
00000000
00000000
,
00000001
00000000
00000010
00000100
00000000
00010000
00001000
00000000
00000000
00011000
00000000
00000000
,
00020000
00032000
00003020
00000230
,
00010300
00001000
00000100
00000002
,
00000013
00000000
00000010
00000100
00000000
00000100
00010000
00000000
00010000
00001000
00000000
00001000
,
00010000
00100000
10000000
00010000
00200000
02000000
00000000
00000000
,
03300000
00000000
00000000
00000000
;

//--------------- dance-double - Fred-104 ----------------
#NOTES:
     dance-double:
     Fred-104:
     Hard:
     15:
     :
00000000
00000000
00000000
00000000
,
00000000
00000000
00000000
00000000
,
00000000
00000000
00000000
00000000
,
00000000
00000000
00000000
00000000
,
00000000
00000000
00000000
00000000
,
00000000
00000000
00000000
00000000
,
00010000
00001000
00010000
00001000
00000010
00000100
00000010
00000100
,
00000010
00000001
00000010
00000000
00000100
00001000
00000100
00000000
00010000
00001000
00010000
00001000
01000000
00010000
01000000
00010000
,
01000000
00000000
00002000
00003000
00022000
00000000
00000000
00033000
,
00020000
00030000
00002000
00003000
00020000
00030000
00200000
10300000
00200000
10300000
00020000
00030000
10010000
00000000
00000000
00000000
,
02010000
03001000
01020000
10030000
02010000
03001000
01020000
10030000
,
02010000
00000000
03001000
00000000
01020000
00000000
10030000
00000000
02010000
00000000
03001000
00000000
00020000
00000000
00030020
00000030
,
00001020
00010030
00002010
00003001
00001020
00010030
00002010
00003001
,
00001010
00000000
00010000
00000000
00001000
00000000
01000000
00000000
00010000
10000000
00010000
10000000
00200000
00000000
20300000
30000000
,
20100000
30010000
00120000
10030000
00210000
00301000
00001020
00010030
,
00002010
00000000
00003001
00000000
00001020
00000000
00010030
00000000
00210000
00000000
00301000
00000000
00022000
00000000
00000000
00033000
,
00021000
00000000
00030010
00000000
00012000
00000000
00103000
00000000
00021000
00000000
00030010
00000000
00022000
00000000
00000000
00033000
,
00101000
00000000
00001000
00000000
00011000
00000000
00010000
00000000
00010010
00000000
00000010
00000000
00001000
00000001
00001000
00000001
,
00000010
00000010
00000100
00000100
,
00010000
00000000
00000000
00010000
00000000
00000000
00001000
00000000
00000000
00001000
00010000
00100000
,
20000000
00000000
00000000
00000000
30000000
00000000
00000000
00000000
10000000
01000000
10000000
01000000
00100000
00000000
00001000
00010000
,
00000010
00001000
00000010
00001000
00000010
00000000
00000100
00000001
00001000
00000001
00001000
00000001
00000020
00000000
00000230
00000000
,
00020300
00032000
00023000
00030000
00011000
00001000
01000000
00000000
,
10010000
00000000
10000000
00000000
01000000
00000000
00000000
00000000
00010000
00001000
00010000
00001000
00020000
00000000
00000000
00030000
,
00022000
00000000
00000000
00000000
00033000
00000000
00000000
00000000
00010000
00000100
00001000
00000100
00000010
00000001
00000010
00000001
,
00000010
00000000
00000000
00000011
00000000
00000000
00001100
00000000
00000000
00110000
00000000
00000000
11000000
00000000
00000000
00000000
,
10010000
00000000
10000000
00000000
,
01000000
00000000
00100000
00000000
,
00001000
00000000
00000000
00000000
00010000
00010000
00000000
00000000
,
00000010
00002000
00003200
00000320
,
00000031
00000100
00001000
00010000
,
00100000
10000000
01000000
00010000
,
00001000
00000000
00000010
00000000
00000001
00000100
00001000
00000000
,
00010000
00000000
00100000
00000000
10000000
00010000
10000000
00000000
,
11000000
01010000
00011000
00001010
,
00000011
00000101
00001100
00011000
,
00110000
10100000
11000000
01010000
,
00011000
00001010
00000011
00001001
,
00000001
00000010
00000100
00010000
00001000
00100000
01000000
10000000
,
00010000
10000000
00010000
10000000
01000000
00010000
00001000
00000000
00010000
00001000
00000100
00000001
00001000
00000001
00001000
00000000
,
00000010
00001000
00000010
00001000
00000001
00000010
00000001
00000010
00000100
00001000
00000100
00001000
00000100
00010000
00001000
01000000
,
00001000
00000000
00010000
00000000
00100000
00000000
01000000
00010000
10000000
01000000
00100000
00000000
00110000
00000000
00000000
00000000
,
10010000
00000000
00000000
00000000
20000000
00000000
31000000
00100000
00020000
00000000
00130000
00001000
00020000
00000000
00031000
00010000
,
00000200
00000000
00001300
00000100
00000020
00000000
00000130
00000010
00000002
00000000
00000103
00001000
00020000
00000000
00030000
00000000
,
00011000
00000000
00001000
00010000
00200000
00000000
01300000
00010000
20000000
00000000
31000000
00100000
00002000
00000000
00013000
00000100
,
00002000
00000000
00003100
00000010
00000002
00000000
00001003
00000010
00000100
00000000
00000000
00000001
00000000
00001000
00000100
00010000
,
00001000
00000000
00000000
00000000
00011000
00000000
00010000
00001000
00000020
00000000
00001030
00010000
00002000
00000000
00013000
00001000
,
00000200
00000000
00001300
00010000
00002000
00000000
00013000
00001000
00000020
00000000
00001030
00010000
00002000
00000000
00003000
00000000
,
00011000
00000000
00001000
00010000
02000000
00000000
03010000
00001000
00020000
00000000
00031000
00010000
00200000
00000000
00310000
00001000
,
00020000
00032000
00003200
00000302
00000023
00000200
00000000
00000330
,
00001001
00000000
00000000
00000001
00000010
00000100
00001000
00000010
00000100
00001000
00010000
00000100
,
00001000
00010000
00100000
00001000
00010000
00100000
01000000
00010000
00100000
01000000
10000000
00010000
,
20000000
00000000
00000000
31000000
00010000
00001000
00010000
01000000
10000000
00010000
10000000
00100000
,
00010000
00000000
00001000
00000000
00000010
00000000
00000001
00000000
00000010
00000000
00000100
00000000
00020000
00000000
00000000
00000000
00000000
00000000
00031000
00010000
00001000
00000000
00010000
00000000
,
00011000
00000000
00001000
00020000
00030000
00000010
00020000
00030000
00001000
00020000
00030000
00000100
,
00010000
00001000
00000100
00000001
00001000
00000100
00000010
00000001
00001000
00000002
00000000
00000003
,
00001000
00000010
00000100
00001000
00010000
00100000
01000000
00010000
00100000
01000000
00100000
00010000
,
20000000
30200000
00320000
00032000
00003200
00000002
00000000
00000000
,
00000303
00000000
00000000
00000000
;
