#TITLE:RED ZONE;
#ARTIST:Tatsh&NAOKI;
#GENRE:SPEED RAVE;
#BANNER:RED ZONE.png;
#BACKGROUND:RED ZONE-bg.png;
#CDTITLE:./CDTitles/bm IIDX 11 IIDX RED.png;
#MUSIC:RED ZONE.ogg;
#SAMPLESTART:30.535;
#SAMPLELENGTH:15;
#BPMS:0=165;
#STAGE:29;

//--------------- dance-single - Fred-104 ----------------
#NOTES:
     dance-single:
     Fred-104:
     Beginner:
     5:
     :
0000
0000
0000
0000
,
0000
0000
0000
0000
,
0000
0000
0000
0000
,
0000
0000
0000
0000
,
0000
0000
0000
0000
,
0100
0000
0100
0000
,
0010
0000
0010
0000
,
0100
0000
0100
0000
,
0010
0000
0010
0000
,
0100
0000
0100
0000
,
0010
0000
0010
0000
,
0100
0000
0100
0000
,
0010
0000
0010
0000
,
1000
0000
1000
0000
,
0001
0000
0001
0000
,
0100
0100
0200
0300
,
0010
0010
0020
0030
,
0001
0000
0001
0000
,
1000
0000
1000
0000
,
0010
0010
0020
0030
,
0200
0300
2002
3003
,
0010
0000
1000
0000
,
0010
0000
1000
0000
,
0100
0000
0001
0000
,
0100
0000
0001
0000
,
0010
0000
1000
0000
,
0100
0000
0001
0000
,
0100
0000
1000
0000
,
0010
0000
0001
0000
,
1000
1000
2000
3000
,
0002
0003
2002
3003
,
0001
0001
0001
0000
,
0100
0100
0100
0200
,
0310
0010
0020
0030
,
0200
0300
0220
0330
,
0100
0100
0200
0300
,
0020
0030
0220
0330
,
1001
0000
0000
0000
,
0010
0000
0000
0000
,
0100
0000
0000
0000
,
0010
0000
0000
0000
,
0100
0000
0010
0000
,
0100
0000
0100
0000
,
0010
0000
1000
0000
,
0001
0001
0001
0001
,
1000
1000
1000
0000
,
0002
0003
2002
3003
,
0001
0001
0001
0000
,
2000
3000
2002
3003
,
0010
0010
0020
0030
,
0200
0300
0220
0330
,
0100
0100
0200
0300
,
0020
0030
0220
0330
,
0001
0001
0001
0000
,
1000
1000
2000
3000
,
0010
0010
0020
0030
,
0100
0100
0100
0100
,
0010
0010
0020
0030
,
0100
0100
0200
0300
,
0001
0001
0001
0000
,
1000
1000
1000
1001
,
0000
0000
0000
0000
,
1000
0000
0010
0000
,
1000
0000
0010
0010
,
0010
0000
0001
0000
,
0100
0100
0010
0010
,
0100
0000
1000
0000
,
0001
0000
1000
0000
,
0001
0000
1000
0000
,
0001
0001
1000
1000
,
0001
0000
0000
0000
,
1000
0000
0000
0000
,
2002
0000
0000
0000
,
3003
0000
0000
0000
;

//--------------- dance-single - Fred-104 ----------------
#NOTES:
     dance-single:
     Fred-104:
     Easy:
     8:
     :
0000
0000
0000
0000
,
0000
0000
0000
0000
,
0000
0000
0000
0000
,
0000
0000
0000
0000
,
0000
0000
0000
0000
,
0010
1000
0010
1000
,
0100
0010
0100
0010
,
0001
0100
0001
0100
,
0010
0000
0100
0000
0100
0000
0010
0010
,
0100
1000
0100
1000
,
0100
0010
0100
0010
,
0100
0001
0100
0001
,
0100
0100
0010
0110
,
2000
3010
2000
3001
,
0100
0010
0100
0001
,
0200
0300
0100
0010
,
2000
3000
1000
1001
,
0002
0103
1000
0001
,
0100
0010
0100
1000
,
0200
0300
0100
0010
,
0002
0003
0001
1001
,
0010
0000
0000
0000
1000
0000
0000
0000
0010
0000
0000
0010
0000
0000
0000
0000
,
0100
0000
0000
0000
0010
0000
0000
0000
1010
0000
0000
0010
0000
0000
0000
0000
,
0100
0000
0000
0000
0001
0000
0000
0000
0100
0000
0000
0100
0000
0000
0000
0000
,
0001
0000
0000
0000
0010
0000
0000
0000
0011
0000
0000
0010
0000
0000
0000
0000
,
0100
0000
0000
0000
1000
0000
0000
0000
0100
0000
0000
0100
0000
0000
0000
0000
,
0010
0000
0000
0000
0100
0000
0000
0000
1100
0000
0000
0100
0000
0000
0000
0000
,
0010
0000
0000
0000
0001
0000
0000
0000
0010
0000
0000
0010
0000
0000
0000
0000
,
0001
0000
0100
0000
0001
0100
0000
0000
,
1000
0100
1000
0010
,
0000
0000
0100
0000
0000
0010
0000
0000
0100
0000
0000
0010
0000
0000
0000
0000
,
0100
0001
1000
0010
,
1000
0001
1000
0000
0001
0100
0001
0000
,
0100
0010
1000
0001
,
1000
0000
0000
0001
0000
0000
1000
0000
0000
0001
0000
0000
1000
0000
0000
0000
,
0010
1000
0010
0000
0100
0001
0100
0000
,
0001
0000
1000
0000
0001
0000
0000
0000
1000
0000
0000
1000
0000
0000
0001
0000
,
2000
0000
3002
0000
,
0103
0100
0010
1000
,
0002
0000
0023
0000
,
1030
1000
0010
1001
,
0001
0100
0010
0100
,
0100
0010
1000
0010
,
1000
1000
0001
0001
,
1000
0001
1000
0000
0001
1000
0001
0000
,
1000
0000
0000
0000
1000
0000
0000
0000
0100
0000
0000
1000
0000
0000
0000
0000
,
0100
0000
0000
0000
0010
0000
0000
0000
0001
0000
0000
0011
0000
0000
0000
0000
,
0001
0000
0000
0000
0001
0000
0000
0000
0100
0000
0000
1000
0000
0000
0000
0000
,
0100
0010
1000
1010
,
0001
0000
0000
0000
0001
0000
0000
0000
0010
0000
0000
0001
0000
0000
0000
0000
,
0010
0000
0000
0000
0100
0000
0000
0000
1000
0000
0000
1100
0000
0000
0000
0000
,
1000
0000
0000
0000
1000
0000
0000
0000
0010
0000
0000
0001
0000
0000
0000
0000
,
0010
0100
0001
0101
,
0100
0010
1000
0001
,
0000
0000
1000
0000
0000
0100
0000
0000
0010
0000
0000
0002
0000
0000
0000
0000
,
0103
0010
1000
0001
,
0010
0001
0010
0000
0100
1000
0100
0000
,
0010
0000
1000
0000
0001
0100
0001
0000
,
1000
0000
0000
0010
0000
0000
0100
0000
0000
0001
0000
0000
1000
0000
0000
0000
,
0001
0000
0100
0000
0010
0100
0010
0000
,
0000
0000
1000
0000
0000
0010
0000
0000
1000
0000
0000
0001
0000
0000
1001
0000
,
0000
0000
0000
0000
,
1000
1000
0100
0100
,
0010
0001
0010
0010
,
0001
0001
0100
0100
,
0010
1000
0010
0010
,
0100
0010
0100
0010
,
0100
1000
0100
0001
,
0100
0010
0100
0010
,
0100
0000
0001
0000
0100
0010
1000
0000
,
0001
0000
0000
0001
0000
0000
0001
0000
0000
0000
0000
0000
0001
0000
0000
0000
,
1000
0000
0000
1000
0000
0000
1000
0000
0000
0000
0000
0000
1000
0000
0000
0000
,
2002
0000
0000
0000
,
3003
0000
0000
0000
;

//--------------- dance-single - Fred-104 ----------------
#NOTES:
     dance-single:
     Fred-104:
     Medium:
     12:
     :
0000
0000
0000
0000
,
0000
0000
0000
0000
,
0000
0000
0000
0000
,
0000
0000
0000
0000
,
0000
0000
0000
0000
,
1000
0000
0000
0010
0000
0000
1000
0000
0000
0100
0000
0000
1000
0000
0000
0000
,
0001
0000
0100
0000
0010
0100
0010
0010
,
1000
0000
0000
0010
0000
0000
0100
0000
0000
0001
0000
0000
0100
0000
0000
0000
,
0001
0000
0000
0100
0000
0000
0001
0000
0000
0000
0000
0000
1000
0000
0000
0000
0000
0000
0010
0000
1000
0000
0010
0000
,
0100
0000
0000
0010
0000
0000
0100
0000
0000
0001
0000
0000
1000
0000
0000
0000
,
0001
0100
0010
0000
1000
0100
0010
0000
,
0001
0000
0000
0010
0000
0000
0001
0000
0000
1000
0000
0000
0010
0000
0000
0000
,
0000
0010
0000
0000
0100
0000
0000
0100
0000
0000
0001
0000
1000
0001
1000
0000
,
0010
0100
0010
0000
0010
0001
0010
0000
,
0010
0100
0010
0001
0100
0010
1000
0000
,
0010
0000
0000
0010
0000
0000
0100
0000
0000
0100
0000
0000
0001
0000
1000
0000
,
0000
0100
0000
0000
0100
0000
0000
0010
0000
0100
0010
0000
0001
0000
0100
0000
,
0010
0100
0010
0000
0010
1000
0010
0000
,
0010
0100
0010
1000
0010
0100
0001
0000
,
0100
0000
0000
0100
0000
0000
0010
0000
0000
0000
0010
0000
0000
0100
0010
0000
,
0100
0000
0000
0000
0100
0000
0001
0000
1000
0001
1000
0001
1000
0000
0001
0000
,
1000
0000
0100
0000
1000
0000
0000
0000
0001
0010
0000
0001
0000
0000
0000
0000
,
1000
0000
0100
0000
0010
0000
0001
0000
0100
0010
0000
0100
0000
0000
0000
0000
,
0001
0000
0100
0000
0001
0000
0000
0000
1000
0010
0000
1000
0000
0000
0000
0000
,
0001
0100
0010
1000
0100
0010
0110
0000
,
0100
0000
1000
0000
0100
0000
0000
0000
0010
0001
0000
0010
0000
0000
0000
0000
,
0100
0000
1000
0000
0001
0000
0010
0000
0100
0010
0000
0100
0000
0000
0000
0000
,
0010
0000
0001
0000
0010
0000
0000
0000
0100
1000
0000
0100
0000
0000
0000
0000
,
0010
0001
1000
0100
0010
0100
0110
0000
,
0001
0000
0100
0000
0010
0000
0000
1000
0000
1000
0000
0000
0100
0000
0010
0000
,
0001
0000
0200
0000
0000
0320
0000
0000
2030
0000
0000
3002
0000
0000
0000
0000
,
0103
0000
0010
0000
0100
0000
0000
0001
0000
0001
0000
0000
0100
0000
0010
0000
,
1000
0100
1000
0001
1000
0001
2000
0000
,
3001
0000
0100
0000
0010
0000
0000
1000
0000
1000
0000
0000
0010
0000
0100
0000
,
0001
0010
0000
0001
0000
0000
0200
0000
0000
0320
0000
0000
1030
0000
0000
0100
,
1000
0000
0010
0000
0100
0000
0010
0000
0100
0000
0000
0001
0000
0000
0100
0000
,
0010
0000
1000
0000
0001
0000
0010
0000
0001
0000
0000
0110
0000
0000
0100
0000
,
2000
0000
0001
0000
0100
0000
3001
0100
,
0000
0010
0100
0001
0010
0000
0100
0000
,
0002
0000
1000
0000
0100
0000
1003
0100
,
0000
0010
0100
1000
0010
0100
0000
0000
,
0020
0000
1000
0000
0001
0000
1030
0100
,
0000
0010
0100
0010
0001
0100
0010
1000
,
0200
0000
1000
0000
0001
0000
1300
0010
,
0000
0100
0010
0100
0001
0010
0100
1000
,
0010
0000
0100
0000
0010
0000
0000
0000
0001
1000
0000
0001
0000
0000
1000
0000
,
0100
0000
0010
0000
0100
0000
1000
0000
0001
0100
0000
0010
0000
0000
0100
0000
,
0001
0000
1000
0000
0001
0000
0000
0000
1000
0100
0000
0010
0000
0000
0100
0000
,
1000
0010
0100
0001
1000
0001
1001
0000
,
0001
0000
0010
0000
0001
0000
0010
0000
0100
1000
0000
0010
0000
0000
0100
0000
,
0100
0000
0001
0000
1000
0000
0000
0000
0001
0010
0000
0100
0000
0000
1000
0000
,
0010
0000
0100
0000
0010
0000
1000
0000
0001
0010
0000
0001
0000
0000
1000
0000
,
0000
1001
0000
0000
0001
0000
0000
0100
0000
0000
0010
0000
0100
0000
0000
0000
,
0001
0000
0100
0000
0010
0000
0000
1000
0000
0100
0000
0000
0010
0000
0001
0000
,
0200
0000
0320
0000
0000
2030
0000
0000
3020
0000
0000
0230
0000
0000
0000
0000
,
0301
0000
1000
0000
0001
0000
0000
1000
0000
0100
0000
0000
0010
0000
0001
0000
,
1000
0010
0100
0010
0100
0001
0200
0000
,
0301
0000
0100
0000
1000
0000
0000
0100
0000
0100
0000
0000
0001
0000
0100
0000
,
0010
1000
0000
0010
0000
0000
0200
0000
0000
0302
0000
0000
0103
0000
0000
0010
,
0100
0000
0010
0000
1000
0000
0000
0000
0010
0000
0000
0110
0000
0000
0100
0000
,
1000
0000
0001
0000
0000
1000
0000
0000
1001
0000
0000
0110
0000
0000
1001
0000
,
0000
0000
0000
0000
,
0010
0100
0001
0100
0010
0100
0001
0100
,
0010
0001
1000
0001
0010
0001
1000
0001
,
0100
0010
1000
0010
0100
0010
1000
0010
,
0100
1000
0001
1000
0100
1000
0001
1000
,
0100
0010
1000
0001
0010
0100
1000
0001
,
0100
1000
0100
0001
0010
1000
0010
0001
,
0100
0010
1000
0100
0010
0001
0100
0010
,
0100
1000
0010
0100
0001
1000
0001
0001
,
1000
0000
0000
1000
0000
0000
0001
0000
0000
0000
0001
0000
1000
0000
0001
0000
,
0100
0000
0000
0100
0000
0000
0010
0000
0000
0000
0010
0000
0100
0000
0010
0000
,
2002
0000
0000
0000
,
3003
0000
0000
0000
;

//--------------- dance-single - Fred-104 ----------------
#NOTES:
     dance-single:
     Fred-104:
     Hard:
     16:
     :
0000
0000
0000
0000
,
0000
0000
0000
0000
,
0000
0000
0000
0000
,
0000
0000
0000
0000
,
0000
0000
0000
0000
,
0001
0000
0000
0010
0000
0000
0001
0000
0000
1000
0000
0000
0010
0000
0100
0000
,
0002
0000
0203
0000
2300
0000
3200
0000
0310
0000
1000
0000
0001
1000
0000
1000
,
0001
0000
0000
0010
0000
0000
0001
0000
0000
1000
0000
0000
0100
0000
0010
0000
,
0002
0000
0000
0203
0000
0000
0320
0000
0000
2030
0000
0000
3001
0000
0000
0001
0000
0000
1000
0000
0100
0000
0010
0000
,
0200
0000
0000
2300
0000
0000
3002
0000
0000
0203
0000
0000
0310
0000
1000
0000
,
0002
0023
0230
2300
3020
0230
0302
2003
,
3002
0000
0000
0203
0000
0000
0310
1000
0000
0001
0010
0100
1000
0000
0010
0000
,
1000
0100
0000
0000
0110
0000
0001
0100
0010
0100
0010
0000
1000
0010
0100
0001
,
1000
0000
0010
0000
1000
0000
0100
1000
0100
0000
1000
0000
0100
0010
0001
0000
,
1000
0000
0010
0100
0010
0000
0100
0001
0100
0000
0010
0000
0100
0000
0100
0000
,
1001
0000
0001
0010
0000
0010
0100
0000
0100
1000
0000
1000
0001
0000
0001
0000
,
1000
0000
0010
1000
0010
1000
0001
1000
0001
0100
0001
0000
1000
0010
1000
0000
,
0001
0000
0010
0100
1000
0000
0001
0000
0100
0000
0001
0010
0001
0000
1000
0010
,
0100
0000
0010
0000
1000
0100
1000
0000
0001
0000
0100
0001
0100
0000
0001
0000
,
1001
0000
0001
0100
0000
0100
0010
0000
0010
1000
0000
1000
0010
0100
0001
0000
,
0200
0000
0000
0000
0302
0000
2003
0000
3001
0100
0001
0100
0010
0100
0010
0100
,
0001
0000
0100
0000
0010
0000
1000
0000
0001
0100
0000
1000
0000
0000
0100
0001
,
1000
0000
0100
0000
0010
0000
1000
0000
0010
0001
0000
1000
0000
0000
0001
1000
,
0001
0000
0100
0000
0010
0000
0001
0000
0010
1000
0000
0001
0000
0000
0100
0001
,
1000
0000
0010
0000
0100
0000
0010
0000
1000
0001
0010
0000
0001
1000
0010
0000
,
1000
0000
0010
0000
1000
0010
0100
0000
0001
0010
0000
0001
0010
0000
0100
1000
,
0001
0000
0100
0000
0010
1000
0010
0000
1000
0100
0000
1000
0100
0000
0010
0001
,
1000
0000
0001
0000
0010
0100
1000
0000
0001
0100
0000
0001
0100
0000
0010
0000
,
0000
1010
0000
0000
1001
0000
0000
1000
0010
0100
0001
0000
1000
0000
0001
0000
,
0100
0000
0010
0000
1000
0000
0001
0010
0000
0001
0000
1000
0100
0000
0010
0000
,
2000
0000
3002
0000
0000
0203
0000
0000
0320
0000
0030
2002
0000
0000
3003
0000
,
0001
0000
0100
0000
0010
0000
1000
0010
0000
0001
0000
0010
0100
0000
0001
0000
,
1000
0100
0010
0000
0001
0100
0010
0000
1000
0100
0010
0001
2000
0000
0000
0000
,
3001
0000
1000
0000
0010
0000
0100
0001
0000
0100
0000
1000
0100
0000
0010
0000
,
1000
0200
0000
0010
0000
0300
1000
0000
0001
1000
0000
0001
0100
0000
0010
0100
,
0010
0000
1000
0000
0001
1000
0001
0000
1000
0000
0000
1100
0000
0000
0100
0000
,
1000
0000
0001
0000
0100
0010
0000
0010
1000
0000
0000
1010
0000
0000
0101
0000
,
1001
0000
0000
0000
0000
0000
0000
0001
0010
0000
0100
0000
0000
0000
0000
0000
,
0001
0000
0100
0000
0000
0000
0010
0001
1000
0000
0001
1000
0001
0000
0000
0000
,
0110
0000
0000
0000
0000
0000
0000
1000
0100
0000
0010
0000
0000
0000
0000
0000
,
1000
0000
0010
0000
0000
0000
0000
0100
1000
0000
0001
0000
1001
0000
0000
0000
,
1000
0010
0100
0010
1000
0100
0010
0200
,
0000
0000
0301
0100
1000
0000
0010
0000
1000
0000
0100
0000
0001
0000
0100
0000
,
1100
1000
1001
0000
0101
0100
0010
1000
,
0001
1000
0001
1000
0001
1000
0001
1000
0010
0100
0010
0100
0010
0100
0010
0100
,
0001
0000
0010
0000
0100
0000
1000
0000
0001
0010
0000
1000
0000
0000
0010
0001
,
1000
0000
0010
0000
0100
0000
1000
0000
0100
0001
0000
1000
0000
0000
0001
1000
,
0001
0000
0010
0000
0100
0000
0001
0000
0100
1000
0000
0001
0000
0000
0010
0001
,
1000
0000
0100
0000
0010
0000
0100
0000
1000
0001
0100
0000
0001
1000
0100
0000
,
1000
0000
0100
0000
1000
0100
0010
0000
0001
0100
0001
0100
0001
0000
1000
0001
,
0100
0000
0010
0000
1000
0100
1000
0000
0010
1000
0010
1000
0010
0000
0100
0001
,
1000
0000
0001
0000
0100
0010
1000
0000
0001
0010
0001
0010
0001
0000
0100
0000
,
0000
0110
0000
0000
1001
0000
0000
1000
0100
0010
0001
0000
1000
0010
1000
0000
,
0001
0000
0010
0000
0100
0000
1000
0010
0000
0100
0000
0001
0100
0000
0010
0000
,
1000
0000
0001
0000
1000
0100
0000
0010
0001
0100
0000
0020
0000
0000
0000
0000
,
0031
0000
0010
0000
1000
0000
0001
0100
0000
1000
0000
0100
0010
0000
1000
0000
,
0001
1000
0100
1000
0010
1000
0001
1000
0100
1000
0010
0100
0001
2000
0000
0000
,
3100
0000
1000
0000
0001
0000
1000
0100
0000
0010
0000
0100
0001
0000
0100
0000
,
1000
0001
0100
0010
0000
1000
0010
0000
0100
0001
0000
1000
0100
0000
1000
0001
,
0010
0000
0100
0000
1000
0010
0000
0010
0001
0000
0000
1100
0000
0000
0100
0010
,
0001
0000
0011
0000
0000
1010
0000
0000
0101
0000
0000
1100
0000
0000
1001
0000
,
0000
0000
0000
0000
,
1000
0000
0010
1000
0010
0000
1000
0100
0010
0001
0000
1000
0010
0000
0100
0001
,
1000
0000
0001
0010
0001
0000
1000
0010
0100
0001
0100
0001
1000
0100
1000
0100
,
0010
0000
0001
1000
0100
0000
1000
0001
0100
0000
0001
1000
0010
0000
1000
0001
,
0010
0000
0001
1000
0100
0000
0010
0001
0100
0010
1000
0001
0010
0001
1000
0001
,
0100
0010
1010
1000
0002
2003
3200
0320
,
0130
0000
1000
0000
0001
0000
0100
0010
0100
0000
0001
0000
0100
0010
1000
0010
,
0100
0000
0001
0010
1000
0000
0010
0001
0100
0000
0001
0010
0100
1000
0010
0100
,
0001
0000
1000
0100
0010
0000
0001
0100
0010
1000
0100
0010
0100
1000
0001
0100
,
0010
0000
0000
1010
0000
0000
0101
0000
0000
0000
0100
0000
0010
0000
1000
0000
,
1100
0000
0000
0101
0000
0000
1100
0000
0000
0000
0010
0000
0100
0000
0010
0000
,
2002
0000
0000
0000
,
3003
0000
0000
0000
;

//--------------- dance-single - Fred-104† ----------------
#NOTES:
     dance-single:
     Fred-104†:
     Challenge:
     17:
     :
0000
0000
0000
0000
,
0000
0000
0000
0000
,
0000
0000
0000
0000
,
0000
0000
0000
0000
,
0000
0000
0000
0000
,
1000
0000
1000
0100
0000
0100
0010
0000
0010
0001
0000
0001
0100
0000
0010
0000
,
0100
0000
0001
1000
0010
0000
1000
0001
0100
0000
0001
0010
0001
0100
0000
0100
,
0010
0000
1000
0100
0000
0100
0010
0000
0010
0001
0000
0001
0100
0000
0001
0000
,
1000
0000
0000
0010
0000
0000
1000
0000
0000
0001
0000
0000
0100
0000
0000
0001
0000
0000
1000
0000
0000
0010
0000
0000
1000
0000
0000
0000
0000
0000
1000
0000
0000
0000
0000
0000
0001
0000
0000
0000
0100
0000
0000
0000
0100
0000
0000
0000
,
1000
0000
0001
0010
0000
0010
0100
0000
0100
1000
0000
1000
0010
0000
0100
0000
,
0001
0000
0100
0001
0010
0000
0100
1000
0010
0000
0100
0001
0010
0000
0100
1000
,
0001
0000
1000
0001
0000
0001
0100
0000
0100
0010
0000
0010
1000
0000
0001
0000
,
1000
0100
0000
0010
0001
0000
1000
0100
0000
0010
0001
0100
0010
0100
0001
1000
,
0001
0000
0010
0000
0100
0000
1000
0010
0100
0000
0001
0000
0100
1000
0100
0000
,
0001
0000
0010
1000
0010
0000
0001
0100
0000
0010
1000
0000
0001
0000
1000
0000
,
0001
0000
0001
0100
0000
0100
0010
0000
0010
1000
0000
1000
0100
0000
1000
0000
,
0001
0000
0100
0001
1000
0000
0010
1000
0100
0000
0010
0001
1000
0000
0001
0100
,
0010
0000
1000
0100
0010
0000
1000
0000
0010
0000
0001
1000
0001
0000
0100
0010
,
1000
0000
0001
0000
0100
0010
0001
0000
0010
0000
1000
0001
0010
0100
1000
0000
,
1100
0000
0000
0011
0000
0000
1010
0000
0000
0101
0000
0000
0110
0000
1001
0000
,
2000
0000
0000
0000
3002
0000
2003
0000
3001
0100
0010
0100
0010
1000
0100
1000
,
0001
0000
0010
0000
0100
1000
0100
0000
1000
0010
0000
0100
0000
0001
0010
0100
,
0010
0000
0001
0000
1000
0010
0100
0000
0001
0010
0000
0100
0000
1000
0001
1000
,
0100
0000
1000
0000
0010
1000
0100
0000
0010
0001
0000
1000
0000
0001
0100
0001
,
0010
0000
0100
0000
1000
0000
0010
0000
0100
0001
1000
0000
0100
1000
0001
0000
,
1000
0000
0001
0000
0100
0001
1000
0000
0001
0100
0000
0010
0000
0001
0010
0100
,
0001
0000
1000
0000
0010
1000
0100
0000
1000
0100
0000
0010
0000
1000
0010
0100
,
1000
0000
0001
0000
0100
0010
1000
0000
0001
0100
0000
1000
0000
0100
0001
1000
,
0001
0100
0001
0000
1000
0000
0010
1000
0001
1000
0100
0000
0010
0001
0010
0000
,
0001
0000
0100
0000
0010
0000
0001
0010
0000
1000
0000
0001
1000
0000
0100
0000
,
0010
0000
0001
0000
0100
0010
0000
1000
0100
1000
0000
2002
0000
0000
3003
0000
,
0001
0000
0100
0000
1000
0000
0001
0010
0000
1000
0000
0001
0100
0000
0010
0000
,
1000
0100
1000
0010
0100
0010
1000
0100
1000
0010
0100
0010
1000
0002
0000
0000
,
1003
0000
0100
0000
0010
0000
1000
0001
0000
0100
0000
0010
0001
0000
1000
0000
,
0001
0010
0000
0010
0000
0001
0100
0000
0010
1000
0000
0100
1000
0000
0001
1000
,
0010
0000
0001
0000
0010
0100
0001
0000
1100
0000
0000
1001
0000
0000
0001
1000
,
0010
0000
1000
0000
0100
0010
0001
0000
0011
0000
0000
1010
0000
0000
0011
0000
,
2001
0000
3002
0000
1003
0010
0100
0020
,
0000
0000
0031
0010
1000
0000
0001
1000
0010
0000
1000
0001
0100
0000
0001
0000
,
2000
0000
3200
0000
0310
0001
0100
0020
,
0000
0000
0031
0010
1000
0000
0001
0100
1000
0100
0010
0000
1001
0000
0000
0000
,
1100
0000
0000
0000
0110
0000
0000
0000
0010
0000
0001
1000
0010
0000
0100
0000
,
0001
0000
0010
0100
1000
0000
0010
1000
0100
0000
0010
0001
1000
0000
0010
0000
,
0110
0000
0000
0000
0101
0000
0000
0000
0001
0000
1000
0010
0100
0000
0001
0000
,
1000
0100
1000
0100
0010
0001
0010
0001
1000
0100
0010
0001
1000
0001
0100
0010
,
1000
0000
0010
0000
0100
0001
0100
0000
0001
0010
0000
0100
0000
1000
0010
0100
,
0010
0000
1000
0000
0001
0010
0100
0000
1000
0010
0000
0100
0000
0001
1000
0001
,
0100
0000
0001
0000
0010
0001
0100
0000
0010
1000
0000
0001
0000
1000
0100
1000
,
0010
0000
0100
0000
0001
0000
0010
0000
0100
1000
0001
0000
0100
0001
1000
0000
,
0001
0000
0100
0000
0010
1000
0001
0000
1000
0100
1000
0100
0010
0000
1000
0010
,
0001
0000
1000
0000
0010
0100
0001
0000
1000
0010
1000
0010
0100
0000
1000
0100
,
0001
0000
1000
0000
0100
0010
0001
0000
0100
0010
0001
0010
0001
0000
0010
1000
,
0001
0100
0010
0000
1000
0000
0001
0010
0100
1000
0010
0100
0001
1000
0010
0000
,
1000
0000
0100
0000
0010
0000
1000
0010
0000
0001
0000
1000
0001
0000
0100
0000
,
0010
0000
1000
0000
0100
0010
0000
0001
0100
0001
0000
2002
0000
0000
3003
0000
,
1000
0000
0100
0000
0001
0000
1000
0010
0000
0001
0000
1000
0100
0000
0010
0000
,
0001
0100
0001
0010
0100
0010
0001
0100
0001
0010
1000
0010
0001
2000
0000
0000
,
3001
0000
0100
0000
0010
0000
0001
1000
0000
0100
0000
0010
1000
0000
0001
0000
,
1000
0010
0100
0010
0000
1000
0100
0000
0010
0001
0000
0100
0001
0000
1000
0001
,
0010
0000
1000
0000
0010
0100
1000
0000
0101
0000
0000
1001
0000
0000
1000
0001
,
0010
0000
0001
0000
0100
0010
1000
0000
1010
0000
0000
0011
0000
0000
1001
0000
,
0000
0000
0000
0000
,
0001
0000
0100
0010
1000
0010
0100
0010
1000
0100
0000
0010
0001
0010
0100
0010
,
0001
0000
1000
0001
0100
0001
1000
0010
1000
0000
0100
0010
0001
1000
0010
0100
,
0001
0000
0010
0001
1000
0000
0001
0100
0010
0000
1000
0100
0010
0000
1000
0010
,
0001
0000
1000
0001
0100
0000
0001
0100
1000
0100
0010
0000
1000
0001
1000
0000
,
0002
0203
2300
3200
0302
0023
0230
2300
,
3001
0000
0200
0000
0320
0000
0130
1000
0200
0000
0302
0000
1003
0001
1000
0001
,
0200
0000
0001
0310
0200
0000
1000
0310
0200
0000
0001
1300
0200
0000
1000
0301
,
0200
0000
0001
1300
0200
0000
1000
0310
0100
0001
0010
0100
1000
0001
0100
0001
,
0010
0000
0000
0011
0000
0000
1001
0000
0000
0000
1010
0000
0110
0000
0101
0000
,
1100
0000
0000
0011
0000
0000
1010
0000
0000
0000
0101
0000
1100
0000
0110
0000
,
2002
0000
0000
0000
,
3003
0000
0000
0000
;

//--------------- dance-double - Fred-104 ----------------
#NOTES:
     dance-double:
     Fred-104:
     Easy:
     9:
     :
00000000
00000000
00000000
00000000
,
00000000
00000000
00000000
00000000
,
00000000
00000000
00000000
00000000
,
00000000
00000000
00000000
00000000
,
00000000
00000000
00000000
00000000
,
00010000
00001000
00010000
00001000
,
00010000
00100000
10000000
00100000
,
10000000
00010000
10000000
01000000
,
00010000
00001000
00010000
00002000
,
00003010
00000001
00000010
00001000
,
00010000
01000000
00010000
00001000
,
00010000
00000100
00000010
00000001
,
00000100
00000000
00001000
00000000
00010000
00001000
00010000
00000000
,
00000200
00001300
00000200
00000310
,
00000010
00000000
00000001
00000000
00000100
00001000
00001000
00000000
,
00020000
00030000
00010000
00100000
,
20000000
30000000
01000000
01100000
,
00200000
01300000
00200000
10300000
,
01000000
10000000
00100000
00010000
,
00002000
00003000
00001000
00000100
,
00000002
00000003
00000010
00000110
,
00000010
00000000
00000000
00000000
00000001
00000000
00000000
00000000
00000010
00000000
00000000
00000010
00000000
00000000
00000000
00000000
,
00000001
00000000
00000000
00000000
00000100
00000000
00000000
00000000
00000101
00000000
00000000
00000100
00000000
00000000
00000000
00000000
,
00000100
00000000
00000000
00000000
00001000
00000000
00000000
00000000
00000100
00000000
00000000
00000100
00000000
00000000
00000000
00000000
,
00001000
00001000
00010000
00011000
,
00100000
00000000
00000000
00000000
10000000
00000000
00000000
00000000
00100000
00000000
00000000
00100000
00000000
00000000
00000000
00000000
,
10000000
00000000
00000000
00000000
01000000
00000000
00000000
00000000
11000000
00000000
00000000
01000000
00000000
00000000
00000000
00000000
,
01000000
00000000
00000000
00000000
00010000
00000000
00000000
00000000
01000000
00000000
00000000
01000000
00000000
00000000
00000000
00000000
,
00010000
00010000
00001000
00011000
,
00000010
00000001
00000100
00000010
,
00000000
00000000
00000100
00000000
00000000
00001000
00000000
00000000
00010000
00000000
00000000
00001000
00000000
00000000
00000000
00000000
,
00100000
10000000
01000000
00100000
,
01000000
00010000
00001000
00011000
,
00000100
00000001
00000010
00000100
,
00000010
00000000
00000000
00001000
00000000
00000000
00010000
00000000
00000000
00010000
00000000
00000000
00011000
00000000
00000000
00000000
,
01000000
10000000
00100000
01000000
,
00100000
00000000
00000000
00000000
00010000
00000000
00000000
00000000
00001000
00000000
00000000
00010000
00000000
00000000
00001000
00000000
,
00000020
00000000
00000001
00000000
,
00000100
00000001
00000100
00000030
,
00000002
00000000
00000100
00000000
,
00001000
00000100
00001000
00000003
,
00000200
00000000
00010000
00000000
,
00001000
00010000
00001000
00000300
,
00010000
00001000
00000010
00000001
,
00001000
00000010
00001000
00000000
00010000
00001000
00010000
00000000
,
00100000
00000000
00000000
00000000
10000000
00000000
00000000
00000000
00100000
00000000
00000000
00100000
00000000
00000000
00000000
00000000
,
10000000
00000000
00000000
00000000
01000000
00000000
00000000
00000000
11000000
00000000
00000000
01000000
00000000
00000000
00000000
00000000
,
01000000
00000000
00000000
00000000
00010000
00000000
00000000
00000000
01000000
00000000
00000000
01000000
00000000
00000000
00000000
00000000
,
00010000
00010000
00001000
00011000
,
00000010
00000000
00000000
00000000
00000001
00000000
00000000
00000000
00000010
00000000
00000000
00000010
00000000
00000000
00000000
00000000
,
00000001
00000000
00000000
00000000
00000100
00000000
00000000
00000000
00000101
00000000
00000000
00000100
00000000
00000000
00000000
00000000
,
00000100
00000000
00000000
00000000
00001000
00000000
00000000
00000000
00000100
00000000
00000000
00000100
00000000
00000000
00000000
00000000
,
00001000
00001000
00010000
00011000
,
00100000
10000000
01000000
00100000
,
00000000
00000000
01000000
00000000
00000000
00010000
00000000
00000000
00001000
00000000
00000000
00010000
00000000
00000000
00000000
00000000
,
00000010
00000001
00000100
00000010
,
00000100
00001000
00010000
00011000
,
01000000
10000000
00100000
01000000
,
00100000
00000000
00000000
00010000
00000000
00000000
00001000
00000000
00000000
00001000
00000000
00000000
00011000
00000000
00000000
00000000
,
00000100
00000001
00000010
00000100
,
00000010
00000000
00000000
00000000
00001000
00000000
00000000
00000000
00010000
00000000
00000000
00001000
00000000
00000000
00011000
00000000
,
00000000
00000000
00000000
00000000
,
00000010
00000001
00000010
00000000
00000001
00000100
00000001
00000000
,
00000100
00001000
00000100
00000000
00001000
00000000
00011000
00000000
,
00100000
10000000
00100000
00000000
10000000
01000000
10000000
00000000
,
01000000
00010000
01000000
00000000
00010000
00000000
00011000
00000000
,
00000100
00000001
00000100
00000000
00000001
00000010
00000001
00000000
,
00000010
00001000
00010000
00000000
00001000
00000000
00011000
00000000
,
01000000
10000000
01000000
00000000
10000000
00100000
10000000
00000000
,
00100000
00010000
00001000
00000000
00010000
00000000
00011000
00000000
,
00000010
00000000
00000000
00000001
00000000
00000000
00001000
00000000
00000000
00000000
00000000
00000000
00000100
00000000
00000000
00000000
,
00010000
00000000
00000000
00001000
00000000
00000000
01000000
00000000
00000000
00000000
00000000
00000000
00100000
00000000
00000000
00000000
,
20020000
00000000
00000000
00000000
,
30030000
00000000
00000000
00000000
;

//--------------- dance-double - Fred-104 ----------------
#NOTES:
     dance-double:
     Fred-104:
     Medium:
     12:
     :
00000000
00000000
00000000
00000000
,
00000000
00000000
00000000
00000000
,
00000000
00000000
00000000
00000000
,
00000000
00000000
00000000
00000000
,
00000000
00000000
00000000
00000000
,
00000002
00000000
00000000
00000203
00000000
00000000
00000320
00000000
00000000
00002030
00000000
00000000
00003100
00000000
00000000
00000000
,
00010000
00000000
00000000
00000000
00000100
00000000
00000000
00000000
00010000
00000000
00001000
00000000
00010000
00001000
00000000
00000000
,
00200000
00000000
00000000
00320000
00000000
00000000
00230000
00000000
00000000
20300000
00000000
00000000
30100000
00000000
00000000
00000000
,
01000000
00000000
00000000
00000000
00000000
00000000
01000000
00000000
00000000
00000000
00000000
00000000
00010000
00000000
00000000
01000000
00000000
00000000
00100000
00000000
10000000
00000000
00100000
00000000
,
20000000
00000000
00000000
32000000
00000000
00000000
03200000
00000000
00000000
02300000
00000000
00000000
03010000
00000000
00100000
00000000
,
00001000
00000000
00010000
00000000
00001000
00000010
00000001
00000000
,
00001000
00000000
00000000
00000100
00000000
00000000
00000010
00000000
00000000
00000001
00000000
00000000
00000100
00000000
00000010
00000000
,
00000000
00001000
00000000
00000000
00010000
00000000
00000000
00001000
00000000
00000000
00000000
00000000
00011000
00000000
00000000
00000000
,
01000000
00100000
01000000
00000000
00100000
10000000
00100000
00000000
,
10000000
01000000
00010000
01000000
00100000
00010000
00100000
00000000
,
00010000
00000000
00000000
00010000
00000000
00000000
00001000
00000000
00000000
00001000
00000000
00000000
00010000
00000000
00000010
00000000
,
00000100
00000000
00000010
00000000
00000100
00000000
00000000
00000010
00000000
00000000
00000010
00000000
00001000
00000000
00000001
00000000
,
00000100
00000010
00000100
00000000
00000010
00001000
00000010
00000000
,
00001000
00000010
00000001
00000010
00000100
00001000
00000100
00000000
,
00010000
00000000
00000000
00010000
00000000
00000000
00001000
00000000
00000000
00000000
00001000
00000000
00000000
00000000
00100000
00000000
,
01000000
00000000
00000000
00000000
01000000
00000000
10000000
00000000
00100000
01000000
00100000
01000000
00100000
00000000
00000000
00000000
,
01000000
00000000
00010000
00000000
01000000
00000000
00000000
00000000
01000000
00100000
00000000
01000000
00000000
00000000
00000000
00000000
,
00100000
00000000
00010000
00000000
00001000
00000000
00010000
00000000
00000100
00000010
00000000
00000100
00000000
00000000
00000000
00000000
,
00000100
00000000
00001000
00000000
00000100
00000000
00000000
00000000
00000100
00000010
00000000
00000100
00000000
00000000
00000000
00000000
,
00000010
00001000
00010000
00001000
01000000
00100000
01000000
00000000
,
00100000
00000000
10000000
00000000
00100000
00000000
00000000
00000000
01000000
00010000
00000000
01000000
00000000
00000000
00100000
00000000
,
00001000
00000000
00010000
00000000
00000100
00000000
00000010
00000000
00000001
00001000
00000000
00000100
00000000
00000000
00000100
00000000
,
00000010
00000000
00000001
00000000
00000010
00000000
00000000
00000000
00000100
00001000
00000000
00000100
00000000
00000000
00001000
00000000
,
00010000
00001000
01000000
00100000
10000000
02000000
00000000
00000000
,
03100000
00000000
01000000
00000000
00100000
00000000
00000000
10000000
00000000
10000000
00000000
00000000
01100000
00000000
00000000
00000000
,
00010000
00000000
00001000
00000000
00000000
00010000
00000000
00000000
00000010
00000000
00000000
00000200
00000000
00000000
00000000
00000000
,
00000310
00000000
00000100
00000000
00000010
00000000
00000000
00000001
00000000
00001000
00000000
00000000
00001001
00000000
00000000
00000000
,
00001000
00010000
00001000
00100000
00010000
00100000
20000000
00000000
,
30100000
00000000
00010000
00000000
10000000
00000000
00000000
01000000
00000000
01000000
00000000
00000000
00010000
00000000
00000000
00000000
,
00010000
00001000
00000000
00010000
00000000
00000000
00000010
00000000
00000000
00000100
00000000
00000000
00000001
00000000
00000000
00000100
,
00000010
00000000
00000100
00000000
00000010
00000000
00001000
00000000
00000001
00000000
00000000
00000100
00000000
00000000
00000010
00000000
,
00001000
00000000
00010000
00000000
00000000
00001000
00000000
00000000
00100000
00000000
00000000
00100000
00000000
00000000
00010000
00000000
,
20000000
00000000
01000000
00000000
00010000
00000000
31000000
00010000
,
00000000
00001000
01000000
00100000
00010000
00001000
00000100
00000010
,
00002000
00000000
00000100
00000000
00000001
00000000
00003100
00000001
,
00000000
00000100
00000010
00000001
00000100
00000010
00001000
00000000
,
00000002
00000000
00000010
00000000
00001000
00000000
00000013
00001000
,
00000000
00000100
00010000
00001000
00100000
01000000
10000000
00100000
,
00020000
00000000
00100000
00000000
10000000
00000000
00130000
10000000
,
00010000
10000000
00100000
01000000
00010000
00100000
00010000
00001000
,
00000100
00000000
00001000
00000000
00000100
00000000
00000000
00000000
00000100
00000010
00000000
00000100
00000000
00000000
00000000
00000000
,
00000010
00000000
00001000
00000000
00010000
00000000
00001000
00000000
01000000
00100000
00000000
01000000
00000000
00000000
00000000
00000000
,
01000000
00000000
00010000
00000000
01000000
00000000
00000000
00000000
01000000
00100000
00000000
01000000
00000000
00000000
00000000
00000000
,
00100000
00010000
00001000
00010000
00000100
00000010
00000100
00000000
,
00000010
00000000
00000001
00000000
00000010
00000000
00000000
00000000
00000100
00001000
00000000
00000100
00000000
00000000
00000010
00000000
,
00010000
00000000
00001000
00000000
01000000
00000000
00100000
00000000
10000000
00010000
00000000
01000000
00000000
00000000
01000000
00000000
,
00100000
00000000
10000000
00000000
00100000
00000000
00000000
00000000
01000000
00010000
00000000
01000000
00000000
00000000
00010000
00000000
,
00001000
00010000
00000100
00000010
00000001
00001000
00001100
00000000
,
00000010
00000000
00000100
00000000
00000010
00000000
00000000
00000001
00000000
00000001
00000000
00000000
00000101
00000000
00000000
00000000
,
00001000
00000000
00010000
00000000
00000000
00001000
00000000
00000000
00100000
00000000
00000000
02000000
00000000
00000000
00000000
00000000
,
03100000
00000000
01000000
00000000
00100000
00000000
00000000
10000000
00000000
00010000
00000000
00000000
11000000
00000000
00000000
00000000
,
00010000
00001000
00010000
00000010
00001000
00000100
00000001
00000000
,
00001000
00000000
00000100
00000000
00000001
00000000
00000000
00000100
00000000
00000100
00000000
00000000
00001000
00000000
00000000
00000000
,
00001000
00010000
00000000
00001000
00000000
00000000
00100000
00000000
00000000
01000000
00000000
00000000
10000000
00000000
00000000
01000000
,
00100000
00000000
01000000
00000000
00100000
00000000
00010000
00000000
10000000
00000000
00000000
01000000
00000000
00000000
00100000
00000000
,
00010000
00000000
00001000
00000000
00000000
00011000
00000000
00000000
00010010
00000000
00000000
00001010
00000000
00000000
00001001
00000000
,
00000000
00000000
00000000
00000000
,
00000010
00000100
00001000
00000100
00000001
00000100
00001000
00010000
,
01000000
00100000
01000000
10000000
01000000
00010000
00001000
00000010
,
00000001
00001000
00000001
00000010
00000001
00000100
00001000
00010000
,
01000000
00100000
00010000
01000000
00100000
10000000
00010000
00000000
,
00001000
00000100
00001000
00010000
00001000
00000100
00001000
00010000
,
01000000
10000000
01000000
00100000
01000000
10000000
01000000
00100000
,
00001000
00010000
00000100
00010000
00001000
00010000
00000100
00010000
,
00000010
00000100
00001000
00000100
00000010
00000100
00001000
00010000
,
01000000
00000000
00000000
01000000
00000000
00000000
00100000
00000000
00000000
00000000
00100000
00000000
00001000
00000000
00010000
00000000
,
00000100
00000000
00000000
00000100
00000000
00000000
00000010
00000000
00000000
00000000
00000010
00000000
00001000
00000000
00000001
00000000
,
00002002
00000000
00000000
00000000
,
00003003
00000000
00000000
00000000
;

//--------------- dance-double - Fred-104 ----------------
#NOTES:
     dance-double:
     Fred-104:
     Hard:
     16:
     :
00000000
00000000
00000000
00000000
,
00000000
00000000
00000000
00000000
,
00000000
00000000
00000000
00000000
,
00000000
00000000
00000000
00000000
,
00000000
00000000
00000000
00000000
,
00020000
00000000
00000000
00032000
00000000
00000000
00203000
00000000
00000000
00320000
00000000
00000000
10030000
00000000
00100000
00000000
,
01000000
00000000
00010000
00000000
10000000
00000000
01000000
00000000
00100000
00000000
00100000
00000000
00001000
00010000
00000000
00010000
,
00000020
00000000
00000000
00002030
00000000
00000000
00003020
00000000
00000000
00000230
00000000
00000000
00000310
00000000
00001000
00000000
,
00000002
00000000
00000000
00000203
00000000
00000000
00002300
00000000
00000000
00003200
00000000
00000000
00000301
00000000
00000000
00000001
00000000
00000000
00001000
00000000
00000100
00000000
00000010
00000000
,
00000002
00000000
00000000
00000203
00000000
00000000
00000320
00000000
00000000
00020030
00000000
00000000
00031000
00000000
00100000
00000000
,
00001000
00000000
00010000
00001000
00010000
00000000
00001000
00000000
00100000
00000000
00010000
10000000
00010000
00000000
01000000
00000000
,
00200000
00000000
00000000
20300000
00000000
00000000
32000000
00000000
00000000
03200000
00000000
00000000
00301000
00000000
00011000
00000000
,
00000000
00010100
00000000
00000000
00001100
00000000
00000000
00000001
00000100
00000010
00000100
00000000
00000001
00000000
00001000
00000001
,
00001000
00000000
00000100
00000000
00000010
00000000
00000100
00000010
00000100
00000000
00000010
00000000
00000001
00001000
00000001
00000000
,
00000100
00000000
00000010
00001000
00000010
00000000
00001000
00000100
00001000
00000000
00000100
00000000
00010000
00000000
00000000
00000000
,
00001000
00000000
00001000
00010000
00000000
00010000
00100000
00000000
00100000
01000000
00000000
01000000
10000000
00000000
00010000
00000000
,
01000000
00000000
00010000
01000000
00010000
01000000
00010000
01000000
00010000
01000000
00100000
00000000
10000000
01000000
00100000
00000000
,
00010000
00000000
10000000
01000000
10000000
00000000
00100000
00000000
01000000
00000000
00100000
01000000
00100000
00000000
00001000
00000000
,
00010000
00000000
00000010
00000000
00000010
00000000
00001000
00000000
00000100
00000000
00000010
00000000
00000001
00001000
00000001
00000000
,
00000100
00000000
00000100
00000010
00000000
00000010
00001000
00000000
00001000
00000100
00000000
00000100
00010000
00000000
00001000
00000000
,
00020000
00000000
00000000
00000000
00031000
00000000
00010000
00000000
00001000
00100000
00001000
00100000
00010000
01000000
00010000
01000000
,
00100000
00000000
10000000
00000000
01000000
00000000
00100000
00000000
00010000
01000000
00000000
00100000
00000000
00000000
10000000
00100000
,
10000000
00000000
00100000
00000000
00010000
00000000
00100000
00000000
01000000
00100000
00000000
10000000
00000000
00000000
00100000
00010000
,
00100000
00000000
00001000
00000000
00010000
00000000
00000010
00000000
00001000
00000010
00000000
00000100
00000000
00000000
00000010
00001000
,
00000100
00000000
00010000
00000000
00001000
00000000
00000100
00000000
00000010
00000000
00000010
00000000
00000001
00000000
00001000
00000001
,
00000100
00000000
00000010
00000000
00001000
00000010
00001000
00000000
00000001
00000100
00000000
00000010
00000000
00000000
00001000
00000100
,
00001000
00000000
00000010
00000000
00010000
00001000
00010000
00000000
00001000
00100000
00000000
00010000
00000000
00000000
00100000
00010000
,
10000000
00000000
00100000
00000000
01000000
00100000
01000000
00000000
00010000
10000000
00000000
01000000
00000000
00000000
00100000
00000000
,
00000000
00101000
00000000
00000000
00011000
00000000
00000000
00010000
00000010
00001000
00000010
00000000
00001000
00000000
00000001
00000000
,
00000100
00000000
00000010
00000000
00001000
00000000
00000001
00000100
00000000
00000100
00000000
00001000
00000100
00000000
00000010
00000000
,
00001000
00000000
00000002
00000000
00000000
00000203
00000000
00000000
00002300
00000000
00000000
00023000
00000000
00000000
00000000
00000000
,
00031000
00000000
00100000
00000000
00010000
00000000
00100000
10000000
00000000
01000000
00000000
01000000
00100000
00000000
00010000
00000000
,
10000000
01000000
10000000
00000000
00100000
01000000
00010000
00000000
01000000
00010000
00100000
00001000
00020000
00000000
00000000
00000000
,
00030010
00000000
00001000
00000000
00000100
00000000
00010000
00000100
00000000
00010000
00000000
00001000
00100000
00000000
01000000
00000000
,
00100000
00001000
00000000
00010000
00001000
00000000
00100000
00000000
00001000
00010000
00000000
00010000
00001000
00000000
00000100
00000010
,
00000001
00000000
00001000
00000000
00000001
00000100
00000010
00000000
00001000
00000000
00000000
00001100
00000000
00000000
00000001
00000100
,
00000010
00000000
00001000
00000000
00000100
00010000
00001000
00000000
00011000
00000000
00000000
00010100
00000000
00000000
01001000
00000000
,
00011000
00000000
00000000
00000000
00000000
00000000
00000000
00100000
01000000
00000000
00100000
00000000
00000000
00000000
00000000
00000000
,
00010000
00000000
10000000
00000000
00000000
00000000
10000000
01000000
00010000
00000000
00001000
00010000
00001000
00000000
00000000
00000000
,
00001001
00000000
00000000
00000000
00000000
00000000
00000000
00000100
00000001
00000000
00000010
00000000
00000000
00000000
00000000
00000000
,
00000100
00000000
00000100
00000000
00000000
00000000
00000000
00010000
00001000
00000000
00010000
00000000
00011000
00000000
00000000
00000000
,
00001000
00010000
00100000
10000000
00010000
01000000
10000000
02000000
,
00000000
00000000
03010000
01000000
10000000
00000000
00100000
00000000
00010000
00000000
00001000
00000000
00010000
00000000
00001000
00000000
,
00000010
00000100
00000110
00000000
00000110
00001000
00000001
00000100
,
00000010
00001000
00000010
00001000
00000010
00001000
00000010
00001000
00000100
00010000
00000100
00010000
00000100
00010000
00000100
00010000
,
00001000
00000000
00100000
00000000
00010000
10000000
01000000
00000000
00100000
01000000
00000000
01000000
10000000
00000000
00010000
01000000
,
10000000
00000000
01000000
00000000
00100000
01000000
00010000
00000000
10000000
01000000
00000000
01000000
00100000
00000000
00001000
00010000
,
00001000
00000000
00100000
00000000
00001000
00010000
00000100
00000000
00001000
00000010
00000000
00000100
00000010
00000000
00001000
00000001
,
00000100
00000000
00000010
00000000
00001000
00000001
00000010
00000000
00000100
00000000
00000100
00000000
00000010
00000000
00001000
00000001
,
00000100
00000000
00000010
00000000
00001000
00000100
00010000
00000000
00001000
00010000
00000000
00001000
00010000
00000000
00100000
01000000
,
10000000
00000000
00010000
00000000
01000000
00100000
10000000
00000000
00010000
01000000
00000000
10000000
01000000
00000000
00010000
01000000
,
00100000
00000000
10000000
00000000
00100000
00010000
00100000
00000000
00001000
00010000
00000000
00001000
00000100
00000000
00000010
00000000
,
00000000
00000101
00000000
00000000
00001100
00000000
00000000
00000010
00000100
00000001
00000100
00000000
00000010
00000000
00001000
00000000
,
00000001
00000000
00000010
00000000
00000100
00000000
00010000
00001000
00000000
00001000
00000000
00010000
00000100
00000000
00010000
00000000
,
00001000
00000000
01000000
00000000
00010000
00100000
00000000
00100000
10000000
00100000
00000000
00020000
00000000
00000000
00000000
00000000
,
01030000
00000000
00100000
00000000
10000000
00000000
00010000
01000000
00000000
10000000
00000000
01000000
00100000
00000000
01000000
00000000
,
00010000
01000000
00010000
00100000
00001000
00010000
00000100
00001000
00000100
00000010
00000001
00001000
00000001
00000200
00000000
00000000
,
00000310
00000000
00001000
00000000
00000100
00000000
00010000
00001000
00000000
00001000
00000000
00100000
00010000
00000000
10000000
00000000
,
00010000
01000000
00000000
01000000
10000000
00000000
01000000
00000000
00100000
00010000
00000000
00100000
01000000
00000000
00100000
10000000
,
00010000
00000000
01000000
00000000
00100000
01000000
00010000
00000000
00110000
00000000
00000000
00011000
00000000
00000000
00001010
00000000
,
00000010
00000000
00000110
00000000
00000000
00000101
00000000
00000000
00001100
00000000
00000000
00011000
00000000
00000000
01010000
00000000
,
00000000
00000000
00000000
00000000
,
00010000
00000000
10000000
00100000
01000000
00000000
00010000
10000000
00010000
01000000
00000000
00100000
01000000
00000000
00100000
10000000
,
00100000
00000000
10000000
01000000
00100000
00000000
01000000
00100000
00010000
00000000
00100000
00010000
00001000
00000000
00010000
00001000
,
00010000
00000000
00001000
00000100
00000010
00000000
00000001
00001000
00000010
00000000
00000100
00000001
00001000
00000000
00000010
00001000
,
00000001
00000000
00000100
00000010
00001000
00000000
00000001
00000010
00000100
00001000
00000100
00010000
00001000
00100000
00010000
00100000
,
01000000
10000000
00010000
00100000
10000000
00100000
00001000
00010000
,
00000010
00000000
00000001
00000000
00000010
00000000
00001000
00000001
00001000
00000000
00000010
00000000
00000100
00000001
00000100
00000001
,
00001000
00000000
00000100
00000010
00000001
00000000
00000100
00000010
00001000
00000000
00000100
00010000
00001000
00000000
00100000
00010000
,
10000000
00000000
00010000
01000000
00100000
00000000
10000000
01000000
00100000
00010000
00100000
01000000
10000000
00100000
01000000
00010000
,
10000000
00000000
00000000
11000000
00000000
00000000
01100000
00000000
00000000
00000000
00001000
00000000
00010000
00000000
00000010
00000000
,
00001010
00000000
00000000
00000011
00000000
00000000
00001010
00000000
00000000
00000000
00000001
00000000
00000100
00000000
00001000
00000000
,
00022000
00000000
00000000
00000000
,
00033000
00000000
00000000
00000000
;

//--------------- dance-double - Fred-104† ----------------
#NOTES:
     dance-double:
     Fred-104†:
     Challenge:
     17:
     :
00000000
00000000
00000000
00000000
,
00000000
00000000
00000000
00000000
,
00000000
00000000
00000000
00000000
,
00000000
00000000
00000000
00000000
,
00000000
00000000
00000000
00000000
,
00010000
00000000
00001000
00010000
00000000
00010000
00000100
00000000
00000100
00001000
00000000
00001000
00000010
00000000
00000100
00000000
,
00000001
00000000
00000010
00000001
00001000
00000000
00000010
00001000
00000100
00000000
00010000
00000000
00001000
00010000
00000000
00010000
,
00001000
00000000
00100000
00010000
00000000
00010000
01000000
00000000
00001000
00010000
00000000
00010000
00000100
00000000
00001000
00000000
,
00000010
00000000
00000000
00001000
00000000
00000000
00000000
00000000
00000000
00000010
00000000
00000000
00000100
00000000
00000000
00000000
00000000
00000000
00000001
00000000
00000000
00001000
00000000
00000000
00000001
00000000
00000000
00000000
00000000
00000000
00001000
00000000
00000000
00000000
00000000
00000000
00000001
00000000
00000000
00000000
00000010
00000000
00000000
00000000
00000010
00000000
00000000
00000000
,
00001000
00000000
00000001
00000010
00000000
00000100
00001000
00000000
00000010
00000100
00000000
00000010
00001000
00000000
00000100
00000000
,
00010000
00000000
00001000
00100000
00001000
00000000
00100000
00010000
00100000
00000000
00010000
10000000
00010000
00000000
01000000
00000000
,
00010000
00000000
00100000
01000000
00000000
10000000
00100000
00000000
10000000
00100000
00000000
01000000
00100000
00000000
10000000
00000000
,
01000000
00100000
00000000
00100000
00001000
00000000
00001000
00010000
00000000
00010000
00000100
00001000
00000001
00000100
00000010
00001000
,
00000001
00000000
00000010
00000000
00000100
00000000
00000010
00000001
00000010
00000000
00001000
00000000
00000010
00000001
00001000
00000000
,
00000001
00000000
00000100
00001000
00000100
00000000
00000001
00000010
00000000
00000100
00000010
00000000
00000001
00001000
00000010
00000000
,
00010000
00000000
00000100
00010000
00000000
00001000
00010000
00000000
00000100
00010000
00000000
00001000
00010000
00000000
00000010
00000000
,
00001000
00000000
00000100
00001000
00000100
00000000
00010000
00001000
00010000
00000000
00001000
00100000
00001000
00000000
10000000
00000000
,
00010000
00000000
00100000
01000000
00100000
00000000
00010000
00000000
10000000
00000000
00010000
01000000
00010000
00000000
10000000
01000000
,
10000000
00000000
01000000
00000000
00100000
00010000
00100000
00000000
00001000
00000000
00010000
00000100
00001000
00000100
00000010
00000000
,
00000110
00000000
00000001
00000100
00000000
00000010
00001000
00000000
00000100
00000010
00000000
00000001
00001000
00000000
00000010
00000000
,
00000200
00000000
00000000
00000000
00000320
00000000
00000000
00000000
00010030
00000010
00001000
00000010
00010000
00000010
00001000
00000010
,
00010000
00000000
00001000
00000000
00100000
00010000
10000000
00000000
00010000
00100000
00000000
01000000
00000000
10000000
00010000
10000000
,
01000000
00000000
10000000
00000000
00100000
10000000
01000000
00000000
00100000
00001000
00000000
00010000
00000000
00001000
00100000
00001000
,
00010000
00000000
00000100
00000000
00001000
00000100
00000010
00000000
00000001
00001000
00000000
00000010
00000000
00001000
00000001
00000100
,
00000001
00000000
00000010
00000000
00000100
00000000
00001000
00000000
00010000
00100000
00010000
00000000
00001000
00000010
00001000
00000000
,
00010000
00000000
00000100
00000000
00001000
00000001
00000100
00000000
00000001
00000010
00000000
00000010
00000100
00000000
00001000
00000010
,
00000100
00000000
00000010
00000000
00001000
00000100
00010000
00000000
00001000
00100000
00000000
00100000
00010000
00000000
10000000
00010000
,
10000000
00000000
01000000
00000000
00100000
00010000
10000000
00000000
00100000
10000000
00000000
10000000
01000000
00000000
00100000
00010000
,
01000000
00001000
00010000
00000000
00000100
00000000
00001000
00000001
00000100
00000010
00000100
00000000
00000001
00001000
00000010
00000000
,
00001000
00000000
00000100
00000000
00010000
00000000
00001000
00010000
00000000
00001000
00000000
00100000
01000000
00000000
00100000
00000000
,
00010000
00000000
00001000
00000000
00000100
00000010
00000000
00000100
00001000
00000010
00000000
00000220
00000000
00000000
00000330
00000000
,
00000001
00000000
00001000
00000000
00000100
00000000
00010000
00001000
00000000
00010000
00000000
00000010
00001000
00000000
00000100
00000000
,
00010000
00001000
00010000
00001000
00100000
00010000
00100000
00010000
01000000
00100000
10000000
00100000
01000000
00020000
00000000
00000000
,
10030000
00000000
01000000
00000000
00010000
00000000
00001000
00010000
00000000
00100000
00000000
10000000
00010000
00000000
01000000
00000000
,
00100000
10000000
00000000
00100000
00000000
01000000
00010000
00000000
00100000
00001000
00000000
00010000
00000100
00000000
00001000
00000001
,
00000010
00000000
00000100
00000000
00000010
00000001
00001000
00000000
00001100
00000000
00000000
00000110
00000000
00000000
00000100
00001000
,
00000001
00000000
00000010
00000000
00000100
00000010
00000001
00000000
00000101
00000000
00000000
00001100
00000000
00000000
00011000
00000000
,
00120000
00000000
20030000
00000000
30010000
01000000
10000000
02000000
,
00000000
00000000
03010000
10000000
00010000
00000000
00100000
00000000
01000000
00000000
00100000
00001000
00100000
00000000
00001000
00000000
,
00020000
00000000
00030200
00000000
00001300
00000100
00000010
00000002
,
00000000
00000000
00000103
00000010
00000001
00000000
00000010
00001000
00000001
00000000
00001000
00000000
00000100
00000000
00000000
00000000
,
00011000
00010000
00000100
00001000
00000001
00000010
00000100
00000020
,
00000000
00000000
00000031
00000010
00001000
00000000
00010000
00000000
01000000
00000000
10000000
00010000
10000000
00000000
00100000
00000000
,
01100000
00000000
00011000
00000000
00000100
00000010
00000100
00000100
,
00000001
00000100
00000001
00000100
00000010
00001000
00000010
00001000
00000100
00010000
00000100
00010000
00001000
00010000
00001000
00010000
,
00001000
00000000
00010000
00000000
00000010
00001000
00000001
00000000
00001000
00000010
00000000
00000100
00000000
00000001
00001000
00000001
,
00000100
00000000
00000001
00000000
00000010
00000001
00000100
00000000
00000010
00010000
00000000
00001000
00000000
00010000
00000010
00010000
,
00001000
00000000
01000000
00000000
00010000
01000000
00100000
00000000
10000000
00010000
00000000
00100000
00000000
00010000
10000000
01000000
,
10000000
00000000
00100000
00000000
01000000
00000000
00010000
00000000
00001000
00000010
00001000
00000000
00010000
00100000
00010000
00000000
,
00001000
00000000
01000000
00000000
00010000
10000000
01000000
00000000
10000000
00100000
10000000
00100000
01000000
00000000
00010000
00100000
,
01000000
00000000
00100000
00000000
00010000
01000000
00001000
00000000
00010000
00000010
00001000
00000010
00001000
00000000
00000001
00001000
,
00000001
00000000
00000100
00000000
00000010
00001000
00000001
00000000
00000010
00000001
00001000
00000001
00000100
00000000
00000010
00001000
,
00000100
00010000
00001000
00000000
01000000
00000000
00010000
10000000
01000000
00100000
01000000
00000000
10000000
00010000
00100000
00000000
,
00010000
00000000
01000000
00000000
00001000
00000000
00010000
00001000
00000000
00010000
00000000
00000010
00000100
00000000
00000010
00000000
,
00001000
00000000
00010000
00000000
01000000
00100000
00000000
01000000
00010000
00100000
00000000
02200000
00000000
00000000
03300000
00000000
,
10000000
00000000
00010000
00000000
01000000
00000000
00001000
00010000
00000000
00001000
00000000
00100000
00010000
00000000
01000000
00000000
,
00001000
00010000
00001000
00010000
00000010
00001000
00000010
00001000
00000100
00000010
00000001
00000010
00000100
00002000
00000000
00000000
,
00003001
00000000
00000100
00000000
00001000
00000000
00010000
00001000
00000000
00000010
00000000
00000001
00001000
00000000
00000100
00000000
,
00000010
00000001
00000000
00000010
00000000
00000100
00001000
00000000
00000010
00010000
00000000
00001000
01000000
00000000
00010000
10000000
,
00100000
00000000
01000000
00000000
00100000
10000000
00010000
00000000
01010000
00000000
00000000
01100000
00000000
00000000
01000000
00010000
,
10000000
00000000
00100000
00000000
01000000
00100000
10000000
00000000
11000000
00000000
00000000
01010000
00000000
00000000
00011000
00000000
,
00000000
00000000
00000000
00000000
,
00000001
00000000
00000100
00000001
00000100
00000001
00000010
00000001
00000010
00000100
00000000
00000100
00001000
00000100
00010000
00001000
,
00010000
00000000
00001000
00100000
00010000
00100000
00001000
00100000
00010000
00000000
01000000
00100000
10000000
00100000
01000000
00100000
,
10000000
00000000
00010000
00100000
01000000
00000000
10000000
00100000
01000000
00000000
00100000
10000000
01000000
00000000
00100000
00001000
,
00010000
00000000
00000100
00001000
00000001
00000000
00001000
00000010
00000100
00000001
00001000
00000000
00000001
00000010
00000100
00000000
,
00002000
00003200
00000320
00000032
00000203
00002300
00023000
00230000
,
20300000
00000000
30020000
00000000
00230000
00000000
01300000
00100000
02000000
00000000
03200000
00000000
00310000
10000000
00010000
10000000
,
02000000
00000000
10000000
03100000
02000000
00000000
00010000
03100000
02000000
00000000
10000000
03100000
02000000
00000000
00010000
13000000
,
02000000
00000000
10000000
03010000
02000000
00000000
00010000
13000000
01000000
00100000
00001000
00010000
00000100
00000010
00000001
00001000
,
00000001
00000000
00000000
00000101
00000000
00000000
00001010
00000000
00000000
00000000
00000011
00000000
00000010
00000000
00000100
00000000
,
00001100
00000000
00000000
00011000
00000000
00000000
01010000
00000000
00000000
00000000
10100000
00000000
01010000
00000000
01100000
00000000
,
20020000
00000000
00000000
00000000
,
30030000
00000000
00000000
00000000
;
