#TITLE:RAISE YOUR HEADS UP;
#ARTIST:GUHROOVY;
#BANNER:RAISE YOUR HEADS UP.png;
#BACKGROUND:RAISE YOUR HEADS UP-bg.png;
#CDTITLE:./CDTitles/jb festo.png;
#MUSIC:RAISE YOUR HEADS UP.ogg;
#SAMPLESTART:34.431;
#SAMPLELENGTH:15;
#BPMS:0=230.221,4=230,96=207,96.25=184,96.5=161,96.75=138,97=115,97.25=92,97.5=69,97.75=57.5,97.875=165.138,98=230,99=460,99.5=230,104.5=460,105=230,107=460,107.5=230,112.5=460,113=230,115=460,115.5=230,120.5=460,121=230,126=115,128=460,222=230,223=460,239=230,247=460,305.5=230,305.75=115,306=460,335.5=230,335.75=115,336=460,350.5=230,350.75=115,351=230,359=115,407=230,412.5=460,413=230,416.5=460,417=230,420.5=460,421=230,428.5=460,429=230,436=115,438=460,467.5=230,467.75=115,468=460,497=230,499=460,527=230,529=460,543=230,548=460,556=920;
#STOPS:99=0.033,99.25=0.033,104.5=0.033,104.75=0.033,107=0.033,107.25=0.032,112.5=0.033,112.75=0.032,115=0.033,115.25=0.032,120.5=0.032,120.75=0.033,277=0.13,302=0.13,303=0.13,304=0.131,334=0.131,407=1.826,412.5=0.033,412.75=0.032,416.5=0.033,416.75=0.032,420.5=0.033,420.75=0.032,428.5=0.033,428.75=0.032;
#TIMESIGNATURES:0=4=4,96=2=4,98=4=4,126=2=4,128=4=4,220=3=4,223=4=4,275=3=4,278=4=4,334=2=4,336=4=4,348=3=4,351=4=4,403=5=4,408=4=4,436=2=4,438=4=4,462=7=4,469=4=4,493=6=4,499=4=4,523=6=4,529=4=4,537=7=4,544=4=4;
#BGSTAGE:31;

//--------------- dance-single - Fred-104 ----------------
#NOTES:
     dance-single:
     Fred-104:
     Beginner:
     9:
     :
0000
0000
0000
0000
,
0000
0000
0000
0000
,
0000
0000
0000
0000
,
0000
0000
0000
0000
,
0000
0000
0000
0000
,
0001
0000
0100
0000
,
0001
1000
0001
0100
,
0010
0000
1000
0000
,
0001
1000
1001
0000
,
0001
0000
0000
0001
0000
0000
0001
0000
,
0100
0000
0010
1000
,
0100
0000
1000
0000
,
0010
1000
0001
0000
,
1000
0000
0000
1000
0000
0000
1000
0000
,
0010
1000
0100
0000
,
0010
0000
0001
0000
,
1000
0001
0100
0010
,
1000
0000
0000
0010
0000
0000
1000
0000
,
0001
0010
0100
0000
,
0010
0001
1000
0000
,
0001
1000
0010
0000
,
0100
0000
0000
0001
0000
0000
0100
0000
,
0001
0010
0100
0000
,
1000
0001
1000
0001
,
1001
0000
2000
0000
,
3000
0000
0010
0000
,
0200
0300
0002
0000
,
0003
0000
1000
0000
,
0002
0003
1001
0000
,
0001
0000
0100
0000
,
0200
0300
0020
0030
,
2000
0000
3000
0000
2002
0000
0000
3003
,
0001
0000
0100
0000
,
0001
0000
0100
0000
,
0001
0000
0010
0000
,
0001
0000
0000
0000
,
1000
0000
0010
0000
,
1000
0000
0010
0000
,
1000
0000
0100
0000
,
1000
0000
1000
0000
,
0001
0000
1000
0000
,
0001
0000
1000
0000
,
0001
0000
0100
0000
,
0001
0000
0000
0000
,
0100
0000
0001
0000
,
0100
0000
0010
0000
,
0100
0000
0001
0000
,
2000
0000
3002
0000
,
1003
0000
0100
0000
,
1000
0000
0010
0000
,
1000
0000
0100
0000
,
0010
0000
0001
0000
,
0100
0000
0001
0000
,
0010
0000
0001
0000
,
0100
0000
0010
0000
,
2002
0000
3003
1000
,
0100
1000
0000
0010
,
0000
1000
0000
0001
,
0100
0001
0000
0010
,
0000
0001
0000
0100
,
0000
0110
0000
0010
,
0000
0110
0000
0100
,
0000
0001
0000
0100
,
0000
0001
0000
0010
,
0000
0001
0000
1000
,
0000
0001
0000
1000
,
0000
0100
0000
1000
,
0000
0010
0000
1000
,
0000
0001
0000
2000
,
0000
3000
0001
0000
,
1000
0000
0001
0000
,
0010
0000
0001
0000
,
0100
0000
0001
0000
,
1000
0000
0001
0000
,
1000
0000
0100
0000
,
0010
0000
2002
0000
,
0000
3003
1000
0000
,
0010
0000
1000
0000
,
0100
0000
1000
0000
,
0010
0000
1000
0000
,
0001
0000
1000
0000
,
0001
0000
0100
0000
,
0010
0000
1000
0000
,
0001
0000
2002
3003
,
0001
0100
0001
0000
,
0010
0000
0010
0000
,
0100
1000
0100
0000
,
1000
0001
1000
1001
,
0000
0000
0000
2002
,
0000
3003
0000
1000
,
0010
0100
0000
0001
,
1000
0010
0100
0001
,
0010
1000
0000
0100
,
0001
1000
0001
0100
,
0001
0010
0000
0100
,
1000
0010
1000
0001
,
0100
1000
0000
0001
,
0010
1000
0000
0001
,
0100
0000
0001
1000
0001
0000
0100
0000
,
0010
0000
1000
0010
1000
0000
0100
1000
,
0100
0000
1000
0010
1000
0000
0001
0010
,
0001
0000
1000
0001
1000
0001
1001
0000
,
0001
0000
0100
0000
,
0002
0000
0103
0000
,
0020
0000
0130
0000
,
0002
0000
1003
0000
,
0200
0000
1300
0000
,
0020
0000
1030
0000
,
0001
0001
1000
1000
,
2002
0000
0000
3003
0001
0000
0000
0000
,
0100
0000
0001
0000
,
0001
0000
0100
0000
,
0010
0000
0100
0000
,
0001
0000
1000
0000
,
1000
0000
0010
0000
,
1000
0000
0100
0000
,
1000
0000
0002
0000
,
0000
1003
0000
0100
,
0000
1000
0000
0010
,
0000
1000
0000
0001
,
0000
1000
0000
0100
,
0000
0010
0000
0001
,
0000
1000
0000
0001
,
0000
0100
0010
0100
,
0000
0001
1000
0001
,
0010
0001
0000
1000
,
0000
0010
0000
1000
,
0100
1000
0000
0010
,
0000
1000
0000
0001
,
0000
1000
0000
0100
,
0000
1000
0000
0001
,
0000
1000
0000
2002
,
3003
0001
1000
0001
,
0000
1000
0000
0001
,
0000
0100
0010
0100
,
0010
0100
0010
0100
,
2002
0000
0000
0000
,
0000
0000
0000
0000
,
0000
0000
0000
0000
,
0000
0000
0000
0000
,
0000
0000
0000
0000
,
0000
0000
0000
0000
,
0000
0000
0000
0000
,
3003
0000
0000
0000
;

//--------------- dance-single - Fred-104 ----------------
#NOTES:
     dance-single:
     Fred-104:
     Easy:
     13:
     :
0000
0000
0000
0000
,
0000
0000
0000
0000
,
0000
0000
0000
0000
,
0000
0000
0000
0000
,
0000
0000
0000
0000
,
1001
0000
0001
0100
,
0001
0000
0100
0010
0100
0000
0001
0000
,
1001
0000
1000
0100
,
1000
0010
0000
1000
0100
0000
0010
0000
,
0001
0000
0100
0000
0001
0010
0001
0000
,
0100
0010
0100
0001
,
1000
0000
0100
0000
0010
0100
0010
0000
,
0100
1000
0001
0100
,
0010
1000
0010
0000
0100
0001
0100
0000
,
0001
0010
0100
1000
,
0001
1000
0010
0000
1000
0001
0010
0000
,
0001
0100
0010
0100
,
0001
0100
0010
0000
1000
0010
1000
0000
,
0100
1000
0010
0100
,
0010
1000
0010
0000
0100
0001
0100
0000
,
0001
0100
0001
0100
0002
0000
2003
0000
,
3010
1000
0010
0000
1000
0100
1000
0000
,
0010
1000
0001
1000
,
0100
0010
0100
0000
0010
0001
0010
0000
,
2002
0000
0000
0000
0000
0000
0000
3003
0001
0000
0000
0000
0000
0000
1000
0000
,
0000
0010
1000
0010
,
1000
0001
0100
0000
0001
0000
0000
1000
,
0000
0010
0100
0001
,
1000
0100
0010
0000
0001
0000
0000
0100
,
0000
0010
0100
0001
,
1000
0010
1000
0000
0001
0100
0001
0000
,
1000
0010
1000
0000
2002
0000
0000
3003
,
0001
0000
0100
0010
,
0000
0100
0010
0000
,
1000
0000
0100
1000
,
0000
0010
1000
0000
,
0100
0000
1000
0001
,
0000
1000
0100
0000
,
0010
0000
0001
1000
,
0001
1000
0001
0000
,
0100
0000
0001
0100
,
0000
0001
0010
0000
,
0001
0000
0100
0010
,
0000
0100
0001
0000
,
1000
0000
0001
1000
,
0000
0010
1000
0000
,
0002
2003
3002
2003
,
3001
0000
1001
0000
,
1000
0000
1000
0000
,
0010
0000
0010
0000
,
0100
0001
0100
0000
,
0001
0010
0001
0000
,
0100
0000
0100
0000
,
0001
0000
0001
0000
,
0010
0100
0010
0000
,
0100
1000
0200
1300
,
0000
1000
0000
0010
,
0000
0010
0000
1000
,
0010
0100
0000
0010
,
1000
0001
0000
1000
,
1000
0000
0001
0000
0001
0000
0100
0010
,
0100
0000
0001
1000
0010
0000
1000
0000
,
0100
1000
0000
0010
,
1000
0010
0000
0100
,
0010
0100
0000
0001
,
0100
0001
0000
0100
,
0010
0100
0000
0001
,
0100
0001
0000
1000
,
0000
2000
3000
0001
,
0000
2001
3001
1000
,
0010
0000
1000
0000
,
0100
0000
0010
0100
,
0010
0000
0001
0100
,
0010
0000
0100
0001
,
0010
0000
0100
0000
,
1000
0000
0001
0100
,
0010
1010
1000
0000
,
0100
0000
1000
0010
,
1000
0000
0100
0000
,
0010
0000
0001
0100
,
0001
0000
0010
0001
,
0010
0000
0001
0000
,
0100
0000
0001
1000
,
0001
0000
1000
1001
,
0001
0000
0100
0000
,
0001
0100
0001
0000
,
1000
0000
0010
0000
,
1000
0010
2000
3001
,
0000
0100
0010
0000
0100
0000
0002
0000
,
0000
2000
3003
0002
,
0100
0100
0103
0020
,
1000
1000
1030
0002
,
0010
0010
0013
0200
,
1000
0000
1000
0000
1300
0000
0001
0010
,
0100
0000
0001
0100
0010
0000
0001
0100
,
1000
0000
0001
0010
1000
0000
0001
0010
,
0100
1000
0010
1000
0100
0000
1000
0010
,
0100
0001
1000
0100
0010
0000
0001
0100
,
1000
0100
0001
0010
0100
1000
0010
1000
,
0100
1000
0010
0100
0001
1000
0001
0100
,
0001
0000
0100
0000
0010
0000
1000
0000
0100
0000
1000
0000
0001
0100
0001
0000
,
0100
0010
0100
0000
0010
1000
0010
0000
1000
0000
0001
1000
1001
0000
0000
0000
,
1000
0010
1000
0000
0100
0000
1000
0000
,
0010
0100
0010
0000
0100
0000
0001
0000
,
0010
0100
0010
0000
0001
0000
0100
0000
,
0010
1000
0010
0000
1000
0000
0100
0000
,
1000
0010
0100
0000
0010
0000
1000
0000
,
0100
0010
0001
0000
0100
0000
0001
0000
,
0010
0100
1000
0000
0001
1000
0010
0000
,
2002
0000
0000
0000
0000
0000
0000
3003
1000
0000
0000
0000
0000
0000
0000
0000
,
0100
1000
0100
0000
,
0010
0000
0001
0000
,
0100
0001
0010
0000
,
0001
0000
0100
0000
,
0010
1000
0100
0000
,
1000
0000
0010
1000
,
0010
0000
0200
0000
,
0000
0301
0000
1000
,
0001
1000
0000
0010
,
0000
1000
0000
0100
,
1000
0010
0000
1000
,
0000
0100
0000
0010
,
0001
1000
0000
0001
,
0000
1000
0010
1000
,
0010
1000
1001
0001
,
0100
0001
0000
0100
,
0010
1000
0000
0010
,
1000
0100
0000
1000
,
0010
0100
0000
0001
,
0010
0100
0000
1000
,
0010
0100
0000
0001
,
1000
0001
0100
0020
,
2030
3001
0100
0001
,
0100
0001
0100
0001
,
0001
1000
0100
1000
,
0100
0000
1000
0000
0100
0000
2000
3000
,
2002
0000
0000
0000
,
0000
0000
0000
0000
,
0000
0000
0000
0000
,
0000
0000
0000
0000
,
0000
0000
0000
0000
,
0000
0000
0000
0000
,
3003
0000
0000
0000
,
1001
0000
0000
0000
;

//--------------- dance-single - Fred-104 ----------------
#NOTES:
     dance-single:
     Fred-104:
     Medium:
     16:
     :
0000
0000
0000
0000
,
0000
0000
0000
0000
,
0000
0000
0000
0000
,
0000
0000
0000
0000
,
0000
0000
0000
0000
,
1001
0000
0000
0001
0100
0000
0010
1000
,
0000
0010
0100
0001
1000
0000
0100
0000
,
0110
0000
0000
0010
0001
0000
1000
0100
,
0001
0100
0000
1000
0010
0100
0001
1000
,
0001
0100
0001
0010
0001
0100
0001
0000
,
1000
0100
0010
0100
1000
0100
0010
0000
,
0001
1000
0010
1000
0001
1000
0100
0000
,
1000
0100
0001
0100
1000
0000
1001
0000
,
0001
0010
0100
1000
0010
0100
0001
0000
,
1000
0001
0100
0001
0010
0001
0100
0000
,
0001
0010
0100
1000
0010
1000
0100
0000
,
1000
0100
0100
0010
0100
0100
2000
0000
,
3001
1000
0010
1000
0001
1000
0100
0000
,
0010
0001
1000
0010
0100
0001
1000
0000
,
1010
0000
0110
0000
1000
0010
0100
0001
,
1000
0100
0010
0001
0200
0000
2300
0000
,
3100
0001
0010
0100
1000
0001
1000
0000
,
0001
0010
1000
0010
0001
0100
0001
0000
,
1000
0010
0100
1000
0100
0010
1000
0000
,
2002
0000
0000
0000
0000
0000
0000
0000
0000
0000
0000
0000
0000
0000
0000
0000
0000
0000
0000
0000
0000
0000
0000
0000
0000
0000
0000
0000
3003
0000
0000
0000
0001
0000
0000
0000
0000
0000
0000
0000
0000
0000
0000
0000
0000
0000
0000
0000
0200
0300
0000
0000
0020
0030
0000
0000
0100
0000
0000
0000
0000
0000
0000
0000
,
0000
0001
0010
0001
1000
0100
0010
0001
,
0100
0000
0000
0000
0000
0000
0000
0000
0020
0030
0000
0000
0200
0300
0000
0000
0010
0000
0000
0000
0000
0000
0000
0000
0000
0000
0000
0000
0000
0000
0000
0000
1000
0000
0000
0000
0000
0000
0000
0000
0000
0000
0000
0000
0000
0000
0000
0000
0002
0003
0000
0000
2000
3000
0000
0000
0001
0000
0000
0000
0000
0000
0000
0000
,
0000
0100
0010
0100
0001
0010
0100
1000
,
0010
0000
0000
0000
0000
0000
0000
0000
2000
3000
0000
0000
0200
0300
0000
0000
1000
0000
0000
0000
0000
0000
0000
0000
0000
0000
0000
0000
0000
0000
0000
0000
0001
0000
0000
0000
0000
0000
0000
0000
0000
0000
0000
0000
0000
0000
0000
0000
0200
0300
0000
0000
0002
0003
0000
0000
0100
0000
0000
0000
0000
0000
0000
0000
,
0000
0001
0010
0001
0100
0010
1000
0100
,
0010
0000
0000
0000
0000
0000
0000
0000
0200
0300
0000
0000
2000
3000
0000
0000
0100
0000
0000
0000
0000
0000
0000
0000
0000
0000
0000
0000
0000
0000
0000
0000
1000
0000
0000
0000
0000
0000
0000
0000
0001
0000
0000
0000
0000
0000
0000
0000
0100
0000
0000
0000
0000
0000
0000
0000
0010
0000
0000
0000
0000
0000
0000
0000
,
1000
0000
0001
0000
0100
0000
0010
0000
1000
0000
0100
0010
0000
0000
0011
0000
,
0001
0010
0001
0100
,
0001
0010
0100
1000
,
0010
1000
0100
0001
,
0100
1000
0001
0000
,
0001
0010
0100
1000
,
0010
0100
1000
0100
,
0001
1000
0010
0001
,
0010
0100
0001
1000
,
0001
0100
1000
0100
,
0010
1000
0001
0010
,
0100
0010
0001
1000
,
0001
0100
0001
0000
,
0001
0100
1000
0100
,
0001
0010
0100
1000
,
0002
2003
3020
0230
,
0301
0000
1000
0001
1000
0000
0000
0000
,
0001
0100
0001
0100
,
1000
0100
1000
0100
,
0001
0010
0100
1000
,
0001
0100
0010
0200
,
0301
1000
0100
0010
,
0001
0100
0020
0032
,
0013
1000
0001
0100
,
0010
0100
0002
1003
,
0100
0010
0001
0100
,
0010
0002
0023
1030
,
0001
0100
0010
1000
,
0010
1000
0010
0000
1000
0001
1000
0000
,
0100
1000
0100
1000
1000
1000
0001
0100
,
0100
0000
0100
0000
0001
1000
0001
1000
0010
0000
0000
0000
1000
0000
0000
0000
,
1000
0010
0010
0100
,
0100
0001
0001
1000
,
0100
0010
0001
0010
,
0100
1000
0001
0100
,
0100
0010
0010
1000
,
1000
0001
0001
0010
,
0001
0000
1000
0000
0010
0000
0100
0010
,
0100
0000
0000
0000
0000
0000
0000
0000
0010
0000
0000
0000
0000
0000
0000
0000
0200
0300
0000
0000
0000
0000
0000
0000
0000
0000
0000
0000
0000
0000
0000
0000
0001
0000
0000
0000
0000
0000
0000
0000
0000
0000
0000
0000
0000
0000
0000
0000
0001
0000
0000
0000
0000
0000
0000
0000
0000
0000
0000
0000
0000
0000
0000
0000
,
0010
0001
1000
1000
,
0010
0100
0010
0010
,
1000
0000
0100
0000
1000
0000
0001
0100
,
0001
0000
0100
0010
0100
0000
0001
0000
,
0010
0100
1000
0010
,
0100
0000
0000
0000
0000
0000
0000
0000
0000
0000
0000
0000
0000
0000
0000
0000
0001
0000
0000
0000
0000
0000
0000
0000
0000
0000
0000
0000
0000
0000
0000
0000
0202
0303
0000
0000
0000
0000
0000
0000
0000
0000
0000
0000
0000
0000
0000
0000
0220
0330
0000
0000
0000
0000
0000
0000
0000
0000
0000
0000
0000
0000
0000
0000
,
2020
3030
0000
0000
0000
0000
0000
0000
0000
0000
0000
0000
0000
0000
0000
0000
2002
0000
0000
0000
0000
0000
0000
0000
0000
0000
0000
0000
3003
0000
0000
0000
1000
0000
0000
0000
0000
0000
0000
0000
0000
0000
0000
0000
0000
0000
0000
0000
1000
0000
0000
0000
0000
0000
0000
0000
0000
0000
0000
0000
0000
0000
0000
0000
,
0010
1000
0100
0010
,
0100
1000
0001
0001
,
0100
0000
0001
0000
0010
0000
0001
0010
,
0001
0000
0100
0010
0100
0000
0001
0000
,
0100
0010
0100
0001
,
2000
3020
0130
0001
,
0100
0000
0000
0000
0000
0000
0000
0000
0000
0000
0000
0000
0000
0000
0000
0000
0010
0000
0000
0000
0000
0000
0000
0000
0000
0000
0000
0000
0000
0000
0000
0000
0220
0330
0000
0000
0000
0000
0000
0000
0000
0000
0000
0000
0000
0000
0000
0000
2002
0000
0000
0000
0000
0000
0000
0000
0000
0000
0000
0000
3003
0000
0000
0000
,
0001
0010
0001
0000
0010
0000
0001
0000
,
0100
0010
2000
0000
,
3100
1000
0100
0000
1000
0000
0010
0000
,
0100
0001
2000
3001
,
0000
0100
0010
0000
1000
0000
0200
0000
,
2300
0000
0002
0000
3003
0000
1000
0200
,
0302
0203
1300
0200
0302
0003
0001
0020
,
2030
3020
0031
0020
1030
0000
1000
0200
,
0320
0032
0103
0020
0032
0003
0010
2000
,
3002
0000
0203
0000
0320
0000
2030
0000
3200
0300
2001
0000
3010
1000
0100
0000
,
1000
0010
0100
0000
0001
0100
0010
0000
0100
0001
0010
0000
0001
0010
0100
1000
,
0010
0100
0001
0000
1000
0010
1000
0100
1000
0001
0100
0000
0001
1000
0100
0010
,
0001
0100
0010
0001
0010
1000
0001
0100
1000
0100
0010
0000
1000
0001
0010
0100
,
0001
0100
1000
0010
0100
0001
1000
0100
0010
0001
1000
0000
0001
0000
0011
0000
,
0101
0000
0011
0000
1000
0000
1000
0010
0100
0010
1000
0000
0001
0000
0101
0000
,
0011
0000
0101
0000
1000
0000
1000
0100
0010
0100
1000
0000
0001
0100
1000
0000
,
0001
0010
1000
0000
0001
0010
1000
0000
0001
0100
1000
0000
0001
0100
0010
0100
,
0001
0010
0100
0010
0001
1000
0010
1000
0100
0000
0010
0001
1001
0000
0000
0000
,
0001
0100
0010
0100
0001
0010
0100
1000
,
0010
0000
0000
0000
0000
0000
0000
0000
0200
0300
0000
0000
0020
0030
0000
0000
0100
0000
0000
0000
0000
0000
0000
0000
0001
0000
0000
0000
0000
0000
0000
0000
1000
0000
0000
0000
0000
0000
0000
0000
0001
0000
0000
0000
0000
0000
0000
0000
0100
0000
0000
0000
0000
0000
0000
0000
0000
0000
0000
0000
0000
0000
0000
0000
,
0001
0000
0000
0000
0000
0000
0000
0000
0020
0030
0000
0000
0002
0003
0000
0000
0010
0000
0000
0000
0000
0000
0000
0000
0100
0000
0000
0000
0000
0000
0000
0000
1000
0000
0000
0000
0000
0000
0000
0000
0010
0000
0000
0000
0000
0000
0000
0000
1000
0000
0000
0000
0000
0000
0000
0000
0000
0000
0000
0000
0000
0000
0000
0000
,
0100
0000
0000
0000
0000
0000
0000
0000
2000
3000
0000
0000
0020
0030
0000
0000
1000
0000
0000
0000
0000
0000
0000
0000
0100
0000
0000
0000
0000
0000
0000
0000
1000
0000
0000
0000
0000
0000
0000
0000
0001
0000
0000
0000
0000
0000
0000
0000
0010
0000
0000
0000
0000
0000
0000
0000
0011
0000
0000
0000
0000
0000
0000
0000
,
0011
0000
0001
0100
0010
1000
0001
0000
,
1000
0000
0000
0000
0000
0000
0000
0000
0200
0300
0000
0000
0020
0030
0000
0000
0100
0000
0000
0000
0000
0000
0000
0000
1000
0000
0000
0000
0000
0000
0000
0000
0001
0000
0000
0000
0000
0000
0000
0000
0100
0000
0000
0000
0000
0000
0000
0000
0010
0000
0000
0000
0000
0000
0000
0000
0000
0000
0000
0000
0000
0000
0000
0000
,
1000
0000
0001
0010
0001
0000
1000
0000
0010
0000
0100
0000
0001
0000
1000
0000
,
0001
0000
0010
0100
0000
0000
1010
0000
1000
0000
0000
0000
0100
0000
0000
0000
,
1000
0010
1000
0100
,
0010
0000
0100
0010
0100
0000
0010
0000
,
0001
1000
0001
0100
,
0010
0000
0100
0001
0100
0000
0001
0000
,
0010
0100
1000
0001
,
0100
0000
0001
1000
0001
0000
0010
0000
,
0100
1000
0001
1002
,
0000
0000
1003
0100
1000
0000
0010
0000
,
1000
0100
0100
1000
,
0000
0001
0100
0001
,
0010
0001
0100
0010
,
0000
1000
0010
0100
,
0010
1000
0001
1000
,
0100
2000
3200
0320
,
0032
1003
1001
0001
,
0100
0010
0100
0001
,
0010
0100
0010
0001
,
0100
0010
0100
0001
,
1000
0001
0000
1000
,
0100
0010
0100
1000
,
0010
0100
0010
1000
,
0100
0010
0001
1000
,
1001
0000
0001
0100
0001
0000
0010
0000
,
0001
0100
0001
0200
,
0320
0000
1030
0010
1000
0000
0100
0000
,
1000
0000
0010
0000
0000
0000
2000
3001
,
2002
0000
0000
0000
,
0000
0000
0000
0000
,
0000
0000
0000
0000
,
0000
0000
0000
0000
,
0000
0000
0000
0000
,
0000
0000
0000
0000
,
3003
0000
0000
0000
,
1001
0000
0000
0000
;

//--------------- dance-single - Fred-104 ----------------
#NOTES:
     dance-single:
     Fred-104:
     Hard:
     18:
     :
0000
0000
0000
0000
,
0000
0000
0000
0000
,
0000
0000
0000
0000
,
0000
0000
0000
0000
,
0000
0000
0000
0000
,
1010
0000
0000
1000
0100
0000
0010
0001
,
0000
0000
1000
0000
0001
0000
0100
0010
0100
0000
0000
0000
0001
0000
0000
0000
,
0101
0000
0000
0100
0010
0000
1000
0100
,
1000
0000
0010
0000
0000
0000
0010
0000
0001
0000
1000
0000
0100
0010
0100
0010
,
0001
0100
0001
0010
0100
1000
0010
1000
,
0001
0100
1000
0001
0010
1000
0001
0000
,
1000
0100
0010
1000
0001
0100
0010
0001
,
1000
0000
0100
0000
0010
0000
0001
0100
0010
0000
0000
0000
0110
0000
0000
0000
,
1001
0000
0001
0010
0100
0001
0100
0010
,
0001
0100
1000
0001
0010
1000
0001
0000
,
1000
0001
0100
1000
0100
0010
1000
0001
,
1000
0100
0010
1000
0010
0200
1300
0001
,
0101
0000
0001
0100
1000
0100
0001
0010
,
0001
1000
0100
0001
1000
0010
0001
0000
,
1010
0000
0000
0000
0101
0000
0000
0000
1000
0000
0100
0000
0010
0000
0001
0100
,
0001
0000
0010
0000
0100
0000
0010
0001
0100
0000
0001
0000
2000
0000
0000
0000
,
3001
0000
1000
0010
0100
1000
0100
0010
,
1000
0000
0100
0000
0010
0000
0001
0100
0010
0000
0001
0000
0010
0000
0000
0000
,
1000
0000
0001
0000
0100
0000
0010
1000
0010
0000
1000
0000
0001
0000
0000
0000
,
2002
0000
0000
0000
0000
0000
0000
0000
0000
0000
0000
0000
0000
0000
0000
0000
0000
0000
0000
0000
0000
0000
0000
0000
0000
0000
0000
0000
3003
0000
0000
0000
1001
0000
0000
0000
0000
0000
0000
0000
0000
0000
0000
0000
0000
0000
0000
0000
0002
0003
0000
0000
0020
0030
0000
0000
0100
0000
0000
0000
0000
0000
0000
0000
,
0000
0010
0001
1000
0001
1000
0001
0010
,
0100
0000
0000
0000
0000
0000
0000
0000
2000
3000
0000
0000
0200
0300
0000
0000
1000
0000
0000
0000
0000
0000
0000
0000
0001
0000
0000
0000
0000
0000
0000
0000
0100
0000
0000
0000
0000
0000
0000
0000
0000
0000
0000
0000
0000
0000
0000
0000
0020
0030
0000
0000
2000
3000
0000
0000
0001
0000
0000
0000
0000
0000
0000
0000
,
0000
1000
0100
0010
0001
0100
0001
1000
,
0001
0000
0000
0000
0000
0000
0000
0000
0200
0300
0000
0000
0020
0030
0000
0000
0100
0000
0000
0000
0000
0000
0000
0000
0001
0000
0000
0000
0000
0000
0000
0000
1001
0000
0000
0000
0000
0000
0000
0000
0000
0000
0000
0000
0000
0000
0000
0000
2000
3000
0000
0000
0020
0030
0000
0000
0100
0000
0000
0000
0000
0000
0000
0000
,
0000
0001
1000
0100
0010
1000
0010
0001
,
1000
0000
0000
0000
0000
0000
0000
0000
0002
0003
0000
0000
0200
0300
0000
0000
0001
0000
0000
0000
0000
0000
0000
0000
0010
0000
0000
0000
0000
0000
0000
0000
0001
0000
0000
0000
0000
0000
0000
0000
0010
0000
0000
0000
0000
0000
0000
0000
0100
0000
0000
0000
1000
0000
0000
0000
0001
0000
0000
0000
0000
0000
0000
0000
,
1000
0000
0010
0100
0001
0000
1000
0000
0001
0000
0100
0100
0000
0000
0110
0000
,
1000
0000
0100
0000
1000
0010
0100
0000
,
0010
0000
1000
0000
0100
0000
0010
0001
,
0100
0001
0010
0001
,
1000
0000
0100
0000
1000
0001
0100
0001
,
1000
0000
0010
0000
0100
0001
0100
0000
,
0010
0000
0100
0001
0100
0000
0010
0000
,
1000
0100
0010
0001
,
1000
0010
0100
0001
1000
0000
0001
1000
,
0100
0000
0010
0000
0001
1000
0001
0000
,
0100
0000
0001
0000
0010
0000
0001
0100
,
0001
0000
0010
0000
0100
1000
0010
0000
,
1000
0000
0010
0000
1000
0100
0010
0001
,
1000
0000
0010
0000
1000
0001
1000
0000
,
0100
0000
0010
0000
0001
0000
0100
0001
,
2000
3200
0302
0203
,
1300
0000
0001
1000
0001
0000
0000
0000
,
1000
0000
0100
0000
0010
0000
0001
1000
,
0001
0000
0100
0000
0010
0000
0100
0001
,
0100
0000
0001
0000
0010
0000
0100
1000
,
0100
0000
1000
0000
0020
0000
1030
0001
,
0100
0001
0010
0000
0001
0000
0100
0000
,
0001
1000
0100
0000
1000
0010
0200
0000
,
0301
0000
0100
0010
1000
0000
0100
0000
,
0010
0001
1000
0001
0200
0000
0301
0100
,
0001
1000
0010
1000
,
0001
0000
0100
0010
2000
0000
3001
0010
,
0001
0100
0010
0200
,
0301
1000
0200
0000
1300
0001
0100
0000
,
0100
0001
1000
0000
0001
0100
0010
0100
0001
0000
0100
0000
0001
0000
0010
0000
,
0001
1000
0001
0000
0100
0010
1000
0010
0200
0000
0000
0000
0301
0000
0000
0000
,
0010
0100
1000
0010
,
0100
0000
0010
0000
1000
0010
0100
0000
,
0001
1000
0001
0100
,
0001
0010
0100
0000
1000
0010
0100
0000
,
0010
1000
0100
0010
,
0001
1000
0001
0100
,
0010
0000
1000
0000
0010
0000
1000
0100
,
0010
0000
0000
0000
0000
0000
0000
0000
0001
0000
0000
0000
0000
0000
0000
0000
2000
3000
0000
0000
0000
0000
0000
0000
0000
0000
0000
0000
0000
0000
0000
0000
0001
0000
0000
0000
0000
0000
0000
0000
0010
0000
0000
0000
0000
0000
0000
0000
0100
0000
0000
0000
0000
0000
0000
0000
0000
0000
0000
0000
0000
0000
0000
0000
,
0010
0001
0100
0001
,
0010
0000
0100
1000
0100
0000
1000
0000
,
0010
0000
0100
0000
0010
0000
1000
0100
,
0010
0000
0001
0100
0010
0000
1000
0000
,
0100
1000
0001
0100
,
0010
0000
0000
0000
0000
0000
0000
0000
0000
0000
0000
0000
0000
0000
0000
0000
1000
0000
0000
0000
0000
0000
0000
0000
0001
0000
0000
0000
0000
0000
0000
0000
2000
3000
0000
0000
0000
0000
0000
0000
0000
0000
0000
0000
0000
0000
0000
0000
2200
3300
0000
0000
0000
0000
0000
0000
0000
0000
0000
0000
0000
0000
0000
0000
,
2020
3030
0000
0000
0000
0000
0000
0000
0000
0000
0000
0000
0000
0000
0000
0000
2002
0000
0000
0000
0000
0000
0000
0000
0000
0000
0000
0000
3003
0000
0000
0000
0001
0000
0000
0000
0000
0000
0000
0000
0000
0000
0000
0000
0000
0000
0000
0000
0010
0000
0000
0000
0000
0000
0000
0000
0000
0000
0000
0000
0000
0000
0000
0000
,
0100
1000
0010
0000
1000
0000
0001
0000
,
0100
0000
0001
0100
0010
0000
0100
0000
,
0001
0010
0100
0000
1000
0000
0001
1000
,
0010
0000
1000
0001
0100
0010
1000
0000
,
0100
0010
0001
1000
,
0001
1000
0020
0000
1030
0000
0100
1000
,
0010
0000
0000
0000
0000
0000
0000
0000
0000
0000
0000
0000
0000
0000
0000
0000
0100
0000
0000
0000
0000
0000
0000
0000
0000
0000
0000
0000
0000
0000
0000
0000
0220
0330
0000
0000
0000
0000
0000
0000
0000
0000
0000
0000
0000
0000
0000
0000
2002
0000
0000
0000
0000
0000
0000
0000
0000
0000
0000
0000
3003
0000
0000
0000
,
0001
0010
0001
0000
0010
0000
1000
0000
,
0010
0000
0001
0000
1000
0001
1000
0000
,
0001
0100
0001
0000
0100
0000
1000
0000
,
0100
0000
0000
0000
0001
0000
0000
0000
2002
0000
0000
3003
1000
0000
0000
0000
,
0000
0001
0100
0000
1000
0000
0200
0000
,
0320
0000
0000
0000
0000
0000
0000
0000
2000
0000
0000
0000
0000
0000
0000
0000
3030
0000
0000
0000
0000
0000
0000
0000
1000
0100
1000
0100
0010
0000
0000
0000
,
0001
0000
0100
0000
0001
0000
0010
0000
0011
0000
0001
0000
1000
0000
0000
0000
0020
0000
0000
0000
2030
0000
0000
0000
3100
0010
0100
0010
0100
0000
0000
0000
,
1000
0000
0000
0000
0010
0000
1000
0000
1001
0000
0001
0000
0100
0000
0001
0000
0010
0000
0000
0000
0100
0000
0000
0000
0010
0001
0010
0001
0010
0000
0000
0000
,
0001
0000
0100
0000
0010
0000
1000
0000
1100
0000
0100
0000
0010
0000
0000
0000
0001
0000
0000
0000
1000
0000
0000
0000
0001
1000
0001
1000
0010
0000
0000
0000
,
0100
0000
0001
0000
0010
0000
0001
0000
2001
0000
0000
0000
3100
0000
0000
0000
0010
0000
0000
0000
0011
0000
0000
0000
0001
0100
0001
0100
0010
0000
0100
0000
,
0001
0000
0100
0000
0010
0000
0100
0000
0001
0000
1000
0000
0100
0000
0000
0000
1000
0000
0001
0000
0010
0000
0000
0000
0001
1000
0001
1000
0010
0000
1000
0000
,
0001
0000
1000
0000
0010
0000
1000
0000
0001
0000
0100
0000
1000
0000
0100
0000
0001
0000
0000
0000
1000
0000
0000
0000
0010
1000
0010
1000
0100
0000
1000
0000
,
0010
0000
1000
0000
0100
0000
1000
0000
0001
0000
0010
0000
1000
0000
0000
0000
0010
0000
0000
0000
0001
0000
0000
0000
0100
0001
0010
0001
0010
0000
0001
0000
,
0100
0000
0001
0000
0010
0000
0001
0000
0100
0000
0010
0000
1000
0000
0010
0000
1000
0000
0100
0000
1000
0001
1000
0001
1000
0000
0000
0000
1100
0000
1000
0000
,
0010
0000
0100
0000
0001
0000
1000
0000
0001
0000
0100
0000
1000
0000
0100
0000
0010
0000
0000
0000
1000
0000
0000
0000
0001
1000
0001
1000
0001
0000
0010
0000
,
0001
0000
0100
0000
0010
0100
0010
0000
1000
0000
0100
0000
0010
0000
0100
0000
1000
0000
0000
0000
0010
1000
0010
1000
0001
0100
0001
0100
0001
0000
0000
0000
,
0100
0000
0010
0000
1000
0000
0100
0000
0110
0000
0010
0000
0001
0000
1000
0000
0001
0000
0000
0000
0100
0000
0000
0000
0001
1000
0001
1000
0010
0000
0000
0000
,
1000
0000
0001
0000
1000
0100
1000
0100
0010
0000
0001
0000
1000
0000
0010
0000
0100
0000
0000
0000
0200
0000
0301
0000
1001
0000
0000
0000
0000
0000
0000
0000
,
1000
0000
0010
0100
0001
0000
1000
0000
0020
0000
0000
0000
0031
0000
0010
0000
,
0100
0000
0000
0000
0000
0000
0000
0000
0002
0003
0000
0000
2000
3000
0000
0000
0001
0000
0000
0000
0000
0000
0000
0000
1000
0000
0000
0000
0000
0000
0000
0000
0010
0000
0000
0000
0000
0000
0000
0000
0100
0000
0000
0000
0000
0000
0000
0000
0010
0000
0000
0000
0000
0000
0000
0000
1000
0000
0000
0000
0000
0000
0000
0000
,
0001
0000
0000
0000
0000
0000
0000
0000
0200
0300
0000
0000
2000
3000
0000
0000
0100
0000
0000
0000
0000
0000
0000
0000
0001
0000
0000
0000
0000
0000
0000
0000
0010
0000
0000
0000
0000
0000
0000
0000
1000
0000
0000
0000
0000
0000
0000
0000
0010
0000
0000
0000
0000
0000
0000
0000
0001
0000
0000
0000
0000
0000
0000
0000
,
1000
0000
0000
0000
0000
0000
0000
0000
0002
0003
0000
0000
2000
3000
0000
0000
0010
0000
0000
0000
0000
0000
0000
0000
1000
0000
0000
0000
0000
0000
0000
0000
0100
0000
0000
0000
0000
0000
0000
0000
0010
0000
0000
0000
0000
0000
0000
0000
0001
0000
0000
0000
0000
0000
0000
0000
0101
0000
0000
0000
0000
0000
0000
0000
,
0101
0000
0100
0010
0100
0000
0010
0000
1000
0000
0100
0000
1000
0000
0001
0000
,
0100
0000
0000
0000
0000
0000
0000
0000
0002
0003
0000
0000
0020
0030
0000
0000
0100
0000
0000
0000
0000
0000
0000
0000
0010
0000
0000
0000
0000
0000
0000
0000
0001
0000
0000
0000
0000
0000
0000
0000
0100
0000
0000
0000
0000
0000
0000
0000
0010
0000
0000
0000
0000
0000
0000
0000
1000
0000
0000
0000
0000
0000
0000
0000
,
1001
0000
0001
0100
0001
0000
0010
0000
0100
0000
1000
0010
0100
0000
0001
0000
,
1000
0000
0100
0010
0000
0000
0110
0000
0001
0000
0000
0000
0010
0000
0001
0000
,
0100
0000
0010
0000
1000
0000
0100
1000
,
0001
0000
1000
0000
0001
0000
0100
0010
,
1000
0000
0001
0000
1000
0000
0010
0100
,
0001
0000
1000
0001
0010
0000
0100
1000
,
0001
0000
1000
0000
0100
0000
0010
0001
,
0010
0000
0001
0000
0100
0000
0001
1000
,
0010
0000
1000
0000
0001
0100
0020
0000
,
0000
0000
1030
0010
1000
0000
0010
0000
,
0100
1000
0100
0010
,
1000
0001
0100
0000
0001
0000
0010
0000
,
0100
0001
0100
0000
0010
0000
0001
0000
,
1000
0001
0100
0000
0001
0010
0100
0000
,
1000
0000
0010
1000
0100
0000
1000
0010
,
0100
0001
2000
0000
3200
0000
0302
0000
,
0203
1300
1001
0001
,
0010
0001
1000
0000
0010
0000
0100
0000
,
0001
1000
0100
0000
0010
0000
0001
0000
,
0100
0010
0100
0000
0001
0000
1000
0000
,
0100
0010
0001
0000
0100
0010
1000
0010
,
0100
0010
1000
0001
,
0100
0000
0001
1000
0001
0000
1000
0000
,
0010
1000
0001
1000
0010
1000
0002
0000
,
2003
0000
3001
0010
0001
0000
0100
0000
,
0100
0000
0010
1000
0010
1000
0020
0000
,
2030
0000
3001
1000
0001
0000
1000
0000
,
1000
0000
0000
0000
0100
0000
0010
0000
0100
0000
0010
0000
0200
0000
2300
3000
,
2002
0000
0000
0000
,
0000
0000
0000
0000
,
0000
0000
0000
0000
,
0000
0000
0000
0000
,
0000
0000
0000
0000
,
3003
0000
0000
0000
,
0100
0000
0000
0000
,
1001
0000
0000
0000
;

//--------------- dance-single - Fred-104 raises your heads up ----------------
#NOTES:
     dance-single:
     Fred-104 raises your heads up:
     Challenge:
     19:
     :
0000
0000
0000
0000
,
0000
0000
0000
0000
,
0000
0000
0000
0000
,
0000
0000
0000
0000
,
0000
0000
0000
0000
,
1100
0000
0001
1000
0010
0000
1000
0100
,
0001
0000
1000
0000
0010
0000
0001
1000
0001
0000
0100
0000
0010
0000
0000
0000
,
1001
0000
0001
0100
1000
0000
0100
0010
,
1000
0000
0001
0000
0000
0000
0010
0001
1000
0000
0000
0000
0001
0100
0010
0100
,
1000
0100
0010
0100
0001
1000
0001
0000
,
1000
0000
0100
0000
0010
0000
1000
0010
0100
0000
1000
0000
0001
0000
0000
0000
,
1000
0100
0010
0001
0100
0010
0001
0010
,
1000
0000
0001
0000
0100
0000
1000
0100
0020
0000
0000
0000
2030
0000
3002
0000
,
0103
0001
0010
0100
0001
0100
0010
0000
,
0001
0000
1000
0000
0010
0000
0100
0001
0010
0000
0001
0000
1000
0000
0000
0000
,
0001
0000
0100
0000
0010
0000
0001
0010
0100
0000
0001
0000
1000
0000
0000
0000
,
0001
0000
0000
0000
0000
0000
0000
0000
0000
0000
0000
0000
0000
0000
0000
0000
0000
0000
0000
0000
0000
0000
0000
0000
0020
0030
0000
0000
0000
0000
0000
0000
0000
0000
0000
0000
0000
0000
0000
0000
0000
0000
0000
0000
0000
0000
0000
0000
0020
0030
0000
0000
0000
0000
0000
0000
0000
0000
0000
0000
0000
0000
0000
0000
0000
0000
0000
0000
0000
0000
0000
0000
1000
0000
0000
0000
0000
0000
0000
0000
0000
0000
0000
0000
0000
0000
0000
0000
0000
0000
0000
0000
0000
0000
0000
0000
0200
0300
0000
0000
0000
0000
0000
0000
0000
0000
0000
0000
0000
0000
0000
0000
0000
0000
0000
0000
0000
0000
0000
0000
0200
0300
0000
0000
0000
0000
0000
0000
0000
0000
0000
0000
0001
0000
0000
0000
0000
0000
0000
0000
0000
0000
0000
0000
1000
0000
0000
0000
0000
0000
0000
0000
0000
0000
0000
0000
0000
0000
0000
0000
0000
0000
0000
0000
0000
0000
0000
0000
0001
0000
0000
0000
0000
0000
0000
0000
0000
0000
0000
0000
0000
0000
0000
0000
0000
0000
0000
0000
0000
0000
0000
0000
,
1000
0100
0010
1000
0010
0100
1000
0000
,
0001
0000
0100
0000
0010
0000
0001
0010
0100
0000
0001
0000
1000
0000
0000
0000
,
0001
0100
0010
1000
0100
0001
0100
1000
,
0001
0000
0010
0000
1000
0000
0010
0001
0100
0000
0010
0000
2000
0000
0000
0000
,
3001
1000
0010
0001
0010
0100
0001
0000
,
1000
0000
0100
0000
0010
0000
1000
0010
0001
0000
1000
0000
0001
0000
0100
0000
,
0001
0000
0010
0000
0100
0000
1000
0001
0100
0000
1000
0000
0100
0000
0000
0000
,
0220
0000
0000
0000
0000
0000
0000
0000
0000
0000
0000
0000
0000
0000
0000
0000
0000
0000
0000
0000
0000
0000
0000
0000
0000
0000
0000
0000
0330
0000
0000
0000
1100
0000
0000
0000
0000
0000
0000
0000
0000
0000
0000
0000
0000
0000
0000
0000
2000
3000
0000
0000
0200
0300
0000
0000
0010
0000
0000
0000
0000
0000
0000
0000
,
0000
0000
0000
0000
0000
0000
0000
0000
0000
0000
0000
0000
0000
0000
0000
0000
0000
0000
0000
0000
0000
0000
0000
0000
0001
0000
0000
0000
0000
0000
0000
0000
0000
0000
0000
0000
0000
0000
0000
0000
0000
0000
0000
0000
0000
0000
0000
0000
0020
0030
0000
0000
0000
0000
0000
0000
0000
0000
0000
0000
0000
0000
0000
0000
0000
0000
0000
0000
0000
0000
0000
0000
0020
0030
0000
0000
0000
0000
0000
0000
0000
0000
0000
0000
0000
0000
0000
0000
0000
0000
0000
0000
0000
0000
0000
0000
1000
0000
0000
0000
0000
0000
0000
0000
0000
0000
0000
0000
0000
0000
0000
0000
0000
0000
0000
0000
0000
0000
0000
0000
0200
0300
0000
0000
0000
0000
0000
0000
0000
0000
0000
0000
0000
0000
0000
0000
0000
0000
0000
0000
0000
0000
0000
0000
0200
0300
0000
0000
0000
0000
0000
0000
0000
0000
0000
0000
0000
0000
0000
0000
0000
0000
0000
0000
0000
0000
0000
0000
0001
0000
0000
0000
0000
0000
0000
0000
0000
0000
0000
0000
0000
0000
0000
0000
0000
0000
0000
0000
0000
0000
0000
0000
,
1000
0000
0000
0000
0100
0000
0000
0000
0020
0030
0000
0000
0002
0003
0000
0000
1000
0000
0000
0000
0000
0000
0000
0000
0001
0000
0000
0000
0000
0000
0000
0000
0010
0000
0000
0000
0000
0000
0000
0000
0100
0000
0000
0000
0000
0000
0000
0000
2000
3000
0000
0000
0002
0003
0000
0000
0010
0000
0000
0000
0000
0000
0000
0000
,
0001
0000
0000
0000
0000
0000
0000
0000
0000
0000
0000
0000
0000
0000
0000
0000
0000
0000
0000
0000
0000
0000
0000
0000
0200
0300
0000
0000
0000
0000
0000
0000
0000
0000
0000
0000
0000
0000
0000
0000
0000
0000
0000
0000
0000
0000
0000
0000
0200
0300
0000
0000
0000
0000
0000
0000
0000
0000
0000
0000
0000
0000
0000
0000
0000
0000
0000
0000
0000
0000
0000
0000
1000
0000
0000
0000
0000
0000
0000
0000
0000
0000
0000
0000
0000
0000
0000
0000
0000
0000
0000
0000
0000
0000
0000
0000
0020
0030
0000
0000
0000
0000
0000
0000
0000
0000
0000
0000
0000
0000
0000
0000
0000
0000
0000
0000
0000
0000
0000
0000
0020
0030
0000
0000
0000
0000
0000
0000
0000
0000
0000
0000
0000
0000
0000
0000
0000
0000
0000
0000
0000
0000
0000
0000
0001
0000
0000
0000
0000
0000
0000
0000
0000
0000
0000
0000
0000
0000
0000
0000
0000
0000
0000
0000
0000
0000
0000
0000
0100
0000
0000
0000
0000
0000
0000
0000
0000
0000
0000
0000
0000
0000
0000
0000
0000
0000
0000
0000
0000
0000
0000
0000
,
0001
0000
0000
0000
0010
0000
0000
0000
0200
0300
0000
0000
0020
0030
0000
0000
0001
0000
0000
0000
0000
0000
0000
0000
1000
0000
0000
0000
0000
0000
0000
0000
1100
0000
0000
0000
0000
0000
0000
0000
0100
0000
0000
0000
0000
0000
0000
0000
2000
3000
0000
0000
0200
0300
0000
0000
0010
0000
0000
0000
0000
0000
0000
0000
,
1000
0010
0100
1000
0001
0010
0100
0001
,
0100
0000
0000
0000
0010
0000
0000
0000
0002
0003
0000
0000
2000
3000
0000
0000
0001
0000
0000
0000
0000
0000
0000
0000
0100
0000
0000
0000
0000
0000
0000
0000
0001
0000
0000
0000
0100
0000
0000
0000
0001
0000
0000
0000
1000
0000
0000
0000
0100
0000
0000
0000
1000
0000
0000
0000
0001
0000
0000
0000
0010
0000
0000
0000
,
0001
1000
0010
1000
0001
0100
0010
1000
0001
0000
0100
0010
0000
0000
1010
0000
,
1000
0000
0100
0000
0010
0001
1000
0000
,
0001
0000
0100
1000
0100
0000
0001
0010
,
0100
0000
1000
0000
0010
1000
0010
0000
,
0100
0000
0010
0000
1000
0000
0100
0010
,
0001
0000
0010
0100
1000
0000
0001
0000
,
0100
0000
0001
0010
0100
0000
0010
0001
,
1000
0000
0100
1000
0001
0000
0100
0001
,
0010
0100
0010
0100
1000
0000
0010
0100
,
0001
0010
0001
0000
1000
0000
0100
0010
,
0001
0000
1000
0010
0100
0000
0010
1000
,
0001
0000
0100
0000
1000
0100
0001
0000
,
0010
0000
1000
0010
0001
0000
0100
0010
,
1000
0000
0010
1000
0100
0000
0010
0000
,
0001
0010
0100
0000
0010
0001
1000
0001
,
2000
3000
2200
3300
0002
0003
0202
0303
,
1000
0000
0100
0010
0002
0000
0000
0000
,
1003
0000
0010
1000
0100
0000
0010
0000
,
0011
0000
1001
0000
1001
0000
0001
0100
,
1000
0100
0010
1000
,
0001
0000
0100
0001
0010
0000
0200
0000
,
1300
0010
0100
0000
0001
0000
0010
0000
,
0001
0100
0010
1000
0001
0010
0100
1000
,
0001
0000
0100
0010
0100
0000
0001
0000
,
1000
0010
0100
0001
2000
0000
3001
0100
,
0001
0010
0100
0000
0010
0000
0001
0100
,
0010
1000
0100
0010
0001
0000
1000
0010
,
0100
0000
0001
0000
1000
0001
0020
0000
,
0001
0000
0000
0000
0000
0000
0000
0000
0000
0000
0000
0000
0000
0000
0000
0000
0000
0000
0000
0000
0000
0000
0000
0000
1000
0000
0000
0000
0000
0000
0000
0000
0000
0000
0000
0000
0000
0000
0000
0000
0000
0000
0000
0000
0000
0000
0000
0030
0020
0000
0000
0000
0000
0000
0000
0000
0000
0000
0000
0000
0000
0000
0000
0000
0000
0000
0000
0000
0000
0000
0000
0000
0000
0000
0000
0000
0000
0000
0000
0000
0000
0000
0000
0000
0000
0000
0000
0000
0000
0000
0000
0000
0000
0000
0000
0000
1000
0000
0000
0000
0000
0000
0000
0000
0000
0000
0000
0000
0000
0000
0000
0000
0000
0000
0000
0000
0000
0000
0000
0000
0100
0000
0000
0000
0000
0000
0000
0000
0000
0000
0000
0000
0000
0000
0000
0000
0000
0000
0000
0000
0000
0000
0000
0030
0010
0000
0000
0000
0000
0000
0000
0000
0000
0000
0000
0000
0000
0000
0000
0000
0000
0000
0000
0000
0000
0000
0000
0000
0000
0000
0000
0000
0000
0000
0000
0000
0000
0000
0000
0000
0000
0000
0000
0000
0000
0000
0000
0000
0000
0000
0000
0000
,
0001
0100
0010
0000
0001
0010
1000
0001
1000
0000
0001
0000
0100
0000
0010
0000
,
1000
0100
0010
0000
1000
0010
0100
1000
0001
0000
0000
0000
1000
0000
0000
0000
,
0010
1000
0100
0000
0010
0000
0100
1000
,
0010
0000
1000
0000
0001
0010
0100
0000
,
0001
0100
0010
0000
0001
0000
1000
0001
,
0010
0000
1000
0000
0010
0001
0100
0000
,
0001
0010
0100
0000
1000
0000
0100
0010
,
0001
0000
1000
0000
0001
0100
1000
0000
,
0100
0010
1000
0000
0100
0000
0010
0001
,
1000
0000
0000
0000
0000
0000
0000
0000
0001
0000
0000
0000
0000
0000
0000
0000
0200
0300
0000
0000
0000
0000
0000
0000
0000
0000
0000
0000
0000
0000
0000
0000
0001
0000
0000
0000
0000
0000
0000
0000
0010
0000
0000
0000
0000
0000
0000
0000
0100
0000
0000
0000
0000
0000
0000
0000
0000
0000
0000
0000
0000
0000
0000
0000
,
1000
0000
0010
0000
1000
0010
0100
0010
,
1000
0000
0100
0010
0001
0100
0001
0000
,
0010
0000
0100
0000
1000
0001
0010
0001
,
0100
0001
1000
0001
1000
0000
0100
0000
,
1000
0010
0100
0101
,
0001
0000
0000
0000
0000
0000
0000
0000
0000
0000
0000
0000
0000
0000
0000
0000
0100
0000
0000
0000
0000
0000
0000
0000
0001
0000
0000
0000
0000
0000
0000
0000
2000
3000
0000
0000
0000
0000
0000
0000
0000
0000
0000
0000
0000
0000
0000
0000
2200
3300
0000
0000
0000
0000
0000
0000
0000
0000
0000
0000
0000
0000
0000
0000
,
0202
0303
0000
0000
0000
0000
0000
0000
0000
0000
0000
0000
0000
0000
0000
0000
2002
0000
0000
0000
0000
0000
0000
0000
0000
0000
0000
0000
3003
0000
0000
0000
0001
0000
0000
0000
0000
0000
0000
0000
0000
0000
0000
0000
0000
0000
0000
0000
0010
0000
0000
0000
0000
0000
0000
0000
0100
0000
0000
0000
0000
0000
0000
0000
,
1000
0000
0001
0000
1000
0010
0100
0001
,
0010
0000
0001
1000
0010
0000
1000
0001
,
0100
0000
0001
0000
0010
0100
1000
0100
,
0010
0000
0001
1000
0001
0100
0010
0000
,
1000
0000
0100
0010
0001
0000
0100
0010
,
1000
0001
2000
0000
3001
0000
0100
0010
,
1000
0000
0000
0000
0000
0000
0000
0000
0000
0000
0000
0000
0000
0000
0000
0000
0010
0000
0000
0000
0000
0000
0000
0000
0000
0000
0000
0000
0000
0000
0000
0000
2020
3030
0000
0000
0000
0000
0000
0000
0000
0000
0000
0000
0000
0000
0000
0000
0202
0000
0000
0000
0000
0000
0000
0000
0000
0000
0000
0000
0303
0000
0000
0000
,
1000
0001
0100
0000
0010
0000
0100
0000
,
0001
0000
0010
0100
1000
0001
0200
0000
,
0310
0100
0001
0000
1000
0000
0010
0000
,
1001
0000
0000
0000
1001
0000
0000
0000
2002
0000
0000
3003
0110
0000
0000
0000
,
0000
0001
0010
0000
1000
0000
0200
0000
,
0302
0000
0000
0000
0000
0000
0000
0000
2000
0000
0000
0000
0000
0000
0000
0000
3003
0000
0000
0000
0000
0000
0000
0000
0001
0100
0001
0100
0010
0000
0100
0000
,
0001
0000
0100
0000
0010
0000
0001
0000
0010
0000
0100
0000
0001
0000
0000
0000
1000
0000
0000
0000
0010
0000
0000
0000
1000
0100
1000
0100
0010
0000
1000
0000
,
0010
0000
0100
0000
1000
0000
0001
0000
0100
0000
0010
0000
1000
0000
0001
0000
0010
0000
0000
0000
0011
0000
0000
0000
0001
0100
0001
0100
0010
0000
0100
0000
,
0001
0000
0100
0000
1000
0000
0100
0000
0001
0000
0010
0000
0100
0000
0000
0000
0010
0000
0001
0000
1000
0000
0000
0000
0001
0010
0001
0010
0100
0000
0010
0000
,
0001
0000
0010
0000
1000
0000
0010
0000
0001
0000
0100
0000
1000
0000
0001
0000
0010
0000
1000
0000
0001
0000
0000
0000
1000
0010
1000
0010
0100
0000
1000
0000
,
0100
0000
0001
0000
1000
0000
0001
0000
0011
0000
0001
0000
0100
0000
0010
0000
1010
0000
1000
0000
0001
0000
0000
0000
0010
0100
0010
0100
0001
0000
0100
0000
,
1000
0000
0001
0000
0100
0000
0010
0000
1010
0000
1000
0000
0100
0000
0010
0000
0011
0000
0000
0000
1001
0000
0000
0000
0001
0100
0001
0100
1000
0000
0001
0000
,
0010
0000
1000
0000
0001
0000
0100
0000
1000
0000
0001
0000
0010
0000
1000
0000
0001
0000
1000
0000
0010
0000
0000
0000
1000
0100
1000
0100
0001
0000
1000
0000
,
0010
0000
0000
0000
0000
0000
0001
0000
0000
0000
0000
0000
1000
0000
0000
0000
0000
0000
0001
0000
0000
0000
0000
0000
0101
0000
0000
0000
0000
0000
0100
0000
0000
0000
0000
0000
0001
0000
0000
0000
0000
0000
0010
0000
0000
0000
0000
0000
0001
0000
0000
0000
0010
0000
0000
0000
0100
0000
0000
0000
1000
0000
0000
0001
0000
0000
0100
0000
0000
0001
0000
0000
0100
0000
0000
0010
0000
0000
0100
0000
0000
0001
0000
0000
1000
0000
0000
0000
0000
0000
0001
0000
0000
0000
0000
0000
,
0100
0000
0010
0000
1000
0000
0100
0000
0120
0000
0031
0000
1000
0000
0001
0000
0100
0000
0000
0000
0120
0000
0000
0000
1030
0010
1000
0010
0100
0010
1000
0010
,
0100
0000
0000
0000
0001
0010
0100
1000
0001
0000
0100
0000
0010
0000
0001
0000
0010
0000
1000
0000
0001
0100
0001
0100
0010
1000
0100
0010
0100
0000
1000
0000
,
0001
0000
0100
0000
1000
0000
0100
0000
0001
0000
0100
0000
0010
0000
0001
0000
0010
0000
0000
0000
1010
0000
0000
0000
1000
0010
1000
0001
0100
0001
0010
0100
,
0010
0000
0000
0000
0001
0000
0000
0000
1000
0000
0010
0000
0100
0000
0000
0000
0001
0000
0000
0000
0010
0000
0000
0000
1000
0000
0000
0000
0001
0000
0000
0000
0100
0000
0000
0000
0000
0000
0000
0000
1000
0000
0000
0000
0001
0000
0000
0000
2002
3003
0000
0000
0000
0000
0000
0000
0000
0000
0000
0000
0000
0000
0000
0000
,
0001
0000
1000
0100
0010
0000
0001
0000
0100
0000
0010
0000
0001
0000
0010
0000
,
1000
0000
0000
0000
0000
0000
0000
0000
0002
0003
0000
0000
0200
0300
0000
0000
1000
0000
0000
0000
0000
0000
0000
0000
0100
0000
0000
0000
0000
0000
0000
0000
0010
0000
0000
0000
0000
0000
0000
0000
1000
0000
0000
0000
0000
0000
0000
0000
0100
0000
0000
0000
0000
0000
0000
0000
0010
0000
0000
0000
0000
0000
0000
0000
,
0001
0000
0000
0000
0000
0000
0000
0000
0200
0300
0000
0000
2000
3000
0000
0000
0100
0000
0000
0000
0000
0000
0000
0000
0001
0000
0000
0000
0000
0000
0000
0000
0010
0000
0000
0000
0000
0000
0000
0000
1000
0000
0000
0000
0000
0000
0000
0000
0010
0000
0000
0000
0000
0000
0000
0000
0001
0000
0000
0000
0000
0000
0000
0000
,
1000
0000
0000
0000
0000
0000
0000
0000
0200
0300
0000
0000
0020
0030
0000
0000
1000
0000
0000
0000
0000
0000
0000
0000
0010
0000
0000
0000
0000
0000
0000
0000
0100
0000
0000
0000
0000
0000
0000
0000
1000
0000
0000
0000
0000
0000
0000
0000
0001
0000
0000
0000
0000
0000
0000
0000
0101
0000
0000
0000
0000
0000
0000
0000
,
1001
0000
0001
0010
0100
0000
0001
0000
0100
0000
0010
0001
1000
0000
0001
0000
,
1000
0000
0000
0000
0000
0000
0000
0000
0002
0003
0000
0000
0200
0300
0000
0000
1000
0000
0000
0000
0000
0000
0000
0000
0100
0000
0000
0000
0000
0000
0000
0000
0001
0000
0000
0000
0000
0000
0000
0000
0010
0000
0000
0000
1000
0000
0000
0000
0010
0000
0000
0000
0000
0000
0000
0000
0001
0000
0000
0000
0000
0000
0000
0000
,
1000
0010
1000
0010
0100
0001
0100
0001
1000
0100
0010
0001
1000
0010
0100
0001
,
0010
0000
0001
0100
0000
0000
0110
0000
0010
0000
0000
0000
1000
0000
0010
0000
,
0100
0000
0001
0000
1000
0100
0010
0001
,
1000
0000
0001
1000
0010
0000
1000
0001
,
0100
0000
0010
0000
0100
0001
0010
0001
,
1000
0000
0010
1000
0100
0000
1000
0010
,
0100
0000
0010
0000
1000
0001
0010
0001
,
0100
0000
0001
0010
0100
0000
0010
0001
,
1000
0000
0001
0000
1000
0100
0002
0000
,
0000
0000
0103
1000
0001
0000
0100
0000
,
0010
0000
1000
0000
0100
0010
0001
0000
,
1000
0001
0010
0000
0001
1000
0100
0000
,
0010
0000
0100
0000
1000
0010
0100
0000
,
0010
1000
0100
0000
0010
0001
1000
0000
,
0001
0000
0010
0000
0100
1000
0001
0000
,
0100
0010
2000
3000
2020
3030
0002
0003
,
0022
0033
2000
0000
3001
0000
0100
0010
,
1000
0001
0010
0000
0001
0000
1000
0000
,
0010
0000
0100
0001
0010
0100
1000
0000
,
0010
1000
0100
0000
1000
0000
0001
1000
,
0100
0000
0010
0001
1000
0001
0100
0010
,
0100
0000
0001
0000
0100
0000
0010
1000
,
0010
0100
0002
0000
1003
0001
1000
0010
,
0100
0001
0010
0100
1000
0010
0200
0000
,
0302
0000
1003
0010
0100
0010
1000
0000
,
1000
0000
0001
0010
0100
0010
0002
0000
,
2003
3010
1000
0100
1000
0010
0100
0000
,
0001
0000
0000
0000
0100
0000
0010
0000
0100
0000
0001
0000
2000
0000
3002
0003
,
2002
0000
0000
3003
,
MMMM
MMMM
MMMM
MMMM
MMMM
MMMM
MMMM
MMMM
,
MMMM
MMMM
MMMM
MMMM
MMMM
MMMM
MMMM
MMMM
,
MMMM
MMMM
MMMM
MMMM
,
MMMM
MMMM
MMMM
MMMM
,
MMMM
MMMM
MMMM
MMMM
,
MMMM
0000
0000
0000
,
1001
0000
0000
0000
;

//--------------- dance-double - Fred-104 ----------------
#NOTES:
     dance-double:
     Fred-104:
     Easy:
     13:
     :
00000000
00000000
00000000
00000000
,
00000000
00000000
00000000
00000000
,
00000000
00000000
00000000
00000000
,
00000000
00000000
00000000
00000000
,
00000000
00000000
00000000
00000000
,
10100000
00000000
10000000
01000000
,
00100000
00000000
00010000
00100000
00010000
00000000
01000000
00000000
,
01100000
00000000
00001000
00010000
,
00001000
00000010
00000000
00000100
00001000
00000000
00000001
00000000
,
00000100
00000000
00000010
00000000
00001000
00000100
00001000
00000000
,
00000100
00010000
00001000
00010000
,
00000010
00000000
00001000
00000000
00000100
00001000
00000100
00000000
,
00010000
00001000
00010000
01000000
,
00100000
00010000
00100000
00000000
00010000
10000000
00010000
00000000
,
01000000
00100000
10000000
00100000
,
01000000
00010000
10000000
00000000
01000000
10000000
00010000
00000000
,
10000000
01000000
00010000
00001000
,
00000010
00000100
00001000
00000000
00000001
00000100
00000001
00000000
,
00000010
00000100
00010000
00001000
,
00100000
01000000
00100000
00000000
00010000
10000000
00010000
00000000
,
10000000
01000000
10000000
01000000
00200000
00000000
00302000
00000000
,
00013000
00001000
00010000
00000000
00000100
00001000
00000100
00000000
,
00010000
00000010
00001000
00000010
,
00000100
00000001
00000010
00000100
,
00022000
00000000
00000000
00000000
00000000
00000000
00000000
00033000
00001000
00000000
00000000
00000000
00000000
00000000
00100000
00000000
,
00000000
00001000
00010000
00001000
,
01000000
00010000
00100000
00010000
,
10000000
01000000
00100000
00010000
,
00100000
00001000
00010000
00000100
,
00001000
00000100
00000010
00000001
,
00000100
00001000
00010000
01000000
,
00100000
00000000
00010000
00000000
20020000
00000000
00000000
30030000
,
10000000
00000000
01000000
00000000
,
10000000
00000000
00100000
00000000
,
01000000
00000000
00010000
00000000
,
10000000
00000000
01000000
00000000
,
00010000
00000000
00001000
00000000
,
00010000
00000000
00001000
00000000
,
00000010
00000000
00000100
00000000
,
00001000
00000001
00001000
00000000
,
00000001
00000000
00000100
00000000
,
00000001
00000000
00000010
00000000
,
00000001
00000000
00001000
00000000
,
00000100
00000000
00010000
00000000
,
00001000
00000000
00100000
00000000
,
00010000
00000000
10000000
00000000
,
02000000
03200000
02300000
03200000
,
01300000
00000000
10010000
00000000
,
10000000
00000000
01000000
00000000
,
00100000
00000000
00010000
00000000
,
01000000
00000000
00001000
00000000
,
00010000
00001000
00010000
00000000
,
00000100
00000000
00001000
00000000
,
00000001
00000000
00001000
00000000
,
00000100
00000000
00000010
00000000
,
00000001
00001000
00000002
00000103
,
00000000
00000010
00000000
00001000
,
00000000
00000100
00000000
00010000
,
00001000
00010000
00000000
00001000
,
00100000
00001000
00000000
00100000
,
00010000
10000000
00100000
00010000
,
00001000
00000000
00010000
01000000
10000000
00000000
00010000
00000000
,
00000000
10000000
00000000
01000000
,
00100000
01000000
00000000
00100000
,
00000000
00001000
00000000
00010000
,
00000000
00001000
00000000
00000010
,
00000000
00000001
00000000
00001000
,
00000001
00001000
00000000
00000001
,
00000000
00000100
00000000
00000010
,
00001000
00000010
00010000
00001000
,
00010000
00000000
00001000
00000000
,
00100000
00000000
00010000
10000000
,
00010000
00000000
01000000
00100000
,
01000000
00000000
00010000
10000000
,
00010000
00000000
10000000
00000000
,
01000000
00000000
00100000
00100000
,
00001000
00011000
00010000
00000000
,
00001000
00000000
00000010
00000001
,
00001000
00000000
00000001
00000000
,
00001000
00000000
00000010
00001000
,
00000010
00000000
00001000
00000000
,
00000100
00000000
00010000
00000000
,
00001000
00000000
00100000
00000000
,
00010000
00000000
10000000
10010000
,
00010000
00000000
01000000
00000000
,
00100000
10000000
00100000
00000000
,
10000000
00000000
01000000
00000000
,
00010000
00000000
02000000
13000000
,
00000000
00100000
01000000
00000000
00001000
00000000
00010000
00000000
,
00001000
00022000
00033000
00010000
,
00001000
00000000
00000010
00000001
00001000
00000000
00000010
00000000
,
00000100
00000000
00000001
00000100
00000010
00000000
00000100
00000000
,
00001000
00000000
00010000
00100000
01000000
00000000
00010000
00000000
,
10000000
00000000
00010000
10000000
00100000
00000000
10000000
01000000
,
10000000
00000000
00010000
01000000
00100000
00000000
10000000
01000000
,
00010000
00000000
00001000
00000010
00000001
00000000
00001000
00000001
,
00000010
00000000
00000001
00000100
00001000
00000000
00010000
00100000
,
01000000
00010000
00100000
01000000
10000000
00000000
00010000
01000000
,
10000000
01000000
00010000
01000000
00100000
00000000
10000000
00100000
,
00010000
00001000
00000100
00000010
00001000
00000000
00000100
00000010
,
00000001
00000000
00001000
00000000
00000001
00000000
00000010
00000000
00000001
00000000
00001000
00000000
00000010
00000100
00000010
00000000
,
00001000
00000001
00000010
00000000
00000100
00001000
00000100
00000000
00010000
00000000
00001000
00010000
00011000
00000000
00000000
00000000
,
00001000
00010000
00100000
01000000
,
00001000
00010000
00001000
00100000
,
00001000
00010000
00001000
00000010
,
00000100
00000000
00001000
00000000
00000001
00000000
00000010
00000100
,
00000010
00000001
00000100
00001000
,
00010000
00001000
00010000
00000000
00100000
00000000
10000000
00000000
,
00010000
01000000
00010000
00000000
10000000
00100000
10000000
00000000
,
20020000
00000000
00000000
30030000
10000000
00000000
00000000
00000000
,
01000000
00100000
01000000
00000000
,
00100000
00000000
00001000
00000000
,
00010000
00000010
00010000
00000000
,
00000010
00001000
00000010
00000000
,
00000100
00000001
00000100
00000000
,
00000001
00000000
00001000
00000100
,
00001000
00000000
00000010
00020000
,
00030000
00010000
00001000
00010000
,
00000000
00001000
00000000
00100000
,
00000000
00010000
10000000
00010000
,
00000000
01000000
00000000
00100000
,
00000000
10000000
01000000
10000000
,
00000000
01000000
00100000
01000000
,
00000000
00100000
00001000
00100000
,
00001000
00010000
00011000
00010000
,
00001000
00000010
00000000
00000001
,
00001000
00000001
00000000
00000010
,
00000100
00000010
00000000
00001000
,
00010000
01000000
00000000
00100000
,
00010000
10000000
00000000
00010000
,
10000000
00100000
00000000
01000000
,
00010000
01000000
00001000
00020000
,
00030200
00001300
00000010
00001000
,
00000010
00001000
00000100
00000010
,
00000001
00000100
00001000
00010000
,
01000000
00000000
00100000
00000000
00010000
00000000
02000000
03000000
,
00022000
00000000
00000000
00000000
,
00000000
00000000
00000000
00000000
,
00000000
00000000
00000000
00000000
,
00000000
00000000
00000000
00000000
,
00000000
00000000
00000000
00000000
,
00000000
00000000
00000000
00000000
,
00033000
00000000
00000000
00000000
,
00011000
00000000
00000000
00000000
;

//--------------- dance-double - Fred-104 ----------------
#NOTES:
     dance-double:
     Fred-104:
     Medium:
     16:
     :
00000000
00000000
00000000
00000000
,
00000000
00000000
00000000
00000000
,
00000000
00000000
00000000
00000000
,
00000000
00000000
00000000
00000000
,
00000000
00000000
00000000
00000000
,
00011000
00000000
00000000
00001000
00100000
00000000
00010000
01000000
,
00000000
00010000
00000000
10000000
01000000
00000000
00100000
00000000
,
01100000
00000000
00000000
01000000
10000000
00000000
00010000
00100000
,
10000000
00100000
00000000
01000000
10000000
00010000
01000000
00000000
,
00100000
10000000
01000000
00100000
00010000
00100000
00001000
00000000
,
00010000
00000010
00001000
00000010
00000100
00000001
00001000
00000000
,
00000001
00000100
00000010
00000100
00001000
00010000
00100000
00000000
,
01000000
00010000
10000000
00010000
01000000
00000000
01100000
00000000
,
00100000
10000000
01000000
00100000
00001000
00010000
00001000
00000000
,
01000000
00001000
00010000
00001000
00000010
00000100
00001000
00000000
,
00000001
00000010
00000100
00001000
00000100
00010000
00001000
00000000
,
00010000
00000010
00001000
00000010
00010000
00001000
00200000
00000000
,
00310000
00100000
01000000
10000000
01000000
00100000
00010000
00000000
,
01000000
00100000
00010000
00001000
01000000
00100000
01000000
00000000
,
01100000
00000000
01001000
00000000
00010000
00001000
00000100
00000001
,
00001000
00000100
00000010
00000001
00002000
00000000
00003002
00000000
,
00000103
00000001
00000010
00000001
00001000
00000010
00000100
00000000
,
00000001
00000100
00001000
00010000
00100000
01000000
00010000
00000000
,
10000000
01000000
00010000
00001000
00000010
00000100
00001000
00000000
,
00002002
00000000
00000000
00000000
00000000
00000000
00000000
00000000
00000000
00000000
00000000
00000000
00000000
00000000
00000000
00000000
00000000
00000000
00000000
00000000
00000000
00000000
00000000
00000000
00000000
00000000
00000000
00000000
00003003
00000000
00000000
00000000
00000001
00000000
00000000
00000000
00000000
00000000
00000000
00000000
00000000
00000000
00000000
00000000
00000000
00000000
00000000
00000000
00002000
00003000
00000000
00000000
00000200
00000300
00000000
00000000
00001000
00000000
00000000
00000000
00000000
00000000
00000000
00000000
,
00000000
00000010
00010000
00001000
00010000
01000000
00100000
00010000
,
10000000
00000000
00000000
00000000
00000000
00000000
00000000
00000000
00020000
00030000
00000000
00000000
02000000
03000000
00000000
00000000
00010000
00000000
00000000
00000000
00000000
00000000
00000000
00000000
00000000
00000000
00000000
00000000
00000000
00000000
00000000
00000000
01000000
00000000
00000000
00000000
00000000
00000000
00000000
00000000
00000000
00000000
00000000
00000000
00000000
00000000
00000000
00000000
00002000
00003000
00000000
00000000
00020000
00030000
00000000
00000000
00001000
00000000
00000000
00000000
00000000
00000000
00000000
00000000
,
00000000
00000100
00000001
00001000
00000100
00000010
00000001
00001000
,
00000010
00000000
00000000
00000000
00000000
00000000
00000000
00000000
00000200
00000300
00000000
00000000
00000002
00000003
00000000
00000000
00000100
00000000
00000000
00000000
00000000
00000000
00000000
00000000
00000000
00000000
00000000
00000000
00000000
00000000
00000000
00000000
00000010
00000000
00000000
00000000
00000000
00000000
00000000
00000000
00000000
00000000
00000000
00000000
00000000
00000000
00000000
00000000
00020000
00030000
00000000
00000000
00002000
00003000
00000000
00000000
00010000
00000000
00000000
00000000
00000000
00000000
00000000
00000000
,
00000000
00100000
01000000
00010000
01000000
00100000
10000000
00010000
,
00100000
00000000
00000000
00000000
00000000
00000000
00000000
00000000
00002000
00003000
00000000
00000000
00020000
00030000
00000000
00000000
00001000
00000000
00000000
00000000
00000000
00000000
00000000
00000000
00000000
00000000
00000000
00000000
00000000
00000000
00000000
00000000
00000010
00000000
00000000
00000000
00000000
00000000
00000000
00000000
00000100
00000000
00000000
00000000
00000000
00000000
00000000
00000000
00001000
00000000
00000000
00000000
00000000
00000000
00000000
00000000
00000010
00000000
00000000
00000000
00000000
00000000
00000000
00000000
,
00000100
00000000
00000001
00000000
00000010
00000000
00000001
00000000
00000100
00000000
00000010
00001000
00000000
00000000
00011000
00000000
,
00010000
00001000
00100000
00001000
,
00010000
00001000
01000000
00000000
,
00010000
00100000
01000000
10000000
,
01000000
00100000
00010000
00000000
,
01000000
00010000
01000000
00010000
,
00100000
00001000
00010000
00000000
,
00001000
00000010
00000100
00001000
,
00000100
00000010
00000001
00000000
,
00001000
00000001
00000010
00000100
,
00000010
00000001
00000100
00000000
,
00000001
00000010
00001000
00010000
,
01000000
00100000
00010000
00000000
,
01000000
00001000
00010000
00001000
,
00100000
00010000
10000000
00100000
,
02000000
03200000
20300000
32000000
,
03100000
00000000
00010000
10000000
00010000
00000000
00000000
00000000
,
00100000
00010000
00000010
00001000
,
00010000
00001000
00010000
00001000
,
00000010
00000100
00001000
00000010
,
00000100
00000001
00001000
00000200
,
00001300
00000001
00000100
00000010
,
00000100
00001000
00020000
00230000
,
01300000
00010000
10000000
00010000
,
01000000
00100000
02000000
03010000
,
10000000
00010000
01000000
00001000
,
00100000
00001000
00010000
00000010
,
00001000
00000010
00000100
00000001
,
00000100
00000010
00000100
00000000
00000001
00001000
00000001
00000000
,
00000100
00000010
00000100
00001000
00010000
00100000
01000000
00010000
,
10000000
01000000
00010000
00001000
00000010
00000000
00000100
00000000
,
00001000
00000001
00000100
00000001
,
00000010
00000100
00010000
00001000
,
00000100
00000001
00000010
00001000
,
00010000
01000000
00000000
00100000
,
00010000
10000000
00010000
01000000
,
00100000
00010000
00001000
00000100
,
00000010
00000000
00010000
00000000
00001000
00000000
00010000
00001000
,
00010000
00000000
00000000
00000000
00000000
00000000
00000000
00000000
00001000
00000000
00000000
00000000
00000000
00000000
00000000
00000000
00020000
00030000
00000000
00000000
00000000
00000000
00000000
00000000
00000000
00000000
00000000
00000000
00000000
00000000
00000000
00000000
00001000
00000000
00000000
00000000
00000000
00000000
00000000
00000000
00000000
00000000
00000000
00000000
00000000
00000000
00000000
00000000
00001000
00000000
00000000
00000000
00000000
00000000
00000000
00000000
00000000
00000000
00000000
00000000
00000000
00000000
00000000
00000000
,
00100000
00010000
10000000
10000000
,
00100000
01000000
00010000
00010000
,
00100000
00000000
00001000
00000000
00010000
00000000
00001000
00010000
,
00001000
00000000
00010000
00000010
00010000
00000000
00000010
00000000
,
00001000
00000010
00000100
00000001
,
00000010
00000000
00000000
00000000
00000000
00000000
00000000
00000000
00000000
00000000
00000000
00000000
00000000
00000000
00000000
00000000
00000100
00000000
00000000
00000000
00000000
00000000
00000000
00000000
00000000
00000000
00000000
00000000
00000000
00000000
00000000
00000000
00002200
00003300
00000000
00000000
00000000
00000000
00000000
00000000
00000000
00000000
00000000
00000000
00000000
00000000
00000000
00000000
00022000
00033000
00000000
00000000
00000000
00000000
00000000
00000000
00000000
00000000
00000000
00000000
00000000
00000000
00000000
00000000
,
02020000
03030000
00000000
00000000
00000000
00000000
00000000
00000000
00000000
00000000
00000000
00000000
00000000
00000000
00000000
00000000
20020000
00000000
00000000
00000000
00000000
00000000
00000000
00000000
00000000
00000000
00000000
00000000
30030000
00000000
00000000
00000000
10000000
00000000
00000000
00000000
00000000
00000000
00000000
00000000
00000000
00000000
00000000
00000000
00000000
00000000
00000000
00000000
10000000
00000000
00000000
00000000
00000000
00000000
00000000
00000000
00000000
00000000
00000000
00000000
00000000
00000000
00000000
00000000
,
00100000
10000000
01000000
01000000
,
00100000
00001000
00010000
00010000
,
00000100
00000000
00001000
00000000
00000001
00000000
00000100
00000010
,
00000100
00000000
00000001
00000010
00000001
00000000
00001000
00000000
,
00000001
00000010
00000100
00000010
,
00002000
00023000
01030000
00100000
,
00010000
00000000
00000000
00000000
00000000
00000000
00000000
00000000
00000000
00000000
00000000
00000000
00000000
00000000
00000000
00000000
01000000
00000000
00000000
00000000
00000000
00000000
00000000
00000000
00000000
00000000
00000000
00000000
00000000
00000000
00000000
00000000
02200000
03300000
00000000
00000000
00000000
00000000
00000000
00000000
00000000
00000000
00000000
00000000
00000000
00000000
00000000
00000000
20020000
00000000
00000000
00000000
00000000
00000000
00000000
00000000
00000000
00000000
00000000
00000000
30030000
00000000
00000000
00000000
,
10000000
01000000
00010000
00001000
,
00010000
00100000
20000000
30000000
,
01000000
00010000
00001000
00000010
,
00000001
00000100
00002000
00013000
,
00000000
01000000
00100000
00000000
00010000
00000000
10000000
00000000
,
00100000
00000000
02200000
00000000
03300000
00000000
10000000
02000000
,
03002000
00003200
00000301
00002000
00003001
00000000
00001000
00000002
,
00000023
00020030
00130000
02000000
13000000
00000000
00010000
02000000
,
23000000
32000000
03100000
20000000
30010000
00000000
10000000
02000000
,
03020000
00000000
00032000
00000000
00003020
00000000
00000230
00000000
00002300
00003000
00001002
00000000
00000103
00000001
00000010
00000000
,
00000001
00001000
00000010
00000000
00001000
00000001
00000100
00000000
00001000
00010000
00100000
00000000
01000000
00010000
10000000
00010000
,
00100000
00010000
01000000
00000000
00001000
00010000
00001000
00000010
00000100
00001000
00000001
00000000
00000100
00000001
00001000
00000001
,
00000010
00000100
00001000
00000100
00010000
00001000
01000000
00010000
01000000
00100000
10000000
00000000
00010000
10000000
01000000
00010000
,
01000000
00100000
00001000
00010000
00001000
00000010
00000100
00001000
00000010
00000100
00000001
00000000
00000001
00000000
00000101
00000000
,
00001100
00000000
00000101
00000000
00000001
00000000
00000100
00000010
00001000
00000100
00010000
00000000
00001000
00000000
00011000
00000000
,
00010010
00000000
00011000
00000000
00001000
00000000
00100000
00010000
10000000
00010000
01000000
00000000
00010000
00100000
00001000
00000000
,
00010000
00000010
00001000
00000000
00000100
00010000
00001000
00000000
01000000
00001000
00010000
00000000
00001000
00000100
00000010
00001000
,
00000010
00000100
00000001
00000010
00000100
00000010
00001000
00010000
01000000
00000000
00100000
00010000
10010000
00000000
00000000
00000000
,
10000000
00010000
01000000
00100000
01000000
00010000
01000000
00001000
,
00010000
00000000
00000000
00000000
00000000
00000000
00000000
00000000
00000200
00000300
00000000
00000000
00002000
00003000
00000000
00000000
00000100
00000000
00000000
00000000
00000000
00000000
00000000
00000000
00010000
00000000
00000000
00000000
00000000
00000000
00000000
00000000
00000010
00000000
00000000
00000000
00000000
00000000
00000000
00000000
00001000
00000000
00000000
00000000
00000000
00000000
00000000
00000000
00000100
00000000
00000000
00000000
00000000
00000000
00000000
00000000
00000000
00000000
00000000
00000000
00000000
00000000
00000000
00000000
,
00000010
00000000
00000000
00000000
00000000
00000000
00000000
00000000
00000002
00000003
00000000
00000000
00000200
00000300
00000000
00000000
00000001
00000000
00000000
00000000
00000000
00000000
00000000
00000000
00000010
00000000
00000000
00000000
00000000
00000000
00000000
00000000
00000100
00000000
00000000
00000000
00000000
00000000
00000000
00000000
00001000
00000000
00000000
00000000
00000000
00000000
00000000
00000000
00000100
00000000
00000000
00000000
00000000
00000000
00000000
00000000
00000000
00000000
00000000
00000000
00000000
00000000
00000000
00000000
,
00010000
00000000
00000000
00000000
00000000
00000000
00000000
00000000
00002000
00003000
00000000
00000000
00020000
00030000
00000000
00000000
00001000
00000000
00000000
00000000
00000000
00000000
00000000
00000000
00100000
00000000
00000000
00000000
00000000
00000000
00000000
00000000
00010000
00000000
00000000
00000000
00000000
00000000
00000000
00000000
10000000
00000000
00000000
00000000
00000000
00000000
00000000
00000000
01000000
00000000
00000000
00000000
00000000
00000000
00000000
00000000
01100000
00000000
00000000
00000000
00000000
00000000
00000000
00000000
,
01100000
00000000
00010000
10000000
01000000
00100000
01000000
00000000
,
00100000
00000000
00000000
00000000
00000000
00000000
00000000
00000000
00002000
00003000
00000000
00000000
00020000
00030000
00000000
00000000
00001000
00000000
00000000
00000000
00000000
00000000
00000000
00000000
01000000
00000000
00000000
00000000
00000000
00000000
00000000
00000000
00001000
00000000
00000000
00000000
00000000
00000000
00000000
00000000
00010000
00000000
00000000
00000000
00000000
00000000
00000000
00000000
00001000
00000000
00000000
00000000
00000000
00000000
00000000
00000000
00000000
00000000
00000000
00000000
00000000
00000000
00000000
00000000
,
00000010
00000100
00001000
00000010
00000100
00000001
00000010
00000100
,
00010000
00000000
00001000
00010000
00000000
00000000
00011000
00000000
00001000
00000000
00000000
00000000
00100000
00000000
00000000
00000000
,
00001000
00010000
00001000
01000000
,
00010000
00000000
00100000
01000000
00100000
00000000
00010000
00000000
,
10000000
00100000
01000000
00010000
,
10000000
00000000
01000000
00100000
01000000
00000000
00100000
00000000
,
00001000
00010000
00000100
00000010
,
00000001
00000000
00001000
00000100
00001000
00000000
00000010
00000000
,
00000100
00000001
00001000
00001200
,
00000000
00010300
00001000
00000010
,
00001000
00010000
00001000
00100000
,
00001000
00010000
00100000
00010000
,
00001000
00010000
00001000
00010000
,
00000000
00001000
00010000
00000100
,
00010000
00001000
00010000
01000000
,
00010000
00002000
00023000
00030200
,
00020300
00031000
00011000
00001000
,
00010000
00100000
10000000
00010000
,
01000000
00100000
10000000
01000000
,
00100000
00001000
00010000
00100000
,
10000000
01000000
00010000
00001000
,
00000100
00000010
00001000
00000010
,
00000100
00000010
00001000
00000001
,
00000010
00000100
00010000
00002000
,
00023000
00000000
00031000
00100000
00001000
00000000
00010000
00000000
,
00001000
00000000
01000000
00010000
01000000
00000000
00002000
00000000
,
00023000
00000000
00030010
00001000
00000010
00000000
00010000
00000000
,
00001000
00000000
00100000
00001000
00200000
00000000
00302000
00013000
,
00022000
00000000
00000000
00000000
,
00000000
00000000
00000000
00000000
,
00000000
00000000
00000000
00000000
,
00000000
00000000
00000000
00000000
,
00000000
00000000
00000000
00000000
,
00000000
00000000
00000000
00000000
,
00033000
00000000
00000000
00000000
,
00011000
00000000
00000000
00000000
;

//--------------- dance-double - Fred-104 ----------------
#NOTES:
     dance-double:
     Fred-104:
     Hard:
     18:
     :
00000000
00000000
00000000
00000000
,
00000000
00000000
00000000
00000000
,
00000000
00000000
00000000
00000000
,
00000000
00000000
00000000
00000000
,
00000000
00000000
00000000
00000000
,
00011000
00000000
00000000
00010000
00001000
00000000
00000010
00000100
,
00000000
00000000
00001000
00000000
00000000
00000000
00000001
00000100
00000001
00000000
00000000
00000000
00001000
00000000
00000000
00000000
,
00001100
00000000
00000000
00000100
00010000
00000000
00001000
00010000
,
00001000
00000000
00100000
00000000
00000000
00000000
00100000
00000000
00010000
00000000
10000000
00000000
00100000
01000000
00100000
00000000
,
10000000
01000000
00010000
01000000
00000000
00100000
00010000
00000000
,
01000000
00001000
00010000
00000000
00001000
00000010
00000100
00000000
,
00001000
00000001
00000010
00000100
00001000
00000010
00000100
00000010
,
00001000
00000100
00010000
00001000
00010000
00000000
00000010
00000000
,
00010000
00001000
00000010
00000100
00000000
00010000
00001000
00000000
,
00010000
00100000
01000000
00001000
00010000
00001000
00100000
00000000
,
00010000
10000000
00100000
10000000
00000000
01000000
00100000
00000000
,
00001000
00010000
00001000
00000100
00000010
00002000
00003001
00001000
,
00001001
00000000
00000001
00000100
00001000
00000100
00000001
00000000
,
00000010
00000001
00001000
00000001
00000100
00000010
00001000
00000000
,
00001100
00000000
00000000
00000000
00010100
00000000
00000000
00000000
00010000
00000000
00001000
00000000
00010000
00000000
00000010
00001000
,
00000010
00000000
00010000
00000000
00001000
00000000
00100000
00010000
00100000
00000000
00001000
00000000
00020000
00000000
00000000
00000000
,
00031000
00000000
00000010
00000100
00001000
00000001
00000010
00000000
,
00000100
00000010
00000001
00000100
00001000
00010000
01000000
00000000
,
00100000
00010000
10000000
01000000
00100000
00001000
00010000
00000000
,
00022000
00000000
00000000
00000000
00000000
00000000
00000000
00000000
00000000
00000000
00000000
00000000
00000000
00000000
00000000
00000000
00000000
00000000
00000000
00000000
00000000
00000000
00000000
00000000
00000000
00000000
00000000
00000000
00033000
00000000
00000000
00000000
00011000
00000000
00000000
00000000
00000000
00000000
00000000
00000000
00000000
00000000
00000000
00000000
00000000
00000000
00000000
00000000
00020000
00030000
00000000
00000000
00002000
00003000
00000000
00000000
00010000
00000000
00000000
00000000
00000000
00000000
00000000
00000000
,
00000000
00000010
00001000
00000010
00000100
00000001
00000010
00000100
,
00000010
00000000
00000000
00000000
00000000
00000000
00000000
00000000
00000002
00000003
00000000
00000000
00002000
00003000
00000000
00000000
00000001
00000000
00000000
00000000
00000000
00000000
00000000
00000000
00000100
00000000
00000000
00000000
00000000
00000000
00000000
00000000
00001000
00000000
00000000
00000000
00000000
00000000
00000000
00000000
00000000
00000000
00000000
00000000
00000000
00000000
00000000
00000000
00020000
00030000
00000000
00000000
00002000
00003000
00000000
00000000
00010000
00000000
00000000
00000000
00000000
00000000
00000000
00000000
,
00000000
01000000
00100000
00010000
10000000
00100000
01000000
00010000
,
10000000
00000000
00000000
00000000
00000000
00000000
00000000
00000000
02000000
03000000
00000000
00000000
20000000
30000000
00000000
00000000
01000000
00000000
00000000
00000000
00000000
00000000
00000000
00000000
00100000
00000000
00000000
00000000
00000000
00000000
00000000
00000000
00001000
00000000
00000000
00000000
00000000
00000000
00000000
00000000
00000000
00000000
00000000
00000000
00000000
00000000
00000000
00000000
00020000
00030000
00000000
00000000
00002000
00003000
00000000
00000000
00010000
00000000
00000000
00000000
00000000
00000000
00000000
00000000
,
00000000
00000100
00001000
00000100
00000010
00000001
00001000
00000010
,
00010000
00000000
00000000
00000000
00000000
00000000
00000000
00000000
00002000
00003000
00000000
00000000
00020000
00030000
00000000
00000000
00001000
00000000
00000000
00000000
00000000
00000000
00000000
00000000
00100000
00000000
00000000
00000000
00000000
00000000
00000000
00000000
00010000
00000000
00000000
00000000
00000000
00000000
00000000
00000000
01000000
00000000
00000000
00000000
00000000
00000000
00000000
00000000
00100000
00000000
00000000
00000000
00000000
00000000
00000000
00000000
10000000
00000000
00000000
00000000
00000000
00000000
00000000
00000000
,
01000000
00000000
00010000
00000000
00001000
00000000
00010000
00000000
00000100
00000000
00000010
00000001
00000000
00000000
00001001
00000000
,
00000001
00000100
00000001
00000010
,
00000001
00000000
00000100
00000000
00000010
00000000
00001000
00000001
,
00001000
00000001
00000010
00000100
,
00000010
00000000
00001000
00000000
00010000
00000000
01000000
00100000
,
01000000
00100000
00010000
10000000
,
00010000
01000000
00100000
01000000
,
00010000
10000000
01000000
00100000
,
00001000
00010000
00001000
00010000
00002000
00000000
02003000
00000000
,
03001000
00010000
00001000
00000010
,
00000001
00001000
00000001
00000100
,
00000010
00001000
00000100
00001000
,
00000001
00000000
00000010
00000000
00000001
00000100
00000001
00000100
,
00000001
00000010
00001000
00010000
,
01000000
00000000
00100000
00000000
00010000
00000000
01000000
00100000
,
02000000
03020000
20030000
32000000
,
03100000
00000000
00110000
00000000
,
00001000
00000000
00010000
00000000
00000100
00000000
00010000
00001000
,
00010000
00000000
00000010
00000000
00001000
00000000
00000100
00000010
,
00000100
00000000
00000010
00000000
00000001
00000000
00001000
00000001
,
00001000
00000000
00000100
00000000
00020000
00000000
00031000
00010000
,
00001000
00100000
00010000
00000000
01000000
00000000
00100000
00000000
,
10000000
00000000
01000000
00000000
10000000
00010000
20000000
00000000
,
31000000
00000000
00100000
00010000
00100000
00000000
00001000
00000000
,
00010000
00001000
00010000
00001000
00020000
00000000
00030010
00001000
,
00000010
00001000
00000100
00001000
,
00000001
00000000
00000100
00000010
00000200
00000000
00000301
00001000
,
00000001
00000010
00000100
00000020
,
00000031
00001000
00000020
00000000
00001030
00000001
00000010
00000000
,
00000001
00000100
00010000
01000000
00100000
10000000
01000000
10000000
,
00100000
00001000
00000010
00010000
00011000
00000000
00010000
00000000
,
00001000
00010000
00000100
00001000
,
00000010
00000000
00010000
00000000
00001000
00010000
00001000
00000000
,
00100000
00010000
01000000
00010000
,
00100000
00000000
00001000
00000000
00010000
00001000
00010000
00000000
,
00000010
00000100
00001000
00010000
,
00000100
00000000
00001000
00000000
00000001
00001000
00000001
00000000
,
00000100
00000000
00000001
00000000
00000100
00000000
00000010
00001000
,
00000010
00000000
00000000
00000000
00000000
00000000
00000000
00000000
00001000
00000000
00000000
00000000
00000000
00000000
00000000
00000000
00000020
00000030
00000000
00000000
00000000
00000000
00000000
00000000
00000000
00000000
00000000
00000000
00000000
00000000
00000000
00000000
00010000
00000000
00000000
00000000
00000000
00000000
00000000
00000000
00001000
00000000
00000000
00000000
00000000
00000000
00000000
00000000
00010000
00000000
00000000
00000000
00000000
00000000
00000000
00000000
00000000
00000000
00000000
00000000
00000000
00000000
00000000
00000000
,
00001000
00100000
00010000
10000000
,
00010000
00000000
00100000
01000000
00100000
00000000
00001000
00000000
,
00010000
00001000
00000010
00000001
,
00001000
00000000
00000001
00000010
00000001
00000000
00000100
00000000
,
00000010
00001000
00000100
00000010
,
00001000
00000000
00000000
00000000
00000000
00000000
00000000
00000000
00000000
00000000
00000000
00000000
00000000
00000000
00000000
00000000
00010000
00000000
00000000
00000000
00000000
00000000
00000000
00000000
00000000
00000000
00000000
00000000
00000000
00000000
00000000
00000000
00002000
00003000
00000000
00000000
00000000
00000000
00000000
00000000
00000000
00000000
00000000
00000000
00000000
00000000
00000000
00000000
00200000
00300000
00000000
00000000
00000000
00000000
00000000
00000000
00000000
00000000
00000000
00000000
00000000
00000000
00000000
00000000
,
00002000
00003000
00000000
00000000
00000000
00000000
00000000
00000000
00000000
00000000
00000000
00000000
00000000
00000000
00000000
00000000
00022000
00000000
00000000
00000000
00000000
00000000
00000000
00000000
00000000
00000000
00000000
00000000
00033000
00000000
00000000
00000000
00001000
00000000
00000000
00000000
00000000
00000000
00000000
00000000
00000000
00000000
00000000
00000000
00000000
00000000
00000000
00000000
01000000
00000000
00000000
00000000
00000000
00000000
00000000
00000000
00000000
00000000
00000000
00000000
00000000
00000000
00000000
00000000
,
00010000
00100000
00010000
00000000
01000000
00000000
00010000
00000000
,
00100000
00000000
01000000
10000000
01000000
00000000
10000000
00000000
,
00010000
01000000
00010000
00000000
00100000
00000000
00001000
00000000
,
00010000
00000000
00001000
00000010
00000100
00000010
00000100
00000000
,
00001000
00000001
00000100
00000010
,
00010000
00001000
00020000
00000000
00031000
00000000
01000000
00010000
,
01000000
00000000
00000000
00000000
00000000
00000000
00000000
00000000
00000000
00000000
00000000
00000000
00000000
00000000
00000000
00000000
00001000
00000000
00000000
00000000
00000000
00000000
00000000
00000000
00000000
00000000
00000000
00000000
00000000
00000000
00000000
00000000
00022000
00033000
00000000
00000000
00000000
00000000
00000000
00000000
00000000
00000000
00000000
00000000
00000000
00000000
00000000
00000000
00020020
00000000
00000000
00000000
00000000
00000000
00000000
00000000
00000000
00000000
00000000
00000000
00030030
00000000
00000000
00000000
,
00010000
00001000
00010000
00000000
00000100
00000000
00001000
00000000
,
00000010
00010000
00002000
00203000
,
00310000
01000000
00010000
00000000
00100000
00000000
00001000
00000000
,
00010000
00001000
00000020
00000130
,
00000000
00001000
00000001
00000000
00000010
00000000
00000100
00000000
,
00010000
00000000
00000000
00000000
00000000
00000000
00000000
00000000
00022000
00000000
00000000
00000000
00000000
00000000
00000000
00000000
00033000
00000000
00000000
00000000
00000000
00000000
00000000
00000000
00010000
00001000
00010000
00001000
00010000
00000000
00000000
00000000
,
00001000
00000000
00000010
00000000
00000100
00000000
00001000
00000000
00000001
00000000
00000100
00000000
00000010
00000000
00000000
00000000
00001000
00000000
00000000
00000000
00000001
00000000
00000000
00000000
00000100
00000010
00000100
00000010
00000100
00000000
00000000
00000000
,
00000001
00000000
00000000
00000000
00000010
00000000
00001000
00000000
00010000
00000000
01000000
00000000
00100000
00000000
00010000
00000000
10000000
00000000
00000000
00000000
00010000
00000000
00000000
00000000
10000000
00100000
10000000
00100000
01000000
00000000
00000000
00000000
,
00100000
00000000
00010000
00000000
00001000
00000000
00000100
00000000
00000010
00000000
00001000
00000000
00000100
00000000
00000000
00000000
00000010
00000000
00000000
00000000
00000001
00000000
00000000
00000000
00001000
00000010
00001000
00000010
00000100
00000000
00000000
00000000
,
00000001
00000000
00000010
00000000
00001000
00000000
00010000
00000000
00001000
00000000
00000000
00000000
00100000
00000000
00000000
00000000
01000000
00000000
00000000
00000000
10000000
00000000
00000000
00000000
00010000
10000000
00010000
10000000
00010000
00000000
10000000
00000000
,
01000000
00000000
10000000
00000000
00010000
00000000
10000000
00000000
01000000
00000000
00100000
00000000
00010000
00000000
00000000
00000000
01000000
00000000
00000000
00000000
00001000
00000000
00000000
00000000
00010000
00001000
00010000
00001000
00010000
00000000
00000010
00000000
,
00001000
00000000
00000010
00000000
00010000
00000000
00000100
00000000
00001000
00000000
00000100
00000000
00000010
00000000
00000000
00000000
00000001
00000000
00000000
00000000
00001000
00000000
00000000
00000000
00000010
00001000
00000010
00001000
00000100
00000000
00010000
00000000
,
00001000
00000000
00100000
00000000
00010000
00000000
01000000
00000000
00010000
00000000
00100000
00000000
00001000
00000000
00010000
00000000
00001000
00000000
00000000
00000000
01000000
00000000
00000000
00000000
00001000
00010000
00001000
00010000
00001000
00000000
00100000
00000000
,
00010000
00000000
01000000
00000000
00001000
00000000
00010000
00000000
00001000
00000000
00000010
00000000
00000001
00000000
00001000
00000000
00000001
00000000
00000100
00000000
00000010
00001000
00000010
00001000
00000010
00000000
00000000
00000000
00001010
00000000
00000000
00000000
,
00001001
00000000
00001100
00000000
00000001
00000100
00001000
00010000
00100000
01000000
00010000
00000000
10000000
00000000
10100000
00000000
,
01010000
00000000
00000000
00000000
11000000
00000000
00000000
00000000
10000000
00000000
01000000
00000000
00010000
00000000
00001000
00000000
00000010
00000000
00000100
00000000
00001000
00000001
00001000
00000001
00001000
00000000
00000000
00000000
00001100
00000000
00000000
00000000
,
00000101
00000000
00001100
00000000
00000001
00000010
00000100
00000010
00001000
00010000
00100000
00000000
01000000
00000000
01010000
00000000
,
10010000
00000000
00000000
00000000
00000000
00000000
00000000
00000000
10000000
00000000
00000000
00000000
01000000
00000000
00000000
00000000
00100000
00000000
00000000
00000000
00001000
00000000
00000000
00000000
00010000
00000000
00000000
00000000
00000100
00000000
00000000
00000000
00000010
00000000
00000000
00000000
00000001
00000000
00000000
00000000
00000100
00000000
00000000
00000000
00001000
00000000
00000000
00000000
00020000
00030000
00000000
00000000
00000000
00000000
00000000
00000000
00000000
00000000
00000000
00000000
00000000
00000000
00000000
00000000
,
00001000
00000000
00100000
00010000
00100000
00000000
00010000
00000000
10000000
00000000
00100000
00000000
01000000
00000000
00010000
00000000
,
10000000
00000000
00000000
00000000
00000000
00000000
00000000
00000000
02000000
03000000
00000000
00000000
00200000
00300000
00000000
00000000
01000000
00000000
00000000
00000000
00000000
00000000
00000000
00000000
00100000
00000000
00000000
00000000
00000000
00000000
00000000
00000000
00001000
00000000
00000000
00000000
00000000
00000000
00000000
00000000
00010000
00000000
00000000
00000000
00000000
00000000
00000000
00000000
00001000
00000000
00000000
00000000
00000000
00000000
00000000
00000000
00000010
00000000
00000000
00000000
00000000
00000000
00000000
00000000
,
00000100
00000000
00000000
00000000
00000000
00000000
00000000
00000000
00002000
00003000
00000000
00000000
00000002
00000003
00000000
00000000
00001000
00000000
00000000
00000000
00000000
00000000
00000000
00000000
00000001
00000000
00000000
00000000
00000000
00000000
00000000
00000000
00000010
00000000
00000000
00000000
00000000
00000000
00000000
00000000
00000100
00000000
00000000
00000000
00000000
00000000
00000000
00000000
00000010
00000000
00000000
00000000
00000000
00000000
00000000
00000000
00000001
00000000
00000000
00000000
00000000
00000000
00000000
00000000
,
00000100
00000000
00000000
00000000
00000000
00000000
00000000
00000000
00002000
00003000
00000000
00000000
00020000
00030000
00000000
00000000
00001000
00000000
00000000
00000000
00000000
00000000
00000000
00000000
00100000
00000000
00000000
00000000
00000000
00000000
00000000
00000000
01000000
00000000
00000000
00000000
00000000
00000000
00000000
00000000
10000000
00000000
00000000
00000000
00000000
00000000
00000000
00000000
00100000
00000000
00000000
00000000
00000000
00000000
00000000
00000000
01100000
00000000
00000000
00000000
00000000
00000000
00000000
00000000
,
01100000
00000000
01000000
00010000
01000000
00000000
00001000
00000000
00010000
00000000
00000100
00000000
00010000
00000000
00000010
00000000
,
00001000
00000000
00000000
00000000
00000000
00000000
00000000
00000000
00000200
00000300
00000000
00000000
00020000
00030000
00000000
00000000
00000100
00000000
00000000
00000000
00000000
00000000
00000000
00000000
00010000
00000000
00000000
00000000
00000000
00000000
00000000
00000000
00001000
00000000
00000000
00000000
00000000
00000000
00000000
00000000
01000000
00000000
00000000
00000000
00000000
00000000
00000000
00000000
00010000
00000000
00000000
00000000
00000000
00000000
00000000
00000000
00100000
00000000
00000000
00000000
00000000
00000000
00000000
00000000
,
00110000
00000000
00010000
10000000
00010000
00000000
10000000
00000000
01000000
00000000
00100000
00000000
00010000
00000000
00001000
00000000
,
00000100
00000000
00000010
00000001
00000000
00000000
00001001
00000000
00000001
00000000
00000000
00000000
00001000
00000000
00000100
00000000
,
00001000
00000000
00000010
00000000
00010000
00000000
00001000
00010000
,
00001000
00000000
00100000
00000000
00010000
00000000
01000000
00100000
,
01000000
00000000
00010000
00000000
00100000
00000000
00001000
00010000
,
00001000
00000000
00010000
00000010
00010000
00000000
00000010
00001000
,
00000010
00000000
00000100
00000000
00000010
00000000
00001000
00000100
,
00001000
00000001
00000010
00001000
,
00010000
00000000
00001000
00000000
01000000
00100000
20000000
00000000
,
00000000
00000000
30010000
10000000
00010000
00000000
01000000
00000000
,
10000000
01000000
00100000
10000000
,
01000000
00100000
01000000
00000000
00100000
00001000
00100000
00000000
,
00001000
00000000
00010000
00000000
00001000
00000000
00000010
00000100
,
00000020
00000000
00000130
00000000
00001000
00000001
00001000
00000000
,
00000001
00000000
00000010
00000000
00000100
00000000
00010000
00001000
,
00010000
00001000
00020000
00000000
00032000
00000000
00003020
00000000
,
00000032
00001003
00001001
00000001
,
00001000
00000010
00001000
00000000
00000100
00000000
00010000
00000000
,
00000010
00001000
00000010
00000000
00010000
00001000
00010000
00000000
,
00001000
00100000
00001000
00000000
01000000
00000000
00010000
00000000
,
00100000
01000000
00100000
00000000
00010000
01000000
00100000
10000000
,
00010000
10000000
01000000
00010000
,
00001000
00000000
00000010
00000100
00001000
00000000
00000001
00000100
,
00000001
00000100
00000010
00001000
00000100
00000000
00020000
00000000
,
00032000
00000000
00013000
00000010
00001000
00000010
00020000
00000000
,
00032000
00000000
00103000
00010000
01000000
00001000
00020000
00000000
,
00030200
00000000
00001300
00000010
00000100
00000001
00002000
00000000
,
00003200
00000000
00010300
00001000
00010000
00001000
00020000
00031000
,
00022000
00000000
00000000
00000000
,
00000000
00000000
00000000
00000000
,
00000000
00000000
00000000
00000000
,
00000000
00000000
00000000
00000000
,
00000000
00000000
00000000
00000000
,
00000000
00000000
00000000
00000000
,
00033000
00000000
00000000
00000000
,
00011000
00000000
00000000
00000000
;

//--------------- dance-double - Fred-104 raises your heads up ----------------
#NOTES:
     dance-double:
     Fred-104 raises your heads up:
     Challenge:
     19:
     :
00000000
00000000
00000000
00000000
,
00000000
00000000
00000000
00000000
,
00000000
00000000
00000000
00000000
,
00000000
00000000
00000000
00000000
,
00000000
00000000
00000000
00000000
,
00001000
00000001
00001000
00000010
00000100
00000000
00001000
00000100
,
00001000
00000000
00000100
00000000
00000001
00000000
00001000
00000001
00001000
00000000
00000001
00000000
00000010
00000000
00001000
00000000
,
00010000
00001000
00010000
01000000
00100000
00000000
00010000
00100000
,
01000000
00000000
10000000
00000000
00000000
00000000
00010000
10000000
00010000
00000000
00000000
00000000
01000000
00100000
00010000
00001000
,
00000100
00000010
00001000
00010000
00000000
01000000
00100000
00000000
,
10000000
01000000
00010000
00001000
00000010
00000100
00001000
00000000
,
00000001
00000010
00000100
00000010
00001000
00010000
01000000
00100000
,
00010000
00000000
10000000
00000000
00010000
00000000
01000000
00100000
02000000
00000000
00000000
00000000
03020000
00000000
20030000
00000000
,
30010000
01000000
10000000
01000000
00000000
00010000
10000000
00000000
,
00010000
00100000
10000000
00100000
00010000
01000000
00100000
00000000
,
01000000
00010000
00001000
00000010
00000100
00000001
00001000
00000000
,
00001000
00000000
00000010
00000000
00000100
00000000
00000001
00000000
00000010
00000000
00000100
00000010
00000001
00000000
00001000
00000000
,
00000001
00000010
00001000
00010000
01000000
00100000
00010000
00000000
,
10000000
00000000
00100000
00000000
00010000
00000000
00001000
00010000
00001000
00000000
00000100
00000000
00000010
00000000
00000000
00000000
,
00001000
00000001
00000010
00000001
00000010
00000100
00001000
00000100
,
00010000
00000000
00001000
00000000
01000000
00000000
00010000
00100000
01000000
00000000
10000000
00000000
00200000
00000000
00000000
00000000
,
01300000
00010000
00001000
00010000
01000000
00001000
00010000
00000000
,
00010000
00001000
00000010
00001000
00010000
00001000
00010000
00000000
,
00001000
00000000
00010000
00000000
00000100
00000000
00010000
00001000
00010000
00000000
00001000
00000000
01000000
00000000
00000000
00000000
,
20020000
00000000
00000000
00000000
00000000
00000000
00000000
00000000
00000000
00000000
00000000
00000000
00000000
00000000
00000000
00000000
00000000
00000000
00000000
00000000
00000000
00000000
00000000
00000000
00000000
00000000
00000000
00000000
30030000
00000000
00000000
00000000
10010000
00000000
00000000
00000000
00000000
00000000
00000000
00000000
00000000
00000000
00000000
00000000
00000000
00000000
00000000
00000000
20000000
30000000
00000000
00000000
02000000
03000000
00000000
00000000
00010000
00000000
00000000
00000000
00000000
00000000
00000000
00000000
,
00000000
00001000
00000010
00000001
00000100
00001000
00010000
00100000
,
10000000
00000000
00000000
00000000
00000000
00000000
00000000
00000000
02000000
03000000
00000000
00000000
00020000
00030000
00000000
00000000
00001000
00000000
00000000
00000000
00000000
00000000
00000000
00000000
00000010
00000000
00000000
00000000
00000000
00000000
00000000
00000000
00000001
00000000
00000000
00000000
00000000
00000000
00000000
00000000
00000000
00000000
00000000
00000000
00000000
00000000
00000000
00000000
00000020
00000030
00000000
00000000
00002000
00003000
00000000
00000000
00010000
00000000
00000000
00000000
00000000
00000000
00000000
00000000
,
00000000
01000000
10000000
00100000
00010000
00001000
00000100
00000001
,
00001000
00000000
00000000
00000000
00000001
00000000
00000000
00000000
00002000
00003000
00000000
00000000
00000002
00000003
00000000
00000000
00001000
00000000
00000000
00000000
00000000
00000000
00000000
00000000
00000000
00000000
00000000
00000000
00000000
00000000
00000000
00000000
00001001
00000000
00000000
00000000
00000000
00000000
00000000
00000000
00000000
00000000
00000000
00000000
00000000
00000000
00000000
00000000
00002000
00003000
00000000
00000000
00000200
00000300
00000000
00000000
00000010
00000000
00000000
00000000
00000000
00000000
00000000
00000000
,
00000000
00010000
00100000
01000000
00010000
00001000
00010000
00000010
,
00001000
00000000
00000000
00000000
00000010
00000000
00000000
00000000
00002000
00003000
00000000
00000000
00000002
00000003
00000000
00000000
00001000
00000000
00000000
00000000
00000000
00000000
00000000
00000000
00000001
00000000
00000000
00000000
00000000
00000000
00000000
00000000
00001000
00000000
00000000
00000000
00000100
00000000
00000000
00000000
00001000
00000000
00000000
00000000
00000100
00000000
00000000
00000000
00010000
00000000
00000000
00000000
00001000
00000000
00000000
00000000
00010000
00000000
00000000
00000000
00001000
00000000
00000000
00000000
,
00100000
00010000
00100000
00010000
01000000
00100000
01000000
00100000
01000000
00000000
00010000
10000000
00000000
00000000
10100000
00000000
,
00010000
00000000
10000000
00000000
00010000
00100000
00010000
00000000
,
00100000
00000000
01000000
00000000
10000000
00000000
00010000
10000000
,
00010000
00000000
01000000
00000000
00100000
10000000
00100000
00000000
,
10000000
00000000
01000000
00000000
00100000
00000000
00001000
00010000
,
00001000
00000000
00010000
00000100
00001000
00000000
00000001
00000000
,
00000100
00000010
00000100
00000000
00000001
00000000
00001000
00000001
,
00000100
00000001
00000010
00001000
,
00010000
00000000
01000000
00100000
00010000
00000000
10000000
00010000
,
10000000
01000000
10000000
00000000
00100000
01000000
00100000
00000000
,
01000000
00000000
00001000
00010000
00001000
00000000
00100000
00001000
,
00100000
00000000
00001000
00000000
00010000
00000100
00001000
00000000
,
00000010
00000000
00000100
00000000
00000001
00000010
00000100
00000010
,
00000001
00000000
00000100
00000000
00000001
00000010
00000100
00000000
,
00010000
00000000
00001000
00000000
00100000
00000000
00010000
10000000
,
00020000
20030000
32000000
03020000
,
00031000
00000000
00000010
00000100
00001000
00000000
00000000
00000000
,
00000001
00000000
00000100
00000010
00001000
00000000
00000100
00000000
,
00010100
00000000
00010000
00000000
00011000
00000000
00001000
01000000
,
00010000
00100000
00001000
00010000
,
00001000
00000000
00100000
00010000
10000000
00000000
02000000
00000000
,
03100000
01000000
10000000
00000000
00100000
00000000
01000000
00000000
,
00010000
00000000
00100000
00001000
00010000
00000000
00000010
00010000
,
00001000
00000000
00010000
00000100
00001000
00000000
00000001
00000000
,
00001000
00000100
00001000
00000100
00000020
00000000
00000031
00001000
,
00000010
00001000
00000001
00000000
00000100
00000000
00000010
00001000
,
00000010
00000000
00010000
00001000
00010000
00000000
00001000
00100000
,
00010000
10000000
00010000
02000000
,
00010000
00000000
00000000
00000000
00000000
00000000
00000000
00000000
00000000
00000000
00000000
00000000
00000000
00000000
00000000
00000000
00000000
00000000
00000000
00000000
00000000
00000000
00000000
00000000
10000000
00000000
00000000
00000000
00000000
00000000
00000000
00000000
00000000
00000000
00000000
00000000
00000000
00000000
00000000
00000000
00000000
00000000
00000000
00000000
00000000
00000000
00000000
03000000
02000000
00000000
00000000
00000000
00000000
00000000
00000000
00000000
00000000
00000000
00000000
00000000
00000000
00000000
00000000
00000000
00000000
00000000
00000000
00000000
00000000
00000000
00000000
00000000
00000000
00000000
00000000
00000000
00000000
00000000
00000000
00000000
00000000
00000000
00000000
00000000
00000000
00000000
00000000
00000000
00000000
00000000
00000000
00000000
00000000
00000000
00000000
00000000
10000000
00000000
00000000
00000000
00000000
00000000
00000000
00000000
00000000
00000000
00000000
00000000
00000000
00000000
00000000
00000000
00000000
00000000
00000000
00000000
00000000
00000000
00000000
00000000
00010000
00000000
00000000
00000000
00000000
00000000
00000000
00000000
00000000
00000000
00000000
00000000
00000000
00000000
00000000
00000000
00000000
00000000
00000000
00000000
00000000
00000000
00000000
03000000
01000000
00000000
00000000
00000000
00000000
00000000
00000000
00000000
00000000
00000000
00000000
00000000
00000000
00000000
00000000
00000000
00000000
00000000
00000000
00000000
00000000
00000000
00000000
00000000
00000000
00000000
00000000
00000000
00000000
00000000
00000000
00000000
00000000
00000000
00000000
00000000
00000000
00000000
00000000
00000000
00000000
00000000
00000000
00000000
00000000
00000000
00000000
00000000
,
00010000
10000000
00010000
00000000
01000000
00100000
01000000
00100000
01000000
00000000
00001000
00000000
00010000
00000000
00001000
00000000
,
00000010
00000100
00001000
00000000
00000001
00001000
00000001
00001000
00000001
00000000
00000000
00000000
00000001
00000000
00000000
00000000
,
00000100
00010000
00000100
00000001
,
00001000
00000001
00000100
00000000
00000001
00000010
00000001
00000000
,
00001000
00000010
00010000
00001000
,
00100000
00010000
00100000
00000000
00001000
00100000
00010000
00000000
,
10000000
00000000
01000000
00010000
01000000
00000000
10000000
00000000
,
01000000
00100000
00001000
00000000
00010000
00000100
00001000
00000000
,
00000010
00001000
00000001
00000000
00000100
00000000
00000010
00010000
,
00000010
00000000
00000000
00000000
00000000
00000000
00000000
00000000
00010000
00000000
00000000
00000000
00000000
00000000
00000000
00000000
00002000
00003000
00000000
00000000
00000000
00000000
00000000
00000000
00000000
00000000
00000000
00000000
00000000
00000000
00000000
00000000
00100000
00000000
00000000
00000000
00000000
00000000
00000000
00000000
00010000
00000000
00000000
00000000
00000000
00000000
00000000
00000000
10000000
00000000
00000000
00000000
00000000
00000000
00000000
00000000
00000000
00000000
00000000
00000000
00000000
00000000
00000000
00000000
,
01000000
00000000
00100000
00000000
00010000
01000000
00100000
01000000
,
00010000
00000000
00100000
00001000
00010000
00001000
00000100
00000000
,
00000010
00000000
00001000
00000000
00000100
00000000
00000010
00000001
,
00000010
00000000
00000100
00001000
00000100
00000000
00000010
00000000
,
00000001
00001000
00000100
00010100
,
00010000
00000000
00000000
00000000
00000000
00000000
00000000
00000000
00000000
00000000
00000000
00000000
00000000
00000000
00000000
00000000
00001000
00000000
00000000
00000000
00000000
00000000
00000000
00000000
00100000
00000000
00000000
00000000
00000000
00000000
00000000
00000000
00002000
00003000
00000000
00000000
00000000
00000000
00000000
00000000
00000000
00000000
00000000
00000000
00000000
00000000
00000000
00000000
00020020
00030030
00000000
00000000
00000000
00000000
00000000
00000000
00000000
00000000
00000000
00000000
00000000
00000000
00000000
00000000
,
02002000
03003000
00000000
00000000
00000000
00000000
00000000
00000000
00000000
00000000
00000000
00000000
00000000
00000000
00000000
00000000
00022000
00000000
00000000
00000000
00000000
00000000
00000000
00000000
00000000
00000000
00000000
00000000
00033000
00000000
00000000
00000000
00010000
00000000
00000000
00000000
00000000
00000000
00000000
00000000
00000000
00000000
00000000
00000000
00000000
00000000
00000000
00000000
00001000
00000000
00000000
00000000
00000000
00000000
00000000
00000000
00000100
00000000
00000000
00000000
00000000
00000000
00000000
00000000
,
00000010
00000000
00001000
00000000
00000100
00000010
00000100
00000000
,
00000010
00000000
00000001
00001000
00000001
00000000
00000100
00000010
,
00000100
00000000
00000010
00000000
00001000
00000100
00010000
00000100
,
00010000
00000000
00001000
00010000
00001000
01000000
00010000
00000000
,
00100000
00000000
01000000
10000000
01000000
00000000
10000000
00100000
,
01000000
00010000
00200000
00000000
00301000
00000000
00010000
00001000
,
00010000
00000000
00000000
00000000
00000000
00000000
00000000
00000000
00000000
00000000
00000000
00000000
00000000
00000000
00000000
00000000
00001000
00000000
00000000
00000000
00000000
00000000
00000000
00000000
00000000
00000000
00000000
00000000
00000000
00000000
00000000
00000000
00022000
00033000
00000000
00000000
00000000
00000000
00000000
00000000
00000000
00000000
00000000
00000000
00000000
00000000
00000000
00000000
02002000
00000000
00000000
00000000
00000000
00000000
00000000
00000000
00000000
00000000
00000000
00000000
03003000
00000000
00000000
00000000
,
00001000
00010000
00001000
00000000
01000000
00000000
00001000
00000000
,
00010000
00000000
00000100
00001000
00000100
00001000
00000100
00000000
,
00000010
00000001
00000100
00000000
00000010
00000000
00001000
00000000
,
00001010
00000000
00000000
00000000
00001010
00000000
00000000
00000000
00002020
00000000
00000000
00003030
00001001
00000000
00000000
00000000
,
00000000
00000010
00000001
00000000
00000100
00000000
00002000
00000000
,
00023000
00000000
00000000
00000000
00000000
00000000
00000000
00000000
00002000
00000000
00000000
00000000
00000000
00000000
00000000
00000000
00033000
00000000
00000000
00000000
00000000
00000000
00000000
00000000
00001000
00100000
00001000
00100000
00001000
00000000
00100000
00000000
,
00010000
00000000
01000000
00000000
00100000
00000000
01000000
00000000
00010000
00000000
10000000
00000000
01000000
00000000
00100000
00000000
00001000
00000000
00000000
00000000
00001010
00000000
00000000
00000000
00000001
00001000
00000001
00001000
00000001
00000000
00000100
00000000
,
00010000
00000000
00000100
00000000
00000001
00000000
00000010
00000000
00001000
00000000
00010000
00000000
01000000
00000000
00100000
00000000
00010000
00000000
00000000
00000000
10010000
00000000
00000000
00000000
10000000
00100000
10000000
00100000
10000000
00000000
01000000
00000000
,
00010000
00000000
00001000
00000000
00010000
00000000
01000000
00000000
10000000
00000000
00100000
00000000
00010000
00000000
00001000
00000000
00010000
00000000
00000000
00000000
00011000
00000000
00000000
00000000
00010000
00000100
00010000
00000100
00010000
00000000
00001000
00000000
,
00000010
00000001
00000010
00001000
00010000
00100000
00010000
00001000
00010000
00000000
00011000
00000000
00001001
00000000
00000001
00000100
,
00001000
00010000
00100000
00000000
10010000
00000000
10000000
01000000
00010000
00001000
00000010
00000000
00001001
00000000
00000001
00000010
,
00001000
00010000
01000000
00000000
10010000
00000000
10000000
00100000
00010000
00001000
00000100
00000000
00001001
00000000
00000001
00000010
,
00001000
00000000
00010000
00000000
01000000
00000000
10000000
00000000
00010000
00000000
00000000
00000000
10000000
00000000
00100000
00000000
00010000
00000000
00001000
00000000
00000100
00000000
00000001
00000000
00001000
00000001
00001000
00000001
00001000
00000000
00000100
00000000
,
00000010
00000000
00000000
00000000
00000000
00000000
00000001
00000000
00000000
00000000
00000000
00000000
00000100
00000000
00000000
00000000
00000000
00000000
00001000
00000000
00000000
00000000
00000000
00000000
00010000
00000000
00000000
00000000
00000000
00000000
00100000
00000000
00000000
00000000
00000000
00000000
10000000
00000000
00000000
00000000
00000000
00000000
00010000
00000000
00000000
00000000
00000000
00000000
10000000
00000000
00000000
00000000
01000000
00000000
00000000
00000000
00100000
00000000
00000000
00000000
00001000
00000000
00000000
00010000
00000000
00000000
00001000
00000000
00000000
00010000
00000000
00000000
00000100
00000000
00000000
00010000
00000000
00000000
00000100
00000000
00000000
00010000
00000000
00000000
00001000
00000000
00000000
00000000
00000000
00000000
00010000
00000000
00000000
00000000
00000000
00000000
,
00000010
00000000
00000000
00000000
00001000
00000000
00000001
00000000
00000101
00000000
00000001
00000000
00000010
00000000
00000100
00000000
00001000
00000000
00000000
00000000
00000001
00000000
00000000
00000000
00000010
00000001
00000010
00000001
00000100
00000000
00001000
00000000
,
00010000
00000000
00100000
00000000
10000000
00000000
00010000
00000000
10010000
00000000
00000000
00000000
00001000
00000000
00000000
00000000
00010000
00000000
00000000
00000000
00000010
00001000
00000010
00001000
00000100
00000010
00000100
00000010
00000001
00000000
00000000
00000000
,
00000001
00000000
00000010
00000000
00001000
00000000
00000000
00000000
00010000
00000000
00001000
00000000
00000010
00000000
00001000
00000000
00010000
00000000
00100000
00000000
00010000
00000000
00000000
00000000
00001000
00010000
00001000
00010000
00001000
00100000
00001000
00100000
,
00010000
00000000
00000000
00000000
00100000
00000000
00000000
00000000
01000000
00000000
10000000
00000000
01000000
00000000
00000000
00000000
10000000
00000000
00000000
00000000
01000000
00000000
00000000
00000000
00010000
00000000
00000000
00000000
00001000
00000000
00000000
00000000
00000010
00000000
00000000
00000000
00000000
00000000
00000000
00000000
00000100
00000000
00000000
00000000
00001000
00000000
00000000
00000000
00002002
00003003
00000000
00000000
00000000
00000000
00000000
00000000
00000000
00000000
00000000
00000000
00000000
00000000
00000000
00000000
,
00000001
00000100
00000001
00000010
00000100
00001000
00000100
00010000
,
00001000
00000000
00000000
00000000
00010000
00000000
00000000
00000000
00002000
00003000
00000000
00000000
00020000
00030000
00000000
00000000
00001000
00000000
00000000
00000000
00000000
00000000
00000000
00000000
00100000
00000000
00000000
00000000
00000000
00000000
00000000
00000000
00010000
00000000
00000000
00000000
00000000
00000000
00000000
00000000
10000000
00000000
00000000
00000000
00000000
00000000
00000000
00000000
00010000
00000000
00000000
00000000
00000000
00000000
00000000
00000000
00100000
00000000
00000000
00000000
00000000
00000000
00000000
00000000
,
01000000
00000000
00000000
00000000
10000000
00000000
00000000
00000000
02000000
03000000
00000000
00000000
20000000
30000000
00000000
00000000
01000000
00000000
00000000
00000000
00000000
00000000
00000000
00000000
00100000
00000000
00000000
00000000
00000000
00000000
00000000
00000000
00001000
00000000
00000000
00000000
00000000
00000000
00000000
00000000
00010000
00000000
00000000
00000000
00000000
00000000
00000000
00000000
00000010
00000000
00000000
00000000
00000000
00000000
00000000
00000000
00001000
00000000
00000000
00000000
00000000
00000000
00000000
00000000
,
00000010
00000000
00000000
00000000
00000100
00000000
00000000
00000000
00000020
00000030
00000000
00000000
00000200
00000300
00000000
00000000
00000010
00000000
00000000
00000000
00000000
00000000
00000000
00000000
00001000
00000000
00000000
00000000
00000000
00000000
00000000
00000000
00000001
00000000
00000000
00000000
00000000
00000000
00000000
00000000
00000100
00000000
00000000
00000000
00000000
00000000
00000000
00000000
00000010
00000000
00000000
00000000
00000000
00000000
00000000
00000000
00000110
00000000
00000000
00000000
00000000
00000000
00000000
00000000
,
00000110
00001000
00000001
00000100
00001000
00010000
00100000
01000000
,
00010000
00000000
00000000
00000000
10000000
00000000
00000000
00000000
00020000
00030000
00000000
00000000
20000000
30000000
00000000
00000000
00010000
00000000
00000000
00000000
00000000
00000000
00000000
00000000
10000000
00000000
00000000
00000000
00000000
00000000
00000000
00000000
01000000
00000000
00000000
00000000
00000000
00000000
00000000
00000000
00100000
00000000
00000000
00000000
00010000
00000000
00000000
00000000
00100000
00000000
00000000
00000000
00000000
00000000
00000000
00000000
00001000
00000000
00000000
00000000
00000000
00000000
00000000
00000000
,
00010000
00001000
00010000
00001000
00100000
00010000
00100000
00010000
10000000
01000000
10000000
01000000
00100000
01000000
00100000
01000000
,
10000000
00000000
01000000
10000000
00000000
00000000
10100000
00000000
10000000
00000000
00000000
00000000
01000000
00000000
10000000
00000000
,
01000000
00000000
00100000
00000000
00001000
00010000
00001000
00010000
,
00001000
00010000
00001000
00010000
,
00000010
00001000
00000010
00000000
00000100
00000001
00000100
00000001
,
00000010
00000000
00000001
00001000
00000001
00000000
00001000
00000010
,
00000100
00000000
00000010
00000000
00001000
00000100
00010000
00001000
,
00010000
00000000
00001000
00100000
00001000
00000000
00010000
00000000
,
00100000
00000000
10000000
00000000
00010000
10000000
00020000
00000000
,
00000000
00000000
10030000
00100000
01000000
00000000
00100000
00000000
,
00001000
00000000
00010000
00000000
00000100
00001000
00000010
00000000
,
00000100
00000001
00000010
00000000
00000100
00000000
00000010
00000000
,
00000001
00001000
00000001
00000000
00001000
00000010
00001000
00000000
,
00000100
00010000
00000100
00000000
00010000
00001000
00010000
00000000
,
00001000
00000000
01000000
00000000
00100000
01000000
00100000
00000000
,
10000000
00010000
02000000
00000000
03200000
00000000
20300000
00000000
,
32000000
00000000
03020000
00000000
00031000
00000000
00001000
00010000
,
00001000
00010000
00000100
00000000
00001000
00000000
00000001
00000010
,
00000100
00000010
00000001
00000000
00000000
00000000
00001000
00000010
,
00000100
00000001
00001000
00000000
00000100
00000000
00010000
00001000
,
00010000
00000010
00001000
00000000
00000000
00000000
00000010
00010000
,
00001000
00010000
00000100
00000000
00010000
00000000
00001000
00100000
,
00010000
10000000
01000000
00000000
00000000
00000000
10000000
00100000
,
10000000
00100000
01000000
00010000
00100000
00001000
00020000
00000000
,
00030020
00000000
00001030
00000100
00000010
00000100
00001000
00000000
,
00000001
00000000
00000100
00000010
00000100
00000001
00000020
00000000
,
00000032
00000000
00001003
00000010
00000100
00000010
00001000
00000000
,
00000100
00000000
00010000
00001000
00010000
00001000
00020000
00031000
,
00022000
00000000
00000000
00033000
,
MMMMMMMM
MMMMMMMM
MMMMMMMM
MMMMMMMM
MMMMMMMM
MMMMMMMM
MMMMMMMM
MMMMMMMM
,
MMMMMMMM
MMMMMMMM
MMMMMMMM
MMMMMMMM
MMMMMMMM
MMMMMMMM
MMMMMMMM
MMMMMMMM
,
MMMMMMMM
MMMMMMMM
MMMMMMMM
MMMMMMMM
,
MMMMMMMM
MMMMMMMM
MMMMMMMM
MMMMMMMM
,
MMMMMMMM
MMMMMMMM
MMMMMMMM
MMMMMMMM
,
MMMMMMMM
00000000
00000000
00000000
,
00011000
00000000
00000000
00000000
;
