#TITLE:RAIN;
#ARTIST:dj TAKA;
#GENRE:TRANCE;
#BANNER:RAIN.png;
#BACKGROUND:RAIN-bg.png;
#CDTITLE:./CDTitles/RB VOLZZA.png;
#MUSIC:RAIN.ogg;
#SAMPLESTART:80.001;
#SAMPLELENGTH:15;
#BPMS:0=159;
#BGSTAGE:27;

//--------------- dance-single - Fred-104 ----------------
#NOTES:
     dance-single:
     Fred-104:
     Beginner:
     3:
     :
0000
0000
0000
0000
,
0000
0000
0000
0000
,
0000
0000
0000
0000
,
0000
0000
0000
0000
,
0000
0000
0000
0000
,
1000
0000
0001
0000
,
1000
0000
0000
0000
,
0001
0000
1000
0000
,
2002
0000
0000
3003
,
0000
0001
0000
0100
,
0000
0001
0000
1000
,
1000
1000
0000
0001
,
0000
1000
0000
0001
,
0001
0001
0000
1000
,
1000
1000
0000
0001
,
0001
0000
1000
0000
,
0001
0000
1000
0000
,
0020
0000
0000
0000
,
0000
0000
0000
0000
,
0000
0000
0000
0000
,
0000
0030
0000
0000
,
1000
0000
0010
0000
,
1000
0000
0000
0000
,
0001
0000
0100
0000
,
0001
0000
1000
0000
,
0002
0000
0000
0003
,
0020
0000
0000
0030
,
0200
0000
0000
0300
,
2000
0000
0000
3000
,
0001
0000
1000
0000
,
0001
0000
0100
0000
,
0010
0000
0010
0000
,
1000
0000
0001
0000
,
1000
0000
0000
0000
,
0010
0000
0000
0000
,
0100
0000
0000
0000
,
0001
0000
1000
0000
,
0002
0000
0003
0000
,
2000
0000
3000
0000
,
0002
0000
0003
0000
,
2000
0000
3000
0000
,
0002
0003
2000
3000
,
0002
0003
2000
3000
,
0002
0003
2000
3000
,
0000
0000
0000
0000
,
0001
0000
1000
0000
,
0010
0000
1000
0000
,
0001
0001
0001
0000
,
1000
0000
0001
0000
,
1000
0000
0000
0000
,
0100
0000
0000
0000
,
0010
0000
0000
0000
,
0001
0000
1000
0000
,
0001
0000
1000
0000
,
0010
0010
0010
0000
,
1000
0000
0001
0000
,
1000
1000
1000
0000
,
0001
0000
0001
0000
,
1000
0000
1000
0000
,
0010
0000
0010
0000
,
0100
0000
0100
0000
,
0001
0001
0000
0000
,
1000
1000
0000
0000
,
0010
0000
0010
0000
,
0100
0000
0100
0000
,
0100
0100
0000
0001
,
0001
0001
0000
0000
,
0000
1000
0000
0001
,
0000
1000
0000
0001
,
0000
1000
0000
0001
,
0000
1000
0000
0001
,
2002
0000
0000
0000
,
3003
0000
0000
0000
;

//--------------- dance-single - Fred-104 ----------------
#NOTES:
     dance-single:
     Fred-104:
     Easy:
     7:
     :
0000
0000
0000
0000
,
0000
0000
0000
0000
,
0000
0000
0000
0000
,
0000
0000
0000
0000
,
0000
0000
0000
0000
,
1000
0010
1000
1000
,
0001
0100
0001
0100
,
0010
0100
0100
0001
,
2000
0000
0000
0000
0000
0000
3001
1000
,
0001
0100
0010
0100
,
0001
0010
0100
1000
,
0001
0001
1000
0010
,
0100
0001
1000
0001
,
1001
0000
0100
0100
,
1001
0000
0100
0100
,
1001
0000
0110
0000
,
1000
1000
0001
0001
,
2002
0000
0000
0000
,
0000
0000
0000
0000
,
0000
0000
0000
0000
,
0000
0000
3003
0000
,
1000
0000
0010
0000
,
1000
0000
0000
0010
0000
0000
0100
0000
,
0001
0000
0000
0010
0000
0000
0001
0000
,
1000
1000
0001
0001
,
0200
0000
0320
0000
,
2030
0000
3002
0000
,
1003
0100
0010
0001
,
1000
0001
1001
0000
,
0001
0000
0010
0000
,
0001
0000
0000
0010
0000
0000
0100
0000
,
1000
0000
0000
0010
0000
0000
1000
0000
,
0001
0001
1000
1000
,
0200
0000
0320
0000
,
0032
0000
2003
0000
,
3001
0100
0010
1000
,
0001
1000
1001
0000
,
2000
0000
0002
3003
,
0002
0000
2000
3003
,
2000
0000
0002
3003
,
0002
0000
2000
3003
,
2000
3100
0002
0103
,
2000
3010
0002
0013
,
2000
3200
0320
0032
,
0003
0000
0000
0000
,
1001
0010
0100
0100
,
0001
0000
0000
1000
0000
0000
0001
0000
,
0100
0000
0000
0010
0000
0000
0100
0000
,
0001
0000
1000
0000
0001
0010
0001
0000
,
1000
1000
0010
0100
,
0001
0001
0010
0100
,
1000
0000
0001
0000
1000
0010
1000
0000
,
0001
0001
1000
0001
,
1001
0010
0100
0100
,
1000
0000
0000
0001
0000
0000
1000
0000
,
0100
0000
0000
0010
0000
0000
0100
0000
,
1000
0000
0001
0000
1000
0010
1000
0000
,
0001
0001
0010
0100
,
1000
1000
0010
0100
,
0001
0000
1000
0000
0001
0010
0001
0000
,
1000
1000
0001
1000
,
0001
0100
0002
0000
0000
0000
1003
0000
,
0010
0010
0100
0001
,
1000
0100
1000
0000
0001
0100
0001
0000
,
1000
0000
0010
0100
0000
0000
0001
0000
,
1000
0010
2000
0000
0000
0000
3001
0000
,
0100
0010
0200
0000
0000
0000
0301
0000
,
1000
1100
0001
0101
,
1000
1010
0001
0011
,
1000
0100
1000
0000
0001
0100
0001
0000
,
1000
0010
1000
0000
0001
0010
0001
0000
,
2002
0000
0000
3003
,
1001
0000
0000
0000
;

//--------------- dance-single - Fred-104 ----------------
#NOTES:
     dance-single:
     Fred-104:
     Medium:
     12:
     :
0000
0000
0000
0000
,
0000
0000
0000
0000
,
0000
0000
0000
0000
,
0000
0000
0000
0000
,
0000
0000
0000
0000
,
1000
0000
0010
0000
0100
0000
0001
0010
0000
0000
0010
0000
0100
0000
1000
0001
,
0000
0000
0001
0000
0100
0000
0010
0100
0000
0000
0100
0000
0010
0000
1000
0000
,
0001
0100
0010
0100
0001
0010
0100
1000
,
0002
0000
0000
0000
0000
0000
0000
0000
0000
0000
0000
0000
1003
0001
1000
0000
,
0001
0000
0100
0000
0010
0000
0100
0010
0000
0000
1000
0000
0100
0000
0010
0001
,
0000
0000
1000
0000
0001
0000
0100
0010
0000
0000
0100
0000
0001
0000
0010
0001
,
0000
0000
1000
0000
0100
0000
1000
0010
0000
0000
0100
0000
0001
0000
0010
0001
,
0000
0000
1000
0000
0100
0000
1000
0001
0000
0000
0100
0000
0010
0000
0100
0000
,
0001
0001
1000
0000
0100
0010
0001
1000
,
0100
0100
1000
0000
0010
0100
0001
1000
,
1100
0000
0000
0100
0010
0000
0001
0000
0101
0000
0000
0100
0010
0000
1000
0000
,
0001
0200
0310
0200
0301
0010
0100
1000
,
0002
0000
0000
0000
,
0000
0000
0000
0000
,
0000
0000
0000
0000
,
0000
0000
0003
0000
,
2000
3020
0000
0230
0302
2003
0000
3002
,
1003
0000
0000
0100
0000
0000
0010
0000
0000
0001
0000
0000
1000
0000
0010
0000
,
1000
0100
0010
0001
0100
0010
1000
0100
,
1000
0000
0000
0001
0000
0000
0100
0000
0001
0000
0010
0000
0001
0000
1000
0000
,
0002
0023
0230
2300
,
3002
0203
0320
2030
,
3001
0000
0100
0000
0010
1000
0010
0000
,
1100
0101
2002
3003
,
0002
0023
0000
0230
2300
3002
0000
2003
,
3001
0000
0000
0100
0000
0000
0010
0000
0000
1000
0000
0000
0001
0000
0010
0000
,
0001
0100
0010
1000
0100
0010
0001
0100
,
0001
0000
0000
1000
0000
0000
0100
0000
1000
0000
0010
0000
1000
0000
0001
0000
,
2000
3020
0230
0302
,
2003
3200
0320
0032
,
1003
0000
0100
0000
0010
0001
0010
0000
,
0101
1100
2002
3003
,
2100
0100
0200
3300
,
0102
0100
0200
0303
,
2010
0010
0020
3030
,
0012
0010
0020
0033
,
2100
3010
0102
0013
,
1200
0310
0201
0310
,
1100
0110
0011
1001
,
0000
0000
0000
0000
,
0001
0100
0010
0100
0001
1000
0100
0010
,
0001
0000
0000
0010
0000
0000
0001
0000
0000
1000
0000
0000
0010
0000
0100
0000
,
0001
0100
0100
0010
0100
0100
0001
1000
,
0001
0000
0000
0010
0000
0000
0100
0000
1000
0000
0010
0000
0100
0000
0001
0000
,
1000
0100
1000
0100
0001
0100
0001
0100
,
1000
0010
1000
0010
0001
0010
0001
0010
,
2000
0000
3020
0000
0130
0001
1000
0001
,
0020
0100
0130
0110
,
1000
0100
0010
0100
1000
0001
0100
0010
,
1000
0000
0000
0010
0000
0000
1000
0000
0000
0001
0000
0000
0010
0000
0100
0000
,
1000
0100
0100
0010
0100
0100
1000
0001
,
1000
0000
0000
0010
0000
0000
0100
0000
0001
0000
0010
0000
0100
0000
1000
0000
,
0001
0100
0001
0100
1000
0100
1000
0100
,
0001
0010
0001
0010
1000
0010
1000
0010
,
0002
0000
0023
0000
0130
1000
0001
1000
,
0020
0100
0130
0110
,
0010
0100
0020
0000
0000
1030
0010
0100
,
0001
0010
0010
0100
1000
0010
0100
0001
,
1000
0100
0010
0000
0001
1000
0010
0000
,
0100
0001
1000
0002
0000
0000
0003
0000
,
1000
0100
2000
0000
0000
3001
0100
0010
,
0100
0001
0200
0000
0000
0301
1000
0000
,
1100
0000
0000
0100
0010
0000
0000
0000
0101
0000
0000
0100
0010
0000
0000
0000
,
1010
0000
0000
0010
0100
0000
0000
0000
0011
0000
0000
0010
0100
0000
0000
0000
,
1000
0100
1000
0010
0100
0001
1000
0100
,
0010
0001
1000
0010
0100
0100
0001
1000
,
0002
0000
0000
0003
,
1001
0000
0000
0000
;

//--------------- dance-single - Fred-104 ----------------
#NOTES:
     dance-single:
     Fred-104:
     Hard:
     16:
     :
0000
0000
0000
0000
,
0000
0000
0000
0000
,
0000
0000
0000
0000
,
0000
0000
0000
0000
,
0000
0000
0000
0000
,
0001
0000
1000
0000
0010
0000
0100
0010
0000
0100
0010
0000
1000
0000
0001
0100
,
0000
0001
0100
0000
0010
0000
1000
0100
0000
1000
0100
0000
0010
0000
0001
0100
,
0001
0000
0100
0000
0010
0000
1000
0100
0000
1000
0100
0000
0010
0001
0100
0010
,
2000
0000
0000
0000
0010
0000
0000
0000
3001
0000
0000
0000
1000
0001
1000
0001
,
1000
0000
0001
0000
0100
0000
0010
0100
0000
0100
0010
0000
1000
0000
0001
0010
,
0000
0010
0100
0000
1000
0000
0001
0100
0000
0100
0010
0000
1000
0000
0010
0100
,
0010
0000
1000
0000
0100
0000
0010
0001
0000
0001
1000
0000
0001
0000
0100
0010
,
0000
0010
0100
0000
0001
0000
1000
0100
0000
0100
0010
0000
0001
0100
0010
1000
,
0001
0000
0010
0000
0100
0000
1000
0010
0000
0100
0001
0000
1000
0001
0100
0001
,
1000
0000
0100
0000
0010
0000
0100
1000
0000
0001
0100
0000
0010
1000
0001
0100
,
0010
0000
0000
1000
0100
1000
0100
0010
0001
0000
0000
0001
0100
0001
0100
0010
,
1000
0000
0001
0100
0001
0000
1000
0100
1000
0001
0010
0001
0100
0010
1000
0000
,
2002
0000
0000
0000
,
0000
0000
0000
0000
,
0000
0000
0000
0000
,
0000
0000
3003
0000
,
2100
3020
0000
0230
0302
0023
0000
0032
,
1003
0100
0000
0010
0001
0000
1000
0010
0000
0100
0001
0000
1000
0010
0100
0001
,
1000
0100
1000
0100
0010
0000
0001
0100
0001
0100
0010
0000
1000
0010
0100
0000
,
0001
0010
0000
0100
0000
1000
0001
0000
0100
0010
0100
0000
0001
1000
0001
0000
,
1000
0010
1000
0010
1000
0010
1000
0000
0001
0010
0001
0010
0001
0010
0001
0000
,
1000
0100
1000
0100
0010
0100
0010
0100
0010
0001
0010
0001
1000
0001
0100
0010
,
1000
0000
1000
0010
1000
0000
1000
0000
0001
0000
1000
0100
0000
0100
0010
0001
,
0100
0010
0100
0001
1000
0001
1001
0000
,
0102
0023
0000
0230
2300
3020
0000
2030
,
3001
0100
0000
0010
1000
0000
0001
0010
0000
0100
1000
0000
0001
0010
0100
1000
,
0001
0100
0001
0100
0010
0000
1000
0100
1000
0100
0010
0000
0001
0010
0100
0000
,
1000
0010
0000
0100
0000
0001
1000
0000
0100
0010
0100
0000
1000
0001
1000
0000
,
0001
0010
0001
0010
0001
0010
0001
0000
1000
0010
1000
0010
1000
0010
1000
0000
,
0001
0100
0001
0100
0010
0100
0010
0100
0010
1000
0010
1000
0001
1000
0100
0010
,
0001
0000
0001
0010
0001
0000
0001
0000
1000
0000
0001
0100
0000
0100
0010
1000
,
0100
0010
0100
1000
0001
1000
1001
0000
,
2100
0010
0002
3003
,
0102
0010
2000
3003
,
2010
0100
0002
3003
,
0012
0100
2000
3003
,
2100
3010
0102
0013
,
1200
0310
0201
0310
,
1100
0101
1010
0011
,
0000
0000
0000
0000
,
1000
0000
0100
0000
0010
0000
0001
0100
0001
0000
0100
0000
0010
0000
0100
0001
,
1000
0100
0000
0010
0100
0000
1000
0010
0000
0100
0010
0000
1000
0001
0100
0001
,
1000
0100
0010
0001
1000
0000
0001
0100
0010
1000
0001
0000
0100
0010
0100
0000
,
0001
0010
0100
0010
0000
0001
1000
0000
0010
1000
0010
1000
0001
1000
0100
0000
,
0010
0001
1000
0001
0010
0001
1000
0000
0100
1000
0001
1000
0100
1000
0001
0000
,
1000
0000
0010
0100
0010
0000
1000
0100
1000
0000
0001
0100
0001
0000
1000
0000
,
0001
0000
0100
0010
0100
0000
0001
0000
1000
0000
0010
1000
0000
0001
0100
0001
,
2000
0100
3001
1001
,
0001
0000
0100
0000
0010
0000
1000
0100
0010
0000
0001
0000
1000
0000
0001
0100
,
0010
1000
0000
0010
0100
0000
0010
0001
0000
0010
0100
0000
0010
1000
0001
1000
,
0001
1000
0001
1000
0100
0000
0010
0001
0010
0001
1000
0000
0100
1000
0100
0010
,
0001
0100
0010
0100
0000
0001
0100
0000
0010
1000
0001
1000
0100
0010
0001
0000
,
1000
0100
1000
0010
0100
0010
1000
0000
0001
0100
0001
0100
0010
0100
0001
0000
,
1000
0000
0001
0010
0100
0000
0010
0100
1000
0000
0001
1000
0100
0000
1000
0000
,
0001
0000
0100
0010
0100
0000
0001
0000
1000
0000
0001
0010
0000
0010
0100
1000
,
0001
0000
1000
0100
0010
0000
0001
0100
0010
0000
1000
0100
0000
0010
0001
0000
,
1000
0001
0100
0001
2000
0000
0000
0000
0000
0000
3001
0000
1000
0000
0010
0000
,
0100
0000
0001
0100
0001
0100
0010
0100
0001
0000
1000
0100
0010
0100
1000
0000
,
0001
1000
0010
1000
0001
0000
1000
0100
0010
0001
0010
0100
1000
0001
0100
0001
,
0100
0010
0100
0000
0001
0000
2000
0000
0000
0000
3010
0000
1000
0000
0001
0000
,
0100
0010
1000
0010
0200
0000
0000
0000
0000
0000
0301
0100
0010
0100
0001
0100
,
0010
1000
0001
0100
0002
0000
0000
0000
0000
0000
1003
0100
0010
0000
0001
0000
,
1001
0000
0000
1000
0010
0000
0100
0000
0101
0000
0000
0001
0010
0000
0100
0000
,
1100
0000
0000
1000
0001
0000
0010
0000
0011
0000
0000
0001
0100
0000
0010
0000
,
1010
1000
0100
0010
0011
0001
1000
0010
,
1000
0100
1000
0100
0010
0100
0010
0100
0010
0001
0010
0001
0010
0100
1000
0001
,
0200
0000
0000
0000
0000
0000
0000
0000
0310
0000
0000
0100
0000
0010
0000
1000
,
0001
0000
0000
0000
;

//--------------- dance-single - Fred-104 ----------------
#NOTES:
     dance-single:
     Fred-104:
     Challenge:
     18:
     :
0000
0000
0000
0000
,
0000
0000
0000
0000
,
0000
0000
0000
0000
,
0000
0000
0000
0000
,
0000
0000
0000
0000
,
1000
0000
0100
0000
0010
0000
0001
0100
0000
0100
0010
0000
1000
0000
0001
0010
,
0000
0010
0100
0000
1000
0000
0001
0100
0000
0100
0010
0000
1000
0000
0001
1000
,
0001
0010
0100
1000
0010
0100
1000
0100
0001
1000
0010
0001
0010
0100
0001
1000
,
0002
0000
0000
0000
0000
0000
0000
0000
0000
0000
0000
0000
1003
0100
0010
0001
,
1000
0000
0010
0000
0100
0000
0001
0100
0100
1000
0001
0000
1000
0000
0001
1000
,
0010
0010
0001
0000
1000
0000
0001
0100
0100
1000
0010
0000
0100
0000
0001
0010
,
0100
0000
1000
0000
1100
0000
0001
0100
0100
1000
0001
0000
1001
0000
1000
0001
,
0010
0010
1000
0000
1100
0000
0001
0100
0100
1000
0010
0000
0100
0001
1000
0100
,
1000
0000
0100
0000
0010
0001
1000
0001
0000
0100
0010
0000
1000
0100
0001
0100
,
1000
0000
0010
0000
0100
0001
0100
0010
0000
1000
0001
0000
0100
0010
0001
0010
,
1000
0000
0000
0100
0100
0001
0010
0100
1000
0000
0000
0010
0010
0001
0100
0010
,
1000
0000
0000
0000
0000
0000
0001
0000
0100
0000
0010
0000
1000
0000
0000
0000
0000
0000
0001
0000
0010
0000
0100
0000
1000
0000
0000
0001
0000
0000
0100
0000
0000
1000
0000
0000
0100
0000
0000
0010
0000
0000
0100
0000
0000
0001
0000
0000
,
2000
0000
0000
0000
,
0000
0000
0000
0000
,
0000
0000
0000
0000
,
0000
0000
3000
0000
,
2001
0000
3002
0000
0000
0000
0103
0010
0200
0000
0320
0000
0000
0000
0130
0001
,
1000
0001
0100
1000
0100
0010
1000
0100
0001
0100
0010
0001
1000
0001
0100
0010
,
1000
0010
0100
1000
0100
0000
0010
1000
0001
0010
0100
0000
0001
0100
0010
0001
,
1000
0100
0001
0100
0000
0010
0001
0000
1000
0001
0010
0100
0010
0001
0100
0010
,
1000
0100
0010
0001
1000
0100
0010
0001
1000
0010
0100
0001
1000
0010
0100
0001
,
1000
0001
0010
0100
1000
0001
0010
0100
1000
0010
0100
0001
0100
0010
1000
0001
,
0100
0000
0001
1000
0001
0000
0100
0000
0010
0000
1000
0100
0010
0001
0100
0010
,
1000
0100
0002
0000
0103
1000
0020
0000
0130
0001
0020
0000
0130
1000
0002
0003
,
1001
0000
1000
0000
0001
0100
0010
0100
0001
0000
2000
0000
3010
0100
0001
1000
,
0001
0100
0010
0001
0010
1000
0001
0010
0100
0001
0100
1000
0001
0010
0100
1000
,
0001
0010
0100
0001
0100
0000
1000
0010
0100
1000
0100
0000
0001
1000
0100
0010
,
0001
0010
0100
1000
0000
0010
0100
0000
0001
0100
1000
0100
0001
0100
0010
1000
,
0001
0100
0010
1000
0001
1000
0100
0010
0100
1000
0100
0010
1000
0010
0100
1000
,
0001
0100
0010
0100
1000
0100
0001
1000
0001
0010
0100
1000
0010
0100
0001
0010
,
0100
0000
1000
0001
1000
0000
0010
0000
1000
0000
0100
0100
0001
0100
0010
1000
,
0001
0010
2000
0000
3010
0001
0200
0000
0301
0100
2000
0000
3100
0001
0020
0030
,
0120
1030
2200
3300
,
0120
0031
0202
0303
,
2010
3002
0200
0303
,
0012
1000
0200
0303
,
1200
0000
0000
0000
0000
0000
0000
0000
0000
0000
0000
0000
0000
0000
0000
0300
0210
0000
0000
0000
0000
0000
0000
0000
0000
0000
0000
0000
0000
0000
0000
0300
0201
0000
0000
0000
0000
0000
0000
0000
0000
0000
0000
0000
0000
0000
0000
0300
0210
0000
0000
0000
0000
0000
0000
0000
0000
0000
0000
0000
0000
0000
0000
0300
,
1020
0000
0000
0000
0000
0000
0000
0000
0000
0000
0000
0000
0000
0000
0000
0030
0120
0000
0000
0000
0000
0000
0000
0000
0000
0000
0000
0000
0000
0000
0000
0030
0021
0000
0000
0000
0000
0000
0000
0000
0000
0000
0000
0000
0000
0000
0000
0030
0120
0000
0000
0000
0000
0000
0000
0000
0000
0000
0000
0000
0000
0000
0000
0030
,
1020
0000
0000
0000
0000
0000
0000
0000
0000
0000
0000
0000
0000
0000
0000
0030
0210
0000
0000
0000
0000
0000
0000
0000
0000
0000
0000
0000
0000
0000
0000
0300
0102
0000
0000
0000
0000
0000
0000
0000
0000
0000
0000
0000
0000
0000
0000
0003
2001
0000
0000
0000
0000
0000
0000
0000
0000
0000
0000
0000
0000
0000
0000
0000
,
3000
0000
0000
0000
,
1100
0000
0100
0000
0010
0001
1000
0001
0100
0000
0010
0000
1000
0100
0010
0001
,
1000
0010
0100
1000
0100
0001
1000
0001
0010
1000
0010
0100
1000
0001
0100
0010
,
1000
0100
0001
1000
0010
0000
0001
0100
1000
0001
0010
0000
1000
0001
1000
0010
,
0100
0010
1000
0001
0100
0010
1000
0001
1000
0100
0010
0100
1000
0010
0100
0001
,
1000
0100
0010
0100
0001
0100
0010
0100
1000
0010
0100
0010
0001
0010
0100
0010
,
1000
0100
0001
0100
1000
0010
0100
0001
0100
0010
0001
1000
0100
0010
1000
0001
,
1000
0000
0001
1000
0100
0000
0110
0000
0010
0000
0011
0000
0001
1000
0001
0100
,
0002
0000
0000
0000
0100
0000
0000
0000
1003
0000
0000
0000
0001
0100
1000
0100
,
0001
0000
0100
0000
0010
1000
0001
0100
0010
0000
1000
0000
0100
0010
0001
1000
,
0001
0100
1000
0001
0010
0100
0001
0010
0100
0001
1000
0010
0001
1000
0100
0010
,
0001
0100
1000
0001
0010
0000
1000
0100
0001
1000
0010
0000
0001
0100
1000
0100
,
0001
0100
0010
1000
0001
0100
0010
1000
0100
0010
0001
0010
0100
1000
0010
0100
,
0001
0010
1000
0010
0100
1000
0100
0010
0001
1000
0100
0001
0100
0010
0100
1000
,
0001
0100
0010
0001
1000
0100
0001
1000
0001
0010
0100
1000
0010
0001
1000
0100
,
0001
0000
0001
0100
0001
0000
1001
0000
1000
0000
0100
0010
1000
0010
0001
1000
,
0001
0000
1000
0100
0001
0000
0100
1000
0010
0000
0100
0001
0010
0000
0100
0000
,
1000
0100
1000
0100
0020
0000
0000
0000
0030
0000
0011
0000
1010
0000
0001
0000
,
1000
0000
0001
0100
1000
0100
0010
0100
0001
1000
0001
0010
1000
0010
0100
1000
,
0001
0100
1000
0001
0010
0000
0100
0001
1000
0100
0010
1000
0001
0100
1000
0001
,
1000
0100
0010
0001
2000
0000
0000
0000
0000
0000
3000
0000
1100
0000
0101
0000
,
1000
0010
0100
0001
2000
0000
0000
0000
0000
0000
3001
0100
1000
0100
0010
1000
,
0001
0010
0100
1000
0002
0000
0000
0000
0000
0000
0103
0001
1000
0010
0100
0001
,
1000
0000
0100
1000
0010
0000
0110
0000
0101
0000
0001
0010
0100
0000
1100
0000
,
1001
0000
0001
1000
0100
0000
1100
0000
1010
0000
0010
0100
0001
0000
0011
0000
,
1001
0000
0001
0010
0100
0001
1000
0010
0100
0000
1000
0100
0010
1000
0001
0100
,
1000
0100
1000
0100
0001
0100
0001
0100
1000
0010
1000
0010
0001
0010
0001
0010
,
2000
0000
0000
0000
0000
0000
0000
0000
3100
0000
0000
1000
0000
0010
0000
1000
,
1001
0000
0000
0000
;

//--------------- dance-double - Fred-104 ----------------
#NOTES:
     dance-double:
     Fred-104:
     Easy:
     7:
     :
00000000
00000000
00000000
00000000
,
00000000
00000000
00000000
00000000
,
00000000
00000000
00000000
00000000
,
00000000
00000000
00000000
00000000
,
00000000
00000000
00000000
00000000
,
00010000
10000000
00010000
01000000
,
00100000
10000000
01000000
00010000
,
00002000
00003000
00000020
00000030
,
00002002
00000000
00000000
00000000
00003003
00000000
00000001
00001000
,
00000001
00000100
00001000
00010000
,
00001000
00010000
01000000
00100000
,
00010000
10000000
00100000
00010000
,
00001000
00000000
00010000
00000000
00001000
00000000
00000010
00000001
,
00000010
00000000
00000001
00000000
00001000
00000000
00000001
00001000
,
00000001
00000000
00000100
00000000
00000010
00000000
00001000
00000001
,
00001000
00000100
00010000
00001000
,
00100000
00010000
00100000
00000000
00010000
10000000
00010000
00000000
,
20020000
00000000
00000000
00000000
,
00000000
00000000
00000000
00000000
,
00000000
00000000
00000000
00000000
,
00000000
00000000
30030000
00000000
,
20010000
00000000
30200000
00000000
,
01300000
00000000
00000000
00100000
00000000
00000000
10000000
00000000
,
01000000
00000000
00000000
00100000
00000000
00000000
00001000
00000000
,
00010000
00000100
00001000
00000100
,
00000010
00000001
00001000
00000001
,
00000100
00000010
00001000
00000001
,
00000010
00000000
00000100
00000000
,
00000100
00001000
00001001
00000000
,
00001002
00000000
00000023
00000000
,
00000130
00000000
00000000
00000010
00000000
00000000
00000001
00000000
,
00000100
00000000
00000000
00000010
00000000
00000000
00010000
00000000
,
00001000
01000000
00010000
01000000
,
00100000
10000000
00010000
10000000
,
01000000
00100000
00010000
10000000
,
00100000
00000000
01000000
00000000
,
01000000
00010000
10010000
00000000
,
20000000
32000000
03020000
00030000
,
00002000
00003200
00000302
00000003
,
00000002
00000023
00002030
00003000
,
00020000
00230000
20300000
30000000
,
00020000
10030000
00020000
01030000
,
00002000
00013000
00002000
00103000
,
00002000
00013000
00002000
01003000
,
00000000
00000000
00000000
00000000
,
00001001
00000001
00000100
00000010
,
00001000
00000000
00000000
00000100
00000000
00000000
00010000
00000000
,
00001000
00000000
00000000
00100000
00000000
00000000
00001000
00000000
,
00010000
00001000
00100000
01000000
,
10000000
00010000
10000000
01000000
,
00100000
00010000
00100000
00000000
00001000
00010000
00001000
00000000
,
00010000
00000010
00001000
00000010
,
00010000
00001000
00010000
01000000
,
10010000
10000000
01000000
00100000
,
00010000
00000000
00000000
01000000
00000000
00000000
00001000
00000000
,
00010000
00000000
00000000
00000010
00000000
00000000
00010000
00000000
,
00001000
00010000
00000010
00000100
,
00000001
00001000
00000001
00000100
,
00000010
00001000
00000010
00000000
00010000
00001000
00010000
00000000
,
00001000
00100000
00010000
00100000
,
00001000
00000000
00010000
00000000
00001000
00010000
00001000
00000000
,
00010000
00001000
00020000
00000000
00000000
00000000
00030010
00000000
,
00001000
00000010
00001000
00000001
,
00000100
00000001
00001000
00000100
,
00010000
00000000
00000100
00010000
00000000
00000000
00010000
00000000
,
00001000
01000000
00002000
00000000
00000000
00000000
01003000
00000000
,
00010000
10000000
00020000
00000000
00000000
00000000
10030000
00000000
,
01000000
00100000
01000000
00100000
,
00001000
00010000
00000100
00000010
,
00000001
00000100
00001000
00010000
,
00100000
01000000
00010000
10000000
,
20020000
00000000
00000000
30030000
,
10010000
00000000
00000000
00000000
;

//--------------- dance-double - Fred-104 ----------------
#NOTES:
     dance-double:
     Fred-104:
     Medium:
     11:
     :
00000000
00000000
00000000
00000000
,
00000000
00000000
00000000
00000000
,
00000000
00000000
00000000
00000000
,
00000000
00000000
00000000
00000000
,
00000000
00000000
00000000
00000000
,
00001000
00000000
00010000
00000000
00100000
00000000
00000000
10000000
00000000
00000000
00010000
00000000
00100000
00000000
00000000
01000000
,
00000000
00000000
10000000
00000000
00100000
00000000
00000000
00010000
00000000
00000000
00001000
00000000
00010000
00000000
00001000
00000000
,
00000010
00000000
00000001
00000000
00000010
00000000
00000000
00000100
00000000
00000000
00010000
00000000
00001000
00010000
00001000
00010000
,
00002000
00000000
00000000
00013000
,
00001000
00000000
00010000
00000000
00001000
00000000
00100000
00010000
00000000
00000000
01000000
00000000
00100000
00000000
01000000
00010000
,
00000000
00000000
10000000
00000000
01000000
00000000
00100000
00010000
00000000
00000000
01000000
00000000
00001000
00000000
00010000
00000000
,
00000100
00000000
00001000
00000000
00000100
00000000
00000010
00000100
00000000
00000000
00000010
00000000
00000001
00000000
00001000
00000001
,
00000000
00000000
00000100
00000000
00000010
00000000
00001000
00000001
00000000
00000000
00000010
00000000
00000100
00000000
00010000
00000000
,
00011000
00000000
00001000
00000000
00100000
00000000
00010000
10000000
,
10100000
00000000
01000000
00000000
00001000
00000000
00010000
00000100
,
00010100
00000000
00000000
00000100
00001000
00000000
00000010
00000000
00000110
00000000
00000000
00000100
00000001
00000000
00001000
00000000
,
00000001
00000100
00001000
00010000
01000000
10000000
01000000
00000000
,
20020000
00000000
00000000
00000000
,
00000000
00000000
00000000
00000000
,
00000000
00000000
00000000
00000000
,
00000000
00000000
30030000
00000000
,
20000000
32000000
00000000
03200000
00302000
00023000
00000000
00031000
,
00010000
00000000
00000000
00001000
00000000
00000000
00000010
00000000
00000000
00001000
00000000
00000000
00010000
00000000
00000010
00000000
,
00001000
00000010
00000010
00000001
00000010
00000010
00001000
00000001
,
00000100
00000000
00000000
00000010
00000000
00000000
00000100
00000000
00000001
00000000
00000010
00000000
00000100
00000000
00010000
00000000
,
00002000
00023000
00030200
00020300
,
00032000
02003000
03020000
20030000
,
30010000
00000000
10000000
00000000
01000000
00100000
00001000
00000000
,
00010000
00000100
00001000
00000000
,
00000002
00000203
00000000
00000320
00020030
00032000
00000000
00013000
,
00001000
00000000
00000000
00010000
00000000
00000000
00100000
00000000
00000000
00010000
00000000
00000000
00001000
00000000
00100000
00000000
,
00010000
00100000
00100000
10000000
00100000
00100000
00010000
10000000
,
01000000
00000000
00000000
00100000
00000000
00000000
01000000
00000000
10000000
00000000
00100000
00000000
01000000
00000000
00001000
00000000
,
00020000
00032000
02003000
03002000
,
00023000
00030200
00002300
00003002
,
00001003
00000000
00000001
00000000
00000100
00000010
00010000
00000000
,
00001000
01000000
00010000
00000000
,
02100000
00100000
00200000
03300000
,
00012000
00010000
00020000
00033000
,
00000120
00000100
00000200
00000330
,
00021000
00001000
00002000
00033000
,
00012000
00103000
00021000
00030010
,
00012000
01003000
00021000
00030100
,
00012000
00013000
00021000
00031000
,
00000000
00000000
00000000
00000000
,
00001000
00100000
01000000
10000000
00010000
01000000
00100000
01000000
,
00010000
00000000
00000000
00100000
00000000
00000000
01000000
00000000
00000000
10000000
00000000
00000000
00010000
00000000
01000000
00000000
,
00010000
01000000
01000000
10000000
01000000
01000000
00010000
10000000
,
01000000
00000000
00000000
00100000
00000000
00000000
00001000
00000000
00010000
00000000
00000100
00000000
00010000
00000000
00000000
00000000
,
00000100
00001000
00000100
00001000
00000010
00000100
00000001
00000010
,
00000200
00000320
00000032
00002003
,
00003001
00000100
00001000
00000000
00010000
01000000
10000000
00010000
,
01000000
00001000
00010000
00011000
,
00010000
00001000
00000100
00000010
00001000
00000100
00000010
00000100
,
00001000
00000000
00000000
00000010
00000000
00000000
00000100
00000000
00000000
00000001
00000000
00000000
00001000
00000000
00000100
00000000
,
00001000
00000100
00000100
00000001
00000100
00000100
00001000
00000001
,
00000100
00000000
00000000
00000010
00000000
00000000
00010000
00000000
00001000
00000000
01000000
00000000
00001000
00000000
00000000
00000000
,
00100000
00010000
01000000
00010000
00100000
01000000
10000000
00100000
,
02000000
03200000
20300000
30020000
,
10030000
01000000
00010000
00000000
00001000
00000010
00000001
00000100
,
00001000
00010000
00001000
00011000
,
00010000
00001000
00020000
00000000
00000000
00031000
00100000
00001000
,
00100000
00010000
00100000
01000000
10000000
00010000
01000000
00000000
,
00010000
01000000
01000000
10000000
01000000
01000000
00010000
00000000
,
00100000
00001000
00010000
00002000
00000000
00000000
00003100
00000000
,
00000001
00001000
00000200
00000000
00000300
00001000
00000010
00000100
,
00001000
00010000
00002000
00000000
00003000
00000000
00011000
00000000
,
00001000
00010000
01000000
00000000
00010000
00001000
00000100
00000000
,
00001000
00010000
00100000
00000000
00010000
00001000
00000010
00000000
,
00001000
00010000
00100000
01000000
00010000
10000000
01000000
00100000
,
00001000
00010000
00000100
00001000
00000001
00000100
00000010
00001000
,
00000002
00000000
00000000
00000003
,
00001001
00000000
00000000
00000000
;

//--------------- dance-double - Fred-104 ----------------
#NOTES:
     dance-double:
     Fred-104:
     Hard:
     16:
     :
00000000
00000000
00000000
00000000
,
00000000
00000000
00000000
00000000
,
00000000
00000000
00000000
00000000
,
00000000
00000000
00000000
00000000
,
00000000
00000000
00000000
00000000
,
00001000
00000000
00010000
00000000
00000100
00000000
00000010
00000001
00000000
00000001
00001000
00000000
00000010
00000000
00000100
00000001
,
00000000
00000001
00000010
00000000
00000100
00000000
00010000
00001000
00000000
00001000
00100000
00000000
00010000
00000000
01000000
00100000
,
10000000
00000000
00010000
00000000
00100000
00000000
01000000
10000000
00000000
10000000
00010000
00000000
01000000
00100000
10000000
00100000
,
20000000
00100000
30010000
10010000
,
10000000
00000000
01000000
00000000
00010000
00000000
00001000
00010000
00000000
00001000
00000100
00000000
00000001
00000000
00000100
00000010
,
00000000
00001000
00000001
00000000
00000100
00000000
00000001
00000010
00000000
00001000
00000010
00000000
00000001
00000000
00000100
00000010
,
00001000
00000000
00000001
00000000
00000010
00000000
00000100
00010000
00000000
00001000
00100000
00000000
00010000
00000000
00100000
01000000
,
00000000
10000000
01000000
00000000
00010000
00000000
01000000
10000000
00000000
00010000
10000000
00000000
00100000
01000000
00010000
00100000
,
01000000
00000000
10000000
00000000
00010000
00000000
10000000
01000000
00000000
01000000
00100000
00000000
00001000
00010000
00001000
00010000
,
00001000
00000000
00010000
00000000
00001000
00000000
00000010
00000001
00000000
00000010
00000100
00000000
00001000
00000001
00001000
00000001
,
00001000
00000000
00000000
00000001
00000010
00000100
00000010
00000100
00010000
00000000
00000000
00001000
00100000
00010000
00100000
00010000
,
01000000
00000000
00100000
01000000
00100000
00000000
10000000
00010000
01000000
00100000
10000000
01000000
00100000
00001000
00010000
00000000
,
00022000
00000000
00000000
00000000
,
00000000
00000000
00000000
00000000
,
00000000
00000000
00000000
00000000
,
00000000
00000000
00033000
00000000
,
00012000
00023000
00000000
00032000
00003200
00000320
00000000
00002030
,
00003001
00000010
00000000
00000010
00000100
00000000
00000100
00001000
00000000
00001000
00000010
00000000
00000100
00000001
00000100
00000001
,
00001000
00000100
00010000
00001000
00010000
00000000
00001000
00010000
00001000
00100000
00010000
00000000
10000000
00100000
01000000
00000000
,
00010000
00100000
00000000
01000000
00000000
10000000
00010000
00000000
01000000
00100000
01000000
00000000
00010000
10000000
00010000
00000000
,
10000000
01000000
10000000
00000000
00100000
01000000
00100000
00000000
01000000
00010000
01000000
00000000
00001000
00010000
00001000
00000000
,
00010000
00000100
00001000
00000100
00010000
00000100
00001000
00000000
00000010
00000100
00000001
00000100
00000010
00000100
00000001
00000000
,
00001000
00000000
00000100
00000010
00000001
00000000
00001000
00000000
00000010
00000000
00000100
00000001
00000000
00000001
00000100
00000010
,
00001000
00000000
00000100
00010000
00001000
00000000
00100000
00010000
01000000
00000000
00001000
00010000
00001000
00000000
00010000
00000000
,
00012000
00023000
00000000
00032000
00023000
02030000
00000000
03200000
,
00310000
10000000
00000000
00100000
01000000
00000000
01000000
00010000
00000000
00010000
00100000
00000000
01000000
10000000
01000000
10000000
,
00010000
01000000
00001000
00010000
00001000
00000000
00010000
00001000
00010000
00000010
00001000
00000000
00000001
00000010
00000100
00000000
,
00001000
00000010
00000000
00000100
00000000
00000001
00001000
00000000
00000100
00000010
00000100
00000000
00001000
00000001
00001000
00000000
,
00000001
00000100
00000001
00000000
00000100
00000010
00000100
00000000
00000010
00001000
00000010
00000000
00010000
00001000
00010000
00000000
,
00001000
01000000
00010000
01000000
00001000
01000000
00010000
00000000
00100000
01000000
10000000
01000000
00100000
01000000
10000000
00000000
,
00010000
00000000
01000000
00100000
10000000
00000000
00010000
00000000
00100000
00000000
01000000
10000000
00000000
10000000
01000000
00100000
,
00010000
00000000
01000000
00001000
00010000
00000000
00000010
00001000
00000100
00000000
00010000
00001000
00010000
00000000
00001000
00000000
,
00012000
00000010
00200000
00303000
,
00012000
00100000
00000020
00003030
,
00021000
01000000
00000200
00030300
,
00021000
00000100
02000000
03030000
,
00012000
00103000
00021000
00030010
,
00012000
01003000
00021000
00030100
,
00011000
00101000
00011000
00010010
,
00000000
00000000
00000000
00000000
,
00011000
00000000
00010000
00000000
00000100
00000000
00001000
00000010
00001000
00000000
00000001
00000000
00000010
00000000
00000100
00000000
,
00001000
00000010
00000000
00000010
00000100
00000000
00000100
00000001
00000000
00000001
00000010
00000000
00000001
00001000
00000001
00000000
,
00000100
00000010
00000100
00000010
00000100
00000000
00000001
00000100
00000001
00000100
00000001
00000000
00001000
00000010
00001000
00000000
,
00000001
00000100
00000010
00001000
00000000
00000100
00010000
00000000
00001000
00100000
00010000
00000000
10000000
01000000
00100000
00000000
,
00010000
01000000
00100000
00000000
00010000
00001000
00010000
00000000
00001000
00000010
00000001
00000000
00000010
00000100
00001000
00000000
,
00000001
00000100
00001000
00000000
00000100
00000001
00001000
00000000
00000010
00001000
00000100
00000000
00000010
00000001
00000100
00000000
,
00000010
00000000
00001000
00000001
00000100
00000000
00000010
00000000
00000100
00000000
00001000
00010000
00000000
00100000
01000000
00010000
,
20000000
00000000
00000000
00000000
01000000
00000000
00000000
00000000
30010000
00000000
01000000
00001000
00010000
00001000
00010000
00000000
,
00011000
00000000
00001000
00000000
01000000
00000000
00010000
00100000
00010000
00000000
10000000
00000000
00100000
00000000
01000000
00000000
,
00010000
00100000
00000000
00100000
01000000
00000000
01000000
10000000
00000000
10000000
00100000
00000000
10000000
00010000
10000000
00000000
,
01000000
00100000
01000000
00100000
01000000
00000000
10000000
01000000
10000000
01000000
10000000
00000000
00010000
00100000
00010000
00000000
,
10000000
01000000
00100000
00010000
00000000
01000000
00001000
00000000
00010000
00000010
00001000
00000000
00000001
00000010
00000100
00000000
,
00001000
00000001
00000100
00000000
00001000
00010000
01000000
00000000
10000000
01000000
00100000
00000000
00001000
00010000
00001000
00000000
,
00000010
00000001
00000010
00000000
00000100
00001000
00000100
00000000
00010000
00001000
00100000
00000000
00010000
10000000
00100000
00000000
,
01000000
00000000
01000000
00010000
10000000
00000000
01000000
00000000
00100000
00000000
00001000
00010000
00000000
00000010
00001000
00000001
,
00001000
00000000
00000001
00000100
00000001
00000000
00000100
00000000
00000010
00000000
00010000
00001000
00000000
00010000
00001000
00000000
,
00100000
00010000
00100000
00010000
00200000
00000000
00000000
00000000
00000000
00000000
00310000
00000000
10000000
00000000
00100000
00000000
,
01000000
00000000
00001000
00010000
00001000
00010000
00001000
00000000
00010000
00000010
00010000
00000000
00000010
00001000
00000010
00000000
,
00001000
00000001
00000010
00000001
00001000
00000000
00000001
00000010
00000100
00000010
00000001
00000000
00001000
00000010
00000100
00000000
,
00000001
00000010
00000100
00001000
00000200
00000000
00000000
00000000
00000000
00000000
00000000
00000000
00010300
00000000
00001000
00000000
,
00010000
00001000
00010000
00001000
00020000
00000000
00000000
00000000
00000000
00000000
00031000
00100000
00010000
10000000
00100000
01000000
,
00010000
00100000
00001000
00010000
00002000
00000000
00000000
00000000
00000000
00000000
00013000
00001000
00010000
00000000
00001000
00000000
,
00011000
00000000
00000000
00001000
00100000
00000000
01000000
00000000
11000000
00000000
00000000
10000000
00100000
00000000
01000000
00000000
,
01010000
00000000
00000000
01000000
00001000
00000000
00010000
00000000
00010100
00000000
00000000
00000100
00001000
00000000
00000010
00000000
,
00000100
00000000
00000001
00000010
00000100
00000000
00000010
00000000
00000001
00000000
00001000
00000010
00000100
00000000
00000001
00000000
,
00000100
00000001
00000100
00000001
00001000
00000100
00001000
00000100
00010000
00001000
00010000
00001000
00010000
00000010
00001000
00000010
,
00020000
00000000
00000000
00000000
00000000
00000000
00000000
00000000
00031000
00000000
00000000
00010000
00000000
01000000
00000000
00100000
,
00010000
00000000
00000000
00000000
;

//--------------- dance-double - Fred-104 ----------------
#NOTES:
     dance-double:
     Fred-104:
     Challenge:
     18:
     :
00000000
00000000
00000000
00000000
,
00000000
00000000
00000000
00000000
,
00000000
00000000
00000000
00000000
,
00000000
00000000
00000000
00000000
,
00000000
00000000
00000000
00000000
,
00010000
00000000
00001000
00000000
00010000
00000000
00000100
00001000
00000000
00000010
00001000
00000000
00000100
00000000
00010000
00001000
,
00000000
00100000
00001000
00000000
00010000
00000000
00001000
00100000
00000000
00010000
01000000
00000000
00010000
00000000
10000000
01000000
,
01000000
00010000
10000000
00010000
01000000
00100000
10000000
00100000
00100000
00010000
10000000
01000000
00100000
00001000
00001000
00000010
,
00020000
00000000
00000000
00000000
00000000
00000000
00000000
00000000
00000000
00000000
00000000
00000000
00031000
00010000
00001000
00010000
,
00001000
00000000
00010000
00000000
00000010
00000000
00001000
00000100
00000100
00000001
00001000
00000000
00000001
00000000
00001000
00000001
,
00000010
00000010
00001000
00000000
00000001
00000000
00001000
00000001
00000100
00000100
00001000
00000000
00000001
00000000
00000100
00000010
,
00001000
00000000
00000100
00000000
00010000
00000000
00000100
00010000
00010000
01000000
00001000
00000000
00010000
00000000
00000100
00001000
,
00001000
01000000
00010000
00000000
01000000
00000000
00001000
00001000
00000100
00010000
00001000
00000000
00010000
00001000
00010000
00001000
,
00100000
00000000
00010000
00000000
10000000
01000000
00100000
00010000
00000000
10000000
00100000
00000000
01000000
00010000
00100000
00010000
,
01000000
00000000
00010000
00000000
00100000
00001000
00010000
00001000
00000000
01000000
00001000
00000000
00010000
00001000
00000010
00000001
,
00000010
00000000
00000000
00000001
00000100
00001000
00010000
00100000
10000000
00000000
00000000
10000000
01000000
00010000
00001000
00000010
,
00000001
00000000
00002000
00003010
00000100
00000000
00000002
00000013
00000100
00000010
00000001
00001000
00000010
00010000
00001000
00100000
,
00002000
00000000
00000000
00000000
,
00000000
00000000
00000000
00000000
,
00000000
00000000
00000000
00000000
,
00000000
00000000
00003000
00000000
,
00012000
00000000
00023000
00000000
00000000
00000000
00130000
00010000
20000000
00000000
32000000
00000000
00000000
00000000
03100000
00010000
,
10000000
01000000
00000000
01000000
00100000
00000000
00100000
00001000
00000000
00001000
00010000
00000000
00000100
00001000
00000100
00000010
,
00000001
00000100
00000001
00000100
00001000
00000000
00001000
00000100
00001000
00000100
00000001
00000000
00000001
00000100
00000010
00001000
,
00000001
00000010
00000100
00000010
00000000
00000001
00000100
00000000
00000010
00001000
00000001
00000010
00000100
00010000
00001000
00000000
,
00010000
00001000
00010000
00000010
00010000
00001000
00010000
00000000
00001000
00010000
00001000
01000000
00001000
00010000
00001000
00000000
,
00100000
00010000
00100000
01000000
10000000
00010000
01000000
00100000
01000000
00010000
00100000
01000000
10000000
00100000
01000000
00010000
,
10000000
00000000
00100000
01000000
00100000
00000000
10000000
00000000
01000000
00000000
00100000
00100000
10000000
00010000
01000000
00001000
,
00010000
00001000
00010000
00000000
00000100
00010000
00000100
00000000
00010000
00001000
00010000
00000000
00001000
00010000
00001000
00000000
,
00021000
00000000
00032000
00000000
00000000
00000000
00003010
00000001
00000020
00000000
00000230
00000000
00000000
00000000
00001300
00000001
,
00000100
00000001
00000000
00001000
00000100
00000000
00010000
00001000
00000000
10000000
00010000
00000000
01000000
00010000
01000000
00100000
,
10000000
01000000
10000000
01000000
00010000
00000000
00010000
01000000
00010000
01000000
10000000
00000000
10000000
01000000
00100000
00010000
,
10000000
00100000
01000000
00100000
00000000
10000000
01000000
00000000
00100000
00010000
10000000
00100000
01000000
00001000
00010000
00000000
,
00001000
00010000
00001000
00100000
00001000
00010000
00001000
00000000
00010000
00001000
00010000
00000100
00010000
00001000
00010000
00000000
,
00000010
00001000
00000010
00000100
00000001
00001000
00000100
00000010
00000100
00001000
00000001
00000100
00000001
00000010
00000100
00001000
,
00000001
00000000
00000010
00000100
00000010
00000000
00000001
00000000
00000100
00000000
00000010
00000010
00000001
00000010
00000100
00010000
,
00001000
00010000
00001000
00000000
01000000
00001000
01000000
00000000
00001000
00010000
00001000
00000000
00010000
00001000
00010000
00000000
,
00012000
00100000
02000000
03003000
,
00021000
00000100
00000020
00030030
,
00012000
01000000
00200000
00303000
,
00021000
00000010
00000200
00030300
,
00012000
00000000
00000000
00000000
00000000
00000000
00000000
00000000
00000000
00000000
00000000
00000000
00000000
00000000
00000000
00003000
00002010
00000000
00000000
00000000
00000000
00000000
00000000
00000000
00000000
00000000
00000000
00000000
00000000
00000000
00000000
00003000
00021000
00000000
00000000
00000000
00000000
00000000
00000000
00000000
00000000
00000000
00000000
00000000
00000000
00000000
00000000
00030000
01020000
00000000
00000000
00000000
00000000
00000000
00000000
00000000
00000000
00000000
00000000
00000000
00000000
00000000
00000000
00030000
,
00021000
00000000
00000000
00000000
00000000
00000000
00000000
00000000
00000000
00000000
00000000
00000000
00000000
00000000
00000000
00030000
00020010
00000000
00000000
00000000
00000000
00000000
00000000
00000000
00000000
00000000
00000000
00000000
00000000
00000000
00000000
00030000
00012000
00000000
00000000
00000000
00000000
00000000
00000000
00000000
00000000
00000000
00000000
00000000
00000000
00000000
00000000
00003000
01002000
00000000
00000000
00000000
00000000
00000000
00000000
00000000
00000000
00000000
00000000
00000000
00000000
00000000
00000000
00003000
,
00021000
10030000
00012000
00003001
,
00000000
00000000
00000000
00000000
,
00001000
00000000
00000100
00000000
00000010
00000001
00001000
00000001
00000100
00000000
00000010
00000000
00001000
00000010
00010000
00001000
,
00010000
00001000
00000000
00000100
00001000
00000000
00010000
01000000
00000000
00010000
00001000
00000000
00010000
00001000
00100000
00010000
,
10000000
01000000
01000000
00010000
10000000
00000000
00010000
01000000
01000000
10000000
00010000
00000000
10000000
01000000
00100000
00001000
,
00010000
00000100
00001000
00000100
00000010
00000001
00000010
00000100
00010000
00001000
00000100
00000001
00000100
00000010
00001000
00000000
,
00000001
00000010
00000100
00001000
00000001
00000100
00000010
00001000
00000001
00000010
00000100
00000010
00000001
00001000
00000010
00010000
,
00001000
00100000
00001000
00010000
00001000
00100000
00010000
10000000
00100000
01000000
00010000
10000000
01000000
00100000
00001000
00000000
,
00011000
00000000
00010000
00000100
00001000
00000000
00000010
00000000
00000100
00000000
00000001
00000010
00000100
00010000
00001000
00100000
,
02000000
00000000
00000000
00000000
00100000
00000000
00000000
00000000
13000000
00000000
00000000
00000000
00010000
01000000
00100000
10000000
,
02000000
03000000
00000000
00000000
00000000
00000000
00000000
00000000
02000000
03000000
00000000
00000000
00000000
00000000
00000000
00000000
00100000
00000000
00000000
00000000
10000000
00000000
00000000
00000000
00010000
00000000
00000000
00000000
10000000
00000000
00000000
00000000
01000000
00000000
00000000
00000000
00000000
00000000
00000000
00000000
00100000
00000000
00000000
00000000
00000000
00000000
00000000
00000000
00010000
00000000
00000000
00000000
00100000
00000000
00000000
00000000
00001000
00000000
00000000
00000000
00010000
00000000
00000000
00000000
,
00001000
00010000
00000000
01000000
00010000
00000000
00001000
00000100
00000000
00001000
00010000
00000000
00001000
00010000
00000010
00001000
,
00000001
00000100
00000100
00001000
00000001
00000000
00001000
00000100
00000100
00000001
00001000
00000000
00000001
00000100
00000010
00010000
,
00001000
01000000
00010000
01000000
00001000
01000000
00010000
01000000
00001000
01000000
00010000
00100000
01000000
10000000
00010000
00000000
,
10000000
00100000
01000000
00010000
10000000
01000000
00100000
00010000
10000000
00100000
01000000
00100000
10000000
00010000
00100000
00001000
,
00010000
00000010
00010000
00001000
00010000
00000010
00001000
00000001
00000010
00000100
00001000
00000001
00000100
00001000
00010000
00000000
,
00011000
00000000
00001000
01000000
00010000
00000000
00100000
00000000
01000000
00000000
10000000
00100000
01000000
00001000
00010000
00000010
,
00000100
00000000
00000001
00001000
00000100
00000000
00000010
00000001
00000100
00000000
00000010
00001000
00000001
00000000
00000001
00000000
,
00000100
00000010
00000100
00000010
00000200
00000000
00000000
00000000
00000300
00000000
00001100
00000000
00000110
00000000
00000001
00000000
,
00001000
00000000
00000001
00000100
00000010
00001000
00000001
00001000
00000100
00000010
00001000
00010000
01000000
10000000
01000000
00100000
,
00010000
10000000
00100000
00100000
00010000
00000000
10000000
00010000
01000000
01000000
10000000
00100000
01000000
00010000
10000000
01000000
,
00100000
00001000
00010000
00001000
02000000
00000000
00010000
00000000
00000000
00000000
03010000
00000000
01010000
00000000
01001000
00000000
,
00001000
00010000
00000100
00010000
00002000
00000000
00000000
00000000
00000000
00000000
00013000
00001000
00000010
00000001
00000010
00000100
,
00010000
00001000
00000100
00000001
00002000
00000000
00000000
00000000
00000000
00000000
00003010
00000010
00000001
00000100
00000010
00001000
,
00000001
00000000
00000010
00000001
00000100
00000000
00000110
00000000
00000010
00000000
00001000
00000100
00010000
00000000
00011000
00000000
,
00001000
00000000
00100000
00010000
10000000
00000000
10100000
00000000
01000000
00000000
00010000
10000000
01000000
00000000
01100000
00000000
,
00010000
00000000
10000000
01000000
00010000
01000000
10000000
01000000
00100000
00000000
00001000
00010000
00001000
00100000
00001000
00010000
,
00000100
00001000
00000010
00000100
00000001
00001000
00000100
00001000
00000001
00000010
00000100
00001000
00010000
00100000
01000000
10000000
,
00020000
00000000
00000000
00000000
00000000
00000000
00000000
00000000
10030000
00000000
00000000
01000000
00000000
00010000
00000000
00001000
,
00011000
00000000
00000000
00000000
;
